osu file format v14

[General]
AudioFilename: pacific.ogg
AudioLeadIn: 0
PreviewTime: 256975
Countdown: 0
SampleSet: Soft
StackLeniency: 0.7
Mode: 3
LetterboxInBreaks: 0
SpecialStyle: 0
WidescreenStoryboard: 0

[Editor]
DistanceSpacing: 0.8
BeatDivisor: 4
GridSize: 16
TimelineZoom: 2.5

[Metadata]
Title:Pacific Girls
TitleUnicode:Pacific Girls
Artist:DJ SHARPNEL
ArtistUnicode:DJ SHARPNEL
Creator:MapleSyrup-
Version:Sink to the deep sea world
Source:艦隊これくしょん
Tags:オタクスピードバイブ OTAKUSPEEDVIBE Sharpnelsound Jea Ryuta Nakagami 仲上竜太 Lemmy SRPC-0030 艦隊これくしょん -艦これ- KanColle Original Sound Track 暁 Akatsuki KACC-5193 Home Port 母港 Electronic Japanese J-Core Soundtrack c83 comiket83 comic market 83 コミックマーケット83 コミケ83 Chordstream Stamina OST
BeatmapID:3456870
BeatmapSetID:1691734

[Difficulty]
HPDrainRate:8
CircleSize:7
OverallDifficulty:8
ApproachRate:5
SliderMultiplier:1.4
SliderTickRate:1

[Events]
//Background and Video events
0,0,"pacific-bg.jpg",0,0
//Break Periods
//Storyboard Layer 0 (Background)
//Storyboard Layer 1 (Fail)
//Storyboard Layer 2 (Pass)
//Storyboard Layer 3 (Foreground)
//Storyboard Layer 4 (Overlay)
//Storyboard Sound Samples

[TimingPoints]
975,307.692307692308,4,2,1,60,1,0

[HitObjects]
475,192,975,5,0,0:0:0:0:
36,192,975,1,0,0:0:0:0:
109,192,975,1,0,0:0:0:0:
256,192,975,1,0,0:0:0:0:
329,192,975,1,0,0:0:0:0:
182,192,1128,1,0,0:0:0:0:
402,192,1128,1,0,0:0:0:0:
475,192,1282,1,0,0:0:0:0:
329,192,1282,1,0,0:0:0:0:
109,192,1282,1,0,0:0:0:0:
36,192,1282,1,0,0:0:0:0:
402,192,1359,1,0,0:0:0:0:
256,192,1359,1,0,0:0:0:0:
329,192,1436,1,0,0:0:0:0:
182,192,1436,1,0,0:0:0:0:
109,192,1513,1,0,0:0:0:0:
256,192,1513,1,0,0:0:0:0:
182,192,1590,1,0,0:0:0:0:
36,192,1590,1,0,0:0:0:0:
402,192,1590,1,0,0:0:0:0:
36,192,1744,1,0,0:0:0:0:
256,192,1744,1,0,0:0:0:0:
475,192,1744,1,0,0:0:0:0:
402,192,1898,1,0,0:0:0:0:
256,192,1898,1,0,0:0:0:0:
475,192,1898,1,0,0:0:0:0:
109,192,1898,1,0,0:0:0:0:
329,192,1975,1,0,0:0:0:0:
182,192,1975,1,0,0:0:0:0:
256,192,2051,1,0,0:0:0:0:
109,192,2051,1,0,0:0:0:0:
182,192,2128,1,0,0:0:0:0:
36,192,2128,1,0,0:0:0:0:
109,192,2205,1,0,0:0:0:0:
475,192,2205,1,0,0:0:0:0:
329,192,2205,1,0,0:0:0:0:
402,192,2359,1,0,0:0:0:0:
256,192,2359,1,0,0:0:0:0:
329,192,2513,1,0,0:0:0:0:
182,192,2513,1,0,0:0:0:0:
475,192,2513,1,0,0:0:0:0:
36,192,2513,1,0,0:0:0:0:
256,192,2590,1,0,0:0:0:0:
109,192,2590,1,0,0:0:0:0:
36,192,2667,1,0,0:0:0:0:
182,192,2667,1,0,0:0:0:0:
256,192,2744,1,0,0:0:0:0:
109,192,2744,1,0,0:0:0:0:
182,192,2821,1,0,0:0:0:0:
329,192,2821,1,0,0:0:0:0:
256,192,2898,1,0,0:0:0:0:
402,192,2898,1,0,0:0:0:0:
329,192,2975,1,0,0:0:0:0:
475,192,2975,1,0,0:0:0:0:
36,192,2975,1,0,0:0:0:0:
36,192,3128,1,0,0:0:0:0:
475,192,3128,1,0,0:0:0:0:
402,192,3128,1,0,0:0:0:0:
182,192,3128,1,0,0:0:0:0:
256,192,3282,1,0,0:0:0:0:
109,192,3282,1,0,0:0:0:0:
182,192,3359,1,0,0:0:0:0:
36,192,3359,1,0,0:0:0:0:
109,192,3436,1,0,0:0:0:0:
329,192,3436,1,0,0:0:0:0:
475,192,3436,1,0,0:0:0:0:
329,192,3590,1,0,0:0:0:0:
182,192,3590,1,0,0:0:0:0:
182,192,3744,1,0,0:0:0:0:
402,192,3744,1,0,0:0:0:0:
475,192,3744,1,0,0:0:0:0:
256,192,3744,1,0,0:0:0:0:
109,192,3821,1,0,0:0:0:0:
329,192,3821,1,0,0:0:0:0:
256,192,3898,1,0,0:0:0:0:
36,192,3898,1,0,0:0:0:0:
182,192,3975,1,0,0:0:0:0:
402,192,3975,1,0,0:0:0:0:
329,192,4051,1,0,0:0:0:0:
109,192,4051,1,0,0:0:0:0:
36,192,4051,1,0,0:0:0:0:
109,192,4205,1,0,0:0:0:0:
256,192,4205,1,0,0:0:0:0:
475,192,4205,1,0,0:0:0:0:
36,192,4359,1,0,0:0:0:0:
475,192,4359,1,0,0:0:0:0:
256,192,4359,1,0,0:0:0:0:
402,192,4359,1,0,0:0:0:0:
329,192,4436,1,0,0:0:0:0:
182,192,4436,1,0,0:0:0:0:
256,192,4513,1,0,0:0:0:0:
109,192,4513,1,0,0:0:0:0:
182,192,4590,1,0,0:0:0:0:
36,192,4590,1,0,0:0:0:0:
329,192,4667,1,0,0:0:0:0:
475,192,4667,1,0,0:0:0:0:
402,192,4667,1,0,0:0:0:0:
329,192,4821,1,0,0:0:0:0:
182,192,4821,1,0,0:0:0:0:
182,192,4975,1,0,0:0:0:0:
36,192,4975,1,0,0:0:0:0:
109,192,4975,1,0,0:0:0:0:
402,192,4975,1,0,0:0:0:0:
329,192,5051,1,0,0:0:0:0:
475,192,5051,1,0,0:0:0:0:
402,192,5128,1,0,0:0:0:0:
256,192,5128,1,0,0:0:0:0:
329,192,5205,1,0,0:0:0:0:
182,192,5205,1,0,0:0:0:0:
256,192,5282,1,0,0:0:0:0:
109,192,5282,1,0,0:0:0:0:
182,192,5359,1,0,0:0:0:0:
36,192,5359,1,0,0:0:0:0:
109,192,5436,1,0,0:0:0:0:
256,192,5436,1,0,0:0:0:0:
402,192,5436,1,0,0:0:0:0:
475,192,5590,1,0,0:0:0:0:
402,192,5590,1,0,0:0:0:0:
36,192,5590,1,0,0:0:0:0:
329,192,5590,1,0,0:0:0:0:
36,192,5744,1,0,0:0:0:0:
475,192,5744,1,0,0:0:0:0:
182,192,5744,1,0,0:0:0:0:
182,192,5898,1,0,0:0:0:0:
329,192,5898,1,0,0:0:0:0:
109,192,5898,1,0,0:0:0:0:
402,192,5898,1,0,0:0:0:0:
329,192,6051,1,0,0:0:0:0:
256,192,6051,1,0,0:0:0:0:
36,192,6205,1,0,0:0:0:0:
182,192,6205,1,0,0:0:0:0:
402,192,6205,1,0,0:0:0:0:
475,192,6205,1,0,0:0:0:0:
109,192,6282,1,0,0:0:0:0:
256,192,6282,1,0,0:0:0:0:
182,192,6359,1,0,0:0:0:0:
329,192,6359,1,0,0:0:0:0:
402,192,6436,1,0,0:0:0:0:
256,192,6436,1,0,0:0:0:0:
329,192,6513,1,0,0:0:0:0:
475,192,6513,1,0,0:0:0:0:
109,192,6513,1,0,0:0:0:0:
475,192,6667,1,0,0:0:0:0:
256,192,6667,1,0,0:0:0:0:
36,192,6667,1,0,0:0:0:0:
109,192,6821,1,0,0:0:0:0:
256,192,6821,1,0,0:0:0:0:
36,192,6821,1,0,0:0:0:0:
402,192,6821,1,0,0:0:0:0:
182,192,6898,1,0,0:0:0:0:
329,192,6898,1,0,0:0:0:0:
256,192,6975,1,0,0:0:0:0:
402,192,6975,1,0,0:0:0:0:
329,192,7051,1,0,0:0:0:0:
475,192,7051,1,0,0:0:0:0:
402,192,7128,1,0,0:0:0:0:
36,192,7128,1,0,0:0:0:0:
182,192,7128,1,0,0:0:0:0:
109,192,7282,1,0,0:0:0:0:
256,192,7282,1,0,0:0:0:0:
182,192,7436,1,0,0:0:0:0:
329,192,7436,1,0,0:0:0:0:
36,192,7436,1,0,0:0:0:0:
475,192,7436,1,0,0:0:0:0:
256,192,7513,1,0,0:0:0:0:
402,192,7513,1,0,0:0:0:0:
475,192,7590,1,0,0:0:0:0:
329,192,7590,1,0,0:0:0:0:
256,192,7667,1,0,0:0:0:0:
402,192,7667,1,0,0:0:0:0:
329,192,7744,1,0,0:0:0:0:
182,192,7744,1,0,0:0:0:0:
256,192,7821,1,0,0:0:0:0:
109,192,7821,1,0,0:0:0:0:
182,192,7898,1,0,0:0:0:0:
36,192,7898,1,0,0:0:0:0:
475,192,7898,1,0,0:0:0:0:
475,192,8051,1,0,0:0:0:0:
36,192,8051,1,0,0:0:0:0:
109,192,8051,1,0,0:0:0:0:
329,192,8051,1,0,0:0:0:0:
256,192,8205,1,0,0:0:0:0:
402,192,8205,1,0,0:0:0:0:
329,192,8282,1,0,0:0:0:0:
475,192,8282,1,0,0:0:0:0:
402,192,8359,1,0,0:0:0:0:
182,192,8359,1,0,0:0:0:0:
36,192,8359,1,0,0:0:0:0:
182,192,8513,1,0,0:0:0:0:
329,192,8513,1,0,0:0:0:0:
329,192,8667,1,0,0:0:0:0:
109,192,8667,1,0,0:0:0:0:
36,192,8667,1,0,0:0:0:0:
256,192,8667,1,0,0:0:0:0:
402,192,8744,1,0,0:0:0:0:
182,192,8744,1,0,0:0:0:0:
256,192,8821,1,0,0:0:0:0:
475,192,8821,1,0,0:0:0:0:
329,192,8898,1,0,0:0:0:0:
109,192,8898,1,0,0:0:0:0:
182,192,8975,1,0,0:0:0:0:
402,192,8975,1,0,0:0:0:0:
475,192,8975,1,0,0:0:0:0:
402,192,9128,1,0,0:0:0:0:
256,192,9128,1,0,0:0:0:0:
36,192,9128,1,0,0:0:0:0:
475,192,9282,1,0,0:0:0:0:
36,192,9282,1,0,0:0:0:0:
256,192,9282,1,0,0:0:0:0:
109,192,9282,1,0,0:0:0:0:
182,192,9359,1,0,0:0:0:0:
329,192,9359,1,0,0:0:0:0:
256,192,9436,1,0,0:0:0:0:
402,192,9436,1,0,0:0:0:0:
329,192,9513,1,0,0:0:0:0:
475,192,9513,1,0,0:0:0:0:
182,192,9590,1,0,0:0:0:0:
36,192,9590,1,0,0:0:0:0:
109,192,9590,1,0,0:0:0:0:
182,192,9744,1,0,0:0:0:0:
329,192,9744,1,0,0:0:0:0:
329,192,9898,1,0,0:0:0:0:
475,192,9898,1,0,0:0:0:0:
402,192,9898,1,0,0:0:0:0:
109,192,9898,1,0,0:0:0:0:
182,192,9975,1,0,0:0:0:0:
36,192,9975,1,0,0:0:0:0:
109,192,10051,1,0,0:0:0:0:
256,192,10051,1,0,0:0:0:0:
182,192,10128,1,0,0:0:0:0:
329,192,10128,1,0,0:0:0:0:
256,192,10205,1,0,0:0:0:0:
402,192,10205,1,0,0:0:0:0:
329,192,10282,1,0,0:0:0:0:
475,192,10282,1,0,0:0:0:0:
402,192,10359,1,0,0:0:0:0:
256,192,10359,1,0,0:0:0:0:
109,192,10359,1,0,0:0:0:0:
36,192,10513,1,0,0:0:0:0:
109,192,10513,1,0,0:0:0:0:
475,192,10513,1,0,0:0:0:0:
182,192,10513,1,0,0:0:0:0:
475,192,10667,1,0,0:0:0:0:
256,192,10667,1,0,0:0:0:0:
402,192,10667,1,0,0:0:0:0:
329,192,10821,1,0,0:0:0:0:
402,192,10821,1,0,0:0:0:0:
475,192,10821,1,0,0:0:0:0:
182,192,10821,1,0,0:0:0:0:
109,192,10821,1,0,0:0:0:0:
36,192,10821,1,0,0:0:0:0:
256,192,10975,1,0,0:0:0:0:
182,192,10975,1,0,0:0:0:0:
329,192,11128,1,0,0:0:0:0:
475,192,11128,1,0,0:0:0:0:
109,192,11128,1,0,0:0:0:0:
36,192,11128,1,0,0:0:0:0:
402,192,11205,1,0,0:0:0:0:
256,192,11205,1,0,0:0:0:0:
329,192,11282,1,0,0:0:0:0:
182,192,11282,1,0,0:0:0:0:
256,192,11359,1,0,0:0:0:0:
109,192,11359,1,0,0:0:0:0:
182,192,11436,1,0,0:0:0:0:
36,192,11436,1,0,0:0:0:0:
475,192,11436,1,0,0:0:0:0:
182,192,11590,1,0,0:0:0:0:
36,192,11590,1,0,0:0:0:0:
329,192,11590,1,0,0:0:0:0:
256,192,11744,1,0,0:0:0:0:
475,192,11744,1,0,0:0:0:0:
109,192,11744,1,0,0:0:0:0:
36,192,11744,1,0,0:0:0:0:
402,192,11821,1,0,0:0:0:0:
182,192,11821,1,0,0:0:0:0:
329,192,11898,1,0,0:0:0:0:
109,192,11898,1,0,0:0:0:0:
256,192,11975,1,0,0:0:0:0:
36,192,11975,1,0,0:0:0:0:
182,192,12051,1,0,0:0:0:0:
402,192,12051,1,0,0:0:0:0:
475,192,12051,1,0,0:0:0:0:
182,192,12205,1,0,0:0:0:0:
329,192,12205,1,0,0:0:0:0:
256,192,12359,1,0,0:0:0:0:
402,192,12359,1,0,0:0:0:0:
475,192,12359,1,0,0:0:0:0:
36,192,12359,1,0,0:0:0:0:
182,192,12436,1,0,0:0:0:0:
329,192,12436,1,0,0:0:0:0:
256,192,12513,1,0,0:0:0:0:
109,192,12513,1,0,0:0:0:0:
182,192,12590,1,0,0:0:0:0:
36,192,12590,1,0,0:0:0:0:
329,192,12667,1,0,0:0:0:0:
475,192,12667,1,0,0:0:0:0:
256,192,12744,1,0,0:0:0:0:
402,192,12744,1,0,0:0:0:0:
329,192,12821,1,0,0:0:0:0:
182,192,12821,1,0,0:0:0:0:
109,192,12821,1,0,0:0:0:0:
182,192,12975,1,0,0:0:0:0:
109,192,12975,1,0,0:0:0:0:
256,192,12975,1,0,0:0:0:0:
475,192,12975,1,0,0:0:0:0:
329,192,13128,1,0,0:0:0:0:
475,192,13128,1,0,0:0:0:0:
402,192,13205,1,0,0:0:0:0:
256,192,13205,1,0,0:0:0:0:
329,192,13282,1,0,0:0:0:0:
182,192,13282,1,0,0:0:0:0:
36,192,13282,1,0,0:0:0:0:
109,192,13436,1,0,0:0:0:0:
36,192,13436,1,0,0:0:0:0:
109,192,13590,1,0,0:0:0:0:
256,192,13590,1,0,0:0:0:0:
402,192,13590,1,0,0:0:0:0:
475,192,13590,1,0,0:0:0:0:
329,192,13667,1,0,0:0:0:0:
182,192,13667,1,0,0:0:0:0:
256,192,13744,1,0,0:0:0:0:
109,192,13744,1,0,0:0:0:0:
182,192,13821,1,0,0:0:0:0:
36,192,13821,1,0,0:0:0:0:
329,192,13898,1,0,0:0:0:0:
475,192,13898,1,0,0:0:0:0:
109,192,13898,1,0,0:0:0:0:
329,192,14051,1,0,0:0:0:0:
475,192,14051,1,0,0:0:0:0:
182,192,14051,1,0,0:0:0:0:
402,192,14205,1,0,0:0:0:0:
475,192,14205,1,0,0:0:0:0:
256,192,14205,1,0,0:0:0:0:
109,192,14205,1,0,0:0:0:0:
182,192,14282,1,0,0:0:0:0:
36,192,14282,1,0,0:0:0:0:
109,192,14359,1,0,0:0:0:0:
329,192,14359,1,0,0:0:0:0:
256,192,14436,1,0,0:0:0:0:
475,192,14436,1,0,0:0:0:0:
402,192,14513,1,0,0:0:0:0:
182,192,14513,1,0,0:0:0:0:
36,192,14513,1,0,0:0:0:0:
182,192,14667,1,0,0:0:0:0:
329,192,14667,1,0,0:0:0:0:
109,192,14821,1,0,0:0:0:0:
36,192,14821,1,0,0:0:0:0:
475,192,14821,1,0,0:0:0:0:
256,192,14821,1,0,0:0:0:0:
402,192,14898,1,0,0:0:0:0:
182,192,14898,1,0,0:0:0:0:
329,192,14975,1,0,0:0:0:0:
109,192,14975,1,0,0:0:0:0:
256,192,15051,1,0,0:0:0:0:
36,192,15051,1,0,0:0:0:0:
182,192,15128,1,0,0:0:0:0:
402,192,15128,1,0,0:0:0:0:
329,192,15205,1,0,0:0:0:0:
109,192,15205,1,0,0:0:0:0:
256,192,15282,1,0,0:0:0:0:
36,192,15282,1,0,0:0:0:0:
475,192,15282,1,0,0:0:0:0:
329,192,15436,1,0,0:0:0:0:
402,192,15436,1,0,0:0:0:0:
475,192,15436,1,0,0:0:0:0:
182,192,15436,1,0,0:0:0:0:
329,192,15590,1,0,0:0:0:0:
182,192,15590,1,0,0:0:0:0:
36,192,15590,1,0,0:0:0:0:
109,192,15744,1,0,0:0:0:0:
36,192,15744,1,0,0:0:0:0:
475,192,15744,1,0,0:0:0:0:
402,192,15744,1,0,0:0:0:0:
329,192,15898,1,0,0:0:0:0:
256,192,15898,1,0,0:0:0:0:
182,192,16051,1,0,0:0:0:0:
36,192,16051,1,0,0:0:0:0:
402,192,16051,1,0,0:0:0:0:
475,192,16051,1,0,0:0:0:0:
109,192,16128,1,0,0:0:0:0:
256,192,16128,1,0,0:0:0:0:
182,192,16205,1,0,0:0:0:0:
329,192,16205,1,0,0:0:0:0:
256,192,16282,1,0,0:0:0:0:
402,192,16282,1,0,0:0:0:0:
329,192,16359,1,0,0:0:0:0:
475,192,16359,1,0,0:0:0:0:
36,192,16359,1,0,0:0:0:0:
329,192,16513,1,0,0:0:0:0:
475,192,16513,1,0,0:0:0:0:
182,192,16513,1,0,0:0:0:0:
256,192,16667,1,0,0:0:0:0:
36,192,16667,1,0,0:0:0:0:
402,192,16667,1,0,0:0:0:0:
475,192,16667,1,0,0:0:0:0:
109,192,16744,1,0,0:0:0:0:
329,192,16744,1,0,0:0:0:0:
182,192,16821,1,0,0:0:0:0:
402,192,16821,1,0,0:0:0:0:
256,192,16898,1,0,0:0:0:0:
475,192,16898,1,0,0:0:0:0:
329,192,16975,1,0,0:0:0:0:
109,192,16975,1,0,0:0:0:0:
36,192,16975,1,0,0:0:0:0:
329,192,17128,1,0,0:0:0:0:
182,192,17128,1,0,0:0:0:0:
256,192,17282,1,0,0:0:0:0:
109,192,17282,1,0,0:0:0:0:
36,192,17282,1,0,0:0:0:0:
475,192,17282,1,0,0:0:0:0:
329,192,17359,1,0,0:0:0:0:
182,192,17359,1,0,0:0:0:0:
256,192,17436,1,0,0:0:0:0:
402,192,17436,1,0,0:0:0:0:
329,192,17513,1,0,0:0:0:0:
475,192,17513,1,0,0:0:0:0:
182,192,17590,1,0,0:0:0:0:
36,192,17590,1,0,0:0:0:0:
256,192,17667,1,0,0:0:0:0:
109,192,17667,1,0,0:0:0:0:
182,192,17744,1,0,0:0:0:0:
329,192,17744,1,0,0:0:0:0:
402,192,17744,1,0,0:0:0:0:
329,192,17898,1,0,0:0:0:0:
402,192,17898,1,0,0:0:0:0:
256,192,17898,1,0,0:0:0:0:
36,192,17898,1,0,0:0:0:0:
182,192,18051,1,0,0:0:0:0:
36,192,18051,1,0,0:0:0:0:
109,192,18128,1,0,0:0:0:0:
256,192,18128,1,0,0:0:0:0:
182,192,18205,1,0,0:0:0:0:
329,192,18205,1,0,0:0:0:0:
475,192,18205,1,0,0:0:0:0:
402,192,18359,1,0,0:0:0:0:
475,192,18359,1,0,0:0:0:0:
402,192,18513,1,0,0:0:0:0:
256,192,18513,1,0,0:0:0:0:
109,192,18513,1,0,0:0:0:0:
36,192,18513,1,0,0:0:0:0:
182,192,18590,1,0,0:0:0:0:
329,192,18590,1,0,0:0:0:0:
256,192,18667,1,0,0:0:0:0:
402,192,18667,1,0,0:0:0:0:
329,192,18744,1,0,0:0:0:0:
475,192,18744,1,0,0:0:0:0:
182,192,18821,1,0,0:0:0:0:
36,192,18821,1,0,0:0:0:0:
402,192,18821,1,0,0:0:0:0:
182,192,18975,1,0,0:0:0:0:
36,192,18975,1,0,0:0:0:0:
329,192,18975,1,0,0:0:0:0:
109,192,19128,1,0,0:0:0:0:
36,192,19128,1,0,0:0:0:0:
256,192,19128,1,0,0:0:0:0:
402,192,19128,1,0,0:0:0:0:
329,192,19205,1,0,0:0:0:0:
475,192,19205,1,0,0:0:0:0:
402,192,19282,1,0,0:0:0:0:
182,192,19282,1,0,0:0:0:0:
256,192,19359,1,0,0:0:0:0:
36,192,19359,1,0,0:0:0:0:
109,192,19436,1,0,0:0:0:0:
329,192,19436,1,0,0:0:0:0:
475,192,19436,1,0,0:0:0:0:
402,192,19436,1,0,0:0:0:0:
182,192,19436,1,0,0:0:0:0:
109,192,19590,1,0,0:0:0:0:
256,192,19590,1,0,0:0:0:0:
182,192,19667,1,0,0:0:0:0:
329,192,19667,1,0,0:0:0:0:
256,192,19744,1,0,0:0:0:0:
402,192,19744,1,0,0:0:0:0:
475,192,19744,1,0,0:0:0:0:
109,192,19744,1,0,0:0:0:0:
36,192,19744,1,0,0:0:0:0:
329,192,19898,1,0,0:0:0:0:
475,192,19898,1,0,0:0:0:0:
402,192,19975,1,0,0:0:0:0:
256,192,19975,1,0,0:0:0:0:
329,192,20051,1,0,0:0:0:0:
182,192,20051,1,0,0:0:0:0:
36,192,20051,1,0,0:0:0:0:
475,192,20051,1,0,0:0:0:0:
182,192,20205,1,0,0:0:0:0:
36,192,20205,1,0,0:0:0:0:
402,192,20205,1,0,0:0:0:0:
109,192,20282,1,0,0:0:0:0:
256,192,20282,1,0,0:0:0:0:
182,192,20359,1,0,0:0:0:0:
329,192,20359,1,0,0:0:0:0:
402,192,20359,1,0,0:0:0:0:
475,192,20359,1,0,0:0:0:0:
36,192,20359,1,0,0:0:0:0:
256,192,20513,1,0,0:0:0:0:
402,192,20513,1,0,0:0:0:0:
109,192,20513,1,0,0:0:0:0:
329,192,20590,1,0,0:0:0:0:
182,192,20590,1,0,0:0:0:0:
256,192,20667,1,0,0:0:0:0:
109,192,20667,1,0,0:0:0:0:
475,192,20667,1,0,0:0:0:0:
402,192,20667,1,0,0:0:0:0:
36,192,20667,1,0,0:0:0:0:
329,192,20744,1,0,0:0:0:0:
36,192,20821,1,0,0:0:0:0:
256,192,20821,1,0,0:0:0:0:
182,192,20898,1,0,0:0:0:0:
109,192,20975,1,0,0:0:0:0:
256,192,20975,1,0,0:0:0:0:
475,192,20975,1,0,0:0:0:0:
329,192,20975,1,0,0:0:0:0:
402,192,21051,1,0,0:0:0:0:
109,192,21128,1,0,0:0:0:0:
329,192,21128,1,0,0:0:0:0:
256,192,21205,1,0,0:0:0:0:
182,192,21282,1,0,0:0:0:0:
402,192,21282,1,0,0:0:0:0:
36,192,21282,1,0,0:0:0:0:
475,192,21359,1,0,0:0:0:0:
182,192,21436,1,0,0:0:0:0:
402,192,21436,1,0,0:0:0:0:
36,192,21436,1,0,0:0:0:0:
329,192,21513,1,0,0:0:0:0:
256,192,21590,1,0,0:0:0:0:
475,192,21590,1,0,0:0:0:0:
36,192,21590,1,0,0:0:0:0:
109,192,21590,1,0,0:0:0:0:
182,192,21667,1,0,0:0:0:0:
256,192,21744,1,0,0:0:0:0:
109,192,21744,1,0,0:0:0:0:
329,192,21821,1,0,0:0:0:0:
475,192,21898,1,0,0:0:0:0:
402,192,21898,1,0,0:0:0:0:
36,192,21898,1,0,0:0:0:0:
182,192,21975,1,0,0:0:0:0:
329,192,22051,1,0,0:0:0:0:
109,192,22051,1,0,0:0:0:0:
256,192,22128,1,0,0:0:0:0:
402,192,22205,1,0,0:0:0:0:
182,192,22205,1,0,0:0:0:0:
36,192,22205,1,0,0:0:0:0:
475,192,22205,1,0,0:0:0:0:
109,192,22282,1,0,0:0:0:0:
402,192,22359,1,0,0:0:0:0:
256,192,22359,1,0,0:0:0:0:
182,192,22436,1,0,0:0:0:0:
36,192,22436,1,0,0:0:0:0:
329,192,22513,1,0,0:0:0:0:
475,192,22513,1,0,0:0:0:0:
36,192,22590,1,0,0:0:0:0:
109,192,22590,1,0,0:0:0:0:
329,192,22667,1,0,0:0:0:0:
182,192,22667,1,0,0:0:0:0:
402,192,22667,1,0,0:0:0:0:
109,192,22744,1,0,0:0:0:0:
256,192,22821,1,0,0:0:0:0:
402,192,22821,1,0,0:0:0:0:
475,192,22821,1,0,0:0:0:0:
36,192,22821,1,0,0:0:0:0:
182,192,22898,1,0,0:0:0:0:
256,192,22975,1,0,0:0:0:0:
109,192,22975,1,0,0:0:0:0:
329,192,23051,1,0,0:0:0:0:
36,192,23128,1,0,0:0:0:0:
182,192,23128,1,0,0:0:0:0:
402,192,23128,1,0,0:0:0:0:
256,192,23205,1,0,0:0:0:0:
36,192,23282,1,0,0:0:0:0:
329,192,23282,1,0,0:0:0:0:
109,192,23359,1,0,0:0:0:0:
182,192,23436,1,0,0:0:0:0:
402,192,23436,1,0,0:0:0:0:
475,192,23436,1,0,0:0:0:0:
329,192,23436,1,0,0:0:0:0:
256,192,23513,1,0,0:0:0:0:
182,192,23590,1,0,0:0:0:0:
36,192,23590,1,0,0:0:0:0:
329,192,23667,1,0,0:0:0:0:
109,192,23744,1,0,0:0:0:0:
256,192,23744,1,0,0:0:0:0:
475,192,23744,1,0,0:0:0:0:
402,192,23821,1,0,0:0:0:0:
109,192,23898,1,0,0:0:0:0:
329,192,23898,1,0,0:0:0:0:
475,192,23898,1,0,0:0:0:0:
182,192,23975,1,0,0:0:0:0:
256,192,24051,1,0,0:0:0:0:
402,192,24051,1,0,0:0:0:0:
36,192,24051,1,0,0:0:0:0:
475,192,24051,1,0,0:0:0:0:
109,192,24128,1,0,0:0:0:0:
182,192,24205,1,0,0:0:0:0:
329,192,24205,1,0,0:0:0:0:
402,192,24282,1,0,0:0:0:0:
475,192,24359,1,0,0:0:0:0:
256,192,24359,1,0,0:0:0:0:
36,192,24359,1,0,0:0:0:0:
182,192,24436,1,0,0:0:0:0:
475,192,24513,1,0,0:0:0:0:
109,192,24513,1,0,0:0:0:0:
402,192,24590,1,0,0:0:0:0:
256,192,24590,1,0,0:0:0:0:
329,192,24667,1,0,0:0:0:0:
36,192,24667,1,0,0:0:0:0:
109,192,24667,1,0,0:0:0:0:
182,192,24667,1,0,0:0:0:0:
475,192,24744,1,0,0:0:0:0:
329,192,24821,1,0,0:0:0:0:
256,192,24821,1,0,0:0:0:0:
182,192,24898,1,0,0:0:0:0:
36,192,24898,1,0,0:0:0:0:
402,192,24975,1,0,0:0:0:0:
109,192,24975,1,0,0:0:0:0:
182,192,25051,1,0,0:0:0:0:
329,192,25051,1,0,0:0:0:0:
402,192,25128,1,0,0:0:0:0:
256,192,25128,1,0,0:0:0:0:
36,192,25128,1,0,0:0:0:0:
329,192,25205,1,0,0:0:0:0:
256,192,25282,1,0,0:0:0:0:
36,192,25282,1,0,0:0:0:0:
109,192,25282,1,0,0:0:0:0:
475,192,25282,1,0,0:0:0:0:
182,192,25359,1,0,0:0:0:0:
256,192,25436,1,0,0:0:0:0:
402,192,25436,1,0,0:0:0:0:
475,192,25436,1,0,0:0:0:0:
109,192,25513,1,0,0:0:0:0:
182,192,25590,1,0,0:0:0:0:
402,192,25590,1,0,0:0:0:0:
36,192,25590,1,0,0:0:0:0:
329,192,25590,1,0,0:0:0:0:
475,192,25590,1,0,0:0:0:0:
256,192,25667,1,0,0:0:0:0:
109,192,25744,1,0,0:0:0:0:
402,192,25744,1,0,0:0:0:0:
329,192,25821,1,0,0:0:0:0:
256,192,25898,1,0,0:0:0:0:
36,192,25898,1,0,0:0:0:0:
182,192,25898,1,0,0:0:0:0:
475,192,25898,1,0,0:0:0:0:
109,192,25975,1,0,0:0:0:0:
402,192,26051,1,0,0:0:0:0:
182,192,26051,1,0,0:0:0:0:
256,192,26128,1,0,0:0:0:0:
329,192,26205,1,0,0:0:0:0:
109,192,26205,1,0,0:0:0:0:
475,192,26205,1,0,0:0:0:0:
36,192,26282,1,0,0:0:0:0:
329,192,26359,1,0,0:0:0:0:
109,192,26359,1,0,0:0:0:0:
475,192,26359,1,0,0:0:0:0:
182,192,26436,1,0,0:0:0:0:
256,192,26513,1,0,0:0:0:0:
36,192,26513,1,0,0:0:0:0:
475,192,26513,1,0,0:0:0:0:
402,192,26513,1,0,0:0:0:0:
329,192,26590,1,0,0:0:0:0:
256,192,26667,1,0,0:0:0:0:
402,192,26667,1,0,0:0:0:0:
182,192,26744,1,0,0:0:0:0:
109,192,26821,1,0,0:0:0:0:
475,192,26821,1,0,0:0:0:0:
36,192,26821,1,0,0:0:0:0:
329,192,26898,1,0,0:0:0:0:
402,192,26975,1,0,0:0:0:0:
182,192,26975,1,0,0:0:0:0:
256,192,27051,1,0,0:0:0:0:
109,192,27128,1,0,0:0:0:0:
329,192,27128,1,0,0:0:0:0:
475,192,27128,1,0,0:0:0:0:
36,192,27128,1,0,0:0:0:0:
402,192,27205,1,0,0:0:0:0:
109,192,27282,1,0,0:0:0:0:
256,192,27282,1,0,0:0:0:0:
329,192,27359,1,0,0:0:0:0:
475,192,27359,1,0,0:0:0:0:
182,192,27436,1,0,0:0:0:0:
36,192,27436,1,0,0:0:0:0:
475,192,27513,1,0,0:0:0:0:
402,192,27513,1,0,0:0:0:0:
182,192,27590,1,0,0:0:0:0:
329,192,27590,1,0,0:0:0:0:
109,192,27590,1,0,0:0:0:0:
402,192,27667,1,0,0:0:0:0:
256,192,27744,1,0,0:0:0:0:
109,192,27744,1,0,0:0:0:0:
36,192,27744,1,0,0:0:0:0:
475,192,27744,1,0,0:0:0:0:
182,192,27821,1,0,0:0:0:0:
256,192,27898,1,0,0:0:0:0:
402,192,27898,1,0,0:0:0:0:
182,192,27975,1,0,0:0:0:0:
475,192,28051,1,0,0:0:0:0:
329,192,28051,1,0,0:0:0:0:
109,192,28051,1,0,0:0:0:0:
256,192,28128,1,0,0:0:0:0:
475,192,28205,1,0,0:0:0:0:
182,192,28205,1,0,0:0:0:0:
402,192,28282,1,0,0:0:0:0:
329,192,28359,1,0,0:0:0:0:
109,192,28359,1,0,0:0:0:0:
36,192,28359,1,0,0:0:0:0:
182,192,28359,1,0,0:0:0:0:
256,192,28436,1,0,0:0:0:0:
329,192,28513,1,0,0:0:0:0:
475,192,28513,1,0,0:0:0:0:
182,192,28590,1,0,0:0:0:0:
402,192,28667,1,0,0:0:0:0:
256,192,28667,1,0,0:0:0:0:
36,192,28667,1,0,0:0:0:0:
109,192,28744,1,0,0:0:0:0:
402,192,28821,1,0,0:0:0:0:
182,192,28821,1,0,0:0:0:0:
36,192,28821,1,0,0:0:0:0:
329,192,28898,1,0,0:0:0:0:
256,192,28975,1,0,0:0:0:0:
109,192,28975,1,0,0:0:0:0:
475,192,28975,1,0,0:0:0:0:
36,192,28975,1,0,0:0:0:0:
402,192,29051,1,0,0:0:0:0:
329,192,29128,1,0,0:0:0:0:
182,192,29128,1,0,0:0:0:0:
109,192,29205,1,0,0:0:0:0:
36,192,29282,1,0,0:0:0:0:
256,192,29282,1,0,0:0:0:0:
475,192,29282,1,0,0:0:0:0:
329,192,29359,1,0,0:0:0:0:
36,192,29436,1,0,0:0:0:0:
402,192,29436,1,0,0:0:0:0:
109,192,29513,1,0,0:0:0:0:
256,192,29513,1,0,0:0:0:0:
182,192,29590,1,0,0:0:0:0:
475,192,29590,1,0,0:0:0:0:
402,192,29590,1,0,0:0:0:0:
329,192,29590,1,0,0:0:0:0:
36,192,29667,1,0,0:0:0:0:
182,192,29744,1,0,0:0:0:0:
256,192,29744,1,0,0:0:0:0:
329,192,29821,1,0,0:0:0:0:
475,192,29821,1,0,0:0:0:0:
109,192,29898,1,0,0:0:0:0:
402,192,29898,1,0,0:0:0:0:
329,192,29975,1,0,0:0:0:0:
182,192,29975,1,0,0:0:0:0:
109,192,30051,1,0,0:0:0:0:
256,192,30051,1,0,0:0:0:0:
36,192,30051,1,0,0:0:0:0:
182,192,30128,1,0,0:0:0:0:
256,192,30205,1,0,0:0:0:0:
475,192,30205,1,0,0:0:0:0:
36,192,30205,1,0,0:0:0:0:
329,192,30205,1,0,0:0:0:0:
402,192,30282,1,0,0:0:0:0:
256,192,30359,1,0,0:0:0:0:
109,192,30359,1,0,0:0:0:0:
36,192,30359,1,0,0:0:0:0:
329,192,30436,1,0,0:0:0:0:
475,192,30513,1,0,0:0:0:0:
182,192,30513,1,0,0:0:0:0:
109,192,30513,1,0,0:0:0:0:
36,192,30513,1,0,0:0:0:0:
402,192,30513,1,0,0:0:0:0:
256,192,30513,1,0,0:0:0:0:
329,192,30590,1,0,0:0:0:0:
182,192,30667,1,0,0:0:0:0:
475,192,30667,1,0,0:0:0:0:
402,192,30744,1,0,0:0:0:0:
109,192,30821,1,0,0:0:0:0:
329,192,30821,1,0,0:0:0:0:
36,192,30821,1,0,0:0:0:0:
256,192,30821,1,0,0:0:0:0:
402,192,30898,1,0,0:0:0:0:
109,192,30975,1,0,0:0:0:0:
475,192,30975,1,0,0:0:0:0:
182,192,31051,1,0,0:0:0:0:
36,192,31128,1,0,0:0:0:0:
256,192,31128,1,0,0:0:0:0:
402,192,31128,1,0,0:0:0:0:
329,192,31205,1,0,0:0:0:0:
36,192,31282,1,0,0:0:0:0:
402,192,31282,1,0,0:0:0:0:
182,192,31282,1,0,0:0:0:0:
329,192,31359,1,0,0:0:0:0:
256,192,31436,1,0,0:0:0:0:
475,192,31436,1,0,0:0:0:0:
402,192,31436,1,0,0:0:0:0:
109,192,31436,1,0,0:0:0:0:
36,192,31513,1,0,0:0:0:0:
256,192,31590,1,0,0:0:0:0:
475,192,31590,1,0,0:0:0:0:
182,192,31667,1,0,0:0:0:0:
329,192,31744,1,0,0:0:0:0:
109,192,31744,1,0,0:0:0:0:
36,192,31744,1,0,0:0:0:0:
182,192,31821,1,0,0:0:0:0:
329,192,31898,1,0,0:0:0:0:
256,192,31898,1,0,0:0:0:0:
36,192,31975,1,0,0:0:0:0:
402,192,32051,1,0,0:0:0:0:
109,192,32051,1,0,0:0:0:0:
182,192,32051,1,0,0:0:0:0:
475,192,32051,1,0,0:0:0:0:
256,192,32128,1,0,0:0:0:0:
402,192,32205,1,0,0:0:0:0:
329,192,32205,1,0,0:0:0:0:
182,192,32282,1,0,0:0:0:0:
36,192,32282,1,0,0:0:0:0:
475,192,32359,1,0,0:0:0:0:
329,192,32359,1,0,0:0:0:0:
256,192,32436,1,0,0:0:0:0:
109,192,32436,1,0,0:0:0:0:
475,192,32513,1,0,0:0:0:0:
402,192,32513,1,0,0:0:0:0:
182,192,32513,1,0,0:0:0:0:
329,192,32590,1,0,0:0:0:0:
256,192,32667,1,0,0:0:0:0:
109,192,32667,1,0,0:0:0:0:
36,192,32667,1,0,0:0:0:0:
475,192,32667,1,0,0:0:0:0:
182,192,32744,1,0,0:0:0:0:
256,192,32821,1,0,0:0:0:0:
402,192,32821,1,0,0:0:0:0:
109,192,32898,1,0,0:0:0:0:
36,192,32975,1,0,0:0:0:0:
329,192,32975,1,0,0:0:0:0:
475,192,32975,1,0,0:0:0:0:
182,192,32975,1,0,0:0:0:0:
256,192,33051,1,0,0:0:0:0:
329,192,33128,1,0,0:0:0:0:
36,192,33128,1,0,0:0:0:0:
109,192,33205,1,0,0:0:0:0:
402,192,33282,1,0,0:0:0:0:
182,192,33282,1,0,0:0:0:0:
475,192,33282,1,0,0:0:0:0:
256,192,33282,1,0,0:0:0:0:
109,192,33359,1,0,0:0:0:0:
402,192,33436,1,0,0:0:0:0:
36,192,33436,1,0,0:0:0:0:
329,192,33513,1,0,0:0:0:0:
475,192,33590,1,0,0:0:0:0:
256,192,33590,1,0,0:0:0:0:
109,192,33590,1,0,0:0:0:0:
182,192,33667,1,0,0:0:0:0:
475,192,33744,1,0,0:0:0:0:
109,192,33744,1,0,0:0:0:0:
329,192,33744,1,0,0:0:0:0:
182,192,33821,1,0,0:0:0:0:
256,192,33898,1,0,0:0:0:0:
36,192,33898,1,0,0:0:0:0:
109,192,33898,1,0,0:0:0:0:
402,192,33898,1,0,0:0:0:0:
475,192,33975,1,0,0:0:0:0:
256,192,34051,1,0,0:0:0:0:
36,192,34051,1,0,0:0:0:0:
329,192,34128,1,0,0:0:0:0:
109,192,34205,1,0,0:0:0:0:
402,192,34205,1,0,0:0:0:0:
475,192,34205,1,0,0:0:0:0:
182,192,34282,1,0,0:0:0:0:
109,192,34359,1,0,0:0:0:0:
329,192,34359,1,0,0:0:0:0:
256,192,34436,1,0,0:0:0:0:
182,192,34513,1,0,0:0:0:0:
402,192,34513,1,0,0:0:0:0:
36,192,34513,1,0,0:0:0:0:
475,192,34513,1,0,0:0:0:0:
329,192,34590,1,0,0:0:0:0:
182,192,34667,1,0,0:0:0:0:
109,192,34667,1,0,0:0:0:0:
329,192,34744,1,0,0:0:0:0:
402,192,34744,1,0,0:0:0:0:
256,192,34821,1,0,0:0:0:0:
36,192,34821,1,0,0:0:0:0:
402,192,34898,1,0,0:0:0:0:
475,192,34898,1,0,0:0:0:0:
256,192,34975,1,0,0:0:0:0:
182,192,34975,1,0,0:0:0:0:
109,192,34975,1,0,0:0:0:0:
402,192,35051,1,0,0:0:0:0:
329,192,35128,1,0,0:0:0:0:
36,192,35128,1,0,0:0:0:0:
182,192,35128,1,0,0:0:0:0:
475,192,35128,1,0,0:0:0:0:
329,192,35282,1,0,0:0:0:0:
109,192,35282,1,0,0:0:0:0:
256,192,35282,1,0,0:0:0:0:
182,192,35359,1,0,0:0:0:0:
402,192,35436,1,0,0:0:0:0:
475,192,35436,1,0,0:0:0:0:
36,192,35436,1,0,0:0:0:0:
329,192,35436,1,0,0:0:0:0:
256,192,35436,1,0,0:0:0:0:
109,192,35513,1,0,0:0:0:0:
402,192,35590,1,0,0:0:0:0:
475,192,35590,1,0,0:0:0:0:
182,192,35590,1,0,0:0:0:0:
256,192,35590,1,0,0:0:0:0:
109,192,35667,1,0,0:0:0:0:
402,192,35744,1,0,0:0:0:0:
475,192,35744,1,0,0:0:0:0:
36,192,35744,1,0,0:0:0:0:
329,192,35744,1,0,0:0:0:0:
256,192,35821,1,0,0:0:0:0:
402,192,35898,1,0,0:0:0:0:
475,192,35898,1,0,0:0:0:0:
182,192,35898,1,0,0:0:0:0:
109,192,35898,1,0,0:0:0:0:
256,192,35975,1,0,0:0:0:0:
402,192,36051,1,0,0:0:0:0:
475,192,36051,1,0,0:0:0:0:
36,192,36051,1,0,0:0:0:0:
329,192,36051,1,0,0:0:0:0:
109,192,36128,1,0,0:0:0:0:
402,192,36205,1,0,0:0:0:0:
475,192,36205,1,0,0:0:0:0:
182,192,36205,1,0,0:0:0:0:
36,192,36205,1,0,0:0:0:0:
256,192,36282,1,0,0:0:0:0:
475,192,36359,1,0,0:0:0:0:
402,192,36359,1,0,0:0:0:0:
109,192,36359,1,0,0:0:0:0:
329,192,36359,1,0,0:0:0:0:
256,192,36436,1,0,0:0:0:0:
402,192,36513,1,0,0:0:0:0:
475,192,36513,1,0,0:0:0:0:
36,192,36513,1,0,0:0:0:0:
182,192,36513,1,0,0:0:0:0:
256,192,36590,1,0,0:0:0:0:
109,192,36667,1,0,0:0:0:0:
36,192,36667,1,0,0:0:0:0:
329,192,36667,1,0,0:0:0:0:
475,192,36667,1,0,0:0:0:0:
402,192,36744,5,0,0:0:0:0:
36,192,36821,5,0,0:0:0:0:
109,192,36821,1,0,0:0:0:0:
256,192,36821,1,0,0:0:0:0:
329,192,36821,1,0,0:0:0:0:
402,192,36898,1,0,0:0:0:0:
36,192,36975,1,0,0:0:0:0:
109,192,36975,1,0,0:0:0:0:
182,192,36975,1,0,0:0:0:0:
475,192,36975,1,0,0:0:0:0:
256,192,37051,1,0,0:0:0:0:
109,192,37128,1,0,0:0:0:0:
36,192,37128,1,0,0:0:0:0:
402,192,37128,1,0,0:0:0:0:
329,192,37128,1,0,0:0:0:0:
256,192,37205,1,0,0:0:0:0:
36,192,37282,1,0,0:0:0:0:
109,192,37282,1,0,0:0:0:0:
182,192,37282,1,0,0:0:0:0:
475,192,37282,1,0,0:0:0:0:
402,192,37359,1,0,0:0:0:0:
36,192,37436,1,0,0:0:0:0:
109,192,37436,1,0,0:0:0:0:
475,192,37436,1,0,0:0:0:0:
329,192,37436,1,0,0:0:0:0:
256,192,37513,1,0,0:0:0:0:
109,192,37590,1,0,0:0:0:0:
36,192,37590,1,0,0:0:0:0:
182,192,37590,1,0,0:0:0:0:
402,192,37590,1,0,0:0:0:0:
256,192,37667,1,0,0:0:0:0:
36,192,37744,1,0,0:0:0:0:
109,192,37744,1,0,0:0:0:0:
329,192,37744,1,0,0:0:0:0:
475,192,37744,1,0,0:0:0:0:
256,192,37821,1,0,0:0:0:0:
182,192,37898,5,0,0:0:0:0:
109,192,37898,1,0,0:0:0:0:
36,192,37898,1,0,0:0:0:0:
402,192,37975,1,0,0:0:0:0:
475,192,37975,1,0,0:0:0:0:
256,192,38051,1,0,0:0:0:0:
182,192,38051,1,0,0:0:0:0:
329,192,38051,1,0,0:0:0:0:
36,192,38128,1,0,0:0:0:0:
109,192,38128,1,0,0:0:0:0:
256,192,38205,1,0,0:0:0:0:
329,192,38205,1,0,0:0:0:0:
475,192,38205,1,0,0:0:0:0:
402,192,38205,1,0,0:0:0:0:
182,192,38282,1,0,0:0:0:0:
109,192,38282,1,0,0:0:0:0:
36,192,38359,1,0,0:0:0:0:
329,192,38359,1,0,0:0:0:0:
402,192,38359,1,0,0:0:0:0:
256,192,38436,1,0,0:0:0:0:
182,192,38436,1,0,0:0:0:0:
109,192,38436,1,0,0:0:0:0:
475,192,38513,1,0,0:0:0:0:
329,192,38513,1,0,0:0:0:0:
402,192,38513,1,0,0:0:0:0:
36,192,38590,1,0,0:0:0:0:
109,192,38590,1,0,0:0:0:0:
182,192,38667,1,0,0:0:0:0:
256,192,38667,1,0,0:0:0:0:
329,192,38667,1,0,0:0:0:0:
402,192,38744,1,0,0:0:0:0:
475,192,38744,1,0,0:0:0:0:
36,192,38821,1,0,0:0:0:0:
256,192,38821,1,0,0:0:0:0:
182,192,38821,1,0,0:0:0:0:
109,192,38821,1,0,0:0:0:0:
329,192,38898,1,0,0:0:0:0:
402,192,38898,1,0,0:0:0:0:
182,192,38975,1,0,0:0:0:0:
109,192,38975,1,0,0:0:0:0:
475,192,38975,1,0,0:0:0:0:
329,192,39051,1,0,0:0:0:0:
256,192,39051,1,0,0:0:0:0:
402,192,39051,1,0,0:0:0:0:
109,192,39128,1,0,0:0:0:0:
36,192,39128,1,0,0:0:0:0:
475,192,39128,1,0,0:0:0:0:
256,192,39205,1,0,0:0:0:0:
182,192,39205,1,0,0:0:0:0:
329,192,39282,1,0,0:0:0:0:
402,192,39282,1,0,0:0:0:0:
475,192,39282,1,0,0:0:0:0:
182,192,39359,1,0,0:0:0:0:
109,192,39359,1,0,0:0:0:0:
36,192,39436,1,0,0:0:0:0:
256,192,39436,1,0,0:0:0:0:
329,192,39436,1,0,0:0:0:0:
402,192,39436,1,0,0:0:0:0:
182,192,39513,1,0,0:0:0:0:
109,192,39513,1,0,0:0:0:0:
402,192,39590,1,0,0:0:0:0:
475,192,39590,1,0,0:0:0:0:
329,192,39590,1,0,0:0:0:0:
182,192,39667,1,0,0:0:0:0:
256,192,39667,1,0,0:0:0:0:
402,192,39744,1,0,0:0:0:0:
475,192,39744,1,0,0:0:0:0:
36,192,39744,1,0,0:0:0:0:
329,192,39821,1,0,0:0:0:0:
256,192,39821,1,0,0:0:0:0:
182,192,39898,1,0,0:0:0:0:
109,192,39898,1,0,0:0:0:0:
36,192,39898,1,0,0:0:0:0:
402,192,39975,1,0,0:0:0:0:
329,192,39975,1,0,0:0:0:0:
475,192,40051,1,0,0:0:0:0:
182,192,40051,1,0,0:0:0:0:
256,192,40051,1,0,0:0:0:0:
109,192,40051,1,0,0:0:0:0:
402,192,40128,1,0,0:0:0:0:
329,192,40128,1,0,0:0:0:0:
109,192,40205,1,0,0:0:0:0:
36,192,40205,1,0,0:0:0:0:
256,192,40205,1,0,0:0:0:0:
329,192,40282,1,0,0:0:0:0:
182,192,40282,1,0,0:0:0:0:
109,192,40359,1,0,0:0:0:0:
36,192,40359,1,0,0:0:0:0:
475,192,40359,1,0,0:0:0:0:
402,192,40359,1,0,0:0:0:0:
256,192,40359,1,0,0:0:0:0:
329,192,40436,1,0,0:0:0:0:
182,192,40513,1,0,0:0:0:0:
36,192,40513,1,0,0:0:0:0:
256,192,40590,1,0,0:0:0:0:
329,192,40667,1,0,0:0:0:0:
475,192,40667,1,0,0:0:0:0:
109,192,40667,1,0,0:0:0:0:
36,192,40667,1,0,0:0:0:0:
402,192,40667,1,0,0:0:0:0:
182,192,40744,1,0,0:0:0:0:
256,192,40821,1,0,0:0:0:0:
475,192,40821,1,0,0:0:0:0:
109,192,40898,1,0,0:0:0:0:
182,192,40975,1,0,0:0:0:0:
402,192,40975,1,0,0:0:0:0:
329,192,40975,1,0,0:0:0:0:
475,192,40975,1,0,0:0:0:0:
36,192,41051,1,0,0:0:0:0:
256,192,41128,1,0,0:0:0:0:
329,192,41128,1,0,0:0:0:0:
109,192,41205,1,0,0:0:0:0:
329,192,41282,1,0,0:0:0:0:
256,192,41282,1,0,0:0:0:0:
36,192,41282,1,0,0:0:0:0:
475,192,41282,1,0,0:0:0:0:
402,192,41282,1,0,0:0:0:0:
182,192,41359,1,0,0:0:0:0:
402,192,41436,1,0,0:0:0:0:
109,192,41436,1,0,0:0:0:0:
256,192,41513,1,0,0:0:0:0:
36,192,41590,1,0,0:0:0:0:
329,192,41590,1,0,0:0:0:0:
475,192,41590,1,0,0:0:0:0:
402,192,41590,1,0,0:0:0:0:
182,192,41667,1,0,0:0:0:0:
109,192,41744,1,0,0:0:0:0:
329,192,41744,1,0,0:0:0:0:
256,192,41821,1,0,0:0:0:0:
182,192,41898,1,0,0:0:0:0:
109,192,41898,1,0,0:0:0:0:
36,192,41898,1,0,0:0:0:0:
402,192,41898,1,0,0:0:0:0:
475,192,41898,1,0,0:0:0:0:
329,192,41975,1,0,0:0:0:0:
256,192,42051,1,0,0:0:0:0:
36,192,42051,1,0,0:0:0:0:
402,192,42128,1,0,0:0:0:0:
329,192,42205,1,0,0:0:0:0:
182,192,42205,1,0,0:0:0:0:
36,192,42205,1,0,0:0:0:0:
109,192,42205,1,0,0:0:0:0:
475,192,42282,1,0,0:0:0:0:
256,192,42359,1,0,0:0:0:0:
182,192,42359,1,0,0:0:0:0:
402,192,42436,1,0,0:0:0:0:
182,192,42513,1,0,0:0:0:0:
36,192,42513,1,0,0:0:0:0:
256,192,42513,1,0,0:0:0:0:
475,192,42513,1,0,0:0:0:0:
109,192,42513,1,0,0:0:0:0:
329,192,42590,1,0,0:0:0:0:
109,192,42667,1,0,0:0:0:0:
402,192,42667,1,0,0:0:0:0:
256,192,42744,1,0,0:0:0:0:
475,192,42821,1,0,0:0:0:0:
36,192,42821,1,0,0:0:0:0:
182,192,42821,1,0,0:0:0:0:
402,192,42821,1,0,0:0:0:0:
329,192,42898,1,0,0:0:0:0:
182,192,42975,1,0,0:0:0:0:
109,192,42975,1,0,0:0:0:0:
402,192,43051,1,0,0:0:0:0:
256,192,43128,1,0,0:0:0:0:
475,192,43128,1,0,0:0:0:0:
182,192,43128,1,0,0:0:0:0:
36,192,43128,1,0,0:0:0:0:
329,192,43128,1,0,0:0:0:0:
109,192,43205,1,0,0:0:0:0:
329,192,43282,1,0,0:0:0:0:
402,192,43282,1,0,0:0:0:0:
182,192,43359,1,0,0:0:0:0:
36,192,43436,1,0,0:0:0:0:
109,192,43436,1,0,0:0:0:0:
329,192,43436,1,0,0:0:0:0:
475,192,43436,1,0,0:0:0:0:
402,192,43513,1,0,0:0:0:0:
256,192,43590,1,0,0:0:0:0:
329,192,43590,1,0,0:0:0:0:
109,192,43667,1,0,0:0:0:0:
475,192,43744,1,0,0:0:0:0:
402,192,43744,1,0,0:0:0:0:
256,192,43744,1,0,0:0:0:0:
182,192,43744,1,0,0:0:0:0:
36,192,43744,1,0,0:0:0:0:
329,192,43821,1,0,0:0:0:0:
182,192,43898,1,0,0:0:0:0:
109,192,43898,1,0,0:0:0:0:
402,192,43975,1,0,0:0:0:0:
36,192,44051,1,0,0:0:0:0:
256,192,44051,1,0,0:0:0:0:
109,192,44051,1,0,0:0:0:0:
475,192,44051,1,0,0:0:0:0:
182,192,44128,1,0,0:0:0:0:
329,192,44205,1,0,0:0:0:0:
402,192,44205,1,0,0:0:0:0:
109,192,44282,1,0,0:0:0:0:
256,192,44359,1,0,0:0:0:0:
329,192,44359,1,0,0:0:0:0:
475,192,44359,1,0,0:0:0:0:
182,192,44359,1,0,0:0:0:0:
36,192,44359,1,0,0:0:0:0:
402,192,44436,1,0,0:0:0:0:
182,192,44513,1,0,0:0:0:0:
109,192,44513,1,0,0:0:0:0:
329,192,44590,1,0,0:0:0:0:
475,192,44667,1,0,0:0:0:0:
256,192,44667,1,0,0:0:0:0:
402,192,44667,1,0,0:0:0:0:
36,192,44667,1,0,0:0:0:0:
109,192,44744,1,0,0:0:0:0:
256,192,44821,1,0,0:0:0:0:
182,192,44821,1,0,0:0:0:0:
402,192,44898,1,0,0:0:0:0:
36,192,44975,1,0,0:0:0:0:
109,192,44975,1,0,0:0:0:0:
256,192,44975,1,0,0:0:0:0:
475,192,44975,1,0,0:0:0:0:
329,192,44975,1,0,0:0:0:0:
182,192,45051,1,0,0:0:0:0:
475,192,45128,1,0,0:0:0:0:
36,192,45128,1,0,0:0:0:0:
402,192,45128,1,0,0:0:0:0:
329,192,45128,1,0,0:0:0:0:
256,192,45205,1,0,0:0:0:0:
182,192,45282,1,0,0:0:0:0:
402,192,45282,1,0,0:0:0:0:
475,192,45282,1,0,0:0:0:0:
36,192,45282,1,0,0:0:0:0:
329,192,45282,1,0,0:0:0:0:
256,192,45359,1,0,0:0:0:0:
109,192,45436,1,0,0:0:0:0:
182,192,45436,1,0,0:0:0:0:
329,192,45513,1,0,0:0:0:0:
36,192,45590,1,0,0:0:0:0:
109,192,45590,1,0,0:0:0:0:
475,192,45590,1,0,0:0:0:0:
402,192,45590,1,0,0:0:0:0:
256,192,45590,1,0,0:0:0:0:
182,192,45667,1,0,0:0:0:0:
329,192,45744,1,0,0:0:0:0:
256,192,45744,1,0,0:0:0:0:
475,192,45821,1,0,0:0:0:0:
256,192,45898,1,0,0:0:0:0:
402,192,45898,1,0,0:0:0:0:
109,192,45898,1,0,0:0:0:0:
36,192,45898,1,0,0:0:0:0:
182,192,45975,1,0,0:0:0:0:
109,192,46051,1,0,0:0:0:0:
329,192,46051,1,0,0:0:0:0:
256,192,46128,1,0,0:0:0:0:
182,192,46205,1,0,0:0:0:0:
402,192,46205,1,0,0:0:0:0:
475,192,46205,1,0,0:0:0:0:
109,192,46205,1,0,0:0:0:0:
36,192,46205,1,0,0:0:0:0:
329,192,46282,1,0,0:0:0:0:
256,192,46359,1,0,0:0:0:0:
475,192,46359,1,0,0:0:0:0:
402,192,46436,1,0,0:0:0:0:
329,192,46513,1,0,0:0:0:0:
109,192,46513,1,0,0:0:0:0:
36,192,46513,1,0,0:0:0:0:
256,192,46513,1,0,0:0:0:0:
182,192,46590,1,0,0:0:0:0:
402,192,46667,1,0,0:0:0:0:
329,192,46667,1,0,0:0:0:0:
256,192,46744,1,0,0:0:0:0:
475,192,46821,1,0,0:0:0:0:
402,192,46821,1,0,0:0:0:0:
182,192,46821,1,0,0:0:0:0:
109,192,46821,1,0,0:0:0:0:
36,192,46821,1,0,0:0:0:0:
329,192,46898,1,0,0:0:0:0:
182,192,46975,1,0,0:0:0:0:
256,192,46975,1,0,0:0:0:0:
36,192,47051,1,0,0:0:0:0:
256,192,47128,1,0,0:0:0:0:
402,192,47128,1,0,0:0:0:0:
109,192,47128,1,0,0:0:0:0:
475,192,47128,1,0,0:0:0:0:
329,192,47205,1,0,0:0:0:0:
402,192,47282,1,0,0:0:0:0:
182,192,47282,1,0,0:0:0:0:
256,192,47359,1,0,0:0:0:0:
329,192,47436,1,0,0:0:0:0:
109,192,47436,1,0,0:0:0:0:
475,192,47436,1,0,0:0:0:0:
402,192,47436,1,0,0:0:0:0:
36,192,47436,1,0,0:0:0:0:
182,192,47513,1,0,0:0:0:0:
256,192,47590,1,0,0:0:0:0:
36,192,47590,1,0,0:0:0:0:
109,192,47667,1,0,0:0:0:0:
182,192,47744,1,0,0:0:0:0:
329,192,47744,1,0,0:0:0:0:
402,192,47744,1,0,0:0:0:0:
36,192,47744,1,0,0:0:0:0:
475,192,47821,1,0,0:0:0:0:
256,192,47898,1,0,0:0:0:0:
109,192,47898,1,0,0:0:0:0:
402,192,47975,1,0,0:0:0:0:
182,192,48051,1,0,0:0:0:0:
109,192,48051,1,0,0:0:0:0:
36,192,48051,1,0,0:0:0:0:
256,192,48051,1,0,0:0:0:0:
475,192,48051,1,0,0:0:0:0:
329,192,48128,1,0,0:0:0:0:
109,192,48205,1,0,0:0:0:0:
402,192,48205,1,0,0:0:0:0:
256,192,48282,1,0,0:0:0:0:
182,192,48359,1,0,0:0:0:0:
329,192,48359,1,0,0:0:0:0:
475,192,48359,1,0,0:0:0:0:
402,192,48359,1,0,0:0:0:0:
36,192,48436,1,0,0:0:0:0:
256,192,48513,1,0,0:0:0:0:
182,192,48513,1,0,0:0:0:0:
109,192,48590,1,0,0:0:0:0:
329,192,48667,1,0,0:0:0:0:
402,192,48667,1,0,0:0:0:0:
475,192,48667,1,0,0:0:0:0:
256,192,48667,1,0,0:0:0:0:
36,192,48667,1,0,0:0:0:0:
182,192,48744,1,0,0:0:0:0:
402,192,48821,1,0,0:0:0:0:
109,192,48821,1,0,0:0:0:0:
256,192,48898,1,0,0:0:0:0:
182,192,48975,1,0,0:0:0:0:
329,192,48975,1,0,0:0:0:0:
475,192,48975,1,0,0:0:0:0:
402,192,48975,1,0,0:0:0:0:
36,192,49051,1,0,0:0:0:0:
256,192,49128,1,0,0:0:0:0:
182,192,49128,1,0,0:0:0:0:
109,192,49205,1,0,0:0:0:0:
329,192,49282,1,0,0:0:0:0:
256,192,49282,1,0,0:0:0:0:
402,192,49282,1,0,0:0:0:0:
475,192,49282,1,0,0:0:0:0:
36,192,49282,1,0,0:0:0:0:
182,192,49359,1,0,0:0:0:0:
402,192,49436,1,0,0:0:0:0:
109,192,49436,1,0,0:0:0:0:
256,192,49513,1,0,0:0:0:0:
36,192,49590,1,0,0:0:0:0:
109,192,49590,1,0,0:0:0:0:
329,192,49590,1,0,0:0:0:0:
402,192,49667,1,0,0:0:0:0:
182,192,49667,1,0,0:0:0:0:
475,192,49667,1,0,0:0:0:0:
256,192,49744,1,0,0:0:0:0:
36,192,49821,1,0,0:0:0:0:
109,192,49821,1,0,0:0:0:0:
329,192,49821,1,0,0:0:0:0:
475,192,49898,1,0,0:0:0:0:
256,192,49898,1,0,0:0:0:0:
182,192,49898,1,0,0:0:0:0:
402,192,49898,1,0,0:0:0:0:
329,192,49975,1,0,0:0:0:0:
109,192,49975,1,0,0:0:0:0:
36,192,49975,1,0,0:0:0:0:
475,192,50051,1,0,0:0:0:0:
256,192,50051,1,0,0:0:0:0:
182,192,50051,1,0,0:0:0:0:
329,192,50128,1,0,0:0:0:0:
402,192,50128,1,0,0:0:0:0:
109,192,50128,1,0,0:0:0:0:
475,192,50205,1,0,0:0:0:0:
36,192,50205,1,0,0:0:0:0:
256,192,50205,1,0,0:0:0:0:
182,192,50205,1,0,0:0:0:0:
329,192,50282,1,0,0:0:0:0:
402,192,50359,1,0,0:0:0:0:
109,192,50359,1,0,0:0:0:0:
256,192,50436,1,0,0:0:0:0:
182,192,50513,1,0,0:0:0:0:
36,192,50513,1,0,0:0:0:0:
402,192,50513,1,0,0:0:0:0:
475,192,50513,1,0,0:0:0:0:
109,192,50513,1,0,0:0:0:0:
329,192,50590,1,0,0:0:0:0:
256,192,50667,1,0,0:0:0:0:
36,192,50667,1,0,0:0:0:0:
402,192,50744,1,0,0:0:0:0:
329,192,50821,1,0,0:0:0:0:
109,192,50821,1,0,0:0:0:0:
182,192,50821,1,0,0:0:0:0:
36,192,50821,1,0,0:0:0:0:
475,192,50898,1,0,0:0:0:0:
256,192,50975,1,0,0:0:0:0:
182,192,50975,1,0,0:0:0:0:
402,192,51051,1,0,0:0:0:0:
182,192,51128,1,0,0:0:0:0:
256,192,51128,1,0,0:0:0:0:
475,192,51128,1,0,0:0:0:0:
36,192,51128,1,0,0:0:0:0:
109,192,51128,1,0,0:0:0:0:
329,192,51205,1,0,0:0:0:0:
109,192,51282,1,0,0:0:0:0:
402,192,51282,1,0,0:0:0:0:
256,192,51359,1,0,0:0:0:0:
475,192,51436,1,0,0:0:0:0:
182,192,51436,1,0,0:0:0:0:
36,192,51436,1,0,0:0:0:0:
109,192,51436,1,0,0:0:0:0:
329,192,51513,1,0,0:0:0:0:
402,192,51590,1,0,0:0:0:0:
182,192,51590,1,0,0:0:0:0:
256,192,51667,1,0,0:0:0:0:
329,192,51744,1,0,0:0:0:0:
402,192,51744,1,0,0:0:0:0:
475,192,51744,1,0,0:0:0:0:
109,192,51744,1,0,0:0:0:0:
36,192,51744,1,0,0:0:0:0:
182,192,51821,1,0,0:0:0:0:
256,192,51898,1,0,0:0:0:0:
475,192,51898,1,0,0:0:0:0:
109,192,51975,1,0,0:0:0:0:
182,192,52051,1,0,0:0:0:0:
329,192,52051,1,0,0:0:0:0:
475,192,52051,1,0,0:0:0:0:
402,192,52051,1,0,0:0:0:0:
36,192,52128,1,0,0:0:0:0:
256,192,52205,1,0,0:0:0:0:
329,192,52205,1,0,0:0:0:0:
109,192,52282,1,0,0:0:0:0:
329,192,52359,1,0,0:0:0:0:
475,192,52359,1,0,0:0:0:0:
256,192,52359,1,0,0:0:0:0:
36,192,52359,1,0,0:0:0:0:
402,192,52359,1,0,0:0:0:0:
182,192,52436,1,0,0:0:0:0:
402,192,52513,1,0,0:0:0:0:
109,192,52513,1,0,0:0:0:0:
256,192,52590,1,0,0:0:0:0:
36,192,52667,1,0,0:0:0:0:
475,192,52667,1,0,0:0:0:0:
329,192,52667,1,0,0:0:0:0:
109,192,52667,1,0,0:0:0:0:
182,192,52744,1,0,0:0:0:0:
329,192,52821,1,0,0:0:0:0:
402,192,52821,1,0,0:0:0:0:
109,192,52898,1,0,0:0:0:0:
256,192,52975,1,0,0:0:0:0:
36,192,52975,1,0,0:0:0:0:
329,192,52975,1,0,0:0:0:0:
475,192,52975,1,0,0:0:0:0:
182,192,52975,1,0,0:0:0:0:
402,192,53051,1,0,0:0:0:0:
182,192,53128,1,0,0:0:0:0:
109,192,53128,1,0,0:0:0:0:
329,192,53205,1,0,0:0:0:0:
475,192,53282,1,0,0:0:0:0:
402,192,53282,1,0,0:0:0:0:
182,192,53282,1,0,0:0:0:0:
36,192,53282,1,0,0:0:0:0:
109,192,53359,1,0,0:0:0:0:
256,192,53436,1,0,0:0:0:0:
182,192,53436,1,0,0:0:0:0:
402,192,53513,1,0,0:0:0:0:
36,192,53590,1,0,0:0:0:0:
109,192,53590,1,0,0:0:0:0:
256,192,53590,1,0,0:0:0:0:
329,192,53590,1,0,0:0:0:0:
475,192,53590,1,0,0:0:0:0:
182,192,53667,1,0,0:0:0:0:
329,192,53744,1,0,0:0:0:0:
402,192,53744,1,0,0:0:0:0:
109,192,53821,1,0,0:0:0:0:
475,192,53898,1,0,0:0:0:0:
256,192,53898,1,0,0:0:0:0:
402,192,53898,1,0,0:0:0:0:
36,192,53898,1,0,0:0:0:0:
329,192,53975,1,0,0:0:0:0:
182,192,54051,1,0,0:0:0:0:
109,192,54051,1,0,0:0:0:0:
402,192,54128,1,0,0:0:0:0:
256,192,54205,1,0,0:0:0:0:
182,192,54205,1,0,0:0:0:0:
36,192,54205,1,0,0:0:0:0:
329,192,54205,1,0,0:0:0:0:
475,192,54205,1,0,0:0:0:0:
109,192,54282,1,0,0:0:0:0:
329,192,54359,1,0,0:0:0:0:
402,192,54359,1,0,0:0:0:0:
182,192,54436,1,0,0:0:0:0:
36,192,54513,1,0,0:0:0:0:
256,192,54513,1,0,0:0:0:0:
109,192,54513,1,0,0:0:0:0:
475,192,54513,1,0,0:0:0:0:
402,192,54590,1,0,0:0:0:0:
256,192,54667,1,0,0:0:0:0:
329,192,54667,1,0,0:0:0:0:
109,192,54744,1,0,0:0:0:0:
475,192,54821,1,0,0:0:0:0:
402,192,54821,1,0,0:0:0:0:
36,192,54821,1,0,0:0:0:0:
182,192,54821,1,0,0:0:0:0:
329,192,54821,1,0,0:0:0:0:
256,192,54898,1,0,0:0:0:0:
36,192,54975,1,0,0:0:0:0:
475,192,54975,1,0,0:0:0:0:
109,192,54975,1,0,0:0:0:0:
402,192,54975,1,0,0:0:0:0:
256,192,55051,1,0,0:0:0:0:
329,192,55128,1,0,0:0:0:0:
109,192,55128,1,0,0:0:0:0:
36,192,55128,1,0,0:0:0:0:
475,192,55128,1,0,0:0:0:0:
182,192,55128,1,0,0:0:0:0:
402,192,55205,1,0,0:0:0:0:
329,192,55282,1,0,0:0:0:0:
256,192,55282,1,0,0:0:0:0:
182,192,55359,1,0,0:0:0:0:
475,192,55436,1,0,0:0:0:0:
402,192,55436,1,0,0:0:0:0:
36,192,55436,1,0,0:0:0:0:
109,192,55436,1,0,0:0:0:0:
256,192,55436,1,0,0:0:0:0:
329,192,55513,1,0,0:0:0:0:
182,192,55590,1,0,0:0:0:0:
256,192,55590,1,0,0:0:0:0:
36,192,55667,1,0,0:0:0:0:
256,192,55744,1,0,0:0:0:0:
109,192,55744,1,0,0:0:0:0:
402,192,55744,1,0,0:0:0:0:
475,192,55744,1,0,0:0:0:0:
329,192,55821,1,0,0:0:0:0:
402,192,55898,1,0,0:0:0:0:
182,192,55898,1,0,0:0:0:0:
256,192,55975,1,0,0:0:0:0:
329,192,56051,1,0,0:0:0:0:
109,192,56051,1,0,0:0:0:0:
36,192,56051,1,0,0:0:0:0:
402,192,56051,1,0,0:0:0:0:
475,192,56051,1,0,0:0:0:0:
182,192,56128,1,0,0:0:0:0:
256,192,56205,1,0,0:0:0:0:
36,192,56205,1,0,0:0:0:0:
109,192,56282,1,0,0:0:0:0:
182,192,56359,1,0,0:0:0:0:
402,192,56359,1,0,0:0:0:0:
475,192,56359,1,0,0:0:0:0:
256,192,56359,1,0,0:0:0:0:
329,192,56436,1,0,0:0:0:0:
109,192,56513,1,0,0:0:0:0:
182,192,56513,1,0,0:0:0:0:
256,192,56590,1,0,0:0:0:0:
36,192,56667,1,0,0:0:0:0:
109,192,56667,1,0,0:0:0:0:
329,192,56667,1,0,0:0:0:0:
402,192,56667,1,0,0:0:0:0:
475,192,56667,1,0,0:0:0:0:
182,192,56744,1,0,0:0:0:0:
329,192,56821,1,0,0:0:0:0:
256,192,56821,1,0,0:0:0:0:
475,192,56898,1,0,0:0:0:0:
256,192,56975,1,0,0:0:0:0:
109,192,56975,1,0,0:0:0:0:
402,192,56975,1,0,0:0:0:0:
36,192,56975,1,0,0:0:0:0:
182,192,57051,1,0,0:0:0:0:
109,192,57128,1,0,0:0:0:0:
329,192,57128,1,0,0:0:0:0:
256,192,57205,1,0,0:0:0:0:
182,192,57282,1,0,0:0:0:0:
402,192,57282,1,0,0:0:0:0:
36,192,57282,1,0,0:0:0:0:
109,192,57282,1,0,0:0:0:0:
475,192,57282,1,0,0:0:0:0:
329,192,57359,1,0,0:0:0:0:
256,192,57436,1,0,0:0:0:0:
475,192,57436,1,0,0:0:0:0:
402,192,57513,1,0,0:0:0:0:
329,192,57590,1,0,0:0:0:0:
182,192,57590,1,0,0:0:0:0:
36,192,57590,1,0,0:0:0:0:
475,192,57590,1,0,0:0:0:0:
109,192,57667,1,0,0:0:0:0:
182,192,57744,1,0,0:0:0:0:
402,192,57744,1,0,0:0:0:0:
256,192,57821,1,0,0:0:0:0:
329,192,57898,1,0,0:0:0:0:
475,192,57898,1,0,0:0:0:0:
109,192,57898,1,0,0:0:0:0:
36,192,57898,1,0,0:0:0:0:
402,192,57975,1,0,0:0:0:0:
329,192,58051,1,0,0:0:0:0:
109,192,58051,1,0,0:0:0:0:
256,192,58128,1,0,0:0:0:0:
182,192,58205,1,0,0:0:0:0:
36,192,58205,1,0,0:0:0:0:
475,192,58205,1,0,0:0:0:0:
329,192,58282,1,0,0:0:0:0:
402,192,58359,1,0,0:0:0:0:
109,192,58359,1,0,0:0:0:0:
182,192,58436,1,0,0:0:0:0:
256,192,58513,1,0,0:0:0:0:
475,192,58513,1,0,0:0:0:0:
36,192,58513,1,0,0:0:0:0:
402,192,58513,1,0,0:0:0:0:
329,192,58590,1,0,0:0:0:0:
182,192,58667,1,0,0:0:0:0:
475,192,58667,1,0,0:0:0:0:
36,192,58744,1,0,0:0:0:0:
329,192,58821,1,0,0:0:0:0:
475,192,58821,1,0,0:0:0:0:
256,192,58821,1,0,0:0:0:0:
182,192,58898,1,0,0:0:0:0:
109,192,58975,1,0,0:0:0:0:
402,192,58975,1,0,0:0:0:0:
329,192,59051,1,0,0:0:0:0:
256,192,59128,1,0,0:0:0:0:
109,192,59128,1,0,0:0:0:0:
36,192,59128,1,0,0:0:0:0:
475,192,59128,1,0,0:0:0:0:
182,192,59205,1,0,0:0:0:0:
329,192,59282,1,0,0:0:0:0:
36,192,59282,1,0,0:0:0:0:
256,192,59359,1,0,0:0:0:0:
475,192,59436,1,0,0:0:0:0:
402,192,59436,1,0,0:0:0:0:
109,192,59436,1,0,0:0:0:0:
182,192,59513,1,0,0:0:0:0:
256,192,59590,1,0,0:0:0:0:
36,192,59590,1,0,0:0:0:0:
329,192,59667,1,0,0:0:0:0:
36,192,59744,1,0,0:0:0:0:
402,192,59744,1,0,0:0:0:0:
475,192,59744,1,0,0:0:0:0:
182,192,59744,1,0,0:0:0:0:
329,192,59821,1,0,0:0:0:0:
475,192,59898,1,0,0:0:0:0:
109,192,59898,1,0,0:0:0:0:
182,192,59975,1,0,0:0:0:0:
256,192,60051,1,0,0:0:0:0:
329,192,60051,1,0,0:0:0:0:
36,192,60051,1,0,0:0:0:0:
475,192,60051,1,0,0:0:0:0:
402,192,60051,1,0,0:0:0:0:
109,192,60051,1,0,0:0:0:0:
182,192,60128,1,0,0:0:0:0:
109,192,60205,1,0,0:0:0:0:
329,192,60205,1,0,0:0:0:0:
256,192,60282,1,0,0:0:0:0:
182,192,60359,1,0,0:0:0:0:
36,192,60359,1,0,0:0:0:0:
402,192,60359,1,0,0:0:0:0:
475,192,60359,1,0,0:0:0:0:
109,192,60359,1,0,0:0:0:0:
329,192,60436,1,0,0:0:0:0:
256,192,60513,1,0,0:0:0:0:
36,192,60513,1,0,0:0:0:0:
402,192,60590,1,0,0:0:0:0:
329,192,60667,1,0,0:0:0:0:
109,192,60667,1,0,0:0:0:0:
182,192,60667,1,0,0:0:0:0:
36,192,60667,1,0,0:0:0:0:
475,192,60744,1,0,0:0:0:0:
256,192,60821,1,0,0:0:0:0:
182,192,60821,1,0,0:0:0:0:
402,192,60898,1,0,0:0:0:0:
182,192,60975,1,0,0:0:0:0:
256,192,60975,1,0,0:0:0:0:
475,192,60975,1,0,0:0:0:0:
36,192,60975,1,0,0:0:0:0:
109,192,60975,1,0,0:0:0:0:
329,192,61051,1,0,0:0:0:0:
109,192,61128,1,0,0:0:0:0:
402,192,61128,1,0,0:0:0:0:
256,192,61205,1,0,0:0:0:0:
475,192,61282,1,0,0:0:0:0:
182,192,61282,1,0,0:0:0:0:
36,192,61282,1,0,0:0:0:0:
109,192,61282,1,0,0:0:0:0:
329,192,61359,1,0,0:0:0:0:
402,192,61436,1,0,0:0:0:0:
182,192,61436,1,0,0:0:0:0:
256,192,61513,1,0,0:0:0:0:
329,192,61590,1,0,0:0:0:0:
402,192,61590,1,0,0:0:0:0:
475,192,61590,1,0,0:0:0:0:
109,192,61590,1,0,0:0:0:0:
36,192,61590,1,0,0:0:0:0:
182,192,61667,1,0,0:0:0:0:
256,192,61744,1,0,0:0:0:0:
475,192,61744,1,0,0:0:0:0:
109,192,61821,1,0,0:0:0:0:
182,192,61898,1,0,0:0:0:0:
329,192,61898,1,0,0:0:0:0:
475,192,61898,1,0,0:0:0:0:
402,192,61898,1,0,0:0:0:0:
36,192,61975,1,0,0:0:0:0:
256,192,62051,1,0,0:0:0:0:
329,192,62051,1,0,0:0:0:0:
109,192,62128,1,0,0:0:0:0:
329,192,62205,1,0,0:0:0:0:
475,192,62205,1,0,0:0:0:0:
256,192,62205,1,0,0:0:0:0:
36,192,62205,1,0,0:0:0:0:
402,192,62205,1,0,0:0:0:0:
182,192,62282,1,0,0:0:0:0:
402,192,62359,1,0,0:0:0:0:
109,192,62359,1,0,0:0:0:0:
256,192,62436,1,0,0:0:0:0:
36,192,62513,1,0,0:0:0:0:
475,192,62513,1,0,0:0:0:0:
329,192,62513,1,0,0:0:0:0:
109,192,62513,1,0,0:0:0:0:
182,192,62590,1,0,0:0:0:0:
329,192,62667,1,0,0:0:0:0:
402,192,62667,1,0,0:0:0:0:
109,192,62744,1,0,0:0:0:0:
256,192,62821,1,0,0:0:0:0:
36,192,62821,1,0,0:0:0:0:
329,192,62821,1,0,0:0:0:0:
475,192,62821,1,0,0:0:0:0:
182,192,62821,1,0,0:0:0:0:
402,192,62898,1,0,0:0:0:0:
182,192,62975,1,0,0:0:0:0:
109,192,62975,1,0,0:0:0:0:
329,192,63051,1,0,0:0:0:0:
475,192,63128,1,0,0:0:0:0:
402,192,63128,1,0,0:0:0:0:
182,192,63128,1,0,0:0:0:0:
36,192,63128,1,0,0:0:0:0:
109,192,63205,1,0,0:0:0:0:
256,192,63282,1,0,0:0:0:0:
182,192,63282,1,0,0:0:0:0:
402,192,63359,1,0,0:0:0:0:
36,192,63436,1,0,0:0:0:0:
109,192,63436,1,0,0:0:0:0:
256,192,63436,1,0,0:0:0:0:
329,192,63436,1,0,0:0:0:0:
475,192,63436,1,0,0:0:0:0:
182,192,63513,1,0,0:0:0:0:
329,192,63590,1,0,0:0:0:0:
402,192,63590,1,0,0:0:0:0:
109,192,63667,1,0,0:0:0:0:
475,192,63744,1,0,0:0:0:0:
256,192,63744,1,0,0:0:0:0:
402,192,63744,1,0,0:0:0:0:
36,192,63744,1,0,0:0:0:0:
329,192,63821,1,0,0:0:0:0:
182,192,63898,1,0,0:0:0:0:
109,192,63898,1,0,0:0:0:0:
402,192,63975,1,0,0:0:0:0:
256,192,64051,1,0,0:0:0:0:
182,192,64051,1,0,0:0:0:0:
36,192,64051,1,0,0:0:0:0:
329,192,64051,1,0,0:0:0:0:
475,192,64051,1,0,0:0:0:0:
109,192,64128,1,0,0:0:0:0:
329,192,64205,1,0,0:0:0:0:
402,192,64205,1,0,0:0:0:0:
182,192,64282,1,0,0:0:0:0:
36,192,64359,1,0,0:0:0:0:
256,192,64359,1,0,0:0:0:0:
109,192,64359,1,0,0:0:0:0:
475,192,64359,1,0,0:0:0:0:
402,192,64436,1,0,0:0:0:0:
256,192,64513,1,0,0:0:0:0:
329,192,64513,1,0,0:0:0:0:
109,192,64590,1,0,0:0:0:0:
475,192,64667,1,0,0:0:0:0:
402,192,64667,1,0,0:0:0:0:
36,192,64667,1,0,0:0:0:0:
182,192,64667,1,0,0:0:0:0:
329,192,64667,1,0,0:0:0:0:
256,192,64744,1,0,0:0:0:0:
36,192,64821,1,0,0:0:0:0:
475,192,64821,1,0,0:0:0:0:
109,192,64821,1,0,0:0:0:0:
402,192,64821,1,0,0:0:0:0:
256,192,64898,1,0,0:0:0:0:
329,192,64975,1,0,0:0:0:0:
182,192,64975,1,0,0:0:0:0:
36,192,64975,1,0,0:0:0:0:
475,192,64975,1,0,0:0:0:0:
402,192,64975,1,0,0:0:0:0:
109,192,65051,1,0,0:0:0:0:
256,192,65128,1,0,0:0:0:0:
329,192,65128,1,0,0:0:0:0:
182,192,65205,1,0,0:0:0:0:
475,192,65282,1,0,0:0:0:0:
402,192,65282,1,0,0:0:0:0:
36,192,65282,1,0,0:0:0:0:
109,192,65282,1,0,0:0:0:0:
256,192,65282,1,0,0:0:0:0:
329,192,65359,1,0,0:0:0:0:
182,192,65436,1,0,0:0:0:0:
256,192,65436,1,0,0:0:0:0:
36,192,65513,1,0,0:0:0:0:
256,192,65590,1,0,0:0:0:0:
109,192,65590,1,0,0:0:0:0:
402,192,65590,1,0,0:0:0:0:
475,192,65590,1,0,0:0:0:0:
329,192,65667,1,0,0:0:0:0:
402,192,65744,1,0,0:0:0:0:
182,192,65744,1,0,0:0:0:0:
256,192,65821,1,0,0:0:0:0:
329,192,65898,1,0,0:0:0:0:
109,192,65898,1,0,0:0:0:0:
36,192,65898,1,0,0:0:0:0:
402,192,65898,1,0,0:0:0:0:
475,192,65898,1,0,0:0:0:0:
182,192,65975,1,0,0:0:0:0:
256,192,66051,1,0,0:0:0:0:
36,192,66051,1,0,0:0:0:0:
109,192,66128,1,0,0:0:0:0:
182,192,66205,1,0,0:0:0:0:
402,192,66205,1,0,0:0:0:0:
475,192,66205,1,0,0:0:0:0:
256,192,66205,1,0,0:0:0:0:
329,192,66282,1,0,0:0:0:0:
109,192,66359,1,0,0:0:0:0:
182,192,66359,1,0,0:0:0:0:
256,192,66436,1,0,0:0:0:0:
36,192,66513,1,0,0:0:0:0:
109,192,66513,1,0,0:0:0:0:
329,192,66513,1,0,0:0:0:0:
402,192,66513,1,0,0:0:0:0:
475,192,66513,1,0,0:0:0:0:
182,192,66590,1,0,0:0:0:0:
329,192,66667,1,0,0:0:0:0:
256,192,66667,1,0,0:0:0:0:
475,192,66744,1,0,0:0:0:0:
256,192,66821,1,0,0:0:0:0:
109,192,66821,1,0,0:0:0:0:
402,192,66821,1,0,0:0:0:0:
36,192,66821,1,0,0:0:0:0:
182,192,66898,1,0,0:0:0:0:
109,192,66975,1,0,0:0:0:0:
329,192,66975,1,0,0:0:0:0:
256,192,67051,1,0,0:0:0:0:
182,192,67128,1,0,0:0:0:0:
402,192,67128,1,0,0:0:0:0:
36,192,67128,1,0,0:0:0:0:
109,192,67128,1,0,0:0:0:0:
475,192,67128,1,0,0:0:0:0:
329,192,67205,1,0,0:0:0:0:
256,192,67282,1,0,0:0:0:0:
475,192,67282,1,0,0:0:0:0:
402,192,67359,1,0,0:0:0:0:
329,192,67436,1,0,0:0:0:0:
182,192,67436,1,0,0:0:0:0:
109,192,67436,1,0,0:0:0:0:
475,192,67436,1,0,0:0:0:0:
36,192,67513,1,0,0:0:0:0:
256,192,67590,1,0,0:0:0:0:
402,192,67590,1,0,0:0:0:0:
109,192,67667,1,0,0:0:0:0:
329,192,67744,1,0,0:0:0:0:
402,192,67744,1,0,0:0:0:0:
475,192,67744,1,0,0:0:0:0:
256,192,67744,1,0,0:0:0:0:
36,192,67744,1,0,0:0:0:0:
182,192,67821,1,0,0:0:0:0:
402,192,67898,1,0,0:0:0:0:
109,192,67898,1,0,0:0:0:0:
256,192,67975,1,0,0:0:0:0:
329,192,68051,1,0,0:0:0:0:
182,192,68051,1,0,0:0:0:0:
36,192,68051,1,0,0:0:0:0:
109,192,68051,1,0,0:0:0:0:
475,192,68128,1,0,0:0:0:0:
256,192,68205,1,0,0:0:0:0:
329,192,68205,1,0,0:0:0:0:
402,192,68282,1,0,0:0:0:0:
182,192,68359,1,0,0:0:0:0:
109,192,68359,1,0,0:0:0:0:
36,192,68359,1,0,0:0:0:0:
256,192,68359,1,0,0:0:0:0:
475,192,68359,1,0,0:0:0:0:
329,192,68436,1,0,0:0:0:0:
109,192,68513,1,0,0:0:0:0:
402,192,68513,1,0,0:0:0:0:
256,192,68590,1,0,0:0:0:0:
329,192,68667,1,0,0:0:0:0:
182,192,68667,1,0,0:0:0:0:
36,192,68667,1,0,0:0:0:0:
109,192,68667,1,0,0:0:0:0:
475,192,68744,1,0,0:0:0:0:
256,192,68821,1,0,0:0:0:0:
329,192,68821,1,0,0:0:0:0:
402,192,68898,1,0,0:0:0:0:
182,192,68975,1,0,0:0:0:0:
256,192,68975,1,0,0:0:0:0:
109,192,68975,1,0,0:0:0:0:
36,192,68975,1,0,0:0:0:0:
475,192,68975,1,0,0:0:0:0:
329,192,69051,1,0,0:0:0:0:
109,192,69128,1,0,0:0:0:0:
402,192,69128,1,0,0:0:0:0:
256,192,69205,1,0,0:0:0:0:
475,192,69282,1,0,0:0:0:0:
402,192,69282,1,0,0:0:0:0:
182,192,69282,1,0,0:0:0:0:
109,192,69359,1,0,0:0:0:0:
329,192,69359,1,0,0:0:0:0:
36,192,69359,1,0,0:0:0:0:
256,192,69436,1,0,0:0:0:0:
475,192,69513,1,0,0:0:0:0:
402,192,69513,1,0,0:0:0:0:
182,192,69513,1,0,0:0:0:0:
36,192,69590,1,0,0:0:0:0:
256,192,69590,1,0,0:0:0:0:
329,192,69590,1,0,0:0:0:0:
109,192,69590,1,0,0:0:0:0:
182,192,69667,1,0,0:0:0:0:
402,192,69667,1,0,0:0:0:0:
475,192,69667,1,0,0:0:0:0:
36,192,69744,1,0,0:0:0:0:
256,192,69744,1,0,0:0:0:0:
329,192,69744,1,0,0:0:0:0:
182,192,69821,1,0,0:0:0:0:
109,192,69821,1,0,0:0:0:0:
402,192,69821,1,0,0:0:0:0:
36,192,69898,1,0,0:0:0:0:
475,192,69898,1,0,0:0:0:0:
256,192,69898,1,0,0:0:0:0:
329,192,69898,1,0,0:0:0:0:
182,192,69975,1,0,0:0:0:0:
109,192,70051,1,0,0:0:0:0:
402,192,70051,1,0,0:0:0:0:
256,192,70128,1,0,0:0:0:0:
329,192,70205,1,0,0:0:0:0:
475,192,70205,1,0,0:0:0:0:
109,192,70205,1,0,0:0:0:0:
36,192,70205,1,0,0:0:0:0:
402,192,70205,1,0,0:0:0:0:
182,192,70282,1,0,0:0:0:0:
256,192,70359,1,0,0:0:0:0:
475,192,70359,1,0,0:0:0:0:
109,192,70436,1,0,0:0:0:0:
182,192,70513,1,0,0:0:0:0:
402,192,70513,1,0,0:0:0:0:
329,192,70513,1,0,0:0:0:0:
475,192,70513,1,0,0:0:0:0:
36,192,70590,1,0,0:0:0:0:
256,192,70667,1,0,0:0:0:0:
329,192,70667,1,0,0:0:0:0:
109,192,70744,1,0,0:0:0:0:
329,192,70821,1,0,0:0:0:0:
256,192,70821,1,0,0:0:0:0:
36,192,70821,1,0,0:0:0:0:
475,192,70821,1,0,0:0:0:0:
402,192,70821,1,0,0:0:0:0:
182,192,70898,1,0,0:0:0:0:
402,192,70975,1,0,0:0:0:0:
109,192,70975,1,0,0:0:0:0:
256,192,71051,1,0,0:0:0:0:
36,192,71128,1,0,0:0:0:0:
329,192,71128,1,0,0:0:0:0:
475,192,71128,1,0,0:0:0:0:
402,192,71128,1,0,0:0:0:0:
182,192,71205,1,0,0:0:0:0:
109,192,71282,1,0,0:0:0:0:
329,192,71282,1,0,0:0:0:0:
256,192,71359,1,0,0:0:0:0:
182,192,71436,1,0,0:0:0:0:
109,192,71436,1,0,0:0:0:0:
36,192,71436,1,0,0:0:0:0:
402,192,71436,1,0,0:0:0:0:
475,192,71436,1,0,0:0:0:0:
329,192,71513,1,0,0:0:0:0:
256,192,71590,1,0,0:0:0:0:
36,192,71590,1,0,0:0:0:0:
402,192,71667,1,0,0:0:0:0:
329,192,71744,1,0,0:0:0:0:
182,192,71744,1,0,0:0:0:0:
36,192,71744,1,0,0:0:0:0:
109,192,71744,1,0,0:0:0:0:
475,192,71821,1,0,0:0:0:0:
256,192,71898,1,0,0:0:0:0:
182,192,71898,1,0,0:0:0:0:
402,192,71975,1,0,0:0:0:0:
182,192,72051,1,0,0:0:0:0:
36,192,72051,1,0,0:0:0:0:
256,192,72051,1,0,0:0:0:0:
475,192,72051,1,0,0:0:0:0:
109,192,72051,1,0,0:0:0:0:
329,192,72128,1,0,0:0:0:0:
109,192,72205,1,0,0:0:0:0:
402,192,72205,1,0,0:0:0:0:
256,192,72282,1,0,0:0:0:0:
475,192,72359,1,0,0:0:0:0:
36,192,72359,1,0,0:0:0:0:
182,192,72359,1,0,0:0:0:0:
402,192,72359,1,0,0:0:0:0:
329,192,72436,1,0,0:0:0:0:
182,192,72513,1,0,0:0:0:0:
109,192,72513,1,0,0:0:0:0:
402,192,72590,1,0,0:0:0:0:
256,192,72667,1,0,0:0:0:0:
475,192,72667,1,0,0:0:0:0:
182,192,72667,1,0,0:0:0:0:
36,192,72667,1,0,0:0:0:0:
329,192,72667,1,0,0:0:0:0:
109,192,72744,1,0,0:0:0:0:
329,192,72821,1,0,0:0:0:0:
402,192,72821,1,0,0:0:0:0:
182,192,72898,1,0,0:0:0:0:
36,192,72975,1,0,0:0:0:0:
109,192,72975,1,0,0:0:0:0:
329,192,72975,1,0,0:0:0:0:
475,192,72975,1,0,0:0:0:0:
402,192,73051,1,0,0:0:0:0:
256,192,73128,1,0,0:0:0:0:
329,192,73128,1,0,0:0:0:0:
109,192,73205,1,0,0:0:0:0:
475,192,73282,1,0,0:0:0:0:
402,192,73282,1,0,0:0:0:0:
256,192,73282,1,0,0:0:0:0:
182,192,73282,1,0,0:0:0:0:
36,192,73282,1,0,0:0:0:0:
329,192,73359,1,0,0:0:0:0:
182,192,73436,1,0,0:0:0:0:
109,192,73436,1,0,0:0:0:0:
402,192,73513,1,0,0:0:0:0:
36,192,73590,1,0,0:0:0:0:
256,192,73590,1,0,0:0:0:0:
109,192,73590,1,0,0:0:0:0:
475,192,73590,1,0,0:0:0:0:
182,192,73667,1,0,0:0:0:0:
329,192,73744,1,0,0:0:0:0:
402,192,73744,1,0,0:0:0:0:
109,192,73821,1,0,0:0:0:0:
256,192,73898,1,0,0:0:0:0:
329,192,73898,1,0,0:0:0:0:
475,192,73898,1,0,0:0:0:0:
182,192,73898,1,0,0:0:0:0:
36,192,73898,1,0,0:0:0:0:
402,192,73975,1,0,0:0:0:0:
182,192,74051,1,0,0:0:0:0:
109,192,74051,1,0,0:0:0:0:
329,192,74128,1,0,0:0:0:0:
475,192,74205,1,0,0:0:0:0:
256,192,74205,1,0,0:0:0:0:
402,192,74205,1,0,0:0:0:0:
36,192,74205,1,0,0:0:0:0:
109,192,74282,1,0,0:0:0:0:
256,192,74359,1,0,0:0:0:0:
182,192,74359,1,0,0:0:0:0:
402,192,74436,1,0,0:0:0:0:
36,192,74513,1,0,0:0:0:0:
109,192,74513,1,0,0:0:0:0:
256,192,74513,1,0,0:0:0:0:
475,192,74513,1,0,0:0:0:0:
329,192,74513,1,0,0:0:0:0:
182,192,74590,1,0,0:0:0:0:
329,192,74667,1,0,0:0:0:0:
475,192,74667,1,0,0:0:0:0:
402,192,74667,1,0,0:0:0:0:
109,192,74667,1,0,0:0:0:0:
256,192,74744,1,0,0:0:0:0:
402,192,74821,1,0,0:0:0:0:
475,192,74821,1,0,0:0:0:0:
36,192,74821,1,0,0:0:0:0:
109,192,74821,1,0,0:0:0:0:
182,192,74821,1,0,0:0:0:0:
329,192,74898,1,0,0:0:0:0:
182,192,74975,1,0,0:0:0:0:
256,192,74975,1,0,0:0:0:0:
329,192,75051,1,0,0:0:0:0:
36,192,75128,1,0,0:0:0:0:
109,192,75128,1,0,0:0:0:0:
475,192,75128,1,0,0:0:0:0:
402,192,75128,1,0,0:0:0:0:
256,192,75128,1,0,0:0:0:0:
182,192,75205,1,0,0:0:0:0:
329,192,75282,1,0,0:0:0:0:
256,192,75282,1,0,0:0:0:0:
475,192,75359,1,0,0:0:0:0:
256,192,75436,1,0,0:0:0:0:
402,192,75436,1,0,0:0:0:0:
109,192,75436,1,0,0:0:0:0:
36,192,75436,1,0,0:0:0:0:
182,192,75513,1,0,0:0:0:0:
109,192,75590,1,0,0:0:0:0:
329,192,75590,1,0,0:0:0:0:
256,192,75667,1,0,0:0:0:0:
182,192,75744,1,0,0:0:0:0:
402,192,75744,1,0,0:0:0:0:
475,192,75744,1,0,0:0:0:0:
109,192,75744,1,0,0:0:0:0:
36,192,75744,1,0,0:0:0:0:
329,192,75821,1,0,0:0:0:0:
256,192,75898,1,0,0:0:0:0:
475,192,75898,1,0,0:0:0:0:
402,192,75975,1,0,0:0:0:0:
329,192,76051,1,0,0:0:0:0:
109,192,76051,1,0,0:0:0:0:
36,192,76051,1,0,0:0:0:0:
256,192,76051,1,0,0:0:0:0:
182,192,76128,1,0,0:0:0:0:
402,192,76205,1,0,0:0:0:0:
329,192,76205,1,0,0:0:0:0:
256,192,76282,1,0,0:0:0:0:
475,192,76359,1,0,0:0:0:0:
402,192,76359,1,0,0:0:0:0:
182,192,76359,1,0,0:0:0:0:
109,192,76359,1,0,0:0:0:0:
36,192,76359,1,0,0:0:0:0:
329,192,76436,1,0,0:0:0:0:
182,192,76513,1,0,0:0:0:0:
256,192,76513,1,0,0:0:0:0:
36,192,76590,1,0,0:0:0:0:
256,192,76667,1,0,0:0:0:0:
402,192,76667,1,0,0:0:0:0:
109,192,76667,1,0,0:0:0:0:
475,192,76667,1,0,0:0:0:0:
329,192,76744,1,0,0:0:0:0:
402,192,76821,1,0,0:0:0:0:
182,192,76821,1,0,0:0:0:0:
256,192,76898,1,0,0:0:0:0:
329,192,76975,1,0,0:0:0:0:
109,192,76975,1,0,0:0:0:0:
475,192,76975,1,0,0:0:0:0:
402,192,76975,1,0,0:0:0:0:
36,192,76975,1,0,0:0:0:0:
182,192,77051,1,0,0:0:0:0:
256,192,77128,1,0,0:0:0:0:
36,192,77128,1,0,0:0:0:0:
109,192,77205,1,0,0:0:0:0:
182,192,77282,1,0,0:0:0:0:
329,192,77282,1,0,0:0:0:0:
475,192,77282,1,0,0:0:0:0:
36,192,77282,1,0,0:0:0:0:
402,192,77359,1,0,0:0:0:0:
329,192,77436,1,0,0:0:0:0:
109,192,77436,1,0,0:0:0:0:
256,192,77513,1,0,0:0:0:0:
182,192,77590,1,0,0:0:0:0:
36,192,77590,1,0,0:0:0:0:
402,192,77590,1,0,0:0:0:0:
475,192,77590,1,0,0:0:0:0:
109,192,77667,1,0,0:0:0:0:
182,192,77744,1,0,0:0:0:0:
402,192,77744,1,0,0:0:0:0:
256,192,77821,1,0,0:0:0:0:
329,192,77898,1,0,0:0:0:0:
475,192,77898,1,0,0:0:0:0:
36,192,77898,1,0,0:0:0:0:
182,192,77975,1,0,0:0:0:0:
109,192,78051,1,0,0:0:0:0:
402,192,78051,1,0,0:0:0:0:
329,192,78128,1,0,0:0:0:0:
256,192,78205,1,0,0:0:0:0:
36,192,78205,1,0,0:0:0:0:
475,192,78205,1,0,0:0:0:0:
109,192,78205,1,0,0:0:0:0:
182,192,78282,1,0,0:0:0:0:
329,192,78359,1,0,0:0:0:0:
36,192,78359,1,0,0:0:0:0:
475,192,78436,1,0,0:0:0:0:
182,192,78513,1,0,0:0:0:0:
36,192,78513,1,0,0:0:0:0:
256,192,78513,1,0,0:0:0:0:
109,192,78513,1,0,0:0:0:0:
329,192,78590,5,0,0:0:0:0:
402,192,78667,1,0,0:0:0:0:
109,192,78667,1,0,0:0:0:0:
182,192,78744,1,0,0:0:0:0:
256,192,78821,1,0,0:0:0:0:
402,192,78821,1,0,0:0:0:0:
475,192,78821,1,0,0:0:0:0:
329,192,78821,1,0,0:0:0:0:
182,192,78898,1,0,0:0:0:0:
475,192,78975,1,0,0:0:0:0:
36,192,78975,1,0,0:0:0:0:
329,192,79051,1,0,0:0:0:0:
36,192,79128,1,0,0:0:0:0:
109,192,79128,1,0,0:0:0:0:
256,192,79128,1,0,0:0:0:0:
182,192,79128,1,0,0:0:0:0:
402,192,79205,1,0,0:0:0:0:
475,192,79282,1,0,0:0:0:0:
109,192,79282,1,0,0:0:0:0:
36,192,79359,1,0,0:0:0:0:
402,192,79436,1,0,0:0:0:0:
475,192,79436,1,0,0:0:0:0:
329,192,79436,1,0,0:0:0:0:
256,192,79436,1,0,0:0:0:0:
109,192,79513,1,0,0:0:0:0:
182,192,79590,1,0,0:0:0:0:
329,192,79590,1,0,0:0:0:0:
402,192,79667,1,0,0:0:0:0:
182,192,79744,5,0,0:0:0:0:
256,192,79744,1,0,0:0:0:0:
475,192,79744,1,0,0:0:0:0:
36,192,79744,1,0,0:0:0:0:
329,192,79744,1,0,0:0:0:0:
109,192,79821,1,0,0:0:0:0:
36,192,79898,1,0,0:0:0:0:
256,192,79898,1,0,0:0:0:0:
182,192,79975,1,0,0:0:0:0:
109,192,80051,1,0,0:0:0:0:
329,192,80051,1,0,0:0:0:0:
475,192,80051,1,0,0:0:0:0:
402,192,80051,1,0,0:0:0:0:
256,192,80128,1,0,0:0:0:0:
182,192,80205,1,0,0:0:0:0:
402,192,80205,1,0,0:0:0:0:
329,192,80282,1,0,0:0:0:0:
256,192,80359,1,0,0:0:0:0:
475,192,80359,1,0,0:0:0:0:
109,192,80359,1,0,0:0:0:0:
36,192,80359,1,0,0:0:0:0:
402,192,80436,1,0,0:0:0:0:
329,192,80513,1,0,0:0:0:0:
182,192,80513,1,0,0:0:0:0:
109,192,80590,1,0,0:0:0:0:
36,192,80667,1,0,0:0:0:0:
256,192,80667,1,0,0:0:0:0:
402,192,80667,1,0,0:0:0:0:
475,192,80667,1,0,0:0:0:0:
182,192,80744,1,0,0:0:0:0:
109,192,80821,1,0,0:0:0:0:
329,192,80821,1,0,0:0:0:0:
256,192,80898,1,0,0:0:0:0:
182,192,80975,1,0,0:0:0:0:
36,192,80975,1,0,0:0:0:0:
402,192,80975,1,0,0:0:0:0:
475,192,80975,1,0,0:0:0:0:
329,192,81051,1,0,0:0:0:0:
256,192,81128,1,0,0:0:0:0:
475,192,81128,1,0,0:0:0:0:
402,192,81205,1,0,0:0:0:0:
329,192,81282,1,0,0:0:0:0:
182,192,81282,1,0,0:0:0:0:
475,192,81282,1,0,0:0:0:0:
36,192,81282,1,0,0:0:0:0:
109,192,81359,1,0,0:0:0:0:
36,192,81436,1,0,0:0:0:0:
256,192,81436,1,0,0:0:0:0:
182,192,81513,1,0,0:0:0:0:
109,192,81590,1,0,0:0:0:0:
36,192,81590,1,0,0:0:0:0:
329,192,81590,1,0,0:0:0:0:
475,192,81590,1,0,0:0:0:0:
402,192,81667,1,0,0:0:0:0:
475,192,81744,1,0,0:0:0:0:
256,192,81744,1,0,0:0:0:0:
329,192,81821,1,0,0:0:0:0:
402,192,81898,1,0,0:0:0:0:
182,192,81898,1,0,0:0:0:0:
36,192,81898,1,0,0:0:0:0:
109,192,81898,1,0,0:0:0:0:
256,192,81975,1,0,0:0:0:0:
329,192,82051,1,0,0:0:0:0:
109,192,82051,1,0,0:0:0:0:
182,192,82128,1,0,0:0:0:0:
256,192,82205,1,0,0:0:0:0:
475,192,82205,1,0,0:0:0:0:
109,192,82205,1,0,0:0:0:0:
36,192,82205,1,0,0:0:0:0:
402,192,82282,1,0,0:0:0:0:
329,192,82359,1,0,0:0:0:0:
182,192,82359,1,0,0:0:0:0:
402,192,82436,1,0,0:0:0:0:
475,192,82513,1,0,0:0:0:0:
256,192,82513,1,0,0:0:0:0:
109,192,82513,1,0,0:0:0:0:
36,192,82513,1,0,0:0:0:0:
329,192,82590,1,0,0:0:0:0:
402,192,82667,1,0,0:0:0:0:
182,192,82667,1,0,0:0:0:0:
329,192,82744,1,0,0:0:0:0:
256,192,82821,1,0,0:0:0:0:
402,192,82821,1,0,0:0:0:0:
475,192,82821,1,0,0:0:0:0:
36,192,82821,1,0,0:0:0:0:
109,192,82898,1,0,0:0:0:0:
182,192,82975,1,0,0:0:0:0:
329,192,82975,1,0,0:0:0:0:
109,192,83051,1,0,0:0:0:0:
36,192,83128,1,0,0:0:0:0:
256,192,83128,1,0,0:0:0:0:
402,192,83128,1,0,0:0:0:0:
475,192,83128,1,0,0:0:0:0:
182,192,83205,1,0,0:0:0:0:
109,192,83282,1,0,0:0:0:0:
329,192,83282,1,0,0:0:0:0:
182,192,83359,1,0,0:0:0:0:
256,192,83436,1,0,0:0:0:0:
475,192,83436,1,0,0:0:0:0:
36,192,83436,1,0,0:0:0:0:
109,192,83436,1,0,0:0:0:0:
402,192,83513,1,0,0:0:0:0:
329,192,83590,1,0,0:0:0:0:
182,192,83590,1,0,0:0:0:0:
256,192,83667,1,0,0:0:0:0:
36,192,83744,1,0,0:0:0:0:
402,192,83744,1,0,0:0:0:0:
475,192,83744,1,0,0:0:0:0:
329,192,83744,1,0,0:0:0:0:
109,192,83821,1,0,0:0:0:0:
182,192,83898,1,0,0:0:0:0:
402,192,83898,1,0,0:0:0:0:
256,192,83975,1,0,0:0:0:0:
329,192,84051,1,0,0:0:0:0:
475,192,84051,1,0,0:0:0:0:
109,192,84051,1,0,0:0:0:0:
36,192,84051,1,0,0:0:0:0:
256,192,84128,1,0,0:0:0:0:
182,192,84205,1,0,0:0:0:0:
402,192,84205,1,0,0:0:0:0:
329,192,84282,1,0,0:0:0:0:
256,192,84359,1,0,0:0:0:0:
475,192,84359,1,0,0:0:0:0:
109,192,84359,1,0,0:0:0:0:
36,192,84359,1,0,0:0:0:0:
329,192,84513,1,0,0:0:0:0:
182,192,84513,1,0,0:0:0:0:
109,192,84513,1,0,0:0:0:0:
256,192,84667,1,0,0:0:0:0:
182,192,84667,1,0,0:0:0:0:
402,192,84667,1,0,0:0:0:0:
475,192,84667,1,0,0:0:0:0:
329,192,84744,1,0,0:0:0:0:
109,192,84821,1,0,0:0:0:0:
36,192,84821,1,0,0:0:0:0:
329,192,84898,1,0,0:0:0:0:
256,192,84898,1,0,0:0:0:0:
402,192,84975,1,0,0:0:0:0:
475,192,84975,1,0,0:0:0:0:
182,192,84975,1,0,0:0:0:0:
36,192,84975,1,0,0:0:0:0:
256,192,85051,1,0,0:0:0:0:
109,192,85128,1,0,0:0:0:0:
475,192,85128,1,0,0:0:0:0:
182,192,85205,1,0,0:0:0:0:
256,192,85205,1,0,0:0:0:0:
329,192,85282,1,0,0:0:0:0:
402,192,85282,1,0,0:0:0:0:
475,192,85282,1,0,0:0:0:0:
109,192,85282,1,0,0:0:0:0:
182,192,85359,1,0,0:0:0:0:
36,192,85436,1,0,0:0:0:0:
402,192,85436,1,0,0:0:0:0:
109,192,85513,1,0,0:0:0:0:
182,192,85513,1,0,0:0:0:0:
256,192,85590,1,0,0:0:0:0:
329,192,85590,1,0,0:0:0:0:
36,192,85590,1,0,0:0:0:0:
402,192,85590,1,0,0:0:0:0:
109,192,85667,1,0,0:0:0:0:
329,192,85744,1,0,0:0:0:0:
475,192,85744,1,0,0:0:0:0:
109,192,85821,1,0,0:0:0:0:
36,192,85821,1,0,0:0:0:0:
182,192,85898,1,0,0:0:0:0:
256,192,85898,1,0,0:0:0:0:
402,192,85898,1,0,0:0:0:0:
475,192,85898,1,0,0:0:0:0:
36,192,85975,1,0,0:0:0:0:
329,192,86051,1,0,0:0:0:0:
402,192,86051,1,0,0:0:0:0:
182,192,86128,1,0,0:0:0:0:
256,192,86128,1,0,0:0:0:0:
109,192,86205,1,0,0:0:0:0:
36,192,86205,1,0,0:0:0:0:
329,192,86205,1,0,0:0:0:0:
475,192,86205,1,0,0:0:0:0:
256,192,86282,1,0,0:0:0:0:
402,192,86359,1,0,0:0:0:0:
36,192,86359,1,0,0:0:0:0:
329,192,86436,1,0,0:0:0:0:
256,192,86436,1,0,0:0:0:0:
182,192,86513,1,0,0:0:0:0:
109,192,86513,1,0,0:0:0:0:
402,192,86513,1,0,0:0:0:0:
36,192,86513,1,0,0:0:0:0:
329,192,86590,1,0,0:0:0:0:
475,192,86667,1,0,0:0:0:0:
109,192,86667,1,0,0:0:0:0:
329,192,86744,1,0,0:0:0:0:
402,192,86744,1,0,0:0:0:0:
256,192,86821,1,0,0:0:0:0:
182,192,86821,1,0,0:0:0:0:
475,192,86821,1,0,0:0:0:0:
109,192,86821,1,0,0:0:0:0:
402,192,86898,1,0,0:0:0:0:
182,192,86975,1,0,0:0:0:0:
36,192,86975,1,0,0:0:0:0:
402,192,87051,1,0,0:0:0:0:
475,192,87051,1,0,0:0:0:0:
329,192,87128,1,0,0:0:0:0:
256,192,87128,1,0,0:0:0:0:
36,192,87128,1,0,0:0:0:0:
109,192,87128,1,0,0:0:0:0:
182,192,87205,1,0,0:0:0:0:
475,192,87282,1,0,0:0:0:0:
402,192,87282,1,0,0:0:0:0:
329,192,87359,1,0,0:0:0:0:
109,192,87436,1,0,0:0:0:0:
475,192,87436,1,0,0:0:0:0:
256,192,87436,1,0,0:0:0:0:
402,192,87436,1,0,0:0:0:0:
329,192,87513,1,0,0:0:0:0:
109,192,87590,1,0,0:0:0:0:
36,192,87590,1,0,0:0:0:0:
182,192,87667,1,0,0:0:0:0:
256,192,87744,1,0,0:0:0:0:
109,192,87744,1,0,0:0:0:0:
402,192,87744,1,0,0:0:0:0:
36,192,87744,1,0,0:0:0:0:
182,192,87821,1,0,0:0:0:0:
475,192,87898,1,0,0:0:0:0:
402,192,87898,1,0,0:0:0:0:
329,192,87975,1,0,0:0:0:0:
475,192,88051,1,0,0:0:0:0:
402,192,88051,1,0,0:0:0:0:
256,192,88051,1,0,0:0:0:0:
109,192,88051,1,0,0:0:0:0:
329,192,88128,1,0,0:0:0:0:
36,192,88205,1,0,0:0:0:0:
109,192,88205,1,0,0:0:0:0:
182,192,88282,1,0,0:0:0:0:
109,192,88359,1,0,0:0:0:0:
36,192,88359,1,0,0:0:0:0:
256,192,88359,1,0,0:0:0:0:
402,192,88359,1,0,0:0:0:0:
329,192,88436,1,0,0:0:0:0:
182,192,88513,1,0,0:0:0:0:
475,192,88513,1,0,0:0:0:0:
256,192,88590,1,0,0:0:0:0:
329,192,88667,1,0,0:0:0:0:
402,192,88667,1,0,0:0:0:0:
109,192,88667,1,0,0:0:0:0:
36,192,88667,1,0,0:0:0:0:
256,192,88744,1,0,0:0:0:0:
182,192,88821,1,0,0:0:0:0:
36,192,88821,1,0,0:0:0:0:
329,192,88898,1,0,0:0:0:0:
475,192,88975,1,0,0:0:0:0:
109,192,88975,1,0,0:0:0:0:
256,192,88975,1,0,0:0:0:0:
182,192,89051,1,0,0:0:0:0:
329,192,89051,1,0,0:0:0:0:
36,192,89051,1,0,0:0:0:0:
402,192,89128,1,0,0:0:0:0:
475,192,89205,1,0,0:0:0:0:
182,192,89205,1,0,0:0:0:0:
256,192,89205,1,0,0:0:0:0:
402,192,89282,1,0,0:0:0:0:
329,192,89282,1,0,0:0:0:0:
36,192,89282,1,0,0:0:0:0:
109,192,89282,1,0,0:0:0:0:
182,192,89359,1,0,0:0:0:0:
256,192,89359,1,0,0:0:0:0:
475,192,89359,1,0,0:0:0:0:
36,192,89436,1,0,0:0:0:0:
109,192,89436,1,0,0:0:0:0:
329,192,89436,1,0,0:0:0:0:
256,192,89513,1,0,0:0:0:0:
475,192,89513,1,0,0:0:0:0:
402,192,89513,1,0,0:0:0:0:
329,192,89590,1,0,0:0:0:0:
109,192,89590,1,0,0:0:0:0:
36,192,89590,1,0,0:0:0:0:
182,192,89590,1,0,0:0:0:0:
402,192,89667,1,0,0:0:0:0:
475,192,89744,1,0,0:0:0:0:
256,192,89744,1,0,0:0:0:0:
329,192,89821,1,0,0:0:0:0:
402,192,89898,1,0,0:0:0:0:
182,192,89898,1,0,0:0:0:0:
36,192,89898,1,0,0:0:0:0:
109,192,89898,1,0,0:0:0:0:
256,192,89975,1,0,0:0:0:0:
329,192,90051,1,0,0:0:0:0:
109,192,90051,1,0,0:0:0:0:
182,192,90128,1,0,0:0:0:0:
256,192,90205,1,0,0:0:0:0:
36,192,90205,1,0,0:0:0:0:
402,192,90205,1,0,0:0:0:0:
475,192,90205,1,0,0:0:0:0:
109,192,90282,1,0,0:0:0:0:
182,192,90359,1,0,0:0:0:0:
329,192,90359,1,0,0:0:0:0:
402,192,90436,1,0,0:0:0:0:
475,192,90513,1,0,0:0:0:0:
256,192,90513,1,0,0:0:0:0:
109,192,90513,1,0,0:0:0:0:
36,192,90513,1,0,0:0:0:0:
329,192,90590,1,0,0:0:0:0:
402,192,90667,1,0,0:0:0:0:
182,192,90667,1,0,0:0:0:0:
256,192,90744,1,0,0:0:0:0:
329,192,90821,1,0,0:0:0:0:
475,192,90821,1,0,0:0:0:0:
109,192,90821,1,0,0:0:0:0:
36,192,90821,1,0,0:0:0:0:
182,192,90898,1,0,0:0:0:0:
256,192,90975,1,0,0:0:0:0:
36,192,90975,1,0,0:0:0:0:
109,192,91051,1,0,0:0:0:0:
182,192,91128,1,0,0:0:0:0:
329,192,91128,1,0,0:0:0:0:
36,192,91128,1,0,0:0:0:0:
475,192,91128,1,0,0:0:0:0:
402,192,91205,1,0,0:0:0:0:
475,192,91282,1,0,0:0:0:0:
256,192,91282,1,0,0:0:0:0:
329,192,91359,1,0,0:0:0:0:
402,192,91436,1,0,0:0:0:0:
475,192,91436,1,0,0:0:0:0:
182,192,91436,1,0,0:0:0:0:
36,192,91436,1,0,0:0:0:0:
109,192,91513,1,0,0:0:0:0:
36,192,91590,1,0,0:0:0:0:
256,192,91590,1,0,0:0:0:0:
182,192,91667,1,0,0:0:0:0:
109,192,91744,1,0,0:0:0:0:
329,192,91744,1,0,0:0:0:0:
475,192,91744,1,0,0:0:0:0:
402,192,91744,1,0,0:0:0:0:
256,192,91821,1,0,0:0:0:0:
182,192,91898,1,0,0:0:0:0:
402,192,91898,1,0,0:0:0:0:
329,192,91975,1,0,0:0:0:0:
256,192,92051,1,0,0:0:0:0:
36,192,92051,1,0,0:0:0:0:
402,192,92051,1,0,0:0:0:0:
475,192,92051,1,0,0:0:0:0:
109,192,92128,1,0,0:0:0:0:
182,192,92205,1,0,0:0:0:0:
329,192,92205,1,0,0:0:0:0:
109,192,92282,1,0,0:0:0:0:
36,192,92359,1,0,0:0:0:0:
256,192,92359,1,0,0:0:0:0:
402,192,92359,1,0,0:0:0:0:
475,192,92359,1,0,0:0:0:0:
182,192,92436,1,0,0:0:0:0:
109,192,92513,1,0,0:0:0:0:
329,192,92513,1,0,0:0:0:0:
182,192,92590,1,0,0:0:0:0:
256,192,92667,1,0,0:0:0:0:
109,192,92667,1,0,0:0:0:0:
36,192,92667,1,0,0:0:0:0:
475,192,92667,1,0,0:0:0:0:
402,192,92744,1,0,0:0:0:0:
329,192,92821,1,0,0:0:0:0:
182,192,92821,1,0,0:0:0:0:
402,192,92898,1,0,0:0:0:0:
475,192,92975,1,0,0:0:0:0:
256,192,92975,1,0,0:0:0:0:
109,192,92975,1,0,0:0:0:0:
36,192,92975,1,0,0:0:0:0:
329,192,93051,1,0,0:0:0:0:
402,192,93128,1,0,0:0:0:0:
182,192,93128,1,0,0:0:0:0:
329,192,93205,1,0,0:0:0:0:
256,192,93282,1,0,0:0:0:0:
36,192,93282,1,0,0:0:0:0:
475,192,93282,1,0,0:0:0:0:
402,192,93282,1,0,0:0:0:0:
109,192,93359,1,0,0:0:0:0:
182,192,93436,1,0,0:0:0:0:
329,192,93436,1,0,0:0:0:0:
256,192,93513,1,0,0:0:0:0:
475,192,93590,1,0,0:0:0:0:
109,192,93590,1,0,0:0:0:0:
36,192,93590,1,0,0:0:0:0:
182,192,93590,1,0,0:0:0:0:
402,192,93667,1,0,0:0:0:0:
329,192,93744,1,0,0:0:0:0:
109,192,93744,1,0,0:0:0:0:
256,192,93821,1,0,0:0:0:0:
182,192,93898,1,0,0:0:0:0:
36,192,93898,1,0,0:0:0:0:
402,192,93898,1,0,0:0:0:0:
475,192,93898,1,0,0:0:0:0:
256,192,93975,1,0,0:0:0:0:
329,192,94051,1,0,0:0:0:0:
109,192,94051,1,0,0:0:0:0:
182,192,94128,1,0,0:0:0:0:
256,192,94205,1,0,0:0:0:0:
36,192,94205,1,0,0:0:0:0:
402,192,94205,1,0,0:0:0:0:
475,192,94205,1,0,0:0:0:0:
182,192,94359,1,0,0:0:0:0:
329,192,94359,1,0,0:0:0:0:
402,192,94359,1,0,0:0:0:0:
256,192,94513,1,0,0:0:0:0:
329,192,94513,1,0,0:0:0:0:
109,192,94513,1,0,0:0:0:0:
36,192,94513,1,0,0:0:0:0:
182,192,94590,1,0,0:0:0:0:
402,192,94667,1,0,0:0:0:0:
475,192,94667,1,0,0:0:0:0:
182,192,94744,1,0,0:0:0:0:
256,192,94744,1,0,0:0:0:0:
109,192,94821,1,0,0:0:0:0:
36,192,94821,1,0,0:0:0:0:
329,192,94821,1,0,0:0:0:0:
475,192,94821,1,0,0:0:0:0:
256,192,94898,1,0,0:0:0:0:
402,192,94975,1,0,0:0:0:0:
36,192,94975,1,0,0:0:0:0:
329,192,95051,1,0,0:0:0:0:
256,192,95051,1,0,0:0:0:0:
182,192,95128,1,0,0:0:0:0:
109,192,95128,1,0,0:0:0:0:
36,192,95128,1,0,0:0:0:0:
402,192,95128,1,0,0:0:0:0:
329,192,95205,1,0,0:0:0:0:
475,192,95282,1,0,0:0:0:0:
109,192,95282,1,0,0:0:0:0:
402,192,95359,1,0,0:0:0:0:
329,192,95359,1,0,0:0:0:0:
256,192,95436,1,0,0:0:0:0:
182,192,95436,1,0,0:0:0:0:
475,192,95436,1,0,0:0:0:0:
109,192,95436,1,0,0:0:0:0:
402,192,95513,1,0,0:0:0:0:
182,192,95590,1,0,0:0:0:0:
36,192,95590,1,0,0:0:0:0:
402,192,95667,1,0,0:0:0:0:
475,192,95667,1,0,0:0:0:0:
329,192,95744,1,0,0:0:0:0:
256,192,95744,1,0,0:0:0:0:
109,192,95744,1,0,0:0:0:0:
36,192,95744,1,0,0:0:0:0:
475,192,95821,1,0,0:0:0:0:
182,192,95898,1,0,0:0:0:0:
109,192,95898,1,0,0:0:0:0:
329,192,95975,1,0,0:0:0:0:
256,192,95975,1,0,0:0:0:0:
402,192,96051,1,0,0:0:0:0:
475,192,96051,1,0,0:0:0:0:
182,192,96051,1,0,0:0:0:0:
36,192,96051,1,0,0:0:0:0:
256,192,96128,1,0,0:0:0:0:
109,192,96205,1,0,0:0:0:0:
475,192,96205,1,0,0:0:0:0:
182,192,96282,1,0,0:0:0:0:
256,192,96282,1,0,0:0:0:0:
329,192,96359,1,0,0:0:0:0:
402,192,96359,1,0,0:0:0:0:
109,192,96359,1,0,0:0:0:0:
475,192,96359,1,0,0:0:0:0:
182,192,96436,1,0,0:0:0:0:
36,192,96513,1,0,0:0:0:0:
402,192,96513,1,0,0:0:0:0:
182,192,96590,1,0,0:0:0:0:
109,192,96590,1,0,0:0:0:0:
256,192,96667,1,0,0:0:0:0:
329,192,96667,1,0,0:0:0:0:
36,192,96667,1,0,0:0:0:0:
402,192,96667,1,0,0:0:0:0:
109,192,96744,1,0,0:0:0:0:
329,192,96821,1,0,0:0:0:0:
475,192,96821,1,0,0:0:0:0:
109,192,96898,1,0,0:0:0:0:
36,192,96898,1,0,0:0:0:0:
182,192,96975,1,0,0:0:0:0:
256,192,96975,1,0,0:0:0:0:
475,192,96975,1,0,0:0:0:0:
402,192,96975,1,0,0:0:0:0:
329,192,97051,1,0,0:0:0:0:
36,192,97128,1,0,0:0:0:0:
109,192,97128,1,0,0:0:0:0:
182,192,97205,1,0,0:0:0:0:
402,192,97282,1,0,0:0:0:0:
36,192,97282,1,0,0:0:0:0:
256,192,97282,1,0,0:0:0:0:
109,192,97282,1,0,0:0:0:0:
182,192,97359,1,0,0:0:0:0:
402,192,97436,1,0,0:0:0:0:
475,192,97436,1,0,0:0:0:0:
329,192,97513,1,0,0:0:0:0:
256,192,97590,1,0,0:0:0:0:
402,192,97590,1,0,0:0:0:0:
109,192,97590,1,0,0:0:0:0:
475,192,97590,1,0,0:0:0:0:
329,192,97667,1,0,0:0:0:0:
36,192,97744,1,0,0:0:0:0:
109,192,97744,1,0,0:0:0:0:
182,192,97821,1,0,0:0:0:0:
36,192,97898,1,0,0:0:0:0:
109,192,97898,1,0,0:0:0:0:
256,192,97898,1,0,0:0:0:0:
402,192,97898,1,0,0:0:0:0:
182,192,97975,1,0,0:0:0:0:
475,192,98051,1,0,0:0:0:0:
402,192,98051,1,0,0:0:0:0:
329,192,98128,1,0,0:0:0:0:
256,192,98205,1,0,0:0:0:0:
182,192,98205,1,0,0:0:0:0:
109,192,98205,1,0,0:0:0:0:
36,192,98205,1,0,0:0:0:0:
36,192,98359,1,0,0:0:0:0:
182,192,98359,1,0,0:0:0:0:
402,192,98359,1,0,0:0:0:0:
256,192,98436,1,0,0:0:0:0:
109,192,98436,1,0,0:0:0:0:
182,192,98513,1,0,0:0:0:0:
329,192,98513,1,0,0:0:0:0:
402,192,98513,1,0,0:0:0:0:
475,192,98513,1,0,0:0:0:0:
475,192,98667,1,0,0:0:0:0:
109,192,98667,1,0,0:0:0:0:
329,192,98667,1,0,0:0:0:0:
402,192,98744,1,0,0:0:0:0:
256,192,98744,1,0,0:0:0:0:
182,192,98821,1,0,0:0:0:0:
109,192,98821,1,0,0:0:0:0:
36,192,98821,1,0,0:0:0:0:
329,192,98821,1,0,0:0:0:0:
182,192,98975,1,0,0:0:0:0:
402,192,98975,1,0,0:0:0:0:
36,192,98975,1,0,0:0:0:0:
256,192,99051,1,0,0:0:0:0:
109,192,99051,1,0,0:0:0:0:
475,192,99128,1,0,0:0:0:0:
402,192,99128,1,0,0:0:0:0:
182,192,99128,1,0,0:0:0:0:
329,192,99128,1,0,0:0:0:0:
36,192,99205,1,0,0:0:0:0:
256,192,99205,1,0,0:0:0:0:
475,192,99282,1,0,0:0:0:0:
329,192,99282,1,0,0:0:0:0:
109,192,99282,1,0,0:0:0:0:
402,192,99359,1,0,0:0:0:0:
256,192,99359,1,0,0:0:0:0:
36,192,99436,1,0,0:0:0:0:
182,192,99436,1,0,0:0:0:0:
329,192,99436,1,0,0:0:0:0:
109,192,99436,1,0,0:0:0:0:
475,192,99436,1,0,0:0:0:0:
256,192,99513,1,0,0:0:0:0:
182,192,99590,1,0,0:0:0:0:
402,192,99590,1,0,0:0:0:0:
329,192,99667,1,0,0:0:0:0:
109,192,99744,1,0,0:0:0:0:
256,192,99744,1,0,0:0:0:0:
36,192,99744,1,0,0:0:0:0:
475,192,99744,1,0,0:0:0:0:
402,192,99744,1,0,0:0:0:0:
182,192,99821,1,0,0:0:0:0:
109,192,99898,1,0,0:0:0:0:
329,192,99898,1,0,0:0:0:0:
256,192,99975,1,0,0:0:0:0:
36,192,100051,1,0,0:0:0:0:
182,192,100051,1,0,0:0:0:0:
402,192,100051,1,0,0:0:0:0:
475,192,100051,1,0,0:0:0:0:
109,192,100128,1,0,0:0:0:0:
36,192,100205,1,0,0:0:0:0:
256,192,100205,1,0,0:0:0:0:
182,192,100282,1,0,0:0:0:0:
109,192,100359,1,0,0:0:0:0:
329,192,100359,1,0,0:0:0:0:
402,192,100359,1,0,0:0:0:0:
475,192,100359,1,0,0:0:0:0:
256,192,100359,1,0,0:0:0:0:
182,192,100436,1,0,0:0:0:0:
256,192,100513,1,0,0:0:0:0:
36,192,100513,1,0,0:0:0:0:
109,192,100590,1,0,0:0:0:0:
329,192,100667,1,0,0:0:0:0:
475,192,100667,1,0,0:0:0:0:
182,192,100667,1,0,0:0:0:0:
36,192,100667,1,0,0:0:0:0:
256,192,100744,1,0,0:0:0:0:
329,192,100821,1,0,0:0:0:0:
109,192,100821,1,0,0:0:0:0:
182,192,100898,1,0,0:0:0:0:
402,192,100975,1,0,0:0:0:0:
256,192,100975,1,0,0:0:0:0:
475,192,100975,1,0,0:0:0:0:
109,192,100975,1,0,0:0:0:0:
36,192,100975,1,0,0:0:0:0:
329,192,101051,1,0,0:0:0:0:
402,192,101128,1,0,0:0:0:0:
182,192,101128,1,0,0:0:0:0:
256,192,101205,1,0,0:0:0:0:
475,192,101282,1,0,0:0:0:0:
329,192,101282,1,0,0:0:0:0:
109,192,101282,1,0,0:0:0:0:
36,192,101282,1,0,0:0:0:0:
402,192,101359,1,0,0:0:0:0:
475,192,101436,1,0,0:0:0:0:
256,192,101436,1,0,0:0:0:0:
329,192,101513,1,0,0:0:0:0:
402,192,101590,1,0,0:0:0:0:
36,192,101590,1,0,0:0:0:0:
109,192,101590,1,0,0:0:0:0:
256,192,101590,1,0,0:0:0:0:
182,192,101590,1,0,0:0:0:0:
329,192,101667,1,0,0:0:0:0:
256,192,101744,1,0,0:0:0:0:
475,192,101744,1,0,0:0:0:0:
402,192,101821,1,0,0:0:0:0:
329,192,101898,1,0,0:0:0:0:
182,192,101898,1,0,0:0:0:0:
36,192,101898,1,0,0:0:0:0:
109,192,101898,1,0,0:0:0:0:
402,192,101975,1,0,0:0:0:0:
475,192,102051,1,0,0:0:0:0:
256,192,102051,1,0,0:0:0:0:
109,192,102051,1,0,0:0:0:0:
329,192,102128,1,0,0:0:0:0:
402,192,102205,1,0,0:0:0:0:
182,192,102205,1,0,0:0:0:0:
475,192,102205,1,0,0:0:0:0:
36,192,102205,1,0,0:0:0:0:
256,192,102205,1,0,0:0:0:0:
109,192,102282,1,0,0:0:0:0:
256,192,102359,1,0,0:0:0:0:
36,192,102359,1,0,0:0:0:0:
182,192,102436,1,0,0:0:0:0:
109,192,102513,1,0,0:0:0:0:
329,192,102513,1,0,0:0:0:0:
402,192,102513,1,0,0:0:0:0:
475,192,102513,1,0,0:0:0:0:
256,192,102590,1,0,0:0:0:0:
182,192,102667,1,0,0:0:0:0:
475,192,102667,1,0,0:0:0:0:
402,192,102744,1,0,0:0:0:0:
329,192,102821,1,0,0:0:0:0:
182,192,102821,1,0,0:0:0:0:
109,192,102821,1,0,0:0:0:0:
36,192,102821,1,0,0:0:0:0:
475,192,102821,1,0,0:0:0:0:
256,192,102898,1,0,0:0:0:0:
329,192,102975,1,0,0:0:0:0:
36,192,102975,1,0,0:0:0:0:
109,192,103051,1,0,0:0:0:0:
182,192,103128,1,0,0:0:0:0:
36,192,103128,1,0,0:0:0:0:
256,192,103128,1,0,0:0:0:0:
475,192,103128,1,0,0:0:0:0:
402,192,103205,1,0,0:0:0:0:
329,192,103282,1,0,0:0:0:0:
182,192,103282,1,0,0:0:0:0:
109,192,103359,1,0,0:0:0:0:
36,192,103436,1,0,0:0:0:0:
256,192,103436,1,0,0:0:0:0:
402,192,103436,1,0,0:0:0:0:
475,192,103436,1,0,0:0:0:0:
329,192,103436,1,0,0:0:0:0:
109,192,103513,1,0,0:0:0:0:
182,192,103590,1,0,0:0:0:0:
329,192,103590,1,0,0:0:0:0:
402,192,103667,1,0,0:0:0:0:
475,192,103744,1,0,0:0:0:0:
182,192,103744,1,0,0:0:0:0:
36,192,103744,1,0,0:0:0:0:
109,192,103744,1,0,0:0:0:0:
256,192,103821,1,0,0:0:0:0:
329,192,103898,1,0,0:0:0:0:
109,192,103898,1,0,0:0:0:0:
182,192,103975,1,0,0:0:0:0:
256,192,104051,1,0,0:0:0:0:
402,192,104051,1,0,0:0:0:0:
475,192,104051,1,0,0:0:0:0:
329,192,104051,1,0,0:0:0:0:
36,192,104051,1,0,0:0:0:0:
109,192,104128,1,0,0:0:0:0:
402,192,104205,1,0,0:0:0:0:
182,192,104205,1,0,0:0:0:0:
256,192,104205,1,0,0:0:0:0:
475,192,104282,1,0,0:0:0:0:
256,192,104359,1,0,0:0:0:0:
329,192,104359,1,0,0:0:0:0:
109,192,104359,1,0,0:0:0:0:
36,192,104359,1,0,0:0:0:0:
402,192,104436,1,0,0:0:0:0:
475,192,104513,1,0,0:0:0:0:
182,192,104513,1,0,0:0:0:0:
109,192,104590,1,0,0:0:0:0:
36,192,104590,1,0,0:0:0:0:
329,192,104667,1,0,0:0:0:0:
402,192,104667,1,0,0:0:0:0:
475,192,104667,1,0,0:0:0:0:
182,192,104667,1,0,0:0:0:0:
256,192,104667,1,0,0:0:0:0:
109,192,104744,1,0,0:0:0:0:
36,192,104821,1,0,0:0:0:0:
329,192,104821,1,0,0:0:0:0:
402,192,104898,1,0,0:0:0:0:
475,192,104898,1,0,0:0:0:0:
182,192,104975,1,0,0:0:0:0:
109,192,104975,1,0,0:0:0:0:
36,192,104975,1,0,0:0:0:0:
256,192,104975,1,0,0:0:0:0:
329,192,105051,1,0,0:0:0:0:
256,192,105128,1,0,0:0:0:0:
402,192,105128,1,0,0:0:0:0:
182,192,105205,1,0,0:0:0:0:
109,192,105205,1,0,0:0:0:0:
256,192,105282,1,0,0:0:0:0:
329,192,105282,1,0,0:0:0:0:
402,192,105282,1,0,0:0:0:0:
475,192,105282,1,0,0:0:0:0:
36,192,105282,1,0,0:0:0:0:
182,192,105359,1,0,0:0:0:0:
109,192,105436,1,0,0:0:0:0:
36,192,105436,1,0,0:0:0:0:
329,192,105513,1,0,0:0:0:0:
402,192,105513,1,0,0:0:0:0:
182,192,105590,1,0,0:0:0:0:
109,192,105590,1,0,0:0:0:0:
36,192,105590,1,0,0:0:0:0:
475,192,105590,1,0,0:0:0:0:
256,192,105667,1,0,0:0:0:0:
402,192,105744,1,0,0:0:0:0:
329,192,105744,1,0,0:0:0:0:
182,192,105821,1,0,0:0:0:0:
256,192,105821,1,0,0:0:0:0:
329,192,105898,1,0,0:0:0:0:
402,192,105898,1,0,0:0:0:0:
475,192,105898,1,0,0:0:0:0:
109,192,105898,1,0,0:0:0:0:
36,192,105898,1,0,0:0:0:0:
182,192,105975,1,0,0:0:0:0:
402,192,106051,1,0,0:0:0:0:
475,192,106051,1,0,0:0:0:0:
256,192,106128,1,0,0:0:0:0:
329,192,106128,1,0,0:0:0:0:
182,192,106205,1,0,0:0:0:0:
36,192,106205,1,0,0:0:0:0:
109,192,106205,1,0,0:0:0:0:
475,192,106205,1,0,0:0:0:0:
402,192,106282,1,0,0:0:0:0:
329,192,106359,1,0,0:0:0:0:
182,192,106359,1,0,0:0:0:0:
109,192,106436,1,0,0:0:0:0:
36,192,106436,1,0,0:0:0:0:
182,192,106513,1,0,0:0:0:0:
256,192,106513,1,0,0:0:0:0:
329,192,106513,1,0,0:0:0:0:
402,192,106513,1,0,0:0:0:0:
475,192,106513,1,0,0:0:0:0:
36,192,106590,1,0,0:0:0:0:
109,192,106667,1,0,0:0:0:0:
256,192,106667,1,0,0:0:0:0:
402,192,106744,1,0,0:0:0:0:
475,192,106744,1,0,0:0:0:0:
256,192,106821,1,0,0:0:0:0:
182,192,106821,1,0,0:0:0:0:
109,192,106821,1,0,0:0:0:0:
36,192,106821,1,0,0:0:0:0:
329,192,106898,1,0,0:0:0:0:
402,192,106975,1,0,0:0:0:0:
182,192,106975,1,0,0:0:0:0:
256,192,107051,1,0,0:0:0:0:
329,192,107128,1,0,0:0:0:0:
402,192,107128,1,0,0:0:0:0:
475,192,107128,1,0,0:0:0:0:
109,192,107128,1,0,0:0:0:0:
36,192,107128,1,0,0:0:0:0:
256,192,107205,1,0,0:0:0:0:
182,192,107282,1,0,0:0:0:0:
109,192,107282,1,0,0:0:0:0:
329,192,107359,1,0,0:0:0:0:
256,192,107436,1,0,0:0:0:0:
402,192,107436,1,0,0:0:0:0:
475,192,107436,1,0,0:0:0:0:
36,192,107436,1,0,0:0:0:0:
182,192,107513,1,0,0:0:0:0:
109,192,107590,1,0,0:0:0:0:
329,192,107590,1,0,0:0:0:0:
256,192,107667,1,0,0:0:0:0:
182,192,107744,1,0,0:0:0:0:
36,192,107744,1,0,0:0:0:0:
402,192,107744,1,0,0:0:0:0:
475,192,107744,1,0,0:0:0:0:
109,192,107744,1,0,0:0:0:0:
256,192,107821,1,0,0:0:0:0:
329,192,107898,1,0,0:0:0:0:
402,192,107898,1,0,0:0:0:0:
182,192,107975,1,0,0:0:0:0:
256,192,108051,1,0,0:0:0:0:
329,192,108051,1,0,0:0:0:0:
36,192,108051,1,0,0:0:0:0:
475,192,108051,1,0,0:0:0:0:
109,192,108128,1,0,0:0:0:0:
182,192,108205,1,0,0:0:0:0:
256,192,108205,1,0,0:0:0:0:
109,192,108282,1,0,0:0:0:0:
36,192,108359,1,0,0:0:0:0:
475,192,108359,1,0,0:0:0:0:
182,192,108359,1,0,0:0:0:0:
329,192,108359,1,0,0:0:0:0:
256,192,108359,1,0,0:0:0:0:
402,192,108436,1,0,0:0:0:0:
329,192,108513,1,0,0:0:0:0:
182,192,108513,1,0,0:0:0:0:
402,192,108590,1,0,0:0:0:0:
475,192,108667,1,0,0:0:0:0:
256,192,108667,1,0,0:0:0:0:
36,192,108667,1,0,0:0:0:0:
329,192,108744,1,0,0:0:0:0:
182,192,108744,1,0,0:0:0:0:
109,192,108744,1,0,0:0:0:0:
475,192,108821,1,0,0:0:0:0:
109,192,108898,1,0,0:0:0:0:
256,192,108898,1,0,0:0:0:0:
36,192,108898,1,0,0:0:0:0:
402,192,108975,1,0,0:0:0:0:
329,192,108975,1,0,0:0:0:0:
475,192,108975,1,0,0:0:0:0:
182,192,108975,1,0,0:0:0:0:
36,192,109051,1,0,0:0:0:0:
109,192,109051,1,0,0:0:0:0:
256,192,109051,1,0,0:0:0:0:
329,192,109128,1,0,0:0:0:0:
182,192,109128,1,0,0:0:0:0:
475,192,109128,1,0,0:0:0:0:
109,192,109205,1,0,0:0:0:0:
402,192,109205,1,0,0:0:0:0:
256,192,109205,1,0,0:0:0:0:
182,192,109282,1,0,0:0:0:0:
475,192,109282,1,0,0:0:0:0:
36,192,109282,1,0,0:0:0:0:
329,192,109282,1,0,0:0:0:0:
256,192,109359,1,0,0:0:0:0:
402,192,109436,1,0,0:0:0:0:
109,192,109436,1,0,0:0:0:0:
182,192,109513,1,0,0:0:0:0:
402,192,109590,1,0,0:0:0:0:
256,192,109590,1,0,0:0:0:0:
475,192,109590,1,0,0:0:0:0:
36,192,109590,1,0,0:0:0:0:
109,192,109590,1,0,0:0:0:0:
329,192,109667,1,0,0:0:0:0:
182,192,109744,1,0,0:0:0:0:
402,192,109744,1,0,0:0:0:0:
256,192,109821,1,0,0:0:0:0:
475,192,109898,1,0,0:0:0:0:
329,192,109898,1,0,0:0:0:0:
109,192,109898,1,0,0:0:0:0:
36,192,109898,1,0,0:0:0:0:
182,192,109975,1,0,0:0:0:0:
256,192,110051,1,0,0:0:0:0:
475,192,110051,1,0,0:0:0:0:
329,192,110128,1,0,0:0:0:0:
402,192,110205,1,0,0:0:0:0:
109,192,110205,1,0,0:0:0:0:
36,192,110205,1,0,0:0:0:0:
475,192,110205,1,0,0:0:0:0:
182,192,110205,1,0,0:0:0:0:
329,192,110282,1,0,0:0:0:0:
256,192,110359,1,0,0:0:0:0:
109,192,110359,1,0,0:0:0:0:
182,192,110436,1,0,0:0:0:0:
36,192,110513,1,0,0:0:0:0:
329,192,110513,1,0,0:0:0:0:
475,192,110513,1,0,0:0:0:0:
109,192,110513,1,0,0:0:0:0:
256,192,110590,1,0,0:0:0:0:
182,192,110667,1,0,0:0:0:0:
402,192,110667,1,0,0:0:0:0:
329,192,110744,1,0,0:0:0:0:
109,192,110821,1,0,0:0:0:0:
256,192,110821,1,0,0:0:0:0:
36,192,110821,1,0,0:0:0:0:
402,192,110821,1,0,0:0:0:0:
475,192,110821,1,0,0:0:0:0:
182,192,110898,1,0,0:0:0:0:
109,192,110975,1,0,0:0:0:0:
329,192,110975,1,0,0:0:0:0:
256,192,111051,1,0,0:0:0:0:
36,192,111128,1,0,0:0:0:0:
182,192,111128,1,0,0:0:0:0:
402,192,111128,1,0,0:0:0:0:
475,192,111128,1,0,0:0:0:0:
109,192,111205,1,0,0:0:0:0:
36,192,111282,1,0,0:0:0:0:
256,192,111282,1,0,0:0:0:0:
182,192,111359,1,0,0:0:0:0:
109,192,111436,1,0,0:0:0:0:
475,192,111436,1,0,0:0:0:0:
402,192,111436,1,0,0:0:0:0:
256,192,111436,1,0,0:0:0:0:
329,192,111436,1,0,0:0:0:0:
182,192,111513,1,0,0:0:0:0:
256,192,111590,1,0,0:0:0:0:
36,192,111590,1,0,0:0:0:0:
109,192,111667,1,0,0:0:0:0:
182,192,111744,1,0,0:0:0:0:
329,192,111744,1,0,0:0:0:0:
475,192,111744,1,0,0:0:0:0:
402,192,111744,1,0,0:0:0:0:
109,192,111821,1,0,0:0:0:0:
256,192,111898,1,0,0:0:0:0:
402,192,111898,1,0,0:0:0:0:
182,192,111975,1,0,0:0:0:0:
109,192,112051,1,0,0:0:0:0:
329,192,112051,1,0,0:0:0:0:
36,192,112051,1,0,0:0:0:0:
475,192,112051,1,0,0:0:0:0:
256,192,112051,1,0,0:0:0:0:
402,192,112128,1,0,0:0:0:0:
256,192,112205,1,0,0:0:0:0:
109,192,112205,1,0,0:0:0:0:
329,192,112282,1,0,0:0:0:0:
402,192,112359,1,0,0:0:0:0:
182,192,112359,1,0,0:0:0:0:
109,192,112359,1,0,0:0:0:0:
36,192,112359,1,0,0:0:0:0:
256,192,112436,1,0,0:0:0:0:
329,192,112513,1,0,0:0:0:0:
36,192,112513,1,0,0:0:0:0:
109,192,112590,1,0,0:0:0:0:
182,192,112667,1,0,0:0:0:0:
329,192,112667,1,0,0:0:0:0:
402,192,112667,1,0,0:0:0:0:
475,192,112667,1,0,0:0:0:0:
36,192,112667,1,0,0:0:0:0:
256,192,112744,1,0,0:0:0:0:
182,192,112821,1,0,0:0:0:0:
475,192,112821,1,0,0:0:0:0:
402,192,112898,1,0,0:0:0:0:
329,192,112975,1,0,0:0:0:0:
475,192,112975,1,0,0:0:0:0:
256,192,112975,1,0,0:0:0:0:
36,192,112975,1,0,0:0:0:0:
109,192,113051,1,0,0:0:0:0:
182,192,113128,1,0,0:0:0:0:
329,192,113128,1,0,0:0:0:0:
402,192,113205,1,0,0:0:0:0:
475,192,113282,1,0,0:0:0:0:
256,192,113282,1,0,0:0:0:0:
109,192,113282,1,0,0:0:0:0:
36,192,113282,1,0,0:0:0:0:
182,192,113282,1,0,0:0:0:0:
402,192,113359,1,0,0:0:0:0:
329,192,113436,1,0,0:0:0:0:
182,192,113436,1,0,0:0:0:0:
109,192,113513,1,0,0:0:0:0:
36,192,113590,1,0,0:0:0:0:
329,192,113590,1,0,0:0:0:0:
475,192,113590,1,0,0:0:0:0:
402,192,113590,1,0,0:0:0:0:
256,192,113667,1,0,0:0:0:0:
402,192,113744,1,0,0:0:0:0:
182,192,113744,1,0,0:0:0:0:
329,192,113821,1,0,0:0:0:0:
256,192,113898,1,0,0:0:0:0:
109,192,113898,1,0,0:0:0:0:
36,192,113898,1,0,0:0:0:0:
475,192,113898,1,0,0:0:0:0:
182,192,113898,1,0,0:0:0:0:
402,192,113975,1,0,0:0:0:0:
109,192,114051,1,0,0:0:0:0:
329,192,114051,1,0,0:0:0:0:
36,192,114128,1,0,0:0:0:0:
256,192,114205,1,0,0:0:0:0:
182,192,114205,1,0,0:0:0:0:
402,192,114205,1,0,0:0:0:0:
475,192,114205,1,0,0:0:0:0:
109,192,114282,1,0,0:0:0:0:
36,192,114359,1,0,0:0:0:0:
329,192,114359,1,0,0:0:0:0:
402,192,114436,1,0,0:0:0:0:
475,192,114436,1,0,0:0:0:0:
182,192,114513,1,0,0:0:0:0:
109,192,114513,1,0,0:0:0:0:
36,192,114513,1,0,0:0:0:0:
329,192,114513,1,0,0:0:0:0:
256,192,114513,1,0,0:0:0:0:
402,192,114590,1,0,0:0:0:0:
475,192,114667,1,0,0:0:0:0:
182,192,114667,1,0,0:0:0:0:
109,192,114744,1,0,0:0:0:0:
36,192,114744,1,0,0:0:0:0:
329,192,114821,1,0,0:0:0:0:
402,192,114821,1,0,0:0:0:0:
475,192,114821,1,0,0:0:0:0:
256,192,114821,1,0,0:0:0:0:
182,192,114898,1,0,0:0:0:0:
256,192,114975,1,0,0:0:0:0:
109,192,114975,1,0,0:0:0:0:
329,192,115051,1,0,0:0:0:0:
402,192,115051,1,0,0:0:0:0:
256,192,115128,1,0,0:0:0:0:
182,192,115128,1,0,0:0:0:0:
109,192,115128,1,0,0:0:0:0:
36,192,115128,1,0,0:0:0:0:
475,192,115128,1,0,0:0:0:0:
329,192,115205,1,0,0:0:0:0:
402,192,115282,1,0,0:0:0:0:
475,192,115282,1,0,0:0:0:0:
182,192,115359,1,0,0:0:0:0:
109,192,115359,1,0,0:0:0:0:
329,192,115436,1,0,0:0:0:0:
402,192,115436,1,0,0:0:0:0:
475,192,115436,1,0,0:0:0:0:
36,192,115436,1,0,0:0:0:0:
256,192,115513,1,0,0:0:0:0:
109,192,115590,1,0,0:0:0:0:
182,192,115590,1,0,0:0:0:0:
329,192,115667,1,0,0:0:0:0:
256,192,115667,1,0,0:0:0:0:
182,192,115744,1,0,0:0:0:0:
109,192,115744,1,0,0:0:0:0:
36,192,115744,1,0,0:0:0:0:
402,192,115744,1,0,0:0:0:0:
475,192,115744,1,0,0:0:0:0:
329,192,115821,1,0,0:0:0:0:
109,192,115898,1,0,0:0:0:0:
36,192,115898,1,0,0:0:0:0:
256,192,115975,1,0,0:0:0:0:
182,192,115975,1,0,0:0:0:0:
329,192,116051,1,0,0:0:0:0:
475,192,116051,1,0,0:0:0:0:
402,192,116051,1,0,0:0:0:0:
36,192,116051,1,0,0:0:0:0:
109,192,116128,1,0,0:0:0:0:
182,192,116205,1,0,0:0:0:0:
329,192,116205,1,0,0:0:0:0:
402,192,116282,1,0,0:0:0:0:
475,192,116282,1,0,0:0:0:0:
329,192,116359,1,0,0:0:0:0:
256,192,116359,1,0,0:0:0:0:
182,192,116359,1,0,0:0:0:0:
109,192,116359,1,0,0:0:0:0:
36,192,116359,1,0,0:0:0:0:
475,192,116436,1,0,0:0:0:0:
402,192,116513,1,0,0:0:0:0:
256,192,116513,1,0,0:0:0:0:
109,192,116590,1,0,0:0:0:0:
36,192,116590,1,0,0:0:0:0:
402,192,116667,1,0,0:0:0:0:
475,192,116667,1,0,0:0:0:0:
182,192,116667,1,0,0:0:0:0:
109,192,116744,1,0,0:0:0:0:
329,192,116744,1,0,0:0:0:0:
36,192,116821,1,0,0:0:0:0:
475,192,116821,1,0,0:0:0:0:
256,192,116821,1,0,0:0:0:0:
402,192,116898,1,0,0:0:0:0:
182,192,116898,1,0,0:0:0:0:
329,192,116975,1,0,0:0:0:0:
109,192,116975,1,0,0:0:0:0:
36,192,116975,1,0,0:0:0:0:
475,192,116975,1,0,0:0:0:0:
256,192,117051,1,0,0:0:0:0:
402,192,117051,1,0,0:0:0:0:
329,192,117128,1,0,0:0:0:0:
182,192,117128,1,0,0:0:0:0:
109,192,117128,1,0,0:0:0:0:
402,192,117205,1,0,0:0:0:0:
256,192,117205,1,0,0:0:0:0:
36,192,117282,1,0,0:0:0:0:
109,192,117282,1,0,0:0:0:0:
329,192,117282,1,0,0:0:0:0:
182,192,117359,1,0,0:0:0:0:
402,192,117359,1,0,0:0:0:0:
256,192,117436,1,0,0:0:0:0:
475,192,117436,1,0,0:0:0:0:
36,192,117436,1,0,0:0:0:0:
329,192,117513,1,0,0:0:0:0:
109,192,117513,1,0,0:0:0:0:
36,192,117590,1,0,0:0:0:0:
182,192,117590,1,0,0:0:0:0:
402,192,117590,1,0,0:0:0:0:
475,192,117590,1,0,0:0:0:0:
109,192,117667,1,0,0:0:0:0:
256,192,117667,1,0,0:0:0:0:
182,192,117744,1,0,0:0:0:0:
402,192,117744,1,0,0:0:0:0:
329,192,117744,1,0,0:0:0:0:
109,192,117821,1,0,0:0:0:0:
256,192,117821,1,0,0:0:0:0:
475,192,117898,1,0,0:0:0:0:
182,192,117898,1,0,0:0:0:0:
402,192,117898,1,0,0:0:0:0:
36,192,117898,1,0,0:0:0:0:
329,192,117975,1,0,0:0:0:0:
256,192,117975,1,0,0:0:0:0:
475,192,118051,1,0,0:0:0:0:
402,192,118051,1,0,0:0:0:0:
36,192,118051,1,0,0:0:0:0:
182,192,118128,1,0,0:0:0:0:
329,192,118128,1,0,0:0:0:0:
36,192,118205,1,0,0:0:0:0:
109,192,118205,1,0,0:0:0:0:
475,192,118205,1,0,0:0:0:0:
402,192,118205,1,0,0:0:0:0:
182,192,118282,1,0,0:0:0:0:
256,192,118282,1,0,0:0:0:0:
109,192,118359,1,0,0:0:0:0:
36,192,118359,1,0,0:0:0:0:
475,192,118359,1,0,0:0:0:0:
329,192,118436,1,0,0:0:0:0:
182,192,118436,1,0,0:0:0:0:
402,192,118513,1,0,0:0:0:0:
475,192,118513,1,0,0:0:0:0:
36,192,118513,1,0,0:0:0:0:
109,192,118513,1,0,0:0:0:0:
329,192,118590,1,0,0:0:0:0:
256,192,118590,1,0,0:0:0:0:
182,192,118667,1,0,0:0:0:0:
109,192,118667,1,0,0:0:0:0:
475,192,118667,1,0,0:0:0:0:
256,192,118744,1,0,0:0:0:0:
329,192,118744,1,0,0:0:0:0:
109,192,118821,1,0,0:0:0:0:
36,192,118821,1,0,0:0:0:0:
402,192,118821,1,0,0:0:0:0:
475,192,118821,1,0,0:0:0:0:
182,192,118898,1,0,0:0:0:0:
256,192,118898,1,0,0:0:0:0:
402,192,118975,1,0,0:0:0:0:
329,192,118975,1,0,0:0:0:0:
36,192,118975,1,0,0:0:0:0:
182,192,119051,1,0,0:0:0:0:
256,192,119051,1,0,0:0:0:0:
402,192,119128,1,0,0:0:0:0:
475,192,119128,1,0,0:0:0:0:
36,192,119128,1,0,0:0:0:0:
329,192,119128,1,0,0:0:0:0:
109,192,119128,1,0,0:0:0:0:
182,192,119205,1,0,0:0:0:0:
36,192,119282,1,0,0:0:0:0:
402,192,119282,1,0,0:0:0:0:
256,192,119282,1,0,0:0:0:0:
109,192,119359,1,0,0:0:0:0:
182,192,119436,1,0,0:0:0:0:
329,192,119436,1,0,0:0:0:0:
256,192,119436,1,0,0:0:0:0:
475,192,119436,1,0,0:0:0:0:
402,192,119436,1,0,0:0:0:0:
109,192,119513,1,0,0:0:0:0:
329,192,119590,1,0,0:0:0:0:
475,192,119590,1,0,0:0:0:0:
36,192,119590,1,0,0:0:0:0:
182,192,119667,1,0,0:0:0:0:
256,192,119744,1,0,0:0:0:0:
402,192,119744,1,0,0:0:0:0:
109,192,119744,1,0,0:0:0:0:
36,192,119744,1,0,0:0:0:0:
182,192,119821,1,0,0:0:0:0:
329,192,119898,1,0,0:0:0:0:
475,192,119898,1,0,0:0:0:0:
109,192,119898,1,0,0:0:0:0:
402,192,119975,1,0,0:0:0:0:
182,192,120051,1,0,0:0:0:0:
329,192,120051,1,0,0:0:0:0:
256,192,120051,1,0,0:0:0:0:
475,192,120051,1,0,0:0:0:0:
36,192,120051,1,0,0:0:0:0:
109,192,120128,1,0,0:0:0:0:
402,192,120205,1,0,0:0:0:0:
182,192,120205,1,0,0:0:0:0:
256,192,120205,1,0,0:0:0:0:
329,192,120282,1,0,0:0:0:0:
182,192,120359,1,0,0:0:0:0:
36,192,120359,1,0,0:0:0:0:
475,192,120359,1,0,0:0:0:0:
402,192,120359,1,0,0:0:0:0:
329,192,120436,1,0,0:0:0:0:
256,192,120513,1,0,0:0:0:0:
109,192,120513,1,0,0:0:0:0:
475,192,120513,1,0,0:0:0:0:
182,192,120590,1,0,0:0:0:0:
109,192,120667,1,0,0:0:0:0:
329,192,120667,1,0,0:0:0:0:
402,192,120667,1,0,0:0:0:0:
256,192,120667,1,0,0:0:0:0:
36,192,120667,1,0,0:0:0:0:
475,192,120744,1,0,0:0:0:0:
182,192,120821,1,0,0:0:0:0:
36,192,120821,1,0,0:0:0:0:
329,192,120821,1,0,0:0:0:0:
402,192,120898,1,0,0:0:0:0:
256,192,120975,1,0,0:0:0:0:
109,192,120975,1,0,0:0:0:0:
475,192,120975,1,0,0:0:0:0:
36,192,120975,1,0,0:0:0:0:
182,192,121051,1,0,0:0:0:0:
256,192,121128,1,0,0:0:0:0:
402,192,121128,1,0,0:0:0:0:
36,192,121128,1,0,0:0:0:0:
329,192,121205,1,0,0:0:0:0:
402,192,121282,1,0,0:0:0:0:
109,192,121282,1,0,0:0:0:0:
36,192,121282,1,0,0:0:0:0:
182,192,121282,1,0,0:0:0:0:
475,192,121282,1,0,0:0:0:0:
256,192,121359,1,0,0:0:0:0:
329,192,121436,1,0,0:0:0:0:
475,192,121436,1,0,0:0:0:0:
109,192,121436,1,0,0:0:0:0:
182,192,121436,1,0,0:0:0:0:
402,192,121513,1,0,0:0:0:0:
182,192,121590,1,0,0:0:0:0:
109,192,121590,1,0,0:0:0:0:
36,192,121590,1,0,0:0:0:0:
256,192,121590,1,0,0:0:0:0:
329,192,121590,1,0,0:0:0:0:
475,192,121590,1,0,0:0:0:0:
402,192,121667,1,0,0:0:0:0:
256,192,121744,1,0,0:0:0:0:
36,192,121744,1,0,0:0:0:0:
475,192,121744,1,0,0:0:0:0:
109,192,121821,1,0,0:0:0:0:
182,192,121898,1,0,0:0:0:0:
402,192,121898,1,0,0:0:0:0:
329,192,121898,1,0,0:0:0:0:
475,192,121898,1,0,0:0:0:0:
36,192,121898,1,0,0:0:0:0:
256,192,121975,1,0,0:0:0:0:
402,192,122051,1,0,0:0:0:0:
109,192,122051,1,0,0:0:0:0:
182,192,122051,1,0,0:0:0:0:
329,192,122128,1,0,0:0:0:0:
475,192,122205,1,0,0:0:0:0:
256,192,122205,1,0,0:0:0:0:
36,192,122205,1,0,0:0:0:0:
182,192,122205,1,0,0:0:0:0:
109,192,122282,1,0,0:0:0:0:
256,192,122359,1,0,0:0:0:0:
475,192,122359,1,0,0:0:0:0:
36,192,122359,1,0,0:0:0:0:
402,192,122436,1,0,0:0:0:0:
329,192,122513,1,0,0:0:0:0:
109,192,122513,1,0,0:0:0:0:
182,192,122513,1,0,0:0:0:0:
36,192,122513,1,0,0:0:0:0:
475,192,122513,1,0,0:0:0:0:
256,192,122590,1,0,0:0:0:0:
402,192,122667,1,0,0:0:0:0:
109,192,122667,1,0,0:0:0:0:
182,192,122667,1,0,0:0:0:0:
329,192,122744,1,0,0:0:0:0:
475,192,122821,1,0,0:0:0:0:
256,192,122821,1,0,0:0:0:0:
36,192,122821,1,0,0:0:0:0:
182,192,122821,1,0,0:0:0:0:
402,192,122898,1,0,0:0:0:0:
109,192,122975,1,0,0:0:0:0:
329,192,122975,1,0,0:0:0:0:
36,192,122975,1,0,0:0:0:0:
256,192,123051,1,0,0:0:0:0:
182,192,123128,1,0,0:0:0:0:
402,192,123128,1,0,0:0:0:0:
329,192,123128,1,0,0:0:0:0:
475,192,123128,1,0,0:0:0:0:
109,192,123128,1,0,0:0:0:0:
256,192,123205,1,0,0:0:0:0:
475,192,123282,1,0,0:0:0:0:
329,192,123282,1,0,0:0:0:0:
109,192,123282,1,0,0:0:0:0:
36,192,123359,1,0,0:0:0:0:
109,192,123436,1,0,0:0:0:0:
182,192,123436,1,0,0:0:0:0:
256,192,123436,1,0,0:0:0:0:
329,192,123436,1,0,0:0:0:0:
402,192,123436,1,0,0:0:0:0:
475,192,123436,1,0,0:0:0:0:
36,192,123513,1,0,0:0:0:0:
402,192,123590,1,0,0:0:0:0:
182,192,123590,1,0,0:0:0:0:
475,192,123590,1,0,0:0:0:0:
256,192,123667,1,0,0:0:0:0:
329,192,123744,1,0,0:0:0:0:
109,192,123744,1,0,0:0:0:0:
402,192,123744,1,0,0:0:0:0:
182,192,123744,1,0,0:0:0:0:
36,192,123744,1,0,0:0:0:0:
256,192,123821,1,0,0:0:0:0:
329,192,123898,1,0,0:0:0:0:
109,192,123898,1,0,0:0:0:0:
36,192,123898,1,0,0:0:0:0:
475,192,123975,1,0,0:0:0:0:
256,192,124051,1,0,0:0:0:0:
109,192,124051,1,0,0:0:0:0:
36,192,124051,1,0,0:0:0:0:
402,192,124051,1,0,0:0:0:0:
182,192,124051,1,0,0:0:0:0:
329,192,124051,1,0,0:0:0:0:
475,192,124128,1,0,0:0:0:0:
182,192,124205,1,0,0:0:0:0:
402,192,124205,1,0,0:0:0:0:
256,192,124205,1,0,0:0:0:0:
109,192,124282,1,0,0:0:0:0:
182,192,124359,1,0,0:0:0:0:
36,192,124359,1,0,0:0:0:0:
256,192,124359,1,0,0:0:0:0:
329,192,124359,1,0,0:0:0:0:
475,192,124359,1,0,0:0:0:0:
402,192,124436,1,0,0:0:0:0:
329,192,124513,1,0,0:0:0:0:
109,192,124513,1,0,0:0:0:0:
475,192,124513,1,0,0:0:0:0:
182,192,124590,1,0,0:0:0:0:
402,192,124667,1,0,0:0:0:0:
36,192,124667,1,0,0:0:0:0:
329,192,124667,1,0,0:0:0:0:
256,192,124667,1,0,0:0:0:0:
182,192,124744,1,0,0:0:0:0:
109,192,124821,1,0,0:0:0:0:
256,192,124821,1,0,0:0:0:0:
475,192,124821,1,0,0:0:0:0:
402,192,124898,1,0,0:0:0:0:
256,192,124975,1,0,0:0:0:0:
329,192,124975,1,0,0:0:0:0:
475,192,124975,1,0,0:0:0:0:
109,192,124975,1,0,0:0:0:0:
36,192,124975,1,0,0:0:0:0:
402,192,125051,1,0,0:0:0:0:
329,192,125128,1,0,0:0:0:0:
36,192,125128,1,0,0:0:0:0:
182,192,125128,1,0,0:0:0:0:
256,192,125205,1,0,0:0:0:0:
475,192,125282,1,0,0:0:0:0:
109,192,125282,1,0,0:0:0:0:
402,192,125282,1,0,0:0:0:0:
182,192,125282,1,0,0:0:0:0:
256,192,125359,1,0,0:0:0:0:
329,192,125436,1,0,0:0:0:0:
182,192,125436,1,0,0:0:0:0:
36,192,125436,1,0,0:0:0:0:
256,192,125513,1,0,0:0:0:0:
329,192,125590,1,0,0:0:0:0:
402,192,125590,1,0,0:0:0:0:
182,192,125590,1,0,0:0:0:0:
36,192,125590,1,0,0:0:0:0:
109,192,125590,1,0,0:0:0:0:
475,192,125667,1,0,0:0:0:0:
402,192,125744,1,0,0:0:0:0:
109,192,125744,1,0,0:0:0:0:
256,192,125744,1,0,0:0:0:0:
36,192,125821,1,0,0:0:0:0:
329,192,125898,1,0,0:0:0:0:
475,192,125898,1,0,0:0:0:0:
256,192,125898,1,0,0:0:0:0:
182,192,125975,1,0,0:0:0:0:
256,192,126051,1,0,0:0:0:0:
402,192,126051,1,0,0:0:0:0:
109,192,126051,1,0,0:0:0:0:
36,192,126128,1,0,0:0:0:0:
402,192,126205,1,0,0:0:0:0:
475,192,126205,1,0,0:0:0:0:
256,192,126205,1,0,0:0:0:0:
109,192,126205,1,0,0:0:0:0:
182,192,126205,1,0,0:0:0:0:
36,192,126282,1,0,0:0:0:0:
182,192,126359,1,0,0:0:0:0:
329,192,126359,1,0,0:0:0:0:
475,192,126359,1,0,0:0:0:0:
109,192,126436,1,0,0:0:0:0:
402,192,126513,1,0,0:0:0:0:
36,192,126513,1,0,0:0:0:0:
329,192,126513,1,0,0:0:0:0:
256,192,126513,1,0,0:0:0:0:
109,192,126590,1,0,0:0:0:0:
475,192,126667,1,0,0:0:0:0:
329,192,126667,1,0,0:0:0:0:
182,192,126667,1,0,0:0:0:0:
109,192,126744,1,0,0:0:0:0:
329,192,126821,1,0,0:0:0:0:
475,192,126821,1,0,0:0:0:0:
256,192,126821,1,0,0:0:0:0:
36,192,126821,1,0,0:0:0:0:
182,192,126821,1,0,0:0:0:0:
402,192,126898,1,0,0:0:0:0:
256,192,126975,1,0,0:0:0:0:
109,192,126975,1,0,0:0:0:0:
36,192,126975,1,0,0:0:0:0:
329,192,127051,1,0,0:0:0:0:
475,192,127128,1,0,0:0:0:0:
402,192,127128,1,0,0:0:0:0:
36,192,127128,1,0,0:0:0:0:
182,192,127128,1,0,0:0:0:0:
329,192,127205,1,0,0:0:0:0:
402,192,127282,1,0,0:0:0:0:
256,192,127282,1,0,0:0:0:0:
109,192,127282,1,0,0:0:0:0:
182,192,127359,1,0,0:0:0:0:
256,192,127436,1,0,0:0:0:0:
402,192,127436,1,0,0:0:0:0:
475,192,127436,1,0,0:0:0:0:
36,192,127436,1,0,0:0:0:0:
109,192,127436,1,0,0:0:0:0:
182,192,127513,1,0,0:0:0:0:
109,192,127590,1,0,0:0:0:0:
329,192,127590,1,0,0:0:0:0:
475,192,127590,1,0,0:0:0:0:
256,192,127667,1,0,0:0:0:0:
182,192,127744,1,0,0:0:0:0:
402,192,127744,1,0,0:0:0:0:
36,192,127744,1,0,0:0:0:0:
109,192,127744,1,0,0:0:0:0:
329,192,127821,1,0,0:0:0:0:
182,192,127898,1,0,0:0:0:0:
475,192,127898,1,0,0:0:0:0:
402,192,127898,1,0,0:0:0:0:
36,192,127975,1,0,0:0:0:0:
182,192,128051,1,0,0:0:0:0:
109,192,128051,1,0,0:0:0:0:
329,192,128051,1,0,0:0:0:0:
402,192,128051,1,0,0:0:0:0:
475,192,128051,1,0,0:0:0:0:
256,192,128128,1,0,0:0:0:0:
36,192,128205,1,0,0:0:0:0:
109,192,128205,1,0,0:0:0:0:
329,192,128205,1,0,0:0:0:0:
256,192,128282,1,0,0:0:0:0:
402,192,128359,1,0,0:0:0:0:
475,192,128359,1,0,0:0:0:0:
182,192,128359,1,0,0:0:0:0:
109,192,128436,1,0,0:0:0:0:
36,192,128436,1,0,0:0:0:0:
329,192,128436,1,0,0:0:0:0:
182,192,128513,1,0,0:0:0:0:
402,192,128590,1,0,0:0:0:0:
475,192,128590,1,0,0:0:0:0:
256,192,128590,1,0,0:0:0:0:
109,192,128667,1,0,0:0:0:0:
36,192,128667,1,0,0:0:0:0:
182,192,128667,1,0,0:0:0:0:
329,192,128667,1,0,0:0:0:0:
402,192,128744,1,0,0:0:0:0:
475,192,128744,1,0,0:0:0:0:
256,192,128744,1,0,0:0:0:0:
109,192,128821,1,0,0:0:0:0:
36,192,128821,1,0,0:0:0:0:
329,192,128821,1,0,0:0:0:0:
182,192,128898,1,0,0:0:0:0:
402,192,128898,1,0,0:0:0:0:
256,192,128898,1,0,0:0:0:0:
475,192,128975,1,0,0:0:0:0:
109,192,128975,1,0,0:0:0:0:
36,192,128975,1,0,0:0:0:0:
329,192,128975,1,0,0:0:0:0:
182,192,129051,1,0,0:0:0:0:
256,192,129128,1,0,0:0:0:0:
329,192,129128,1,0,0:0:0:0:
475,192,129128,1,0,0:0:0:0:
182,192,129205,1,0,0:0:0:0:
36,192,129282,1,0,0:0:0:0:
109,192,129282,1,0,0:0:0:0:
402,192,129282,1,0,0:0:0:0:
475,192,129282,1,0,0:0:0:0:
329,192,129282,1,0,0:0:0:0:
256,192,129359,1,0,0:0:0:0:
182,192,129436,1,0,0:0:0:0:
109,192,129436,1,0,0:0:0:0:
402,192,129436,1,0,0:0:0:0:
329,192,129513,1,0,0:0:0:0:
256,192,129590,1,0,0:0:0:0:
475,192,129590,1,0,0:0:0:0:
182,192,129590,1,0,0:0:0:0:
36,192,129590,1,0,0:0:0:0:
329,192,129667,1,0,0:0:0:0:
109,192,129744,1,0,0:0:0:0:
402,192,129744,1,0,0:0:0:0:
475,192,129744,1,0,0:0:0:0:
256,192,129821,1,0,0:0:0:0:
109,192,129898,1,0,0:0:0:0:
182,192,129898,1,0,0:0:0:0:
402,192,129898,1,0,0:0:0:0:
475,192,129898,1,0,0:0:0:0:
36,192,129898,1,0,0:0:0:0:
256,192,129975,1,0,0:0:0:0:
329,192,130051,1,0,0:0:0:0:
402,192,130051,1,0,0:0:0:0:
109,192,130051,1,0,0:0:0:0:
182,192,130128,1,0,0:0:0:0:
256,192,130205,1,0,0:0:0:0:
329,192,130205,1,0,0:0:0:0:
475,192,130205,1,0,0:0:0:0:
36,192,130205,1,0,0:0:0:0:
402,192,130282,1,0,0:0:0:0:
182,192,130359,1,0,0:0:0:0:
475,192,130359,1,0,0:0:0:0:
36,192,130359,1,0,0:0:0:0:
329,192,130436,1,0,0:0:0:0:
182,192,130513,1,0,0:0:0:0:
256,192,130513,1,0,0:0:0:0:
109,192,130513,1,0,0:0:0:0:
36,192,130513,1,0,0:0:0:0:
402,192,130513,1,0,0:0:0:0:
329,192,130590,1,0,0:0:0:0:
402,192,130667,1,0,0:0:0:0:
475,192,130667,1,0,0:0:0:0:
36,192,130667,1,0,0:0:0:0:
182,192,130744,1,0,0:0:0:0:
402,192,130821,1,0,0:0:0:0:
329,192,130821,1,0,0:0:0:0:
36,192,130821,1,0,0:0:0:0:
475,192,130821,1,0,0:0:0:0:
109,192,130821,1,0,0:0:0:0:
256,192,130821,1,0,0:0:0:0:
182,192,130898,1,0,0:0:0:0:
256,192,130975,1,0,0:0:0:0:
109,192,130975,1,0,0:0:0:0:
475,192,130975,1,0,0:0:0:0:
402,192,131051,1,0,0:0:0:0:
256,192,131128,1,0,0:0:0:0:
329,192,131128,1,0,0:0:0:0:
182,192,131128,1,0,0:0:0:0:
109,192,131128,1,0,0:0:0:0:
36,192,131128,1,0,0:0:0:0:
402,192,131205,1,0,0:0:0:0:
475,192,131282,1,0,0:0:0:0:
36,192,131282,1,0,0:0:0:0:
109,192,131282,1,0,0:0:0:0:
329,192,131359,1,0,0:0:0:0:
402,192,131436,1,0,0:0:0:0:
475,192,131436,1,0,0:0:0:0:
256,192,131436,1,0,0:0:0:0:
182,192,131436,1,0,0:0:0:0:
109,192,131436,1,0,0:0:0:0:
36,192,131436,1,0,0:0:0:0:
329,192,131513,1,0,0:0:0:0:
475,192,131590,1,0,0:0:0:0:
182,192,131590,1,0,0:0:0:0:
256,192,131590,1,0,0:0:0:0:
329,192,131667,1,0,0:0:0:0:
475,192,131744,1,0,0:0:0:0:
402,192,131744,1,0,0:0:0:0:
182,192,131744,1,0,0:0:0:0:
36,192,131744,1,0,0:0:0:0:
109,192,131744,1,0,0:0:0:0:
256,192,131821,1,0,0:0:0:0:
329,192,131898,1,0,0:0:0:0:
109,192,131898,1,0,0:0:0:0:
36,192,131898,1,0,0:0:0:0:
182,192,131975,1,0,0:0:0:0:
256,192,132051,1,0,0:0:0:0:
402,192,132051,1,0,0:0:0:0:
475,192,132051,1,0,0:0:0:0:
36,192,132051,1,0,0:0:0:0:
182,192,132128,1,0,0:0:0:0:
402,192,132205,1,0,0:0:0:0:
109,192,132205,1,0,0:0:0:0:
329,192,132205,1,0,0:0:0:0:
256,192,132282,1,0,0:0:0:0:
402,192,132359,1,0,0:0:0:0:
329,192,132359,1,0,0:0:0:0:
475,192,132359,1,0,0:0:0:0:
109,192,132359,1,0,0:0:0:0:
36,192,132359,1,0,0:0:0:0:
256,192,132436,1,0,0:0:0:0:
182,192,132513,1,0,0:0:0:0:
36,192,132513,1,0,0:0:0:0:
475,192,132513,1,0,0:0:0:0:
402,192,132590,1,0,0:0:0:0:
329,192,132667,1,0,0:0:0:0:
475,192,132667,1,0,0:0:0:0:
256,192,132667,1,0,0:0:0:0:
109,192,132667,1,0,0:0:0:0:
182,192,132744,1,0,0:0:0:0:
329,192,132821,1,0,0:0:0:0:
36,192,132821,1,0,0:0:0:0:
402,192,132821,1,0,0:0:0:0:
182,192,132898,1,0,0:0:0:0:
329,192,132975,1,0,0:0:0:0:
256,192,132975,1,0,0:0:0:0:
36,192,132975,1,0,0:0:0:0:
402,192,132975,1,0,0:0:0:0:
475,192,132975,1,0,0:0:0:0:
109,192,133051,1,0,0:0:0:0:
182,192,133128,1,0,0:0:0:0:
475,192,133128,1,0,0:0:0:0:
256,192,133128,1,0,0:0:0:0:
329,192,133205,1,0,0:0:0:0:
36,192,133282,1,0,0:0:0:0:
109,192,133282,1,0,0:0:0:0:
402,192,133282,1,0,0:0:0:0:
475,192,133282,1,0,0:0:0:0:
182,192,133359,1,0,0:0:0:0:
256,192,133436,1,0,0:0:0:0:
402,192,133436,1,0,0:0:0:0:
109,192,133513,1,0,0:0:0:0:
256,192,133590,1,0,0:0:0:0:
182,192,133590,1,0,0:0:0:0:
329,192,133590,1,0,0:0:0:0:
402,192,133590,1,0,0:0:0:0:
475,192,133590,1,0,0:0:0:0:
109,192,133667,1,0,0:0:0:0:
36,192,133744,1,0,0:0:0:0:
329,192,133744,1,0,0:0:0:0:
475,192,133744,1,0,0:0:0:0:
182,192,133744,1,0,0:0:0:0:
402,192,133821,1,0,0:0:0:0:
256,192,133898,1,0,0:0:0:0:
329,192,133898,1,0,0:0:0:0:
475,192,133898,1,0,0:0:0:0:
182,192,133898,1,0,0:0:0:0:
109,192,133898,1,0,0:0:0:0:
36,192,133898,1,0,0:0:0:0:
402,192,133975,1,0,0:0:0:0:
256,192,134051,1,0,0:0:0:0:
109,192,134051,1,0,0:0:0:0:
36,192,134051,1,0,0:0:0:0:
329,192,134128,1,0,0:0:0:0:
402,192,134205,1,0,0:0:0:0:
475,192,134205,1,0,0:0:0:0:
256,192,134205,1,0,0:0:0:0:
36,192,134205,1,0,0:0:0:0:
182,192,134205,1,0,0:0:0:0:
109,192,134282,1,0,0:0:0:0:
402,192,134359,1,0,0:0:0:0:
329,192,134359,1,0,0:0:0:0:
182,192,134359,1,0,0:0:0:0:
36,192,134436,1,0,0:0:0:0:
256,192,134513,1,0,0:0:0:0:
329,192,134513,1,0,0:0:0:0:
109,192,134513,1,0,0:0:0:0:
475,192,134513,1,0,0:0:0:0:
182,192,134590,1,0,0:0:0:0:
256,192,134667,1,0,0:0:0:0:
402,192,134667,1,0,0:0:0:0:
36,192,134667,1,0,0:0:0:0:
182,192,134744,1,0,0:0:0:0:
109,192,134821,1,0,0:0:0:0:
36,192,134821,1,0,0:0:0:0:
256,192,134821,1,0,0:0:0:0:
329,192,134821,1,0,0:0:0:0:
475,192,134821,1,0,0:0:0:0:
402,192,134898,1,0,0:0:0:0:
109,192,134975,1,0,0:0:0:0:
182,192,134975,1,0,0:0:0:0:
329,192,134975,1,0,0:0:0:0:
475,192,135051,1,0,0:0:0:0:
182,192,135128,1,0,0:0:0:0:
256,192,135128,1,0,0:0:0:0:
402,192,135128,1,0,0:0:0:0:
36,192,135128,1,0,0:0:0:0:
329,192,135205,1,0,0:0:0:0:
256,192,135282,1,0,0:0:0:0:
109,192,135282,1,0,0:0:0:0:
475,192,135282,1,0,0:0:0:0:
402,192,135359,1,0,0:0:0:0:
256,192,135436,1,0,0:0:0:0:
329,192,135436,1,0,0:0:0:0:
475,192,135436,1,0,0:0:0:0:
182,192,135436,1,0,0:0:0:0:
36,192,135436,1,0,0:0:0:0:
109,192,135513,1,0,0:0:0:0:
182,192,135590,1,0,0:0:0:0:
402,192,135590,1,0,0:0:0:0:
36,192,135590,1,0,0:0:0:0:
256,192,135667,1,0,0:0:0:0:
329,192,135744,1,0,0:0:0:0:
109,192,135744,1,0,0:0:0:0:
402,192,135744,1,0,0:0:0:0:
475,192,135744,1,0,0:0:0:0:
182,192,135821,1,0,0:0:0:0:
256,192,135898,1,0,0:0:0:0:
36,192,135898,1,0,0:0:0:0:
475,192,135898,1,0,0:0:0:0:
109,192,135975,1,0,0:0:0:0:
182,192,136051,1,0,0:0:0:0:
256,192,136051,1,0,0:0:0:0:
329,192,136051,1,0,0:0:0:0:
402,192,136051,1,0,0:0:0:0:
36,192,136051,1,0,0:0:0:0:
475,192,136128,1,0,0:0:0:0:
402,192,136205,1,0,0:0:0:0:
182,192,136205,1,0,0:0:0:0:
109,192,136205,1,0,0:0:0:0:
36,192,136205,1,0,0:0:0:0:
329,192,136282,1,0,0:0:0:0:
256,192,136359,1,0,0:0:0:0:
475,192,136359,1,0,0:0:0:0:
109,192,136359,1,0,0:0:0:0:
182,192,136359,1,0,0:0:0:0:
402,192,136436,1,0,0:0:0:0:
329,192,136513,1,0,0:0:0:0:
36,192,136513,1,0,0:0:0:0:
256,192,136513,1,0,0:0:0:0:
402,192,136590,1,0,0:0:0:0:
256,192,136667,1,0,0:0:0:0:
475,192,136667,1,0,0:0:0:0:
109,192,136667,1,0,0:0:0:0:
182,192,136667,1,0,0:0:0:0:
36,192,136667,1,0,0:0:0:0:
329,192,136744,1,0,0:0:0:0:
402,192,136821,1,0,0:0:0:0:
109,192,136821,1,0,0:0:0:0:
182,192,136821,1,0,0:0:0:0:
256,192,136898,1,0,0:0:0:0:
475,192,136975,1,0,0:0:0:0:
402,192,136975,1,0,0:0:0:0:
36,192,136975,1,0,0:0:0:0:
329,192,136975,1,0,0:0:0:0:
109,192,137051,1,0,0:0:0:0:
182,192,137128,1,0,0:0:0:0:
329,192,137128,1,0,0:0:0:0:
475,192,137128,1,0,0:0:0:0:
256,192,137205,1,0,0:0:0:0:
182,192,137282,1,0,0:0:0:0:
109,192,137282,1,0,0:0:0:0:
36,192,137282,1,0,0:0:0:0:
402,192,137282,1,0,0:0:0:0:
329,192,137282,1,0,0:0:0:0:
256,192,137359,1,0,0:0:0:0:
475,192,137436,1,0,0:0:0:0:
36,192,137436,1,0,0:0:0:0:
109,192,137436,1,0,0:0:0:0:
402,192,137513,1,0,0:0:0:0:
329,192,137590,1,0,0:0:0:0:
182,192,137590,1,0,0:0:0:0:
36,192,137590,1,0,0:0:0:0:
109,192,137590,1,0,0:0:0:0:
475,192,137590,1,0,0:0:0:0:
256,192,137667,1,0,0:0:0:0:
475,192,137744,1,0,0:0:0:0:
182,192,137744,1,0,0:0:0:0:
402,192,137744,1,0,0:0:0:0:
109,192,137821,1,0,0:0:0:0:
36,192,137821,1,0,0:0:0:0:
256,192,137821,1,0,0:0:0:0:
329,192,137898,1,0,0:0:0:0:
475,192,137898,1,0,0:0:0:0:
182,192,137898,1,0,0:0:0:0:
402,192,137898,1,0,0:0:0:0:
256,192,137975,1,0,0:0:0:0:
329,192,138051,1,0,0:0:0:0:
109,192,138051,1,0,0:0:0:0:
36,192,138051,1,0,0:0:0:0:
256,192,138128,1,0,0:0:0:0:
402,192,138128,1,0,0:0:0:0:
475,192,138128,1,0,0:0:0:0:
36,192,138205,1,0,0:0:0:0:
329,192,138205,1,0,0:0:0:0:
109,192,138205,1,0,0:0:0:0:
182,192,138205,1,0,0:0:0:0:
256,192,138282,1,0,0:0:0:0:
475,192,138359,1,0,0:0:0:0:
402,192,138359,1,0,0:0:0:0:
182,192,138359,1,0,0:0:0:0:
36,192,138436,1,0,0:0:0:0:
109,192,138436,1,0,0:0:0:0:
256,192,138436,1,0,0:0:0:0:
475,192,138513,1,0,0:0:0:0:
402,192,138513,1,0,0:0:0:0:
182,192,138513,1,0,0:0:0:0:
329,192,138513,1,0,0:0:0:0:
36,192,138590,1,0,0:0:0:0:
109,192,138590,1,0,0:0:0:0:
402,192,138667,1,0,0:0:0:0:
475,192,138667,1,0,0:0:0:0:
256,192,138667,1,0,0:0:0:0:
329,192,138744,1,0,0:0:0:0:
182,192,138744,1,0,0:0:0:0:
475,192,138821,1,0,0:0:0:0:
402,192,138821,1,0,0:0:0:0:
36,192,138821,1,0,0:0:0:0:
109,192,138821,1,0,0:0:0:0:
256,192,138821,1,0,0:0:0:0:
182,192,138898,1,0,0:0:0:0:
475,192,138975,1,0,0:0:0:0:
329,192,138975,1,0,0:0:0:0:
109,192,138975,1,0,0:0:0:0:
402,192,139051,1,0,0:0:0:0:
329,192,139128,1,0,0:0:0:0:
182,192,139128,1,0,0:0:0:0:
256,192,139128,1,0,0:0:0:0:
36,192,139128,1,0,0:0:0:0:
109,192,139128,1,0,0:0:0:0:
475,192,139205,1,0,0:0:0:0:
182,192,139282,1,0,0:0:0:0:
36,192,139282,1,0,0:0:0:0:
402,192,139282,1,0,0:0:0:0:
329,192,139359,1,0,0:0:0:0:
256,192,139436,1,0,0:0:0:0:
109,192,139436,1,0,0:0:0:0:
402,192,139436,1,0,0:0:0:0:
475,192,139436,1,0,0:0:0:0:
329,192,139513,1,0,0:0:0:0:
182,192,139590,1,0,0:0:0:0:
36,192,139590,1,0,0:0:0:0:
475,192,139590,1,0,0:0:0:0:
109,192,139667,1,0,0:0:0:0:
329,192,139744,1,0,0:0:0:0:
182,192,139744,1,0,0:0:0:0:
256,192,139744,1,0,0:0:0:0:
36,192,139744,1,0,0:0:0:0:
475,192,139744,1,0,0:0:0:0:
402,192,139821,1,0,0:0:0:0:
109,192,139898,1,0,0:0:0:0:
329,192,139898,1,0,0:0:0:0:
256,192,139898,1,0,0:0:0:0:
182,192,139975,1,0,0:0:0:0:
329,192,140051,1,0,0:0:0:0:
475,192,140051,1,0,0:0:0:0:
36,192,140051,1,0,0:0:0:0:
109,192,140051,1,0,0:0:0:0:
182,192,140128,1,0,0:0:0:0:
256,192,140205,1,0,0:0:0:0:
402,192,140205,1,0,0:0:0:0:
36,192,140205,1,0,0:0:0:0:
329,192,140282,1,0,0:0:0:0:
402,192,140359,1,0,0:0:0:0:
182,192,140359,1,0,0:0:0:0:
109,192,140359,1,0,0:0:0:0:
256,192,140359,1,0,0:0:0:0:
475,192,140359,1,0,0:0:0:0:
36,192,140436,1,0,0:0:0:0:
329,192,140513,1,0,0:0:0:0:
475,192,140513,1,0,0:0:0:0:
182,192,140513,1,0,0:0:0:0:
109,192,140590,1,0,0:0:0:0:
256,192,140667,1,0,0:0:0:0:
402,192,140667,1,0,0:0:0:0:
36,192,140667,1,0,0:0:0:0:
475,192,140667,1,0,0:0:0:0:
329,192,140744,1,0,0:0:0:0:
256,192,140821,1,0,0:0:0:0:
109,192,140821,1,0,0:0:0:0:
475,192,140821,1,0,0:0:0:0:
182,192,140898,1,0,0:0:0:0:
109,192,140975,1,0,0:0:0:0:
402,192,140975,1,0,0:0:0:0:
475,192,140975,1,0,0:0:0:0:
329,192,140975,1,0,0:0:0:0:
36,192,140975,1,0,0:0:0:0:
256,192,141051,1,0,0:0:0:0:
182,192,141128,1,0,0:0:0:0:
36,192,141128,1,0,0:0:0:0:
402,192,141128,1,0,0:0:0:0:
329,192,141128,1,0,0:0:0:0:
109,192,141205,1,0,0:0:0:0:
329,192,141282,1,0,0:0:0:0:
402,192,141282,1,0,0:0:0:0:
475,192,141282,1,0,0:0:0:0:
256,192,141282,1,0,0:0:0:0:
182,192,141282,1,0,0:0:0:0:
36,192,141282,1,0,0:0:0:0:
109,192,141359,1,0,0:0:0:0:
256,192,141436,1,0,0:0:0:0:
475,192,141436,1,0,0:0:0:0:
36,192,141436,1,0,0:0:0:0:
402,192,141513,1,0,0:0:0:0:
329,192,141590,1,0,0:0:0:0:
109,192,141590,1,0,0:0:0:0:
182,192,141590,1,0,0:0:0:0:
36,192,141590,1,0,0:0:0:0:
475,192,141590,1,0,0:0:0:0:
256,192,141667,1,0,0:0:0:0:
109,192,141744,1,0,0:0:0:0:
402,192,141744,1,0,0:0:0:0:
329,192,141744,1,0,0:0:0:0:
182,192,141821,1,0,0:0:0:0:
36,192,141898,1,0,0:0:0:0:
256,192,141898,1,0,0:0:0:0:
475,192,141898,1,0,0:0:0:0:
329,192,141898,1,0,0:0:0:0:
402,192,141975,1,0,0:0:0:0:
256,192,142051,1,0,0:0:0:0:
36,192,142051,1,0,0:0:0:0:
475,192,142051,1,0,0:0:0:0:
109,192,142128,1,0,0:0:0:0:
182,192,142205,1,0,0:0:0:0:
402,192,142205,1,0,0:0:0:0:
329,192,142205,1,0,0:0:0:0:
475,192,142205,1,0,0:0:0:0:
36,192,142205,1,0,0:0:0:0:
256,192,142282,1,0,0:0:0:0:
109,192,142359,1,0,0:0:0:0:
402,192,142359,1,0,0:0:0:0:
329,192,142359,1,0,0:0:0:0:
182,192,142436,1,0,0:0:0:0:
36,192,142513,1,0,0:0:0:0:
256,192,142513,1,0,0:0:0:0:
475,192,142513,1,0,0:0:0:0:
329,192,142513,1,0,0:0:0:0:
109,192,142590,1,0,0:0:0:0:
402,192,142667,1,0,0:0:0:0:
182,192,142667,1,0,0:0:0:0:
475,192,142667,1,0,0:0:0:0:
256,192,142744,1,0,0:0:0:0:
329,192,142821,1,0,0:0:0:0:
109,192,142821,1,0,0:0:0:0:
182,192,142821,1,0,0:0:0:0:
36,192,142821,1,0,0:0:0:0:
402,192,142821,1,0,0:0:0:0:
256,192,142898,1,0,0:0:0:0:
36,192,142975,1,0,0:0:0:0:
182,192,142975,1,0,0:0:0:0:
402,192,142975,1,0,0:0:0:0:
475,192,143051,1,0,0:0:0:0:
402,192,143128,1,0,0:0:0:0:
329,192,143128,1,0,0:0:0:0:
256,192,143128,1,0,0:0:0:0:
182,192,143128,1,0,0:0:0:0:
109,192,143128,1,0,0:0:0:0:
36,192,143128,1,0,0:0:0:0:
475,192,143205,1,0,0:0:0:0:
329,192,143282,1,0,0:0:0:0:
36,192,143282,1,0,0:0:0:0:
109,192,143282,1,0,0:0:0:0:
256,192,143359,1,0,0:0:0:0:
182,192,143436,1,0,0:0:0:0:
402,192,143436,1,0,0:0:0:0:
109,192,143436,1,0,0:0:0:0:
329,192,143436,1,0,0:0:0:0:
475,192,143436,1,0,0:0:0:0:
256,192,143513,1,0,0:0:0:0:
182,192,143590,1,0,0:0:0:0:
402,192,143590,1,0,0:0:0:0:
475,192,143590,1,0,0:0:0:0:
36,192,143667,1,0,0:0:0:0:
256,192,143744,1,0,0:0:0:0:
109,192,143744,1,0,0:0:0:0:
402,192,143744,1,0,0:0:0:0:
182,192,143744,1,0,0:0:0:0:
329,192,143744,1,0,0:0:0:0:
475,192,143744,1,0,0:0:0:0:
36,192,143821,1,0,0:0:0:0:
109,192,143898,1,0,0:0:0:0:
256,192,143898,1,0,0:0:0:0:
329,192,143898,1,0,0:0:0:0:
402,192,143975,1,0,0:0:0:0:
329,192,144051,1,0,0:0:0:0:
475,192,144051,1,0,0:0:0:0:
256,192,144051,1,0,0:0:0:0:
182,192,144051,1,0,0:0:0:0:
36,192,144051,1,0,0:0:0:0:
109,192,144128,1,0,0:0:0:0:
182,192,144205,1,0,0:0:0:0:
402,192,144205,1,0,0:0:0:0:
36,192,144205,1,0,0:0:0:0:
329,192,144282,1,0,0:0:0:0:
109,192,144359,1,0,0:0:0:0:
475,192,144359,1,0,0:0:0:0:
182,192,144359,1,0,0:0:0:0:
256,192,144359,1,0,0:0:0:0:
329,192,144436,1,0,0:0:0:0:
402,192,144513,1,0,0:0:0:0:
256,192,144513,1,0,0:0:0:0:
36,192,144513,1,0,0:0:0:0:
109,192,144590,1,0,0:0:0:0:
256,192,144667,1,0,0:0:0:0:
182,192,144667,1,0,0:0:0:0:
36,192,144667,1,0,0:0:0:0:
402,192,144667,1,0,0:0:0:0:
475,192,144667,1,0,0:0:0:0:
109,192,144744,1,0,0:0:0:0:
182,192,144821,1,0,0:0:0:0:
475,192,144821,1,0,0:0:0:0:
329,192,144821,1,0,0:0:0:0:
256,192,144898,1,0,0:0:0:0:
36,192,144975,1,0,0:0:0:0:
402,192,144975,1,0,0:0:0:0:
109,192,144975,1,0,0:0:0:0:
329,192,144975,1,0,0:0:0:0:
256,192,145051,1,0,0:0:0:0:
182,192,145128,1,0,0:0:0:0:
329,192,145128,1,0,0:0:0:0:
475,192,145128,1,0,0:0:0:0:
36,192,145205,1,0,0:0:0:0:
182,192,145282,1,0,0:0:0:0:
109,192,145282,1,0,0:0:0:0:
329,192,145282,1,0,0:0:0:0:
475,192,145282,1,0,0:0:0:0:
402,192,145282,1,0,0:0:0:0:
36,192,145359,1,0,0:0:0:0:
109,192,145436,1,0,0:0:0:0:
402,192,145436,1,0,0:0:0:0:
256,192,145436,1,0,0:0:0:0:
475,192,145513,1,0,0:0:0:0:
182,192,145590,1,0,0:0:0:0:
36,192,145590,1,0,0:0:0:0:
256,192,145590,1,0,0:0:0:0:
329,192,145667,1,0,0:0:0:0:
256,192,145744,1,0,0:0:0:0:
109,192,145744,1,0,0:0:0:0:
402,192,145744,1,0,0:0:0:0:
182,192,145821,1,0,0:0:0:0:
109,192,145898,1,0,0:0:0:0:
36,192,145898,1,0,0:0:0:0:
256,192,145898,1,0,0:0:0:0:
402,192,145898,1,0,0:0:0:0:
329,192,145898,1,0,0:0:0:0:
475,192,145975,1,0,0:0:0:0:
329,192,146051,1,0,0:0:0:0:
182,192,146051,1,0,0:0:0:0:
36,192,146051,1,0,0:0:0:0:
402,192,146128,1,0,0:0:0:0:
109,192,146205,1,0,0:0:0:0:
475,192,146205,1,0,0:0:0:0:
182,192,146205,1,0,0:0:0:0:
256,192,146205,1,0,0:0:0:0:
402,192,146282,1,0,0:0:0:0:
36,192,146359,1,0,0:0:0:0:
182,192,146359,1,0,0:0:0:0:
329,192,146359,1,0,0:0:0:0:
402,192,146436,1,0,0:0:0:0:
182,192,146513,1,0,0:0:0:0:
36,192,146513,1,0,0:0:0:0:
256,192,146513,1,0,0:0:0:0:
475,192,146513,1,0,0:0:0:0:
329,192,146513,1,0,0:0:0:0:
109,192,146590,1,0,0:0:0:0:
256,192,146667,1,0,0:0:0:0:
402,192,146667,1,0,0:0:0:0:
475,192,146667,1,0,0:0:0:0:
182,192,146744,1,0,0:0:0:0:
36,192,146821,1,0,0:0:0:0:
109,192,146821,1,0,0:0:0:0:
475,192,146821,1,0,0:0:0:0:
329,192,146821,1,0,0:0:0:0:
182,192,146898,1,0,0:0:0:0:
109,192,146975,1,0,0:0:0:0:
256,192,146975,1,0,0:0:0:0:
402,192,146975,1,0,0:0:0:0:
329,192,147051,1,0,0:0:0:0:
256,192,147128,1,0,0:0:0:0:
109,192,147128,1,0,0:0:0:0:
36,192,147128,1,0,0:0:0:0:
475,192,147128,1,0,0:0:0:0:
402,192,147128,1,0,0:0:0:0:
329,192,147205,1,0,0:0:0:0:
402,192,147282,1,0,0:0:0:0:
182,192,147282,1,0,0:0:0:0:
36,192,147282,1,0,0:0:0:0:
256,192,147359,1,0,0:0:0:0:
329,192,147436,1,0,0:0:0:0:
109,192,147436,1,0,0:0:0:0:
475,192,147436,1,0,0:0:0:0:
402,192,147436,1,0,0:0:0:0:
182,192,147513,1,0,0:0:0:0:
329,192,147590,1,0,0:0:0:0:
36,192,147590,1,0,0:0:0:0:
109,192,147590,1,0,0:0:0:0:
475,192,147667,1,0,0:0:0:0:
329,192,147744,1,0,0:0:0:0:
402,192,147744,1,0,0:0:0:0:
182,192,147744,1,0,0:0:0:0:
109,192,147744,1,0,0:0:0:0:
36,192,147744,1,0,0:0:0:0:
256,192,147821,1,0,0:0:0:0:
475,192,147898,1,0,0:0:0:0:
402,192,147898,1,0,0:0:0:0:
182,192,147898,1,0,0:0:0:0:
256,192,147975,1,0,0:0:0:0:
109,192,148051,1,0,0:0:0:0:
36,192,148051,1,0,0:0:0:0:
329,192,148051,1,0,0:0:0:0:
402,192,148128,1,0,0:0:0:0:
475,192,148128,1,0,0:0:0:0:
182,192,148128,1,0,0:0:0:0:
329,192,148205,1,0,0:0:0:0:
109,192,148282,1,0,0:0:0:0:
36,192,148282,1,0,0:0:0:0:
256,192,148282,1,0,0:0:0:0:
402,192,148359,1,0,0:0:0:0:
475,192,148359,1,0,0:0:0:0:
329,192,148359,1,0,0:0:0:0:
182,192,148359,1,0,0:0:0:0:
109,192,148436,1,0,0:0:0:0:
36,192,148436,1,0,0:0:0:0:
256,192,148436,1,0,0:0:0:0:
402,192,148513,1,0,0:0:0:0:
475,192,148513,1,0,0:0:0:0:
182,192,148513,1,0,0:0:0:0:
329,192,148590,1,0,0:0:0:0:
109,192,148590,1,0,0:0:0:0:
256,192,148590,1,0,0:0:0:0:
36,192,148667,1,0,0:0:0:0:
402,192,148667,1,0,0:0:0:0:
475,192,148667,1,0,0:0:0:0:
182,192,148667,1,0,0:0:0:0:
329,192,148744,1,0,0:0:0:0:
256,192,148821,1,0,0:0:0:0:
182,192,148821,1,0,0:0:0:0:
36,192,148821,1,0,0:0:0:0:
329,192,148898,1,0,0:0:0:0:
475,192,148975,1,0,0:0:0:0:
402,192,148975,1,0,0:0:0:0:
109,192,148975,1,0,0:0:0:0:
36,192,148975,1,0,0:0:0:0:
182,192,148975,1,0,0:0:0:0:
256,192,149051,1,0,0:0:0:0:
329,192,149128,1,0,0:0:0:0:
402,192,149128,1,0,0:0:0:0:
109,192,149128,1,0,0:0:0:0:
182,192,149205,1,0,0:0:0:0:
256,192,149282,1,0,0:0:0:0:
36,192,149282,1,0,0:0:0:0:
329,192,149282,1,0,0:0:0:0:
475,192,149282,1,0,0:0:0:0:
182,192,149359,1,0,0:0:0:0:
402,192,149436,1,0,0:0:0:0:
109,192,149436,1,0,0:0:0:0:
36,192,149436,1,0,0:0:0:0:
256,192,149513,1,0,0:0:0:0:
402,192,149590,1,0,0:0:0:0:
329,192,149590,1,0,0:0:0:0:
109,192,149590,1,0,0:0:0:0:
36,192,149590,1,0,0:0:0:0:
475,192,149590,1,0,0:0:0:0:
256,192,149667,1,0,0:0:0:0:
182,192,149744,1,0,0:0:0:0:
109,192,149744,1,0,0:0:0:0:
402,192,149744,1,0,0:0:0:0:
329,192,149821,1,0,0:0:0:0:
256,192,149898,1,0,0:0:0:0:
182,192,149898,1,0,0:0:0:0:
36,192,149898,1,0,0:0:0:0:
475,192,149898,1,0,0:0:0:0:
109,192,149975,1,0,0:0:0:0:
329,192,150051,1,0,0:0:0:0:
36,192,150051,1,0,0:0:0:0:
475,192,150051,1,0,0:0:0:0:
182,192,150128,1,0,0:0:0:0:
329,192,150205,1,0,0:0:0:0:
256,192,150205,1,0,0:0:0:0:
402,192,150205,1,0,0:0:0:0:
475,192,150205,1,0,0:0:0:0:
109,192,150205,1,0,0:0:0:0:
182,192,150282,1,0,0:0:0:0:
109,192,150359,1,0,0:0:0:0:
36,192,150359,1,0,0:0:0:0:
475,192,150359,1,0,0:0:0:0:
329,192,150436,1,0,0:0:0:0:
109,192,150513,1,0,0:0:0:0:
182,192,150513,1,0,0:0:0:0:
475,192,150513,1,0,0:0:0:0:
36,192,150513,1,0,0:0:0:0:
402,192,150513,1,0,0:0:0:0:
256,192,150513,1,0,0:0:0:0:
329,192,150590,1,0,0:0:0:0:
256,192,150667,1,0,0:0:0:0:
402,192,150667,1,0,0:0:0:0:
36,192,150667,1,0,0:0:0:0:
109,192,150744,1,0,0:0:0:0:
256,192,150821,1,0,0:0:0:0:
182,192,150821,1,0,0:0:0:0:
329,192,150821,1,0,0:0:0:0:
402,192,150821,1,0,0:0:0:0:
475,192,150821,1,0,0:0:0:0:
109,192,150898,1,0,0:0:0:0:
36,192,150975,1,0,0:0:0:0:
475,192,150975,1,0,0:0:0:0:
402,192,150975,1,0,0:0:0:0:
182,192,151051,1,0,0:0:0:0:
109,192,151128,1,0,0:0:0:0:
36,192,151128,1,0,0:0:0:0:
256,192,151128,1,0,0:0:0:0:
329,192,151128,1,0,0:0:0:0:
402,192,151128,1,0,0:0:0:0:
475,192,151128,1,0,0:0:0:0:
182,192,151205,1,0,0:0:0:0:
36,192,151282,1,0,0:0:0:0:
329,192,151282,1,0,0:0:0:0:
256,192,151282,1,0,0:0:0:0:
182,192,151359,1,0,0:0:0:0:
36,192,151436,1,0,0:0:0:0:
109,192,151436,1,0,0:0:0:0:
329,192,151436,1,0,0:0:0:0:
475,192,151436,1,0,0:0:0:0:
402,192,151436,1,0,0:0:0:0:
256,192,151513,1,0,0:0:0:0:
182,192,151590,1,0,0:0:0:0:
402,192,151590,1,0,0:0:0:0:
475,192,151590,1,0,0:0:0:0:
329,192,151667,1,0,0:0:0:0:
256,192,151744,1,0,0:0:0:0:
109,192,151744,1,0,0:0:0:0:
36,192,151744,1,0,0:0:0:0:
475,192,151744,1,0,0:0:0:0:
329,192,151821,1,0,0:0:0:0:
109,192,151898,1,0,0:0:0:0:
402,192,151898,1,0,0:0:0:0:
182,192,151898,1,0,0:0:0:0:
256,192,151975,1,0,0:0:0:0:
109,192,152051,1,0,0:0:0:0:
182,192,152051,1,0,0:0:0:0:
36,192,152051,1,0,0:0:0:0:
402,192,152051,1,0,0:0:0:0:
475,192,152051,1,0,0:0:0:0:
256,192,152128,1,0,0:0:0:0:
329,192,152205,1,0,0:0:0:0:
475,192,152205,1,0,0:0:0:0:
36,192,152205,1,0,0:0:0:0:
109,192,152282,1,0,0:0:0:0:
182,192,152359,1,0,0:0:0:0:
36,192,152359,1,0,0:0:0:0:
256,192,152359,1,0,0:0:0:0:
402,192,152359,1,0,0:0:0:0:
329,192,152436,1,0,0:0:0:0:
182,192,152513,1,0,0:0:0:0:
475,192,152513,1,0,0:0:0:0:
109,192,152513,1,0,0:0:0:0:
329,192,152590,1,0,0:0:0:0:
182,192,152667,1,0,0:0:0:0:
256,192,152667,1,0,0:0:0:0:
475,192,152667,1,0,0:0:0:0:
109,192,152667,1,0,0:0:0:0:
36,192,152667,1,0,0:0:0:0:
402,192,152744,1,0,0:0:0:0:
329,192,152821,1,0,0:0:0:0:
36,192,152821,1,0,0:0:0:0:
256,192,152821,1,0,0:0:0:0:
182,192,152898,1,0,0:0:0:0:
475,192,152975,1,0,0:0:0:0:
402,192,152975,1,0,0:0:0:0:
109,192,152975,1,0,0:0:0:0:
36,192,152975,1,0,0:0:0:0:
329,192,153051,1,0,0:0:0:0:
256,192,153128,1,0,0:0:0:0:
109,192,153128,1,0,0:0:0:0:
402,192,153205,1,0,0:0:0:0:
256,192,153282,1,0,0:0:0:0:
329,192,153282,1,0,0:0:0:0:
182,192,153282,1,0,0:0:0:0:
109,192,153282,1,0,0:0:0:0:
36,192,153282,1,0,0:0:0:0:
402,192,153359,1,0,0:0:0:0:
475,192,153436,1,0,0:0:0:0:
182,192,153436,1,0,0:0:0:0:
36,192,153436,1,0,0:0:0:0:
329,192,153436,1,0,0:0:0:0:
109,192,153513,1,0,0:0:0:0:
256,192,153590,1,0,0:0:0:0:
182,192,153590,1,0,0:0:0:0:
36,192,153590,1,0,0:0:0:0:
329,192,153590,1,0,0:0:0:0:
402,192,153590,1,0,0:0:0:0:
475,192,153590,1,0,0:0:0:0:
109,192,153667,1,0,0:0:0:0:
402,192,153744,1,0,0:0:0:0:
475,192,153744,1,0,0:0:0:0:
182,192,153744,1,0,0:0:0:0:
256,192,153821,1,0,0:0:0:0:
402,192,153898,1,0,0:0:0:0:
475,192,153898,1,0,0:0:0:0:
109,192,153898,1,0,0:0:0:0:
36,192,153898,1,0,0:0:0:0:
329,192,153898,1,0,0:0:0:0:
256,192,153975,1,0,0:0:0:0:
402,192,154051,1,0,0:0:0:0:
475,192,154051,1,0,0:0:0:0:
36,192,154051,1,0,0:0:0:0:
182,192,154128,1,0,0:0:0:0:
402,192,154205,1,0,0:0:0:0:
475,192,154205,1,0,0:0:0:0:
109,192,154205,1,0,0:0:0:0:
256,192,154205,1,0,0:0:0:0:
36,192,154282,1,0,0:0:0:0:
402,192,154359,1,0,0:0:0:0:
475,192,154359,1,0,0:0:0:0:
182,192,154359,1,0,0:0:0:0:
109,192,154436,1,0,0:0:0:0:
402,192,154513,1,0,0:0:0:0:
475,192,154513,1,0,0:0:0:0:
256,192,154513,1,0,0:0:0:0:
329,192,154513,1,0,0:0:0:0:
36,192,154513,1,0,0:0:0:0:
182,192,154590,1,0,0:0:0:0:
402,192,154667,1,0,0:0:0:0:
475,192,154667,1,0,0:0:0:0:
329,192,154667,1,0,0:0:0:0:
256,192,154744,1,0,0:0:0:0:
109,192,154821,1,0,0:0:0:0:
36,192,154821,1,0,0:0:0:0:
475,192,154821,1,0,0:0:0:0:
182,192,154821,1,0,0:0:0:0:
402,192,154898,5,0,0:0:0:0:
109,192,154975,5,0,0:0:0:0:
36,192,154975,1,0,0:0:0:0:
329,192,154975,1,0,0:0:0:0:
256,192,155051,1,0,0:0:0:0:
109,192,155128,1,0,0:0:0:0:
36,192,155128,1,0,0:0:0:0:
402,192,155128,1,0,0:0:0:0:
475,192,155128,1,0,0:0:0:0:
182,192,155128,1,0,0:0:0:0:
256,192,155205,1,0,0:0:0:0:
109,192,155282,1,0,0:0:0:0:
36,192,155282,1,0,0:0:0:0:
475,192,155282,1,0,0:0:0:0:
329,192,155359,1,0,0:0:0:0:
109,192,155436,1,0,0:0:0:0:
36,192,155436,1,0,0:0:0:0:
402,192,155436,1,0,0:0:0:0:
256,192,155436,1,0,0:0:0:0:
475,192,155513,1,0,0:0:0:0:
109,192,155590,1,0,0:0:0:0:
36,192,155590,1,0,0:0:0:0:
329,192,155590,1,0,0:0:0:0:
402,192,155667,1,0,0:0:0:0:
109,192,155744,1,0,0:0:0:0:
36,192,155744,1,0,0:0:0:0:
256,192,155744,1,0,0:0:0:0:
182,192,155744,1,0,0:0:0:0:
475,192,155744,1,0,0:0:0:0:
402,192,155821,1,0,0:0:0:0:
109,192,155898,1,0,0:0:0:0:
36,192,155898,1,0,0:0:0:0:
182,192,155898,1,0,0:0:0:0:
329,192,155975,1,0,0:0:0:0:
182,192,156051,5,0,0:0:0:0:
109,192,156051,1,0,0:0:0:0:
36,192,156051,1,0,0:0:0:0:
402,192,156128,1,0,0:0:0:0:
256,192,156128,1,0,0:0:0:0:
475,192,156128,1,0,0:0:0:0:
329,192,156205,1,0,0:0:0:0:
182,192,156205,1,0,0:0:0:0:
36,192,156205,1,0,0:0:0:0:
256,192,156282,1,0,0:0:0:0:
109,192,156282,1,0,0:0:0:0:
329,192,156359,1,0,0:0:0:0:
475,192,156359,1,0,0:0:0:0:
402,192,156359,1,0,0:0:0:0:
182,192,156359,1,0,0:0:0:0:
109,192,156436,1,0,0:0:0:0:
256,192,156436,1,0,0:0:0:0:
36,192,156436,1,0,0:0:0:0:
182,192,156513,1,0,0:0:0:0:
329,192,156513,1,0,0:0:0:0:
475,192,156513,1,0,0:0:0:0:
402,192,156590,1,0,0:0:0:0:
256,192,156590,1,0,0:0:0:0:
182,192,156667,1,0,0:0:0:0:
109,192,156667,1,0,0:0:0:0:
36,192,156667,1,0,0:0:0:0:
329,192,156667,1,0,0:0:0:0:
475,192,156744,1,0,0:0:0:0:
402,192,156744,1,0,0:0:0:0:
256,192,156744,1,0,0:0:0:0:
182,192,156821,1,0,0:0:0:0:
329,192,156821,1,0,0:0:0:0:
109,192,156898,1,0,0:0:0:0:
36,192,156898,1,0,0:0:0:0:
256,192,156898,1,0,0:0:0:0:
329,192,156975,1,0,0:0:0:0:
402,192,156975,1,0,0:0:0:0:
475,192,156975,1,0,0:0:0:0:
182,192,156975,1,0,0:0:0:0:
36,192,157051,1,0,0:0:0:0:
109,192,157051,1,0,0:0:0:0:
256,192,157051,1,0,0:0:0:0:
182,192,157128,1,0,0:0:0:0:
329,192,157128,1,0,0:0:0:0:
402,192,157205,1,0,0:0:0:0:
475,192,157205,1,0,0:0:0:0:
182,192,157282,1,0,0:0:0:0:
109,192,157282,1,0,0:0:0:0:
36,192,157282,1,0,0:0:0:0:
256,192,157282,1,0,0:0:0:0:
475,192,157359,1,0,0:0:0:0:
329,192,157359,1,0,0:0:0:0:
256,192,157436,1,0,0:0:0:0:
109,192,157436,1,0,0:0:0:0:
402,192,157436,1,0,0:0:0:0:
36,192,157513,1,0,0:0:0:0:
182,192,157513,1,0,0:0:0:0:
475,192,157590,1,0,0:0:0:0:
402,192,157590,1,0,0:0:0:0:
329,192,157590,1,0,0:0:0:0:
256,192,157590,1,0,0:0:0:0:
36,192,157667,1,0,0:0:0:0:
182,192,157667,1,0,0:0:0:0:
256,192,157744,1,0,0:0:0:0:
109,192,157744,1,0,0:0:0:0:
402,192,157744,1,0,0:0:0:0:
475,192,157821,1,0,0:0:0:0:
329,192,157821,1,0,0:0:0:0:
109,192,157898,1,0,0:0:0:0:
182,192,157898,1,0,0:0:0:0:
256,192,157898,1,0,0:0:0:0:
36,192,157898,1,0,0:0:0:0:
475,192,157975,1,0,0:0:0:0:
402,192,157975,1,0,0:0:0:0:
256,192,158051,1,0,0:0:0:0:
182,192,158051,1,0,0:0:0:0:
329,192,158051,1,0,0:0:0:0:
36,192,158128,1,0,0:0:0:0:
109,192,158128,1,0,0:0:0:0:
256,192,158205,1,0,0:0:0:0:
402,192,158205,1,0,0:0:0:0:
475,192,158205,1,0,0:0:0:0:
329,192,158205,1,0,0:0:0:0:
36,192,158282,1,0,0:0:0:0:
109,192,158282,1,0,0:0:0:0:
256,192,158359,1,0,0:0:0:0:
329,192,158359,1,0,0:0:0:0:
182,192,158359,1,0,0:0:0:0:
475,192,158436,1,0,0:0:0:0:
402,192,158436,1,0,0:0:0:0:
182,192,158513,1,0,0:0:0:0:
109,192,158513,1,0,0:0:0:0:
36,192,158513,1,0,0:0:0:0:
256,192,158513,1,0,0:0:0:0:
329,192,158513,1,0,0:0:0:0:
402,192,158590,1,0,0:0:0:0:
109,192,158667,1,0,0:0:0:0:
36,192,158667,1,0,0:0:0:0:
475,192,158667,1,0,0:0:0:0:
256,192,158744,1,0,0:0:0:0:
36,192,158821,1,0,0:0:0:0:
475,192,158821,1,0,0:0:0:0:
402,192,158821,1,0,0:0:0:0:
182,192,158821,1,0,0:0:0:0:
329,192,158898,1,0,0:0:0:0:
36,192,158975,1,0,0:0:0:0:
256,192,158975,1,0,0:0:0:0:
109,192,158975,1,0,0:0:0:0:
402,192,159051,1,0,0:0:0:0:
36,192,159128,1,0,0:0:0:0:
475,192,159128,1,0,0:0:0:0:
329,192,159128,1,0,0:0:0:0:
182,192,159128,1,0,0:0:0:0:
109,192,159205,1,0,0:0:0:0:
475,192,159282,1,0,0:0:0:0:
402,192,159282,1,0,0:0:0:0:
256,192,159282,1,0,0:0:0:0:
182,192,159359,1,0,0:0:0:0:
475,192,159436,1,0,0:0:0:0:
329,192,159436,1,0,0:0:0:0:
109,192,159436,1,0,0:0:0:0:
36,192,159436,1,0,0:0:0:0:
256,192,159513,1,0,0:0:0:0:
475,192,159590,1,0,0:0:0:0:
402,192,159590,1,0,0:0:0:0:
182,192,159590,1,0,0:0:0:0:
329,192,159667,1,0,0:0:0:0:
109,192,159744,1,0,0:0:0:0:
475,192,159744,1,0,0:0:0:0:
256,192,159744,1,0,0:0:0:0:
36,192,159744,1,0,0:0:0:0:
329,192,159821,1,0,0:0:0:0:
109,192,159898,1,0,0:0:0:0:
402,192,159898,1,0,0:0:0:0:
182,192,159898,1,0,0:0:0:0:
256,192,159975,1,0,0:0:0:0:
109,192,160051,1,0,0:0:0:0:
329,192,160051,1,0,0:0:0:0:
475,192,160051,1,0,0:0:0:0:
36,192,160051,1,0,0:0:0:0:
182,192,160128,1,0,0:0:0:0:
109,192,160205,1,0,0:0:0:0:
256,192,160205,1,0,0:0:0:0:
402,192,160205,1,0,0:0:0:0:
329,192,160282,1,0,0:0:0:0:
109,192,160359,1,0,0:0:0:0:
402,192,160359,1,0,0:0:0:0:
475,192,160359,1,0,0:0:0:0:
36,192,160359,1,0,0:0:0:0:
329,192,160436,1,0,0:0:0:0:
402,192,160513,1,0,0:0:0:0:
256,192,160513,1,0,0:0:0:0:
36,192,160513,1,0,0:0:0:0:
182,192,160590,1,0,0:0:0:0:
402,192,160667,1,0,0:0:0:0:
109,192,160667,1,0,0:0:0:0:
329,192,160667,1,0,0:0:0:0:
475,192,160667,1,0,0:0:0:0:
256,192,160744,1,0,0:0:0:0:
402,192,160821,1,0,0:0:0:0:
36,192,160821,1,0,0:0:0:0:
109,192,160821,1,0,0:0:0:0:
329,192,160898,1,0,0:0:0:0:
402,192,160975,1,0,0:0:0:0:
182,192,160975,1,0,0:0:0:0:
475,192,160975,1,0,0:0:0:0:
36,192,160975,1,0,0:0:0:0:
256,192,161051,1,0,0:0:0:0:
182,192,161128,1,0,0:0:0:0:
329,192,161128,1,0,0:0:0:0:
109,192,161128,1,0,0:0:0:0:
402,192,161205,1,0,0:0:0:0:
182,192,161282,1,0,0:0:0:0:
256,192,161282,1,0,0:0:0:0:
475,192,161282,1,0,0:0:0:0:
36,192,161282,1,0,0:0:0:0:
109,192,161359,1,0,0:0:0:0:
182,192,161436,1,0,0:0:0:0:
402,192,161436,1,0,0:0:0:0:
475,192,161436,1,0,0:0:0:0:
256,192,161513,1,0,0:0:0:0:
182,192,161590,1,0,0:0:0:0:
329,192,161590,1,0,0:0:0:0:
402,192,161590,1,0,0:0:0:0:
36,192,161590,1,0,0:0:0:0:
109,192,161667,1,0,0:0:0:0:
329,192,161744,1,0,0:0:0:0:
256,192,161744,1,0,0:0:0:0:
475,192,161744,1,0,0:0:0:0:
182,192,161821,1,0,0:0:0:0:
329,192,161898,1,0,0:0:0:0:
36,192,161898,1,0,0:0:0:0:
402,192,161898,1,0,0:0:0:0:
475,192,161898,1,0,0:0:0:0:
256,192,161975,1,0,0:0:0:0:
329,192,162051,1,0,0:0:0:0:
182,192,162051,1,0,0:0:0:0:
36,192,162051,1,0,0:0:0:0:
475,192,162128,1,0,0:0:0:0:
329,192,162205,1,0,0:0:0:0:
109,192,162205,1,0,0:0:0:0:
36,192,162205,1,0,0:0:0:0:
256,192,162205,1,0,0:0:0:0:
402,192,162282,1,0,0:0:0:0:
109,192,162359,1,0,0:0:0:0:
475,192,162359,1,0,0:0:0:0:
256,192,162359,1,0,0:0:0:0:
329,192,162436,1,0,0:0:0:0:
109,192,162513,1,0,0:0:0:0:
402,192,162513,1,0,0:0:0:0:
182,192,162513,1,0,0:0:0:0:
36,192,162513,1,0,0:0:0:0:
256,192,162590,1,0,0:0:0:0:
109,192,162667,1,0,0:0:0:0:
329,192,162667,1,0,0:0:0:0:
475,192,162667,1,0,0:0:0:0:
182,192,162744,1,0,0:0:0:0:
256,192,162821,1,0,0:0:0:0:
109,192,162821,1,0,0:0:0:0:
402,192,162821,1,0,0:0:0:0:
36,192,162821,1,0,0:0:0:0:
329,192,162898,1,0,0:0:0:0:
256,192,162975,1,0,0:0:0:0:
475,192,162975,1,0,0:0:0:0:
36,192,162975,1,0,0:0:0:0:
402,192,163051,1,0,0:0:0:0:
256,192,163128,1,0,0:0:0:0:
329,192,163128,1,0,0:0:0:0:
182,192,163128,1,0,0:0:0:0:
109,192,163128,1,0,0:0:0:0:
36,192,163205,1,0,0:0:0:0:
256,192,163282,1,0,0:0:0:0:
402,192,163282,1,0,0:0:0:0:
109,192,163282,1,0,0:0:0:0:
182,192,163282,1,0,0:0:0:0:
329,192,163359,1,0,0:0:0:0:
256,192,163436,1,0,0:0:0:0:
475,192,163436,1,0,0:0:0:0:
36,192,163436,1,0,0:0:0:0:
109,192,163436,1,0,0:0:0:0:
402,192,163436,1,0,0:0:0:0:
182,192,163513,1,0,0:0:0:0:
475,192,163590,1,0,0:0:0:0:
256,192,163590,1,0,0:0:0:0:
36,192,163590,1,0,0:0:0:0:
329,192,163667,1,0,0:0:0:0:
475,192,163744,1,0,0:0:0:0:
402,192,163744,1,0,0:0:0:0:
182,192,163744,1,0,0:0:0:0:
36,192,163744,1,0,0:0:0:0:
256,192,163821,1,0,0:0:0:0:
475,192,163898,1,0,0:0:0:0:
329,192,163898,1,0,0:0:0:0:
109,192,163898,1,0,0:0:0:0:
256,192,163975,1,0,0:0:0:0:
475,192,164051,1,0,0:0:0:0:
182,192,164051,1,0,0:0:0:0:
402,192,164051,1,0,0:0:0:0:
36,192,164051,1,0,0:0:0:0:
329,192,164128,1,0,0:0:0:0:
182,192,164205,1,0,0:0:0:0:
256,192,164205,1,0,0:0:0:0:
402,192,164205,1,0,0:0:0:0:
109,192,164282,1,0,0:0:0:0:
182,192,164359,1,0,0:0:0:0:
36,192,164359,1,0,0:0:0:0:
475,192,164359,1,0,0:0:0:0:
402,192,164359,1,0,0:0:0:0:
329,192,164436,1,0,0:0:0:0:
182,192,164513,1,0,0:0:0:0:
256,192,164513,1,0,0:0:0:0:
109,192,164513,1,0,0:0:0:0:
402,192,164590,1,0,0:0:0:0:
182,192,164667,1,0,0:0:0:0:
329,192,164667,1,0,0:0:0:0:
475,192,164667,1,0,0:0:0:0:
36,192,164667,1,0,0:0:0:0:
109,192,164744,1,0,0:0:0:0:
329,192,164821,1,0,0:0:0:0:
182,192,164821,1,0,0:0:0:0:
402,192,164821,1,0,0:0:0:0:
256,192,164898,1,0,0:0:0:0:
329,192,164975,1,0,0:0:0:0:
36,192,164975,1,0,0:0:0:0:
109,192,164975,1,0,0:0:0:0:
475,192,164975,1,0,0:0:0:0:
182,192,165051,1,0,0:0:0:0:
329,192,165128,1,0,0:0:0:0:
256,192,165128,1,0,0:0:0:0:
402,192,165128,1,0,0:0:0:0:
109,192,165205,1,0,0:0:0:0:
329,192,165282,1,0,0:0:0:0:
36,192,165282,1,0,0:0:0:0:
182,192,165282,1,0,0:0:0:0:
475,192,165282,1,0,0:0:0:0:
402,192,165359,1,0,0:0:0:0:
36,192,165436,1,0,0:0:0:0:
256,192,165436,1,0,0:0:0:0:
109,192,165436,1,0,0:0:0:0:
475,192,165513,1,0,0:0:0:0:
36,192,165590,1,0,0:0:0:0:
329,192,165590,1,0,0:0:0:0:
182,192,165590,1,0,0:0:0:0:
256,192,165590,1,0,0:0:0:0:
109,192,165667,1,0,0:0:0:0:
36,192,165744,1,0,0:0:0:0:
329,192,165744,1,0,0:0:0:0:
475,192,165744,1,0,0:0:0:0:
256,192,165821,1,0,0:0:0:0:
36,192,165898,1,0,0:0:0:0:
402,192,165898,1,0,0:0:0:0:
109,192,165898,1,0,0:0:0:0:
475,192,165898,1,0,0:0:0:0:
182,192,165975,1,0,0:0:0:0:
402,192,166051,1,0,0:0:0:0:
256,192,166051,1,0,0:0:0:0:
109,192,166051,1,0,0:0:0:0:
329,192,166128,1,0,0:0:0:0:
402,192,166205,1,0,0:0:0:0:
182,192,166205,1,0,0:0:0:0:
36,192,166205,1,0,0:0:0:0:
475,192,166205,1,0,0:0:0:0:
256,192,166282,1,0,0:0:0:0:
402,192,166359,1,0,0:0:0:0:
329,192,166359,1,0,0:0:0:0:
36,192,166359,1,0,0:0:0:0:
475,192,166436,1,0,0:0:0:0:
402,192,166513,1,0,0:0:0:0:
109,192,166513,1,0,0:0:0:0:
182,192,166513,1,0,0:0:0:0:
329,192,166513,1,0,0:0:0:0:
256,192,166590,1,0,0:0:0:0:
109,192,166667,1,0,0:0:0:0:
36,192,166667,1,0,0:0:0:0:
475,192,166667,1,0,0:0:0:0:
402,192,166744,1,0,0:0:0:0:
109,192,166821,1,0,0:0:0:0:
329,192,166821,1,0,0:0:0:0:
182,192,166821,1,0,0:0:0:0:
36,192,166821,1,0,0:0:0:0:
256,192,166898,1,0,0:0:0:0:
109,192,166975,1,0,0:0:0:0:
402,192,166975,1,0,0:0:0:0:
475,192,166975,1,0,0:0:0:0:
329,192,167051,1,0,0:0:0:0:
109,192,167128,1,0,0:0:0:0:
256,192,167128,1,0,0:0:0:0:
36,192,167128,1,0,0:0:0:0:
182,192,167128,1,0,0:0:0:0:
329,192,167205,1,0,0:0:0:0:
256,192,167282,1,0,0:0:0:0:
475,192,167282,1,0,0:0:0:0:
36,192,167282,1,0,0:0:0:0:
109,192,167359,1,0,0:0:0:0:
256,192,167436,1,0,0:0:0:0:
182,192,167436,1,0,0:0:0:0:
402,192,167436,1,0,0:0:0:0:
36,192,167436,1,0,0:0:0:0:
329,192,167513,1,0,0:0:0:0:
256,192,167590,1,0,0:0:0:0:
475,192,167590,1,0,0:0:0:0:
109,192,167590,1,0,0:0:0:0:
182,192,167667,1,0,0:0:0:0:
256,192,167744,1,0,0:0:0:0:
402,192,167744,1,0,0:0:0:0:
36,192,167744,1,0,0:0:0:0:
475,192,167744,1,0,0:0:0:0:
329,192,167821,1,0,0:0:0:0:
182,192,167821,1,0,0:0:0:0:
109,192,167821,1,0,0:0:0:0:
402,192,167898,1,0,0:0:0:0:
109,192,167975,1,0,0:0:0:0:
36,192,167975,1,0,0:0:0:0:
256,192,167975,1,0,0:0:0:0:
329,192,168051,1,0,0:0:0:0:
402,192,168051,1,0,0:0:0:0:
182,192,168051,1,0,0:0:0:0:
475,192,168051,1,0,0:0:0:0:
256,192,168128,1,0,0:0:0:0:
109,192,168128,1,0,0:0:0:0:
36,192,168128,1,0,0:0:0:0:
329,192,168205,1,0,0:0:0:0:
402,192,168205,1,0,0:0:0:0:
182,192,168205,1,0,0:0:0:0:
109,192,168282,1,0,0:0:0:0:
36,192,168282,1,0,0:0:0:0:
256,192,168282,1,0,0:0:0:0:
329,192,168359,1,0,0:0:0:0:
402,192,168359,1,0,0:0:0:0:
475,192,168359,1,0,0:0:0:0:
182,192,168359,1,0,0:0:0:0:
109,192,168436,1,0,0:0:0:0:
402,192,168513,1,0,0:0:0:0:
475,192,168513,1,0,0:0:0:0:
36,192,168513,1,0,0:0:0:0:
256,192,168590,1,0,0:0:0:0:
475,192,168667,1,0,0:0:0:0:
36,192,168667,1,0,0:0:0:0:
109,192,168667,1,0,0:0:0:0:
329,192,168667,1,0,0:0:0:0:
182,192,168744,1,0,0:0:0:0:
475,192,168821,1,0,0:0:0:0:
256,192,168821,1,0,0:0:0:0:
402,192,168821,1,0,0:0:0:0:
109,192,168898,1,0,0:0:0:0:
475,192,168975,1,0,0:0:0:0:
36,192,168975,1,0,0:0:0:0:
182,192,168975,1,0,0:0:0:0:
329,192,168975,1,0,0:0:0:0:
402,192,169051,1,0,0:0:0:0:
36,192,169128,1,0,0:0:0:0:
109,192,169128,1,0,0:0:0:0:
256,192,169128,1,0,0:0:0:0:
329,192,169205,1,0,0:0:0:0:
36,192,169282,1,0,0:0:0:0:
182,192,169282,1,0,0:0:0:0:
402,192,169282,1,0,0:0:0:0:
475,192,169282,1,0,0:0:0:0:
256,192,169359,1,0,0:0:0:0:
36,192,169436,1,0,0:0:0:0:
109,192,169436,1,0,0:0:0:0:
329,192,169436,1,0,0:0:0:0:
182,192,169513,1,0,0:0:0:0:
402,192,169590,1,0,0:0:0:0:
36,192,169590,1,0,0:0:0:0:
256,192,169590,1,0,0:0:0:0:
475,192,169590,1,0,0:0:0:0:
182,192,169667,1,0,0:0:0:0:
402,192,169744,1,0,0:0:0:0:
109,192,169744,1,0,0:0:0:0:
329,192,169744,1,0,0:0:0:0:
256,192,169821,1,0,0:0:0:0:
402,192,169898,1,0,0:0:0:0:
182,192,169898,1,0,0:0:0:0:
36,192,169898,1,0,0:0:0:0:
475,192,169898,1,0,0:0:0:0:
329,192,169975,1,0,0:0:0:0:
402,192,170051,1,0,0:0:0:0:
256,192,170051,1,0,0:0:0:0:
109,192,170051,1,0,0:0:0:0:
182,192,170128,1,0,0:0:0:0:
402,192,170205,1,0,0:0:0:0:
109,192,170205,1,0,0:0:0:0:
36,192,170205,1,0,0:0:0:0:
475,192,170205,1,0,0:0:0:0:
182,192,170282,1,0,0:0:0:0:
109,192,170359,1,0,0:0:0:0:
256,192,170359,1,0,0:0:0:0:
475,192,170359,1,0,0:0:0:0:
329,192,170436,1,0,0:0:0:0:
109,192,170513,1,0,0:0:0:0:
402,192,170513,1,0,0:0:0:0:
182,192,170513,1,0,0:0:0:0:
36,192,170513,1,0,0:0:0:0:
256,192,170590,1,0,0:0:0:0:
109,192,170667,1,0,0:0:0:0:
475,192,170667,1,0,0:0:0:0:
402,192,170667,1,0,0:0:0:0:
182,192,170744,1,0,0:0:0:0:
109,192,170821,1,0,0:0:0:0:
329,192,170821,1,0,0:0:0:0:
36,192,170821,1,0,0:0:0:0:
475,192,170821,1,0,0:0:0:0:
256,192,170898,1,0,0:0:0:0:
329,192,170975,1,0,0:0:0:0:
182,192,170975,1,0,0:0:0:0:
402,192,170975,1,0,0:0:0:0:
109,192,171051,1,0,0:0:0:0:
329,192,171128,1,0,0:0:0:0:
256,192,171128,1,0,0:0:0:0:
36,192,171128,1,0,0:0:0:0:
475,192,171128,1,0,0:0:0:0:
402,192,171205,1,0,0:0:0:0:
329,192,171282,1,0,0:0:0:0:
109,192,171282,1,0,0:0:0:0:
36,192,171282,1,0,0:0:0:0:
256,192,171359,1,0,0:0:0:0:
329,192,171436,1,0,0:0:0:0:
182,192,171436,1,0,0:0:0:0:
109,192,171436,1,0,0:0:0:0:
475,192,171436,1,0,0:0:0:0:
402,192,171513,1,0,0:0:0:0:
182,192,171590,1,0,0:0:0:0:
256,192,171590,1,0,0:0:0:0:
36,192,171590,1,0,0:0:0:0:
329,192,171667,1,0,0:0:0:0:
182,192,171744,1,0,0:0:0:0:
475,192,171744,1,0,0:0:0:0:
109,192,171744,1,0,0:0:0:0:
36,192,171744,1,0,0:0:0:0:
256,192,171821,1,0,0:0:0:0:
182,192,171898,1,0,0:0:0:0:
329,192,171898,1,0,0:0:0:0:
475,192,171898,1,0,0:0:0:0:
36,192,171975,1,0,0:0:0:0:
182,192,172051,1,0,0:0:0:0:
402,192,172051,1,0,0:0:0:0:
475,192,172051,1,0,0:0:0:0:
256,192,172051,1,0,0:0:0:0:
109,192,172128,1,0,0:0:0:0:
402,192,172205,1,0,0:0:0:0:
36,192,172205,1,0,0:0:0:0:
256,192,172205,1,0,0:0:0:0:
182,192,172282,1,0,0:0:0:0:
402,192,172359,1,0,0:0:0:0:
109,192,172359,1,0,0:0:0:0:
329,192,172359,1,0,0:0:0:0:
475,192,172359,1,0,0:0:0:0:
256,192,172436,1,0,0:0:0:0:
402,192,172513,1,0,0:0:0:0:
182,192,172513,1,0,0:0:0:0:
36,192,172513,1,0,0:0:0:0:
329,192,172590,1,0,0:0:0:0:
256,192,172667,1,0,0:0:0:0:
402,192,172667,1,0,0:0:0:0:
109,192,172667,1,0,0:0:0:0:
475,192,172667,1,0,0:0:0:0:
182,192,172744,1,0,0:0:0:0:
256,192,172821,1,0,0:0:0:0:
36,192,172821,1,0,0:0:0:0:
475,192,172821,1,0,0:0:0:0:
109,192,172898,1,0,0:0:0:0:
256,192,172975,1,0,0:0:0:0:
182,192,172975,1,0,0:0:0:0:
329,192,172975,1,0,0:0:0:0:
402,192,172975,1,0,0:0:0:0:
475,192,173051,1,0,0:0:0:0:
256,192,173128,1,0,0:0:0:0:
109,192,173128,1,0,0:0:0:0:
402,192,173128,1,0,0:0:0:0:
329,192,173128,1,0,0:0:0:0:
182,192,173205,1,0,0:0:0:0:
256,192,173282,1,0,0:0:0:0:
36,192,173282,1,0,0:0:0:0:
475,192,173282,1,0,0:0:0:0:
402,192,173282,1,0,0:0:0:0:
109,192,173282,1,0,0:0:0:0:
329,192,173359,1,0,0:0:0:0:
36,192,173436,1,0,0:0:0:0:
256,192,173436,1,0,0:0:0:0:
475,192,173436,1,0,0:0:0:0:
182,192,173513,1,0,0:0:0:0:
36,192,173590,1,0,0:0:0:0:
109,192,173590,1,0,0:0:0:0:
329,192,173590,1,0,0:0:0:0:
475,192,173590,1,0,0:0:0:0:
256,192,173667,1,0,0:0:0:0:
36,192,173744,1,0,0:0:0:0:
182,192,173744,1,0,0:0:0:0:
402,192,173744,1,0,0:0:0:0:
256,192,173821,1,0,0:0:0:0:
36,192,173898,1,0,0:0:0:0:
329,192,173898,1,0,0:0:0:0:
109,192,173898,1,0,0:0:0:0:
475,192,173898,1,0,0:0:0:0:
182,192,173975,1,0,0:0:0:0:
329,192,174051,1,0,0:0:0:0:
256,192,174051,1,0,0:0:0:0:
109,192,174051,1,0,0:0:0:0:
402,192,174128,1,0,0:0:0:0:
329,192,174205,1,0,0:0:0:0:
475,192,174205,1,0,0:0:0:0:
36,192,174205,1,0,0:0:0:0:
109,192,174205,1,0,0:0:0:0:
182,192,174282,1,0,0:0:0:0:
329,192,174359,1,0,0:0:0:0:
256,192,174359,1,0,0:0:0:0:
402,192,174359,1,0,0:0:0:0:
109,192,174436,1,0,0:0:0:0:
329,192,174513,1,0,0:0:0:0:
182,192,174513,1,0,0:0:0:0:
36,192,174513,1,0,0:0:0:0:
475,192,174513,1,0,0:0:0:0:
402,192,174590,1,0,0:0:0:0:
182,192,174667,1,0,0:0:0:0:
329,192,174667,1,0,0:0:0:0:
109,192,174667,1,0,0:0:0:0:
256,192,174744,1,0,0:0:0:0:
182,192,174821,1,0,0:0:0:0:
475,192,174821,1,0,0:0:0:0:
402,192,174821,1,0,0:0:0:0:
36,192,174821,1,0,0:0:0:0:
329,192,174898,1,0,0:0:0:0:
182,192,174975,1,0,0:0:0:0:
256,192,174975,1,0,0:0:0:0:
109,192,174975,1,0,0:0:0:0:
402,192,175051,1,0,0:0:0:0:
182,192,175128,1,0,0:0:0:0:
475,192,175128,1,0,0:0:0:0:
329,192,175128,1,0,0:0:0:0:
36,192,175128,1,0,0:0:0:0:
109,192,175205,1,0,0:0:0:0:
475,192,175282,1,0,0:0:0:0:
256,192,175282,1,0,0:0:0:0:
402,192,175282,1,0,0:0:0:0:
36,192,175359,1,0,0:0:0:0:
475,192,175436,1,0,0:0:0:0:
182,192,175436,1,0,0:0:0:0:
329,192,175436,1,0,0:0:0:0:
256,192,175436,1,0,0:0:0:0:
402,192,175513,1,0,0:0:0:0:
475,192,175590,1,0,0:0:0:0:
182,192,175590,1,0,0:0:0:0:
36,192,175590,1,0,0:0:0:0:
256,192,175667,1,0,0:0:0:0:
475,192,175744,1,0,0:0:0:0:
109,192,175744,1,0,0:0:0:0:
402,192,175744,1,0,0:0:0:0:
36,192,175744,1,0,0:0:0:0:
329,192,175821,1,0,0:0:0:0:
109,192,175898,1,0,0:0:0:0:
256,192,175898,1,0,0:0:0:0:
402,192,175898,1,0,0:0:0:0:
182,192,175975,1,0,0:0:0:0:
109,192,176051,1,0,0:0:0:0:
329,192,176051,1,0,0:0:0:0:
475,192,176051,1,0,0:0:0:0:
36,192,176051,1,0,0:0:0:0:
256,192,176128,1,0,0:0:0:0:
109,192,176205,1,0,0:0:0:0:
182,192,176205,1,0,0:0:0:0:
475,192,176205,1,0,0:0:0:0:
36,192,176282,1,0,0:0:0:0:
109,192,176359,1,0,0:0:0:0:
402,192,176359,1,0,0:0:0:0:
329,192,176359,1,0,0:0:0:0:
182,192,176359,1,0,0:0:0:0:
256,192,176436,1,0,0:0:0:0:
402,192,176513,1,0,0:0:0:0:
475,192,176513,1,0,0:0:0:0:
36,192,176513,1,0,0:0:0:0:
109,192,176590,1,0,0:0:0:0:
402,192,176667,1,0,0:0:0:0:
182,192,176667,1,0,0:0:0:0:
329,192,176667,1,0,0:0:0:0:
475,192,176667,1,0,0:0:0:0:
256,192,176744,1,0,0:0:0:0:
402,192,176821,1,0,0:0:0:0:
109,192,176821,1,0,0:0:0:0:
36,192,176821,1,0,0:0:0:0:
182,192,176898,1,0,0:0:0:0:
402,192,176975,1,0,0:0:0:0:
256,192,176975,1,0,0:0:0:0:
475,192,176975,1,0,0:0:0:0:
329,192,176975,1,0,0:0:0:0:
182,192,177051,1,0,0:0:0:0:
256,192,177128,1,0,0:0:0:0:
36,192,177128,1,0,0:0:0:0:
402,192,177128,1,0,0:0:0:0:
329,192,177205,1,0,0:0:0:0:
256,192,177282,1,0,0:0:0:0:
475,192,177282,1,0,0:0:0:0:
109,192,177282,1,0,0:0:0:0:
182,192,177359,1,0,0:0:0:0:
256,192,177436,1,0,0:0:0:0:
402,192,177436,1,0,0:0:0:0:
329,192,177513,1,0,0:0:0:0:
256,192,177590,1,0,0:0:0:0:
109,192,177590,1,0,0:0:0:0:
182,192,177667,1,0,0:0:0:0:
256,192,177744,1,0,0:0:0:0:
36,192,177744,1,0,0:0:0:0:
329,192,177821,1,0,0:0:0:0:
475,192,177898,1,0,0:0:0:0:
402,192,177898,1,0,0:0:0:0:
182,192,177898,1,0,0:0:0:0:
329,192,177975,1,0,0:0:0:0:
109,192,177975,1,0,0:0:0:0:
36,192,177975,1,0,0:0:0:0:
256,192,178051,1,0,0:0:0:0:
402,192,178051,1,0,0:0:0:0:
475,192,178051,1,0,0:0:0:0:
182,192,178128,1,0,0:0:0:0:
109,192,178128,1,0,0:0:0:0:
36,192,178128,1,0,0:0:0:0:
256,192,178205,1,0,0:0:0:0:
329,192,178205,1,0,0:0:0:0:
402,192,178205,1,0,0:0:0:0:
475,192,178205,1,0,0:0:0:0:
182,192,178282,1,0,0:0:0:0:
402,192,178359,1,0,0:0:0:0:
475,192,178359,1,0,0:0:0:0:
109,192,178359,1,0,0:0:0:0:
256,192,178436,1,0,0:0:0:0:
475,192,178513,1,0,0:0:0:0:
36,192,178513,1,0,0:0:0:0:
109,192,178513,1,0,0:0:0:0:
329,192,178513,1,0,0:0:0:0:
182,192,178590,1,0,0:0:0:0:
475,192,178667,1,0,0:0:0:0:
256,192,178667,1,0,0:0:0:0:
402,192,178667,1,0,0:0:0:0:
109,192,178744,1,0,0:0:0:0:
475,192,178821,1,0,0:0:0:0:
36,192,178821,1,0,0:0:0:0:
182,192,178821,1,0,0:0:0:0:
329,192,178821,1,0,0:0:0:0:
402,192,178898,1,0,0:0:0:0:
36,192,178975,1,0,0:0:0:0:
109,192,178975,1,0,0:0:0:0:
256,192,178975,1,0,0:0:0:0:
329,192,179051,1,0,0:0:0:0:
36,192,179128,1,0,0:0:0:0:
182,192,179128,1,0,0:0:0:0:
402,192,179128,1,0,0:0:0:0:
475,192,179128,1,0,0:0:0:0:
256,192,179205,1,0,0:0:0:0:
36,192,179282,1,0,0:0:0:0:
109,192,179282,1,0,0:0:0:0:
329,192,179282,1,0,0:0:0:0:
182,192,179359,1,0,0:0:0:0:
402,192,179436,1,0,0:0:0:0:
36,192,179436,1,0,0:0:0:0:
256,192,179436,1,0,0:0:0:0:
475,192,179436,1,0,0:0:0:0:
182,192,179513,1,0,0:0:0:0:
402,192,179590,1,0,0:0:0:0:
109,192,179590,1,0,0:0:0:0:
329,192,179590,1,0,0:0:0:0:
256,192,179667,1,0,0:0:0:0:
402,192,179744,1,0,0:0:0:0:
182,192,179744,1,0,0:0:0:0:
36,192,179744,1,0,0:0:0:0:
475,192,179744,1,0,0:0:0:0:
329,192,179821,1,0,0:0:0:0:
402,192,179898,1,0,0:0:0:0:
256,192,179898,1,0,0:0:0:0:
109,192,179898,1,0,0:0:0:0:
182,192,179975,1,0,0:0:0:0:
402,192,180051,1,0,0:0:0:0:
109,192,180051,1,0,0:0:0:0:
36,192,180051,1,0,0:0:0:0:
475,192,180051,1,0,0:0:0:0:
182,192,180128,1,0,0:0:0:0:
109,192,180205,1,0,0:0:0:0:
256,192,180205,1,0,0:0:0:0:
475,192,180205,1,0,0:0:0:0:
329,192,180282,1,0,0:0:0:0:
109,192,180359,1,0,0:0:0:0:
402,192,180359,1,0,0:0:0:0:
182,192,180359,1,0,0:0:0:0:
36,192,180359,1,0,0:0:0:0:
256,192,180436,1,0,0:0:0:0:
109,192,180513,1,0,0:0:0:0:
475,192,180513,1,0,0:0:0:0:
402,192,180513,1,0,0:0:0:0:
182,192,180590,1,0,0:0:0:0:
109,192,180667,1,0,0:0:0:0:
329,192,180667,1,0,0:0:0:0:
36,192,180667,1,0,0:0:0:0:
475,192,180667,1,0,0:0:0:0:
256,192,180744,1,0,0:0:0:0:
329,192,180821,1,0,0:0:0:0:
182,192,180821,1,0,0:0:0:0:
402,192,180821,1,0,0:0:0:0:
109,192,180898,1,0,0:0:0:0:
329,192,180975,1,0,0:0:0:0:
256,192,180975,1,0,0:0:0:0:
36,192,180975,1,0,0:0:0:0:
475,192,180975,1,0,0:0:0:0:
402,192,181051,1,0,0:0:0:0:
329,192,181128,1,0,0:0:0:0:
109,192,181128,1,0,0:0:0:0:
36,192,181128,1,0,0:0:0:0:
256,192,181205,1,0,0:0:0:0:
329,192,181282,1,0,0:0:0:0:
182,192,181282,1,0,0:0:0:0:
109,192,181282,1,0,0:0:0:0:
475,192,181282,1,0,0:0:0:0:
402,192,181359,1,0,0:0:0:0:
182,192,181436,1,0,0:0:0:0:
256,192,181436,1,0,0:0:0:0:
36,192,181436,1,0,0:0:0:0:
329,192,181513,1,0,0:0:0:0:
182,192,181590,1,0,0:0:0:0:
475,192,181590,1,0,0:0:0:0:
109,192,181590,1,0,0:0:0:0:
36,192,181590,1,0,0:0:0:0:
256,192,181667,1,0,0:0:0:0:
182,192,181744,1,0,0:0:0:0:
329,192,181744,1,0,0:0:0:0:
475,192,181744,1,0,0:0:0:0:
36,192,181821,1,0,0:0:0:0:
182,192,181898,1,0,0:0:0:0:
402,192,181898,1,0,0:0:0:0:
475,192,181898,1,0,0:0:0:0:
256,192,181898,1,0,0:0:0:0:
109,192,181975,1,0,0:0:0:0:
402,192,182051,1,0,0:0:0:0:
36,192,182051,1,0,0:0:0:0:
256,192,182051,1,0,0:0:0:0:
182,192,182128,1,0,0:0:0:0:
402,192,182205,1,0,0:0:0:0:
109,192,182205,1,0,0:0:0:0:
329,192,182205,1,0,0:0:0:0:
475,192,182205,1,0,0:0:0:0:
256,192,182282,1,0,0:0:0:0:
402,192,182359,1,0,0:0:0:0:
182,192,182359,1,0,0:0:0:0:
36,192,182359,1,0,0:0:0:0:
329,192,182436,1,0,0:0:0:0:
256,192,182513,1,0,0:0:0:0:
402,192,182513,1,0,0:0:0:0:
109,192,182513,1,0,0:0:0:0:
475,192,182513,1,0,0:0:0:0:
182,192,182590,1,0,0:0:0:0:
256,192,182667,1,0,0:0:0:0:
36,192,182667,1,0,0:0:0:0:
475,192,182667,1,0,0:0:0:0:
109,192,182744,1,0,0:0:0:0:
256,192,182821,1,0,0:0:0:0:
182,192,182821,1,0,0:0:0:0:
329,192,182821,1,0,0:0:0:0:
402,192,182821,1,0,0:0:0:0:
475,192,182898,1,0,0:0:0:0:
256,192,182975,1,0,0:0:0:0:
109,192,182975,1,0,0:0:0:0:
402,192,182975,1,0,0:0:0:0:
329,192,182975,1,0,0:0:0:0:
182,192,183051,1,0,0:0:0:0:
256,192,183128,1,0,0:0:0:0:
36,192,183128,1,0,0:0:0:0:
475,192,183128,1,0,0:0:0:0:
402,192,183128,1,0,0:0:0:0:
109,192,183128,1,0,0:0:0:0:
329,192,183205,1,0,0:0:0:0:
36,192,183282,1,0,0:0:0:0:
256,192,183282,1,0,0:0:0:0:
475,192,183282,1,0,0:0:0:0:
182,192,183359,1,0,0:0:0:0:
36,192,183436,1,0,0:0:0:0:
109,192,183436,1,0,0:0:0:0:
329,192,183436,1,0,0:0:0:0:
475,192,183436,1,0,0:0:0:0:
256,192,183513,1,0,0:0:0:0:
36,192,183590,1,0,0:0:0:0:
182,192,183590,1,0,0:0:0:0:
402,192,183590,1,0,0:0:0:0:
256,192,183667,1,0,0:0:0:0:
36,192,183744,1,0,0:0:0:0:
329,192,183744,1,0,0:0:0:0:
109,192,183744,1,0,0:0:0:0:
475,192,183744,1,0,0:0:0:0:
182,192,183821,1,0,0:0:0:0:
329,192,183898,1,0,0:0:0:0:
256,192,183898,1,0,0:0:0:0:
109,192,183898,1,0,0:0:0:0:
402,192,183975,1,0,0:0:0:0:
329,192,184051,1,0,0:0:0:0:
475,192,184051,1,0,0:0:0:0:
36,192,184051,1,0,0:0:0:0:
109,192,184051,1,0,0:0:0:0:
182,192,184128,1,0,0:0:0:0:
329,192,184205,1,0,0:0:0:0:
256,192,184205,1,0,0:0:0:0:
402,192,184205,1,0,0:0:0:0:
109,192,184282,1,0,0:0:0:0:
329,192,184359,1,0,0:0:0:0:
182,192,184359,1,0,0:0:0:0:
36,192,184359,1,0,0:0:0:0:
475,192,184359,1,0,0:0:0:0:
402,192,184436,1,0,0:0:0:0:
182,192,184513,1,0,0:0:0:0:
329,192,184513,1,0,0:0:0:0:
109,192,184513,1,0,0:0:0:0:
256,192,184590,1,0,0:0:0:0:
182,192,184667,1,0,0:0:0:0:
475,192,184667,1,0,0:0:0:0:
402,192,184667,1,0,0:0:0:0:
36,192,184667,1,0,0:0:0:0:
329,192,184744,1,0,0:0:0:0:
182,192,184821,1,0,0:0:0:0:
256,192,184821,1,0,0:0:0:0:
109,192,184821,1,0,0:0:0:0:
402,192,184898,1,0,0:0:0:0:
182,192,184975,1,0,0:0:0:0:
475,192,184975,1,0,0:0:0:0:
329,192,184975,1,0,0:0:0:0:
36,192,184975,1,0,0:0:0:0:
109,192,185051,1,0,0:0:0:0:
475,192,185128,1,0,0:0:0:0:
256,192,185128,1,0,0:0:0:0:
402,192,185128,1,0,0:0:0:0:
36,192,185205,1,0,0:0:0:0:
475,192,185282,1,0,0:0:0:0:
182,192,185282,1,0,0:0:0:0:
329,192,185282,1,0,0:0:0:0:
256,192,185282,1,0,0:0:0:0:
402,192,185359,1,0,0:0:0:0:
475,192,185436,1,0,0:0:0:0:
182,192,185436,1,0,0:0:0:0:
36,192,185436,1,0,0:0:0:0:
256,192,185513,1,0,0:0:0:0:
475,192,185590,1,0,0:0:0:0:
109,192,185590,1,0,0:0:0:0:
402,192,185590,1,0,0:0:0:0:
36,192,185590,1,0,0:0:0:0:
329,192,185667,1,0,0:0:0:0:
109,192,185744,1,0,0:0:0:0:
256,192,185744,1,0,0:0:0:0:
402,192,185744,1,0,0:0:0:0:
182,192,185821,1,0,0:0:0:0:
109,192,185898,1,0,0:0:0:0:
329,192,185898,1,0,0:0:0:0:
475,192,185898,1,0,0:0:0:0:
36,192,185898,1,0,0:0:0:0:
256,192,185975,1,0,0:0:0:0:
109,192,186051,1,0,0:0:0:0:
182,192,186051,1,0,0:0:0:0:
475,192,186051,1,0,0:0:0:0:
36,192,186128,1,0,0:0:0:0:
109,192,186205,1,0,0:0:0:0:
402,192,186205,1,0,0:0:0:0:
329,192,186205,1,0,0:0:0:0:
182,192,186205,1,0,0:0:0:0:
256,192,186282,1,0,0:0:0:0:
402,192,186359,1,0,0:0:0:0:
475,192,186359,1,0,0:0:0:0:
36,192,186359,1,0,0:0:0:0:
109,192,186436,1,0,0:0:0:0:
402,192,186513,1,0,0:0:0:0:
182,192,186513,1,0,0:0:0:0:
329,192,186513,1,0,0:0:0:0:
475,192,186513,1,0,0:0:0:0:
256,192,186590,1,0,0:0:0:0:
402,192,186667,1,0,0:0:0:0:
109,192,186667,1,0,0:0:0:0:
36,192,186667,1,0,0:0:0:0:
182,192,186744,1,0,0:0:0:0:
402,192,186821,1,0,0:0:0:0:
256,192,186821,1,0,0:0:0:0:
475,192,186821,1,0,0:0:0:0:
329,192,186821,1,0,0:0:0:0:
182,192,186898,1,0,0:0:0:0:
256,192,186975,1,0,0:0:0:0:
36,192,186975,1,0,0:0:0:0:
475,192,186975,1,0,0:0:0:0:
402,192,187051,1,0,0:0:0:0:
256,192,187128,1,0,0:0:0:0:
329,192,187128,1,0,0:0:0:0:
109,192,187128,1,0,0:0:0:0:
475,192,187128,1,0,0:0:0:0:
182,192,187205,1,0,0:0:0:0:
256,192,187282,1,0,0:0:0:0:
36,192,187282,1,0,0:0:0:0:
402,192,187282,1,0,0:0:0:0:
329,192,187359,1,0,0:0:0:0:
256,192,187436,1,0,0:0:0:0:
475,192,187436,1,0,0:0:0:0:
109,192,187436,1,0,0:0:0:0:
36,192,187436,1,0,0:0:0:0:
402,192,187513,1,0,0:0:0:0:
329,192,187513,1,0,0:0:0:0:
182,192,187513,1,0,0:0:0:0:
109,192,187590,1,0,0:0:0:0:
475,192,187667,1,0,0:0:0:0:
402,192,187667,1,0,0:0:0:0:
256,192,187667,1,0,0:0:0:0:
109,192,187744,1,0,0:0:0:0:
36,192,187744,1,0,0:0:0:0:
329,192,187744,1,0,0:0:0:0:
182,192,187744,1,0,0:0:0:0:
475,192,187821,1,0,0:0:0:0:
256,192,187821,1,0,0:0:0:0:
402,192,187821,1,0,0:0:0:0:
109,192,187898,1,0,0:0:0:0:
182,192,187898,1,0,0:0:0:0:
329,192,187898,1,0,0:0:0:0:
402,192,187975,1,0,0:0:0:0:
256,192,187975,1,0,0:0:0:0:
475,192,187975,1,0,0:0:0:0:
329,192,188051,1,0,0:0:0:0:
182,192,188051,1,0,0:0:0:0:
109,192,188051,1,0,0:0:0:0:
36,192,188051,1,0,0:0:0:0:
402,192,188128,1,0,0:0:0:0:
109,192,188205,1,0,0:0:0:0:
36,192,188205,1,0,0:0:0:0:
475,192,188205,1,0,0:0:0:0:
256,192,188282,1,0,0:0:0:0:
36,192,188359,1,0,0:0:0:0:
475,192,188359,1,0,0:0:0:0:
402,192,188359,1,0,0:0:0:0:
182,192,188359,1,0,0:0:0:0:
329,192,188436,1,0,0:0:0:0:
36,192,188513,1,0,0:0:0:0:
256,192,188513,1,0,0:0:0:0:
109,192,188513,1,0,0:0:0:0:
402,192,188590,1,0,0:0:0:0:
36,192,188667,1,0,0:0:0:0:
475,192,188667,1,0,0:0:0:0:
329,192,188667,1,0,0:0:0:0:
182,192,188667,1,0,0:0:0:0:
109,192,188744,1,0,0:0:0:0:
475,192,188821,1,0,0:0:0:0:
402,192,188821,1,0,0:0:0:0:
256,192,188821,1,0,0:0:0:0:
182,192,188898,1,0,0:0:0:0:
475,192,188975,1,0,0:0:0:0:
329,192,188975,1,0,0:0:0:0:
109,192,188975,1,0,0:0:0:0:
36,192,188975,1,0,0:0:0:0:
256,192,189051,1,0,0:0:0:0:
475,192,189128,1,0,0:0:0:0:
402,192,189128,1,0,0:0:0:0:
182,192,189128,1,0,0:0:0:0:
329,192,189205,1,0,0:0:0:0:
109,192,189282,1,0,0:0:0:0:
475,192,189282,1,0,0:0:0:0:
256,192,189282,1,0,0:0:0:0:
36,192,189282,1,0,0:0:0:0:
329,192,189359,1,0,0:0:0:0:
109,192,189436,1,0,0:0:0:0:
402,192,189436,1,0,0:0:0:0:
182,192,189436,1,0,0:0:0:0:
256,192,189513,1,0,0:0:0:0:
109,192,189590,1,0,0:0:0:0:
329,192,189590,1,0,0:0:0:0:
475,192,189590,1,0,0:0:0:0:
36,192,189590,1,0,0:0:0:0:
182,192,189667,1,0,0:0:0:0:
109,192,189744,1,0,0:0:0:0:
256,192,189744,1,0,0:0:0:0:
402,192,189744,1,0,0:0:0:0:
329,192,189821,1,0,0:0:0:0:
109,192,189898,1,0,0:0:0:0:
402,192,189898,1,0,0:0:0:0:
475,192,189898,1,0,0:0:0:0:
36,192,189898,1,0,0:0:0:0:
329,192,189975,1,0,0:0:0:0:
402,192,190051,1,0,0:0:0:0:
256,192,190051,1,0,0:0:0:0:
36,192,190051,1,0,0:0:0:0:
182,192,190128,1,0,0:0:0:0:
402,192,190205,1,0,0:0:0:0:
109,192,190205,1,0,0:0:0:0:
329,192,190205,1,0,0:0:0:0:
475,192,190205,1,0,0:0:0:0:
256,192,190282,1,0,0:0:0:0:
402,192,190359,1,0,0:0:0:0:
36,192,190359,1,0,0:0:0:0:
109,192,190359,1,0,0:0:0:0:
329,192,190436,1,0,0:0:0:0:
402,192,190513,1,0,0:0:0:0:
182,192,190513,1,0,0:0:0:0:
475,192,190513,1,0,0:0:0:0:
36,192,190513,1,0,0:0:0:0:
256,192,190590,1,0,0:0:0:0:
182,192,190667,1,0,0:0:0:0:
329,192,190667,1,0,0:0:0:0:
109,192,190667,1,0,0:0:0:0:
402,192,190744,1,0,0:0:0:0:
182,192,190821,1,0,0:0:0:0:
256,192,190821,1,0,0:0:0:0:
475,192,190821,1,0,0:0:0:0:
36,192,190821,1,0,0:0:0:0:
109,192,190898,1,0,0:0:0:0:
182,192,190975,1,0,0:0:0:0:
402,192,190975,1,0,0:0:0:0:
475,192,190975,1,0,0:0:0:0:
256,192,191051,1,0,0:0:0:0:
182,192,191128,1,0,0:0:0:0:
329,192,191128,1,0,0:0:0:0:
402,192,191128,1,0,0:0:0:0:
36,192,191128,1,0,0:0:0:0:
109,192,191205,1,0,0:0:0:0:
329,192,191282,1,0,0:0:0:0:
256,192,191282,1,0,0:0:0:0:
475,192,191282,1,0,0:0:0:0:
182,192,191359,1,0,0:0:0:0:
329,192,191436,1,0,0:0:0:0:
36,192,191436,1,0,0:0:0:0:
402,192,191436,1,0,0:0:0:0:
475,192,191436,1,0,0:0:0:0:
256,192,191513,1,0,0:0:0:0:
329,192,191590,1,0,0:0:0:0:
182,192,191590,1,0,0:0:0:0:
36,192,191590,1,0,0:0:0:0:
475,192,191667,1,0,0:0:0:0:
329,192,191744,1,0,0:0:0:0:
109,192,191744,1,0,0:0:0:0:
36,192,191744,1,0,0:0:0:0:
256,192,191744,1,0,0:0:0:0:
402,192,191821,1,0,0:0:0:0:
109,192,191898,1,0,0:0:0:0:
475,192,191898,1,0,0:0:0:0:
256,192,191898,1,0,0:0:0:0:
329,192,191975,1,0,0:0:0:0:
109,192,192051,1,0,0:0:0:0:
402,192,192051,1,0,0:0:0:0:
182,192,192051,1,0,0:0:0:0:
36,192,192051,1,0,0:0:0:0:
256,192,192128,1,0,0:0:0:0:
109,192,192205,1,0,0:0:0:0:
329,192,192205,1,0,0:0:0:0:
475,192,192205,1,0,0:0:0:0:
182,192,192282,1,0,0:0:0:0:
256,192,192359,1,0,0:0:0:0:
109,192,192359,1,0,0:0:0:0:
402,192,192359,1,0,0:0:0:0:
36,192,192359,1,0,0:0:0:0:
329,192,192436,1,0,0:0:0:0:
256,192,192513,1,0,0:0:0:0:
475,192,192513,1,0,0:0:0:0:
36,192,192513,1,0,0:0:0:0:
402,192,192590,1,0,0:0:0:0:
256,192,192667,1,0,0:0:0:0:
329,192,192667,1,0,0:0:0:0:
182,192,192667,1,0,0:0:0:0:
109,192,192667,1,0,0:0:0:0:
475,192,192744,1,0,0:0:0:0:
256,192,192821,1,0,0:0:0:0:
402,192,192821,1,0,0:0:0:0:
36,192,192821,1,0,0:0:0:0:
182,192,192898,1,0,0:0:0:0:
402,192,192975,1,0,0:0:0:0:
475,192,192975,1,0,0:0:0:0:
36,192,192975,1,0,0:0:0:0:
109,192,192975,1,0,0:0:0:0:
329,192,192975,1,0,0:0:0:0:
256,192,193051,1,0,0:0:0:0:
402,192,193128,1,0,0:0:0:0:
475,192,193128,1,0,0:0:0:0:
109,192,193128,1,0,0:0:0:0:
182,192,193128,1,0,0:0:0:0:
329,192,193205,1,0,0:0:0:0:
402,192,193282,1,0,0:0:0:0:
475,192,193282,1,0,0:0:0:0:
182,192,193282,1,0,0:0:0:0:
256,192,193282,1,0,0:0:0:0:
36,192,193359,1,0,0:0:0:0:
402,192,193436,1,0,0:0:0:0:
475,192,193436,1,0,0:0:0:0:
329,192,193436,1,0,0:0:0:0:
256,192,193436,1,0,0:0:0:0:
109,192,193513,1,0,0:0:0:0:
402,192,193590,1,0,0:0:0:0:
475,192,193590,1,0,0:0:0:0:
182,192,193590,1,0,0:0:0:0:
36,192,193590,1,0,0:0:0:0:
256,192,193667,1,0,0:0:0:0:
402,192,193744,1,0,0:0:0:0:
475,192,193744,1,0,0:0:0:0:
182,192,193744,1,0,0:0:0:0:
109,192,193744,1,0,0:0:0:0:
329,192,193821,1,0,0:0:0:0:
402,192,193898,1,0,0:0:0:0:
475,192,193898,1,0,0:0:0:0:
109,192,193898,1,0,0:0:0:0:
256,192,193898,1,0,0:0:0:0:
36,192,193975,1,0,0:0:0:0:
402,192,194051,1,0,0:0:0:0:
475,192,194051,1,0,0:0:0:0:
182,192,194051,1,0,0:0:0:0:
256,192,194051,1,0,0:0:0:0:
329,192,194128,1,0,0:0:0:0:
402,192,194205,1,0,0:0:0:0:
475,192,194205,1,0,0:0:0:0:
109,192,194205,1,0,0:0:0:0:
36,192,194205,1,0,0:0:0:0:
256,192,194282,5,0,0:0:0:0:
109,192,194359,5,0,0:0:0:0:
36,192,194359,1,0,0:0:0:0:
329,192,194359,1,0,0:0:0:0:
402,192,194359,1,0,0:0:0:0:
182,192,194436,1,0,0:0:0:0:
109,192,194513,1,0,0:0:0:0:
36,192,194513,1,0,0:0:0:0:
256,192,194513,1,0,0:0:0:0:
329,192,194513,1,0,0:0:0:0:
475,192,194590,1,0,0:0:0:0:
109,192,194667,1,0,0:0:0:0:
36,192,194667,1,0,0:0:0:0:
256,192,194667,1,0,0:0:0:0:
182,192,194667,1,0,0:0:0:0:
402,192,194744,1,0,0:0:0:0:
109,192,194821,1,0,0:0:0:0:
36,192,194821,1,0,0:0:0:0:
475,192,194821,1,0,0:0:0:0:
329,192,194821,1,0,0:0:0:0:
256,192,194898,1,0,0:0:0:0:
109,192,194975,1,0,0:0:0:0:
36,192,194975,1,0,0:0:0:0:
402,192,194975,1,0,0:0:0:0:
329,192,194975,1,0,0:0:0:0:
182,192,195051,1,0,0:0:0:0:
109,192,195128,1,0,0:0:0:0:
36,192,195128,1,0,0:0:0:0:
256,192,195128,1,0,0:0:0:0:
402,192,195128,1,0,0:0:0:0:
475,192,195205,1,0,0:0:0:0:
109,192,195282,1,0,0:0:0:0:
36,192,195282,1,0,0:0:0:0:
256,192,195282,1,0,0:0:0:0:
329,192,195282,1,0,0:0:0:0:
182,192,195359,1,0,0:0:0:0:
402,192,195436,5,0,0:0:0:0:
475,192,195436,1,0,0:0:0:0:
256,192,195436,1,0,0:0:0:0:
109,192,195513,1,0,0:0:0:0:
36,192,195513,1,0,0:0:0:0:
256,192,195590,1,0,0:0:0:0:
182,192,195590,1,0,0:0:0:0:
329,192,195590,1,0,0:0:0:0:
402,192,195667,1,0,0:0:0:0:
475,192,195667,1,0,0:0:0:0:
36,192,195744,1,0,0:0:0:0:
109,192,195744,1,0,0:0:0:0:
182,192,195744,1,0,0:0:0:0:
256,192,195744,1,0,0:0:0:0:
329,192,195821,1,0,0:0:0:0:
402,192,195821,1,0,0:0:0:0:
256,192,195898,1,0,0:0:0:0:
36,192,195898,1,0,0:0:0:0:
475,192,195898,1,0,0:0:0:0:
402,192,195975,1,0,0:0:0:0:
182,192,195975,1,0,0:0:0:0:
36,192,196051,1,0,0:0:0:0:
329,192,196051,1,0,0:0:0:0:
109,192,196051,1,0,0:0:0:0:
475,192,196128,1,0,0:0:0:0:
402,192,196128,1,0,0:0:0:0:
182,192,196205,1,0,0:0:0:0:
256,192,196205,1,0,0:0:0:0:
329,192,196205,1,0,0:0:0:0:
36,192,196282,1,0,0:0:0:0:
109,192,196282,1,0,0:0:0:0:
256,192,196359,1,0,0:0:0:0:
329,192,196359,1,0,0:0:0:0:
402,192,196359,1,0,0:0:0:0:
475,192,196359,1,0,0:0:0:0:
182,192,196436,1,0,0:0:0:0:
109,192,196436,1,0,0:0:0:0:
475,192,196513,1,0,0:0:0:0:
36,192,196513,1,0,0:0:0:0:
256,192,196513,1,0,0:0:0:0:
109,192,196590,1,0,0:0:0:0:
329,192,196590,1,0,0:0:0:0:
402,192,196667,1,0,0:0:0:0:
475,192,196667,1,0,0:0:0:0:
256,192,196667,1,0,0:0:0:0:
182,192,196705,1,0,0:0:0:0:
109,192,196744,1,0,0:0:0:0:
36,192,196782,1,0,0:0:0:0:
402,192,196821,1,0,0:0:0:0:
475,192,196821,1,0,0:0:0:0:
329,192,196859,1,0,0:0:0:0:
256,192,196898,1,0,0:0:0:0:
182,192,196936,1,0,0:0:0:0:
109,192,196975,1,0,0:0:0:0:
36,192,196975,1,0,0:0:0:0:
329,192,197013,1,0,0:0:0:0:
402,192,197051,1,0,0:0:0:0:
475,192,197090,1,0,0:0:0:0:
109,192,197128,1,0,0:0:0:0:
36,192,197128,1,0,0:0:0:0:
182,192,197167,1,0,0:0:0:0:
256,192,197205,1,0,0:0:0:0:
329,192,197244,1,0,0:0:0:0:
402,192,197282,1,0,0:0:0:0:
475,192,197282,1,0,0:0:0:0:
182,192,197321,1,0,0:0:0:0:
109,192,197359,1,0,0:0:0:0:
36,192,197398,1,0,0:0:0:0:
402,192,197436,1,0,0:0:0:0:
475,192,197436,1,0,0:0:0:0:
329,192,197475,1,0,0:0:0:0:
256,192,197513,1,0,0:0:0:0:
182,192,197551,1,0,0:0:0:0:
36,192,197590,1,0,0:0:0:0:
109,192,197590,1,0,0:0:0:0:
329,192,197628,1,0,0:0:0:0:
402,192,197667,1,0,0:0:0:0:
475,192,197705,1,0,0:0:0:0:
109,192,197744,1,0,0:0:0:0:
36,192,197744,1,0,0:0:0:0:
182,192,197782,1,0,0:0:0:0:
256,192,197821,1,0,0:0:0:0:
329,192,197859,1,0,0:0:0:0:
475,192,197898,1,0,0:0:0:0:
402,192,197898,1,0,0:0:0:0:
109,192,197898,1,0,0:0:0:0:
36,192,197898,1,0,0:0:0:0:
256,192,198205,1,0,0:0:0:0:
402,192,198513,1,0,0:0:0:0:
182,192,198821,1,0,0:0:0:0:
329,192,199128,1,0,0:0:0:0:
109,192,199436,1,0,0:0:0:0:
256,192,199744,1,0,0:0:0:0:
36,192,200051,1,0,0:0:0:0:
256,192,200359,1,0,0:0:0:0:
256,192,200590,1,0,0:0:0:0:
256,192,200821,1,0,0:0:0:0:
256,192,200975,1,0,0:0:0:0:
256,192,201205,1,0,0:0:0:0:
256,192,201436,1,0,0:0:0:0:
256,192,201590,1,0,0:0:0:0:
256,192,201821,1,0,0:0:0:0:
256,192,202051,1,0,0:0:0:0:
256,192,202205,1,0,0:0:0:0:
256,192,202436,1,0,0:0:0:0:
256,192,202667,1,0,0:0:0:0:
329,192,202821,1,0,0:0:0:0:
182,192,202821,1,0,0:0:0:0:
329,192,203051,1,0,0:0:0:0:
182,192,203051,1,0,0:0:0:0:
329,192,203282,1,0,0:0:0:0:
182,192,203282,1,0,0:0:0:0:
329,192,203436,1,0,0:0:0:0:
182,192,203436,1,0,0:0:0:0:
329,192,203667,1,0,0:0:0:0:
182,192,203667,1,0,0:0:0:0:
329,192,203898,1,0,0:0:0:0:
182,192,203898,1,0,0:0:0:0:
402,192,204051,1,0,0:0:0:0:
109,192,204051,1,0,0:0:0:0:
256,192,204051,1,0,0:0:0:0:
402,192,204282,1,0,0:0:0:0:
109,192,204282,1,0,0:0:0:0:
256,192,204282,1,0,0:0:0:0:
402,192,204513,1,0,0:0:0:0:
109,192,204513,1,0,0:0:0:0:
256,192,204513,1,0,0:0:0:0:
402,192,204667,1,0,0:0:0:0:
109,192,204667,1,0,0:0:0:0:
256,192,204667,1,0,0:0:0:0:
402,192,204898,1,0,0:0:0:0:
109,192,204898,1,0,0:0:0:0:
256,192,204898,1,0,0:0:0:0:
402,192,205128,1,0,0:0:0:0:
109,192,205128,1,0,0:0:0:0:
256,192,205128,1,0,0:0:0:0:
475,192,205282,1,0,0:0:0:0:
36,192,205282,1,0,0:0:0:0:
329,192,205282,1,0,0:0:0:0:
182,192,205282,1,0,0:0:0:0:
475,192,205513,1,0,0:0:0:0:
36,192,205513,1,0,0:0:0:0:
329,192,205513,1,0,0:0:0:0:
182,192,205513,1,0,0:0:0:0:
475,192,205744,1,0,0:0:0:0:
36,192,205744,1,0,0:0:0:0:
329,192,205744,1,0,0:0:0:0:
182,192,205744,1,0,0:0:0:0:
475,192,205898,1,0,0:0:0:0:
36,192,205898,1,0,0:0:0:0:
329,192,205898,1,0,0:0:0:0:
182,192,205898,1,0,0:0:0:0:
475,192,206128,1,0,0:0:0:0:
36,192,206128,1,0,0:0:0:0:
329,192,206128,1,0,0:0:0:0:
182,192,206128,1,0,0:0:0:0:
475,192,206359,1,0,0:0:0:0:
36,192,206359,1,0,0:0:0:0:
329,192,206359,1,0,0:0:0:0:
182,192,206359,1,0,0:0:0:0:
475,192,206513,1,0,0:0:0:0:
36,192,206513,1,0,0:0:0:0:
256,192,206513,1,0,0:0:0:0:
402,192,206513,1,0,0:0:0:0:
109,192,206513,1,0,0:0:0:0:
475,192,206744,1,0,0:0:0:0:
36,192,206744,1,0,0:0:0:0:
256,192,206744,1,0,0:0:0:0:
402,192,206744,1,0,0:0:0:0:
109,192,206744,1,0,0:0:0:0:
475,192,206975,1,0,0:0:0:0:
36,192,206975,1,0,0:0:0:0:
256,192,206975,1,0,0:0:0:0:
402,192,206975,1,0,0:0:0:0:
109,192,206975,1,0,0:0:0:0:
475,192,207128,1,0,0:0:0:0:
36,192,207128,1,0,0:0:0:0:
329,192,207128,1,0,0:0:0:0:
402,192,207128,1,0,0:0:0:0:
109,192,207128,1,0,0:0:0:0:
182,192,207128,1,0,0:0:0:0:
475,192,207359,1,0,0:0:0:0:
36,192,207359,1,0,0:0:0:0:
329,192,207359,1,0,0:0:0:0:
402,192,207359,1,0,0:0:0:0:
109,192,207359,1,0,0:0:0:0:
182,192,207359,1,0,0:0:0:0:
475,192,207590,1,0,0:0:0:0:
36,192,207590,1,0,0:0:0:0:
329,192,207590,1,0,0:0:0:0:
402,192,207590,1,0,0:0:0:0:
182,192,207590,1,0,0:0:0:0:
109,192,207590,1,0,0:0:0:0:
182,192,207744,1,0,0:0:0:0:
109,192,207744,1,0,0:0:0:0:
36,192,207744,1,0,0:0:0:0:
475,192,207744,1,0,0:0:0:0:
402,192,207821,1,0,0:0:0:0:
329,192,207898,1,0,0:0:0:0:
36,192,207975,1,0,0:0:0:0:
109,192,207975,1,0,0:0:0:0:
182,192,207975,1,0,0:0:0:0:
402,192,207975,1,0,0:0:0:0:
475,192,208051,1,0,0:0:0:0:
256,192,208128,1,0,0:0:0:0:
182,192,208205,1,0,0:0:0:0:
36,192,208205,1,0,0:0:0:0:
109,192,208205,1,0,0:0:0:0:
329,192,208205,1,0,0:0:0:0:
402,192,208282,1,0,0:0:0:0:
182,192,208359,1,0,0:0:0:0:
36,192,208359,1,0,0:0:0:0:
109,192,208359,1,0,0:0:0:0:
329,192,208359,1,0,0:0:0:0:
256,192,208436,1,0,0:0:0:0:
475,192,208513,1,0,0:0:0:0:
109,192,208590,1,0,0:0:0:0:
182,192,208590,1,0,0:0:0:0:
36,192,208590,1,0,0:0:0:0:
402,192,208590,1,0,0:0:0:0:
329,192,208667,1,0,0:0:0:0:
402,192,208744,1,0,0:0:0:0:
36,192,208821,1,0,0:0:0:0:
182,192,208821,1,0,0:0:0:0:
109,192,208821,1,0,0:0:0:0:
475,192,208821,1,0,0:0:0:0:
256,192,208898,1,0,0:0:0:0:
109,192,208975,1,0,0:0:0:0:
36,192,208975,1,0,0:0:0:0:
182,192,208975,1,0,0:0:0:0:
329,192,208975,1,0,0:0:0:0:
475,192,209051,1,0,0:0:0:0:
256,192,209128,1,0,0:0:0:0:
36,192,209205,1,0,0:0:0:0:
182,192,209205,1,0,0:0:0:0:
109,192,209205,1,0,0:0:0:0:
402,192,209205,1,0,0:0:0:0:
475,192,209282,1,0,0:0:0:0:
329,192,209359,1,0,0:0:0:0:
109,192,209436,1,0,0:0:0:0:
182,192,209436,1,0,0:0:0:0:
36,192,209436,1,0,0:0:0:0:
402,192,209436,1,0,0:0:0:0:
256,192,209513,1,0,0:0:0:0:
182,192,209590,1,0,0:0:0:0:
109,192,209590,1,0,0:0:0:0:
36,192,209590,1,0,0:0:0:0:
329,192,209590,1,0,0:0:0:0:
475,192,209667,1,0,0:0:0:0:
256,192,209744,1,0,0:0:0:0:
36,192,209821,1,0,0:0:0:0:
109,192,209821,1,0,0:0:0:0:
182,192,209821,1,0,0:0:0:0:
402,192,209821,1,0,0:0:0:0:
475,192,209898,1,0,0:0:0:0:
329,192,209975,1,0,0:0:0:0:
182,192,210051,1,0,0:0:0:0:
36,192,210051,1,0,0:0:0:0:
109,192,210051,1,0,0:0:0:0:
402,192,210051,1,0,0:0:0:0:
256,192,210128,1,0,0:0:0:0:
329,192,210205,1,0,0:0:0:0:
475,192,210205,1,0,0:0:0:0:
402,192,210205,1,0,0:0:0:0:
36,192,210205,1,0,0:0:0:0:
109,192,210282,1,0,0:0:0:0:
182,192,210359,1,0,0:0:0:0:
402,192,210436,1,0,0:0:0:0:
329,192,210436,1,0,0:0:0:0:
475,192,210436,1,0,0:0:0:0:
109,192,210436,1,0,0:0:0:0:
36,192,210513,1,0,0:0:0:0:
256,192,210590,1,0,0:0:0:0:
475,192,210667,1,0,0:0:0:0:
329,192,210667,1,0,0:0:0:0:
402,192,210667,1,0,0:0:0:0:
182,192,210667,1,0,0:0:0:0:
109,192,210744,1,0,0:0:0:0:
402,192,210821,1,0,0:0:0:0:
475,192,210821,1,0,0:0:0:0:
329,192,210821,1,0,0:0:0:0:
182,192,210821,1,0,0:0:0:0:
256,192,210898,1,0,0:0:0:0:
36,192,210975,1,0,0:0:0:0:
475,192,211051,1,0,0:0:0:0:
329,192,211051,1,0,0:0:0:0:
402,192,211051,1,0,0:0:0:0:
109,192,211051,1,0,0:0:0:0:
182,192,211128,1,0,0:0:0:0:
109,192,211205,1,0,0:0:0:0:
402,192,211282,1,0,0:0:0:0:
329,192,211282,1,0,0:0:0:0:
475,192,211282,1,0,0:0:0:0:
36,192,211282,1,0,0:0:0:0:
256,192,211359,1,0,0:0:0:0:
329,192,211436,1,0,0:0:0:0:
475,192,211436,1,0,0:0:0:0:
402,192,211436,1,0,0:0:0:0:
182,192,211436,1,0,0:0:0:0:
36,192,211513,1,0,0:0:0:0:
256,192,211590,1,0,0:0:0:0:
402,192,211667,1,0,0:0:0:0:
329,192,211667,1,0,0:0:0:0:
475,192,211667,1,0,0:0:0:0:
109,192,211667,1,0,0:0:0:0:
36,192,211744,1,0,0:0:0:0:
182,192,211821,1,0,0:0:0:0:
475,192,211898,1,0,0:0:0:0:
329,192,211898,1,0,0:0:0:0:
402,192,211898,1,0,0:0:0:0:
109,192,211898,1,0,0:0:0:0:
256,192,211975,1,0,0:0:0:0:
402,192,212051,1,0,0:0:0:0:
475,192,212051,1,0,0:0:0:0:
329,192,212051,1,0,0:0:0:0:
182,192,212051,1,0,0:0:0:0:
36,192,212128,1,0,0:0:0:0:
256,192,212205,1,0,0:0:0:0:
475,192,212282,1,0,0:0:0:0:
329,192,212282,1,0,0:0:0:0:
402,192,212282,1,0,0:0:0:0:
109,192,212282,1,0,0:0:0:0:
36,192,212359,1,0,0:0:0:0:
182,192,212436,1,0,0:0:0:0:
402,192,212513,1,0,0:0:0:0:
329,192,212513,1,0,0:0:0:0:
475,192,212513,1,0,0:0:0:0:
109,192,212513,1,0,0:0:0:0:
256,192,212590,1,0,0:0:0:0:
109,192,212667,1,0,0:0:0:0:
36,192,212667,1,0,0:0:0:0:
475,192,212667,1,0,0:0:0:0:
182,192,212667,1,0,0:0:0:0:
329,192,212744,1,0,0:0:0:0:
402,192,212821,1,0,0:0:0:0:
182,192,212821,1,0,0:0:0:0:
36,192,212898,1,0,0:0:0:0:
109,192,212898,1,0,0:0:0:0:
256,192,212898,1,0,0:0:0:0:
475,192,212975,1,0,0:0:0:0:
329,192,212975,1,0,0:0:0:0:
402,192,212975,1,0,0:0:0:0:
182,192,213051,1,0,0:0:0:0:
109,192,213128,1,0,0:0:0:0:
36,192,213128,1,0,0:0:0:0:
256,192,213128,1,0,0:0:0:0:
402,192,213128,1,0,0:0:0:0:
182,192,213205,1,0,0:0:0:0:
36,192,213282,1,0,0:0:0:0:
109,192,213282,1,0,0:0:0:0:
475,192,213282,1,0,0:0:0:0:
329,192,213282,1,0,0:0:0:0:
256,192,213359,1,0,0:0:0:0:
402,192,213436,1,0,0:0:0:0:
182,192,213436,1,0,0:0:0:0:
109,192,213513,1,0,0:0:0:0:
36,192,213513,1,0,0:0:0:0:
329,192,213513,1,0,0:0:0:0:
256,192,213590,1,0,0:0:0:0:
402,192,213590,1,0,0:0:0:0:
475,192,213590,1,0,0:0:0:0:
182,192,213667,1,0,0:0:0:0:
109,192,213744,1,0,0:0:0:0:
36,192,213744,1,0,0:0:0:0:
329,192,213744,1,0,0:0:0:0:
475,192,213744,1,0,0:0:0:0:
256,192,213821,1,0,0:0:0:0:
402,192,213898,1,0,0:0:0:0:
475,192,213898,1,0,0:0:0:0:
36,192,213898,1,0,0:0:0:0:
329,192,213898,1,0,0:0:0:0:
182,192,213975,5,0,0:0:0:0:
109,192,214051,1,0,0:0:0:0:
329,192,214051,1,0,0:0:0:0:
475,192,214128,1,0,0:0:0:0:
402,192,214128,1,0,0:0:0:0:
256,192,214128,1,0,0:0:0:0:
36,192,214205,1,0,0:0:0:0:
182,192,214205,1,0,0:0:0:0:
109,192,214205,1,0,0:0:0:0:
329,192,214282,1,0,0:0:0:0:
402,192,214359,1,0,0:0:0:0:
475,192,214359,1,0,0:0:0:0:
256,192,214359,1,0,0:0:0:0:
109,192,214359,1,0,0:0:0:0:
329,192,214436,1,0,0:0:0:0:
475,192,214513,1,0,0:0:0:0:
402,192,214513,1,0,0:0:0:0:
36,192,214513,1,0,0:0:0:0:
182,192,214513,1,0,0:0:0:0:
256,192,214590,1,0,0:0:0:0:
109,192,214667,1,0,0:0:0:0:
329,192,214667,1,0,0:0:0:0:
402,192,214744,1,0,0:0:0:0:
475,192,214744,1,0,0:0:0:0:
182,192,214744,1,0,0:0:0:0:
256,192,214821,1,0,0:0:0:0:
109,192,214821,1,0,0:0:0:0:
36,192,214821,1,0,0:0:0:0:
329,192,214898,1,0,0:0:0:0:
402,192,214975,1,0,0:0:0:0:
475,192,214975,1,0,0:0:0:0:
182,192,214975,1,0,0:0:0:0:
36,192,214975,1,0,0:0:0:0:
256,192,215051,1,0,0:0:0:0:
109,192,215128,5,0,0:0:0:0:
182,192,215128,1,0,0:0:0:0:
36,192,215128,1,0,0:0:0:0:
329,192,215205,1,0,0:0:0:0:
402,192,215205,1,0,0:0:0:0:
256,192,215282,1,0,0:0:0:0:
182,192,215282,1,0,0:0:0:0:
475,192,215282,1,0,0:0:0:0:
109,192,215359,1,0,0:0:0:0:
36,192,215359,1,0,0:0:0:0:
329,192,215436,1,0,0:0:0:0:
475,192,215436,1,0,0:0:0:0:
402,192,215436,1,0,0:0:0:0:
182,192,215513,1,0,0:0:0:0:
109,192,215513,1,0,0:0:0:0:
329,192,215590,1,0,0:0:0:0:
256,192,215590,1,0,0:0:0:0:
36,192,215590,1,0,0:0:0:0:
475,192,215667,1,0,0:0:0:0:
402,192,215667,1,0,0:0:0:0:
109,192,215744,1,0,0:0:0:0:
36,192,215744,1,0,0:0:0:0:
182,192,215744,1,0,0:0:0:0:
402,192,215821,1,0,0:0:0:0:
329,192,215821,1,0,0:0:0:0:
182,192,215898,1,0,0:0:0:0:
256,192,215898,1,0,0:0:0:0:
475,192,215898,1,0,0:0:0:0:
36,192,215975,1,0,0:0:0:0:
109,192,215975,1,0,0:0:0:0:
329,192,216051,1,0,0:0:0:0:
475,192,216051,1,0,0:0:0:0:
402,192,216051,1,0,0:0:0:0:
109,192,216128,1,0,0:0:0:0:
182,192,216128,1,0,0:0:0:0:
256,192,216205,1,0,0:0:0:0:
329,192,216205,1,0,0:0:0:0:
36,192,216205,1,0,0:0:0:0:
402,192,216282,1,0,0:0:0:0:
475,192,216282,1,0,0:0:0:0:
182,192,216359,1,0,0:0:0:0:
109,192,216359,1,0,0:0:0:0:
402,192,216436,1,0,0:0:0:0:
329,192,216436,1,0,0:0:0:0:
256,192,216513,1,0,0:0:0:0:
109,192,216513,1,0,0:0:0:0:
475,192,216590,1,0,0:0:0:0:
329,192,216590,1,0,0:0:0:0:
182,192,216667,1,0,0:0:0:0:
36,192,216667,1,0,0:0:0:0:
256,192,216744,1,0,0:0:0:0:
402,192,216744,1,0,0:0:0:0:
36,192,216821,1,0,0:0:0:0:
109,192,216821,1,0,0:0:0:0:
402,192,216898,1,0,0:0:0:0:
475,192,216898,1,0,0:0:0:0:
109,192,216975,1,0,0:0:0:0:
256,192,216975,1,0,0:0:0:0:
182,192,216975,1,0,0:0:0:0:
402,192,217051,1,0,0:0:0:0:
475,192,217051,1,0,0:0:0:0:
329,192,217051,1,0,0:0:0:0:
109,192,217128,1,0,0:0:0:0:
182,192,217128,1,0,0:0:0:0:
36,192,217128,1,0,0:0:0:0:
329,192,217205,1,0,0:0:0:0:
256,192,217205,1,0,0:0:0:0:
402,192,217205,1,0,0:0:0:0:
182,192,217282,1,0,0:0:0:0:
36,192,217282,1,0,0:0:0:0:
109,192,217282,1,0,0:0:0:0:
256,192,217359,1,0,0:0:0:0:
475,192,217359,1,0,0:0:0:0:
402,192,217359,1,0,0:0:0:0:
36,192,217436,1,0,0:0:0:0:
329,192,217436,1,0,0:0:0:0:
109,192,217436,1,0,0:0:0:0:
402,192,217513,1,0,0:0:0:0:
475,192,217513,1,0,0:0:0:0:
182,192,217513,1,0,0:0:0:0:
329,192,217590,1,0,0:0:0:0:
109,192,217590,1,0,0:0:0:0:
36,192,217590,1,0,0:0:0:0:
256,192,217590,1,0,0:0:0:0:
182,192,217667,1,0,0:0:0:0:
329,192,217744,1,0,0:0:0:0:
475,192,217744,1,0,0:0:0:0:
109,192,217821,1,0,0:0:0:0:
36,192,217821,1,0,0:0:0:0:
256,192,217821,1,0,0:0:0:0:
182,192,217898,1,0,0:0:0:0:
402,192,217898,1,0,0:0:0:0:
475,192,217898,1,0,0:0:0:0:
329,192,217975,1,0,0:0:0:0:
36,192,218051,1,0,0:0:0:0:
109,192,218051,1,0,0:0:0:0:
256,192,218051,1,0,0:0:0:0:
182,192,218128,1,0,0:0:0:0:
109,192,218205,1,0,0:0:0:0:
36,192,218205,1,0,0:0:0:0:
475,192,218205,1,0,0:0:0:0:
256,192,218205,1,0,0:0:0:0:
329,192,218282,1,0,0:0:0:0:
402,192,218359,1,0,0:0:0:0:
475,192,218359,1,0,0:0:0:0:
182,192,218359,1,0,0:0:0:0:
109,192,218436,1,0,0:0:0:0:
36,192,218436,1,0,0:0:0:0:
256,192,218436,1,0,0:0:0:0:
182,192,218513,1,0,0:0:0:0:
475,192,218513,1,0,0:0:0:0:
402,192,218513,1,0,0:0:0:0:
329,192,218590,1,0,0:0:0:0:
36,192,218667,1,0,0:0:0:0:
109,192,218667,1,0,0:0:0:0:
256,192,218667,1,0,0:0:0:0:
182,192,218744,1,0,0:0:0:0:
36,192,218821,1,0,0:0:0:0:
109,192,218821,1,0,0:0:0:0:
402,192,218821,1,0,0:0:0:0:
475,192,218821,1,0,0:0:0:0:
329,192,218898,1,0,0:0:0:0:
256,192,218975,1,0,0:0:0:0:
475,192,218975,1,0,0:0:0:0:
36,192,219051,1,0,0:0:0:0:
109,192,219051,1,0,0:0:0:0:
402,192,219051,1,0,0:0:0:0:
329,192,219128,1,0,0:0:0:0:
182,192,219128,1,0,0:0:0:0:
256,192,219128,1,0,0:0:0:0:
475,192,219205,1,0,0:0:0:0:
109,192,219282,1,0,0:0:0:0:
36,192,219282,1,0,0:0:0:0:
402,192,219282,1,0,0:0:0:0:
329,192,219359,1,0,0:0:0:0:
109,192,219436,1,0,0:0:0:0:
36,192,219436,1,0,0:0:0:0:
256,192,219436,1,0,0:0:0:0:
475,192,219513,1,0,0:0:0:0:
402,192,219590,1,0,0:0:0:0:
329,192,219590,1,0,0:0:0:0:
182,192,219590,1,0,0:0:0:0:
109,192,219667,1,0,0:0:0:0:
36,192,219667,1,0,0:0:0:0:
256,192,219667,1,0,0:0:0:0:
402,192,219744,1,0,0:0:0:0:
475,192,219744,1,0,0:0:0:0:
329,192,219744,1,0,0:0:0:0:
256,192,219821,1,0,0:0:0:0:
36,192,219898,1,0,0:0:0:0:
109,192,219898,1,0,0:0:0:0:
402,192,219898,1,0,0:0:0:0:
182,192,219975,1,0,0:0:0:0:
36,192,220051,1,0,0:0:0:0:
256,192,220051,1,0,0:0:0:0:
329,192,220051,1,0,0:0:0:0:
475,192,220051,1,0,0:0:0:0:
109,192,220128,1,0,0:0:0:0:
182,192,220205,1,0,0:0:0:0:
402,192,220205,1,0,0:0:0:0:
256,192,220282,1,0,0:0:0:0:
36,192,220282,1,0,0:0:0:0:
329,192,220282,1,0,0:0:0:0:
402,192,220359,1,0,0:0:0:0:
109,192,220359,1,0,0:0:0:0:
475,192,220359,1,0,0:0:0:0:
182,192,220436,1,0,0:0:0:0:
36,192,220513,1,0,0:0:0:0:
256,192,220513,1,0,0:0:0:0:
402,192,220513,1,0,0:0:0:0:
329,192,220590,1,0,0:0:0:0:
36,192,220667,1,0,0:0:0:0:
256,192,220667,1,0,0:0:0:0:
109,192,220667,1,0,0:0:0:0:
475,192,220667,1,0,0:0:0:0:
329,192,220744,1,0,0:0:0:0:
109,192,220821,1,0,0:0:0:0:
475,192,220821,1,0,0:0:0:0:
402,192,220821,1,0,0:0:0:0:
256,192,220898,1,0,0:0:0:0:
36,192,220898,1,0,0:0:0:0:
182,192,220898,1,0,0:0:0:0:
329,192,220975,1,0,0:0:0:0:
402,192,220975,1,0,0:0:0:0:
109,192,220975,1,0,0:0:0:0:
475,192,221051,1,0,0:0:0:0:
36,192,221128,1,0,0:0:0:0:
256,192,221128,1,0,0:0:0:0:
329,192,221128,1,0,0:0:0:0:
109,192,221205,1,0,0:0:0:0:
256,192,221282,1,0,0:0:0:0:
36,192,221282,1,0,0:0:0:0:
402,192,221282,1,0,0:0:0:0:
475,192,221282,1,0,0:0:0:0:
182,192,221359,1,0,0:0:0:0:
329,192,221436,1,0,0:0:0:0:
109,192,221436,1,0,0:0:0:0:
36,192,221513,1,0,0:0:0:0:
256,192,221513,1,0,0:0:0:0:
402,192,221513,1,0,0:0:0:0:
475,192,221590,1,0,0:0:0:0:
329,192,221590,1,0,0:0:0:0:
109,192,221590,1,0,0:0:0:0:
182,192,221667,1,0,0:0:0:0:
256,192,221744,1,0,0:0:0:0:
36,192,221744,1,0,0:0:0:0:
402,192,221744,1,0,0:0:0:0:
329,192,221821,1,0,0:0:0:0:
36,192,221898,1,0,0:0:0:0:
256,192,221898,1,0,0:0:0:0:
475,192,221898,1,0,0:0:0:0:
109,192,221975,1,0,0:0:0:0:
182,192,222051,1,0,0:0:0:0:
402,192,222051,1,0,0:0:0:0:
475,192,222051,1,0,0:0:0:0:
256,192,222128,1,0,0:0:0:0:
36,192,222128,1,0,0:0:0:0:
109,192,222128,1,0,0:0:0:0:
329,192,222205,1,0,0:0:0:0:
402,192,222205,1,0,0:0:0:0:
475,192,222205,1,0,0:0:0:0:
182,192,222282,1,0,0:0:0:0:
36,192,222359,1,0,0:0:0:0:
256,192,222359,1,0,0:0:0:0:
329,192,222359,1,0,0:0:0:0:
109,192,222359,1,0,0:0:0:0:
182,192,222436,1,0,0:0:0:0:
475,192,222513,1,0,0:0:0:0:
256,192,222513,1,0,0:0:0:0:
109,192,222513,1,0,0:0:0:0:
36,192,222513,1,0,0:0:0:0:
402,192,222590,1,0,0:0:0:0:
329,192,222667,1,0,0:0:0:0:
36,192,222667,1,0,0:0:0:0:
256,192,222744,1,0,0:0:0:0:
475,192,222744,1,0,0:0:0:0:
182,192,222744,1,0,0:0:0:0:
109,192,222821,1,0,0:0:0:0:
402,192,222821,1,0,0:0:0:0:
36,192,222821,1,0,0:0:0:0:
329,192,222898,1,0,0:0:0:0:
475,192,222975,1,0,0:0:0:0:
256,192,222975,1,0,0:0:0:0:
109,192,222975,1,0,0:0:0:0:
182,192,223051,1,0,0:0:0:0:
475,192,223128,1,0,0:0:0:0:
256,192,223128,1,0,0:0:0:0:
402,192,223128,1,0,0:0:0:0:
36,192,223128,1,0,0:0:0:0:
182,192,223205,1,0,0:0:0:0:
402,192,223282,1,0,0:0:0:0:
36,192,223282,1,0,0:0:0:0:
109,192,223282,1,0,0:0:0:0:
256,192,223359,1,0,0:0:0:0:
475,192,223359,1,0,0:0:0:0:
329,192,223359,1,0,0:0:0:0:
182,192,223436,1,0,0:0:0:0:
109,192,223436,1,0,0:0:0:0:
402,192,223436,1,0,0:0:0:0:
36,192,223513,1,0,0:0:0:0:
475,192,223590,1,0,0:0:0:0:
256,192,223590,1,0,0:0:0:0:
182,192,223590,1,0,0:0:0:0:
402,192,223667,1,0,0:0:0:0:
256,192,223744,1,0,0:0:0:0:
475,192,223744,1,0,0:0:0:0:
109,192,223744,1,0,0:0:0:0:
36,192,223744,1,0,0:0:0:0:
329,192,223821,1,0,0:0:0:0:
182,192,223898,1,0,0:0:0:0:
402,192,223898,1,0,0:0:0:0:
475,192,223975,1,0,0:0:0:0:
256,192,223975,1,0,0:0:0:0:
109,192,223975,1,0,0:0:0:0:
36,192,224051,1,0,0:0:0:0:
182,192,224051,1,0,0:0:0:0:
402,192,224051,1,0,0:0:0:0:
329,192,224128,1,0,0:0:0:0:
256,192,224205,1,0,0:0:0:0:
475,192,224205,1,0,0:0:0:0:
109,192,224205,1,0,0:0:0:0:
182,192,224282,1,0,0:0:0:0:
475,192,224359,1,0,0:0:0:0:
256,192,224359,1,0,0:0:0:0:
36,192,224359,1,0,0:0:0:0:
402,192,224436,1,0,0:0:0:0:
329,192,224513,1,0,0:0:0:0:
109,192,224513,1,0,0:0:0:0:
36,192,224513,1,0,0:0:0:0:
256,192,224590,1,0,0:0:0:0:
475,192,224590,1,0,0:0:0:0:
402,192,224590,1,0,0:0:0:0:
182,192,224667,1,0,0:0:0:0:
109,192,224667,1,0,0:0:0:0:
36,192,224667,1,0,0:0:0:0:
329,192,224744,1,0,0:0:0:0:
475,192,224821,1,0,0:0:0:0:
256,192,224821,1,0,0:0:0:0:
182,192,224821,1,0,0:0:0:0:
402,192,224821,1,0,0:0:0:0:
329,192,224898,1,0,0:0:0:0:
475,192,224975,1,0,0:0:0:0:
109,192,224975,1,0,0:0:0:0:
36,192,224975,1,0,0:0:0:0:
256,192,224975,1,0,0:0:0:0:
182,192,225051,1,0,0:0:0:0:
256,192,225128,1,0,0:0:0:0:
402,192,225128,1,0,0:0:0:0:
109,192,225205,1,0,0:0:0:0:
475,192,225205,1,0,0:0:0:0:
36,192,225205,1,0,0:0:0:0:
182,192,225282,1,0,0:0:0:0:
329,192,225282,1,0,0:0:0:0:
256,192,225282,1,0,0:0:0:0:
402,192,225359,1,0,0:0:0:0:
475,192,225436,1,0,0:0:0:0:
109,192,225436,1,0,0:0:0:0:
36,192,225436,1,0,0:0:0:0:
182,192,225513,1,0,0:0:0:0:
475,192,225590,1,0,0:0:0:0:
109,192,225590,1,0,0:0:0:0:
256,192,225590,1,0,0:0:0:0:
329,192,225590,1,0,0:0:0:0:
402,192,225667,1,0,0:0:0:0:
256,192,225744,1,0,0:0:0:0:
182,192,225744,1,0,0:0:0:0:
36,192,225744,1,0,0:0:0:0:
109,192,225821,1,0,0:0:0:0:
475,192,225821,1,0,0:0:0:0:
329,192,225821,1,0,0:0:0:0:
402,192,225898,1,0,0:0:0:0:
182,192,225898,1,0,0:0:0:0:
36,192,225898,1,0,0:0:0:0:
256,192,225975,1,0,0:0:0:0:
109,192,226051,1,0,0:0:0:0:
475,192,226051,1,0,0:0:0:0:
329,192,226051,1,0,0:0:0:0:
402,192,226128,1,0,0:0:0:0:
256,192,226205,1,0,0:0:0:0:
109,192,226205,1,0,0:0:0:0:
475,192,226205,1,0,0:0:0:0:
36,192,226205,1,0,0:0:0:0:
402,192,226282,1,0,0:0:0:0:
329,192,226359,1,0,0:0:0:0:
182,192,226359,1,0,0:0:0:0:
256,192,226436,1,0,0:0:0:0:
109,192,226436,1,0,0:0:0:0:
475,192,226436,1,0,0:0:0:0:
182,192,226513,1,0,0:0:0:0:
36,192,226513,1,0,0:0:0:0:
402,192,226513,1,0,0:0:0:0:
329,192,226590,1,0,0:0:0:0:
109,192,226667,1,0,0:0:0:0:
256,192,226667,1,0,0:0:0:0:
475,192,226667,1,0,0:0:0:0:
182,192,226744,1,0,0:0:0:0:
256,192,226821,1,0,0:0:0:0:
402,192,226821,1,0,0:0:0:0:
36,192,226821,1,0,0:0:0:0:
109,192,226898,1,0,0:0:0:0:
329,192,226975,1,0,0:0:0:0:
475,192,226975,1,0,0:0:0:0:
182,192,226975,1,0,0:0:0:0:
402,192,227051,1,0,0:0:0:0:
256,192,227051,1,0,0:0:0:0:
109,192,227051,1,0,0:0:0:0:
329,192,227128,1,0,0:0:0:0:
182,192,227128,1,0,0:0:0:0:
36,192,227128,1,0,0:0:0:0:
475,192,227205,1,0,0:0:0:0:
256,192,227282,1,0,0:0:0:0:
402,192,227282,1,0,0:0:0:0:
109,192,227282,1,0,0:0:0:0:
182,192,227359,1,0,0:0:0:0:
109,192,227436,1,0,0:0:0:0:
402,192,227436,1,0,0:0:0:0:
475,192,227436,1,0,0:0:0:0:
256,192,227436,1,0,0:0:0:0:
36,192,227436,1,0,0:0:0:0:
329,192,227513,1,0,0:0:0:0:
182,192,227590,1,0,0:0:0:0:
36,192,227590,1,0,0:0:0:0:
402,192,227667,1,0,0:0:0:0:
475,192,227667,1,0,0:0:0:0:
256,192,227667,1,0,0:0:0:0:
329,192,227744,1,0,0:0:0:0:
109,192,227744,1,0,0:0:0:0:
36,192,227744,1,0,0:0:0:0:
182,192,227821,1,0,0:0:0:0:
475,192,227898,1,0,0:0:0:0:
402,192,227898,1,0,0:0:0:0:
256,192,227898,1,0,0:0:0:0:
329,192,227975,1,0,0:0:0:0:
402,192,228051,1,0,0:0:0:0:
475,192,228051,1,0,0:0:0:0:
36,192,228051,1,0,0:0:0:0:
256,192,228051,1,0,0:0:0:0:
182,192,228128,1,0,0:0:0:0:
109,192,228205,1,0,0:0:0:0:
36,192,228205,1,0,0:0:0:0:
329,192,228205,1,0,0:0:0:0:
402,192,228282,1,0,0:0:0:0:
475,192,228282,1,0,0:0:0:0:
256,192,228282,1,0,0:0:0:0:
329,192,228359,1,0,0:0:0:0:
36,192,228359,1,0,0:0:0:0:
109,192,228359,1,0,0:0:0:0:
182,192,228436,1,0,0:0:0:0:
475,192,228513,1,0,0:0:0:0:
402,192,228513,1,0,0:0:0:0:
256,192,228513,1,0,0:0:0:0:
329,192,228590,1,0,0:0:0:0:
475,192,228667,1,0,0:0:0:0:
402,192,228667,1,0,0:0:0:0:
109,192,228667,1,0,0:0:0:0:
36,192,228667,1,0,0:0:0:0:
182,192,228744,1,0,0:0:0:0:
256,192,228821,1,0,0:0:0:0:
36,192,228821,1,0,0:0:0:0:
475,192,228898,1,0,0:0:0:0:
402,192,228898,1,0,0:0:0:0:
109,192,228898,1,0,0:0:0:0:
182,192,228975,1,0,0:0:0:0:
329,192,228975,1,0,0:0:0:0:
256,192,228975,1,0,0:0:0:0:
36,192,229051,1,0,0:0:0:0:
402,192,229128,1,0,0:0:0:0:
475,192,229128,1,0,0:0:0:0:
109,192,229128,1,0,0:0:0:0:
182,192,229205,1,0,0:0:0:0:
402,192,229282,1,0,0:0:0:0:
475,192,229282,1,0,0:0:0:0:
256,192,229282,1,0,0:0:0:0:
36,192,229359,1,0,0:0:0:0:
109,192,229436,1,0,0:0:0:0:
182,192,229436,1,0,0:0:0:0:
329,192,229436,1,0,0:0:0:0:
402,192,229513,1,0,0:0:0:0:
475,192,229513,1,0,0:0:0:0:
256,192,229513,1,0,0:0:0:0:
109,192,229590,1,0,0:0:0:0:
36,192,229590,1,0,0:0:0:0:
182,192,229590,1,0,0:0:0:0:
256,192,229667,1,0,0:0:0:0:
475,192,229744,1,0,0:0:0:0:
402,192,229744,1,0,0:0:0:0:
329,192,229821,1,0,0:0:0:0:
475,192,229898,1,0,0:0:0:0:
256,192,229898,1,0,0:0:0:0:
109,192,229898,1,0,0:0:0:0:
36,192,229898,1,0,0:0:0:0:
402,192,229975,1,0,0:0:0:0:
329,192,230051,1,0,0:0:0:0:
36,192,230051,1,0,0:0:0:0:
256,192,230128,1,0,0:0:0:0:
475,192,230128,1,0,0:0:0:0:
182,192,230128,1,0,0:0:0:0:
109,192,230205,1,0,0:0:0:0:
402,192,230205,1,0,0:0:0:0:
36,192,230205,1,0,0:0:0:0:
329,192,230282,1,0,0:0:0:0:
475,192,230359,1,0,0:0:0:0:
256,192,230359,1,0,0:0:0:0:
109,192,230359,1,0,0:0:0:0:
182,192,230436,1,0,0:0:0:0:
475,192,230513,1,0,0:0:0:0:
256,192,230513,1,0,0:0:0:0:
402,192,230513,1,0,0:0:0:0:
36,192,230513,1,0,0:0:0:0:
182,192,230590,1,0,0:0:0:0:
402,192,230667,1,0,0:0:0:0:
36,192,230667,1,0,0:0:0:0:
109,192,230667,1,0,0:0:0:0:
256,192,230744,1,0,0:0:0:0:
475,192,230744,1,0,0:0:0:0:
329,192,230744,1,0,0:0:0:0:
182,192,230821,1,0,0:0:0:0:
109,192,230821,1,0,0:0:0:0:
402,192,230821,1,0,0:0:0:0:
36,192,230898,1,0,0:0:0:0:
475,192,230975,1,0,0:0:0:0:
256,192,230975,1,0,0:0:0:0:
182,192,230975,1,0,0:0:0:0:
402,192,231051,1,0,0:0:0:0:
256,192,231128,1,0,0:0:0:0:
475,192,231128,1,0,0:0:0:0:
109,192,231128,1,0,0:0:0:0:
36,192,231128,1,0,0:0:0:0:
329,192,231205,1,0,0:0:0:0:
182,192,231282,1,0,0:0:0:0:
402,192,231282,1,0,0:0:0:0:
475,192,231359,1,0,0:0:0:0:
256,192,231359,1,0,0:0:0:0:
109,192,231359,1,0,0:0:0:0:
36,192,231436,1,0,0:0:0:0:
182,192,231436,1,0,0:0:0:0:
402,192,231436,1,0,0:0:0:0:
329,192,231513,1,0,0:0:0:0:
256,192,231590,1,0,0:0:0:0:
475,192,231590,1,0,0:0:0:0:
109,192,231590,1,0,0:0:0:0:
182,192,231667,1,0,0:0:0:0:
475,192,231744,1,0,0:0:0:0:
256,192,231744,1,0,0:0:0:0:
36,192,231744,1,0,0:0:0:0:
402,192,231821,1,0,0:0:0:0:
329,192,231898,1,0,0:0:0:0:
109,192,231898,1,0,0:0:0:0:
36,192,231898,1,0,0:0:0:0:
256,192,231975,1,0,0:0:0:0:
475,192,231975,1,0,0:0:0:0:
402,192,231975,1,0,0:0:0:0:
182,192,232051,1,0,0:0:0:0:
109,192,232051,1,0,0:0:0:0:
36,192,232051,1,0,0:0:0:0:
329,192,232128,1,0,0:0:0:0:
475,192,232205,1,0,0:0:0:0:
256,192,232205,1,0,0:0:0:0:
182,192,232205,1,0,0:0:0:0:
402,192,232205,1,0,0:0:0:0:
329,192,232282,1,0,0:0:0:0:
36,192,232359,1,0,0:0:0:0:
256,192,232359,1,0,0:0:0:0:
402,192,232359,1,0,0:0:0:0:
475,192,232359,1,0,0:0:0:0:
109,192,232436,5,0,0:0:0:0:
182,192,232513,1,0,0:0:0:0:
475,192,232513,1,0,0:0:0:0:
256,192,232590,1,0,0:0:0:0:
36,192,232590,1,0,0:0:0:0:
329,192,232590,1,0,0:0:0:0:
402,192,232667,1,0,0:0:0:0:
109,192,232667,1,0,0:0:0:0:
475,192,232667,1,0,0:0:0:0:
182,192,232744,1,0,0:0:0:0:
36,192,232821,1,0,0:0:0:0:
256,192,232821,1,0,0:0:0:0:
402,192,232821,1,0,0:0:0:0:
329,192,232898,1,0,0:0:0:0:
36,192,232975,1,0,0:0:0:0:
256,192,232975,1,0,0:0:0:0:
109,192,232975,1,0,0:0:0:0:
475,192,232975,1,0,0:0:0:0:
329,192,233051,1,0,0:0:0:0:
109,192,233128,1,0,0:0:0:0:
475,192,233128,1,0,0:0:0:0:
402,192,233128,1,0,0:0:0:0:
256,192,233205,1,0,0:0:0:0:
36,192,233205,1,0,0:0:0:0:
182,192,233205,1,0,0:0:0:0:
329,192,233282,1,0,0:0:0:0:
402,192,233282,1,0,0:0:0:0:
109,192,233282,1,0,0:0:0:0:
475,192,233359,1,0,0:0:0:0:
36,192,233436,1,0,0:0:0:0:
256,192,233436,1,0,0:0:0:0:
329,192,233436,1,0,0:0:0:0:
109,192,233513,1,0,0:0:0:0:
256,192,233590,5,0,0:0:0:0:
329,192,233590,1,0,0:0:0:0:
475,192,233590,1,0,0:0:0:0:
182,192,233590,1,0,0:0:0:0:
402,192,233667,5,0,0:0:0:0:
329,192,233744,1,0,0:0:0:0:
36,192,233744,1,0,0:0:0:0:
475,192,233821,1,0,0:0:0:0:
109,192,233821,1,0,0:0:0:0:
256,192,233821,1,0,0:0:0:0:
402,192,233898,1,0,0:0:0:0:
182,192,233898,1,0,0:0:0:0:
36,192,233898,1,0,0:0:0:0:
109,192,233975,1,0,0:0:0:0:
256,192,234051,1,0,0:0:0:0:
329,192,234051,1,0,0:0:0:0:
182,192,234051,1,0,0:0:0:0:
402,192,234128,1,0,0:0:0:0:
475,192,234205,1,0,0:0:0:0:
36,192,234205,1,0,0:0:0:0:
109,192,234205,1,0,0:0:0:0:
182,192,234205,1,0,0:0:0:0:
256,192,234282,1,0,0:0:0:0:
402,192,234359,1,0,0:0:0:0:
475,192,234359,1,0,0:0:0:0:
109,192,234359,1,0,0:0:0:0:
36,192,234359,1,0,0:0:0:0:
329,192,234436,1,0,0:0:0:0:
256,192,234436,1,0,0:0:0:0:
475,192,234513,1,0,0:0:0:0:
402,192,234513,1,0,0:0:0:0:
36,192,234513,1,0,0:0:0:0:
182,192,234513,1,0,0:0:0:0:
109,192,234590,1,0,0:0:0:0:
182,192,234667,1,0,0:0:0:0:
329,192,234667,1,0,0:0:0:0:
36,192,234667,1,0,0:0:0:0:
256,192,234744,1,0,0:0:0:0:
329,192,234821,5,0,0:0:0:0:
109,192,234821,1,0,0:0:0:0:
402,192,234821,1,0,0:0:0:0:
475,192,234821,1,0,0:0:0:0:
36,192,234898,1,0,0:0:0:0:
182,192,234898,1,0,0:0:0:0:
402,192,234975,1,0,0:0:0:0:
256,192,234975,1,0,0:0:0:0:
109,192,235051,1,0,0:0:0:0:
475,192,235051,1,0,0:0:0:0:
256,192,235128,1,0,0:0:0:0:
182,192,235128,1,0,0:0:0:0:
329,192,235128,1,0,0:0:0:0:
36,192,235205,1,0,0:0:0:0:
402,192,235205,1,0,0:0:0:0:
109,192,235282,1,0,0:0:0:0:
256,192,235282,1,0,0:0:0:0:
475,192,235359,1,0,0:0:0:0:
329,192,235359,1,0,0:0:0:0:
109,192,235436,1,0,0:0:0:0:
36,192,235436,1,0,0:0:0:0:
182,192,235436,1,0,0:0:0:0:
402,192,235513,1,0,0:0:0:0:
256,192,235513,1,0,0:0:0:0:
36,192,235590,1,0,0:0:0:0:
475,192,235590,1,0,0:0:0:0:
109,192,235590,1,0,0:0:0:0:
329,192,235667,1,0,0:0:0:0:
182,192,235667,1,0,0:0:0:0:
475,192,235744,1,0,0:0:0:0:
36,192,235744,1,0,0:0:0:0:
402,192,235744,1,0,0:0:0:0:
256,192,235821,1,0,0:0:0:0:
109,192,235821,1,0,0:0:0:0:
402,192,235898,1,0,0:0:0:0:
329,192,235898,1,0,0:0:0:0:
109,192,235975,1,0,0:0:0:0:
182,192,235975,1,0,0:0:0:0:
36,192,236051,1,0,0:0:0:0:
402,192,236051,1,0,0:0:0:0:
475,192,236051,1,0,0:0:0:0:
109,192,236090,1,0,0:0:0:0:
182,192,236128,1,0,0:0:0:0:
256,192,236167,1,0,0:0:0:0:
329,192,236205,1,0,0:0:0:0:
402,192,236244,1,0,0:0:0:0:
475,192,236282,1,0,0:0:0:0:
36,192,236321,1,0,0:0:0:0:
109,192,236359,1,0,0:0:0:0:
182,192,236398,1,0,0:0:0:0:
256,192,236436,1,0,0:0:0:0:
329,192,236475,1,0,0:0:0:0:
402,192,236513,1,0,0:0:0:0:
475,192,236551,1,0,0:0:0:0:
36,192,236590,1,0,0:0:0:0:
109,192,236628,1,0,0:0:0:0:
182,192,236667,1,0,0:0:0:0:
256,192,236705,1,0,0:0:0:0:
329,192,236744,1,0,0:0:0:0:
402,192,236782,1,0,0:0:0:0:
475,192,236821,1,0,0:0:0:0:
36,192,236859,1,0,0:0:0:0:
109,192,236898,1,0,0:0:0:0:
182,192,236936,1,0,0:0:0:0:
256,192,236975,1,0,0:0:0:0:
329,192,237013,1,0,0:0:0:0:
402,192,237051,1,0,0:0:0:0:
475,192,237090,1,0,0:0:0:0:
36,192,237128,1,0,0:0:0:0:
109,192,237167,1,0,0:0:0:0:
182,192,237205,1,0,0:0:0:0:
256,192,237244,1,0,0:0:0:0:
329,192,237282,5,0,0:0:0:0:
402,192,237282,1,0,0:0:0:0:
475,192,237282,1,0,0:0:0:0:
36,192,237282,1,0,0:0:0:0:
109,192,237359,1,0,0:0:0:0:
182,192,237436,1,0,0:0:0:0:
475,192,237513,1,0,0:0:0:0:
256,192,237513,1,0,0:0:0:0:
329,192,237590,1,0,0:0:0:0:
109,192,237590,1,0,0:0:0:0:
36,192,237590,1,0,0:0:0:0:
182,192,237667,1,0,0:0:0:0:
475,192,237744,1,0,0:0:0:0:
256,192,237744,1,0,0:0:0:0:
329,192,237821,1,0,0:0:0:0:
475,192,237898,1,0,0:0:0:0:
109,192,237898,1,0,0:0:0:0:
36,192,237898,1,0,0:0:0:0:
256,192,237898,1,0,0:0:0:0:
402,192,237975,1,0,0:0:0:0:
329,192,238051,1,0,0:0:0:0:
475,192,238128,1,0,0:0:0:0:
256,192,238128,1,0,0:0:0:0:
109,192,238205,1,0,0:0:0:0:
36,192,238205,1,0,0:0:0:0:
182,192,238205,1,0,0:0:0:0:
402,192,238282,1,0,0:0:0:0:
475,192,238359,1,0,0:0:0:0:
329,192,238359,1,0,0:0:0:0:
256,192,238436,1,0,0:0:0:0:
475,192,238513,1,0,0:0:0:0:
36,192,238513,1,0,0:0:0:0:
109,192,238513,1,0,0:0:0:0:
182,192,238513,1,0,0:0:0:0:
329,192,238590,1,0,0:0:0:0:
402,192,238667,1,0,0:0:0:0:
475,192,238744,1,0,0:0:0:0:
182,192,238744,1,0,0:0:0:0:
36,192,238821,1,0,0:0:0:0:
109,192,238821,1,0,0:0:0:0:
256,192,238821,1,0,0:0:0:0:
402,192,238898,1,0,0:0:0:0:
475,192,238975,1,0,0:0:0:0:
329,192,238975,1,0,0:0:0:0:
182,192,239051,1,0,0:0:0:0:
475,192,239128,1,0,0:0:0:0:
109,192,239128,1,0,0:0:0:0:
36,192,239128,1,0,0:0:0:0:
402,192,239128,1,0,0:0:0:0:
256,192,239205,1,0,0:0:0:0:
182,192,239282,1,0,0:0:0:0:
475,192,239359,1,0,0:0:0:0:
329,192,239359,1,0,0:0:0:0:
36,192,239436,1,0,0:0:0:0:
109,192,239436,1,0,0:0:0:0:
402,192,239436,1,0,0:0:0:0:
182,192,239513,1,0,0:0:0:0:
475,192,239590,1,0,0:0:0:0:
256,192,239590,1,0,0:0:0:0:
329,192,239667,1,0,0:0:0:0:
475,192,239744,1,0,0:0:0:0:
36,192,239744,1,0,0:0:0:0:
109,192,239744,1,0,0:0:0:0:
402,192,239744,1,0,0:0:0:0:
256,192,239821,1,0,0:0:0:0:
329,192,239898,1,0,0:0:0:0:
475,192,239975,1,0,0:0:0:0:
182,192,239975,1,0,0:0:0:0:
109,192,240051,1,0,0:0:0:0:
36,192,240051,1,0,0:0:0:0:
256,192,240051,1,0,0:0:0:0:
402,192,240128,1,0,0:0:0:0:
475,192,240205,1,0,0:0:0:0:
182,192,240205,1,0,0:0:0:0:
329,192,240282,1,0,0:0:0:0:
475,192,240359,1,0,0:0:0:0:
36,192,240359,1,0,0:0:0:0:
109,192,240359,1,0,0:0:0:0:
256,192,240359,1,0,0:0:0:0:
182,192,240436,1,0,0:0:0:0:
329,192,240513,1,0,0:0:0:0:
475,192,240590,1,0,0:0:0:0:
256,192,240590,1,0,0:0:0:0:
109,192,240667,1,0,0:0:0:0:
36,192,240667,1,0,0:0:0:0:
402,192,240667,1,0,0:0:0:0:
329,192,240744,1,0,0:0:0:0:
475,192,240821,1,0,0:0:0:0:
182,192,240821,1,0,0:0:0:0:
402,192,240898,1,0,0:0:0:0:
475,192,240975,1,0,0:0:0:0:
36,192,240975,1,0,0:0:0:0:
109,192,240975,1,0,0:0:0:0:
256,192,240975,1,0,0:0:0:0:
329,192,241051,1,0,0:0:0:0:
402,192,241128,1,0,0:0:0:0:
475,192,241205,1,0,0:0:0:0:
256,192,241205,1,0,0:0:0:0:
109,192,241282,1,0,0:0:0:0:
36,192,241282,1,0,0:0:0:0:
329,192,241282,1,0,0:0:0:0:
182,192,241359,1,0,0:0:0:0:
475,192,241436,1,0,0:0:0:0:
256,192,241436,1,0,0:0:0:0:
182,192,241513,1,0,0:0:0:0:
475,192,241590,1,0,0:0:0:0:
36,192,241590,1,0,0:0:0:0:
109,192,241590,1,0,0:0:0:0:
329,192,241590,1,0,0:0:0:0:
256,192,241667,1,0,0:0:0:0:
182,192,241744,1,0,0:0:0:0:
475,192,241821,1,0,0:0:0:0:
402,192,241821,1,0,0:0:0:0:
109,192,241898,1,0,0:0:0:0:
36,192,241898,1,0,0:0:0:0:
329,192,241898,1,0,0:0:0:0:
256,192,241975,1,0,0:0:0:0:
475,192,242051,1,0,0:0:0:0:
329,192,242051,1,0,0:0:0:0:
402,192,242128,1,0,0:0:0:0:
182,192,242205,5,0,0:0:0:0:
36,192,242205,1,0,0:0:0:0:
109,192,242205,1,0,0:0:0:0:
475,192,242205,1,0,0:0:0:0:
256,192,242205,1,0,0:0:0:0:
402,192,242282,1,0,0:0:0:0:
329,192,242359,1,0,0:0:0:0:
36,192,242436,1,0,0:0:0:0:
256,192,242436,1,0,0:0:0:0:
182,192,242513,1,0,0:0:0:0:
402,192,242513,1,0,0:0:0:0:
475,192,242513,1,0,0:0:0:0:
329,192,242590,1,0,0:0:0:0:
36,192,242667,1,0,0:0:0:0:
256,192,242667,1,0,0:0:0:0:
182,192,242744,1,0,0:0:0:0:
36,192,242821,1,0,0:0:0:0:
402,192,242821,1,0,0:0:0:0:
475,192,242821,1,0,0:0:0:0:
256,192,242821,1,0,0:0:0:0:
109,192,242898,1,0,0:0:0:0:
182,192,242975,1,0,0:0:0:0:
36,192,243051,1,0,0:0:0:0:
256,192,243051,1,0,0:0:0:0:
402,192,243128,1,0,0:0:0:0:
475,192,243128,1,0,0:0:0:0:
329,192,243128,1,0,0:0:0:0:
109,192,243205,1,0,0:0:0:0:
36,192,243282,1,0,0:0:0:0:
182,192,243282,1,0,0:0:0:0:
256,192,243359,1,0,0:0:0:0:
36,192,243436,1,0,0:0:0:0:
475,192,243436,1,0,0:0:0:0:
402,192,243436,1,0,0:0:0:0:
329,192,243436,1,0,0:0:0:0:
182,192,243513,1,0,0:0:0:0:
109,192,243590,1,0,0:0:0:0:
36,192,243667,1,0,0:0:0:0:
329,192,243667,1,0,0:0:0:0:
475,192,243744,1,0,0:0:0:0:
402,192,243744,1,0,0:0:0:0:
256,192,243744,1,0,0:0:0:0:
109,192,243821,1,0,0:0:0:0:
36,192,243898,1,0,0:0:0:0:
182,192,243898,1,0,0:0:0:0:
329,192,243975,1,0,0:0:0:0:
36,192,244051,1,0,0:0:0:0:
402,192,244051,1,0,0:0:0:0:
475,192,244051,1,0,0:0:0:0:
109,192,244051,1,0,0:0:0:0:
256,192,244128,1,0,0:0:0:0:
329,192,244205,1,0,0:0:0:0:
36,192,244282,1,0,0:0:0:0:
182,192,244282,1,0,0:0:0:0:
475,192,244359,1,0,0:0:0:0:
402,192,244359,1,0,0:0:0:0:
109,192,244359,1,0,0:0:0:0:
329,192,244436,1,0,0:0:0:0:
36,192,244513,1,0,0:0:0:0:
256,192,244513,1,0,0:0:0:0:
182,192,244590,1,0,0:0:0:0:
36,192,244667,1,0,0:0:0:0:
475,192,244667,1,0,0:0:0:0:
402,192,244667,1,0,0:0:0:0:
109,192,244667,1,0,0:0:0:0:
256,192,244744,1,0,0:0:0:0:
182,192,244821,1,0,0:0:0:0:
36,192,244898,1,0,0:0:0:0:
329,192,244898,1,0,0:0:0:0:
402,192,244975,1,0,0:0:0:0:
475,192,244975,1,0,0:0:0:0:
256,192,244975,1,0,0:0:0:0:
109,192,245051,1,0,0:0:0:0:
36,192,245128,1,0,0:0:0:0:
329,192,245128,1,0,0:0:0:0:
182,192,245205,1,0,0:0:0:0:
36,192,245282,1,0,0:0:0:0:
475,192,245282,1,0,0:0:0:0:
402,192,245282,1,0,0:0:0:0:
256,192,245282,1,0,0:0:0:0:
329,192,245359,1,0,0:0:0:0:
182,192,245436,1,0,0:0:0:0:
36,192,245513,1,0,0:0:0:0:
256,192,245513,1,0,0:0:0:0:
402,192,245590,1,0,0:0:0:0:
475,192,245590,1,0,0:0:0:0:
109,192,245590,1,0,0:0:0:0:
182,192,245667,1,0,0:0:0:0:
36,192,245744,1,0,0:0:0:0:
329,192,245744,1,0,0:0:0:0:
109,192,245821,1,0,0:0:0:0:
36,192,245898,1,0,0:0:0:0:
475,192,245898,1,0,0:0:0:0:
402,192,245898,1,0,0:0:0:0:
256,192,245898,1,0,0:0:0:0:
182,192,245975,5,0,0:0:0:0:
109,192,246051,1,0,0:0:0:0:
36,192,246128,1,0,0:0:0:0:
256,192,246128,1,0,0:0:0:0:
402,192,246205,1,0,0:0:0:0:
475,192,246205,1,0,0:0:0:0:
182,192,246205,1,0,0:0:0:0:
329,192,246282,1,0,0:0:0:0:
36,192,246359,1,0,0:0:0:0:
256,192,246359,1,0,0:0:0:0:
329,192,246436,1,0,0:0:0:0:
36,192,246513,1,0,0:0:0:0:
475,192,246513,1,0,0:0:0:0:
402,192,246513,1,0,0:0:0:0:
182,192,246513,1,0,0:0:0:0:
256,192,246590,1,0,0:0:0:0:
329,192,246667,1,0,0:0:0:0:
36,192,246744,1,0,0:0:0:0:
109,192,246744,1,0,0:0:0:0:
402,192,246821,1,0,0:0:0:0:
475,192,246821,1,0,0:0:0:0:
182,192,246821,1,0,0:0:0:0:
256,192,246898,1,0,0:0:0:0:
329,192,246975,1,0,0:0:0:0:
402,192,246975,1,0,0:0:0:0:
182,192,247051,5,0,0:0:0:0:
329,192,247128,1,0,0:0:0:0:
402,192,247128,1,0,0:0:0:0:
475,192,247128,1,0,0:0:0:0:
109,192,247128,1,0,0:0:0:0:
256,192,247128,1,0,0:0:0:0:
36,192,247128,1,0,0:0:0:0:
329,192,247282,1,0,0:0:0:0:
475,192,247282,1,0,0:0:0:0:
182,192,247282,1,0,0:0:0:0:
109,192,247282,1,0,0:0:0:0:
36,192,247282,1,0,0:0:0:0:
256,192,247436,1,0,0:0:0:0:
475,192,247436,1,0,0:0:0:0:
182,192,247436,1,0,0:0:0:0:
109,192,247436,1,0,0:0:0:0:
402,192,247436,1,0,0:0:0:0:
329,192,247436,1,0,0:0:0:0:
402,192,247590,1,0,0:0:0:0:
256,192,247590,1,0,0:0:0:0:
109,192,247590,1,0,0:0:0:0:
36,192,247590,1,0,0:0:0:0:
475,192,247590,1,0,0:0:0:0:
329,192,247744,1,0,0:0:0:0:
182,192,247744,1,0,0:0:0:0:
402,192,247744,1,0,0:0:0:0:
109,192,247744,1,0,0:0:0:0:
36,192,247744,1,0,0:0:0:0:
256,192,247744,1,0,0:0:0:0:
182,192,247898,1,0,0:0:0:0:
329,192,247898,1,0,0:0:0:0:
36,192,247898,1,0,0:0:0:0:
402,192,247898,1,0,0:0:0:0:
475,192,247898,1,0,0:0:0:0:
109,192,248051,1,0,0:0:0:0:
256,192,248051,1,0,0:0:0:0:
329,192,248051,1,0,0:0:0:0:
36,192,248051,1,0,0:0:0:0:
475,192,248051,1,0,0:0:0:0:
182,192,248051,1,0,0:0:0:0:
256,192,248205,1,0,0:0:0:0:
109,192,248205,1,0,0:0:0:0:
329,192,248205,1,0,0:0:0:0:
402,192,248205,1,0,0:0:0:0:
475,192,248205,1,0,0:0:0:0:
329,192,248359,1,0,0:0:0:0:
36,192,248359,1,0,0:0:0:0:
182,192,248359,1,0,0:0:0:0:
475,192,248359,1,0,0:0:0:0:
256,192,248359,1,0,0:0:0:0:
402,192,248359,1,0,0:0:0:0:
329,192,248513,1,0,0:0:0:0:
36,192,248513,1,0,0:0:0:0:
402,192,248513,1,0,0:0:0:0:
109,192,248513,1,0,0:0:0:0:
182,192,248513,1,0,0:0:0:0:
256,192,248667,1,0,0:0:0:0:
475,192,248667,1,0,0:0:0:0:
402,192,248667,1,0,0:0:0:0:
36,192,248667,1,0,0:0:0:0:
182,192,248667,1,0,0:0:0:0:
109,192,248667,1,0,0:0:0:0:
256,192,248821,1,0,0:0:0:0:
475,192,248821,1,0,0:0:0:0:
329,192,248821,1,0,0:0:0:0:
109,192,248821,1,0,0:0:0:0:
36,192,248821,1,0,0:0:0:0:
402,192,248975,1,0,0:0:0:0:
182,192,248975,1,0,0:0:0:0:
329,192,248975,1,0,0:0:0:0:
109,192,248975,1,0,0:0:0:0:
475,192,248975,1,0,0:0:0:0:
36,192,248975,1,0,0:0:0:0:
402,192,249128,1,0,0:0:0:0:
182,192,249128,1,0,0:0:0:0:
256,192,249128,1,0,0:0:0:0:
36,192,249128,1,0,0:0:0:0:
475,192,249128,1,0,0:0:0:0:
329,192,249128,1,0,0:0:0:0:
329,192,249282,1,0,0:0:0:0:
109,192,249282,1,0,0:0:0:0:
256,192,249282,1,0,0:0:0:0:
36,192,249282,1,0,0:0:0:0:
402,192,249282,1,0,0:0:0:0:
475,192,249282,1,0,0:0:0:0:
109,192,249436,1,0,0:0:0:0:
256,192,249436,1,0,0:0:0:0:
329,192,249436,1,0,0:0:0:0:
182,192,249436,1,0,0:0:0:0:
402,192,249436,1,0,0:0:0:0:
475,192,249590,1,0,0:0:0:0:
36,192,249590,1,0,0:0:0:0:
402,192,249590,1,0,0:0:0:0:
109,192,249590,1,0,0:0:0:0:
182,192,249590,1,0,0:0:0:0:
329,192,249667,1,0,0:0:0:0:
256,192,249667,1,0,0:0:0:0:
182,192,249744,1,0,0:0:0:0:
109,192,249744,1,0,0:0:0:0:
475,192,249744,1,0,0:0:0:0:
36,192,249744,1,0,0:0:0:0:
256,192,249821,1,0,0:0:0:0:
329,192,249821,1,0,0:0:0:0:
402,192,249898,1,0,0:0:0:0:
475,192,249898,1,0,0:0:0:0:
109,192,249898,1,0,0:0:0:0:
36,192,249898,1,0,0:0:0:0:
182,192,249975,1,0,0:0:0:0:
256,192,249975,1,0,0:0:0:0:
329,192,250051,1,0,0:0:0:0:
402,192,250051,1,0,0:0:0:0:
36,192,250051,1,0,0:0:0:0:
475,192,250051,1,0,0:0:0:0:
256,192,250128,1,0,0:0:0:0:
182,192,250128,1,0,0:0:0:0:
36,192,250205,1,0,0:0:0:0:
109,192,250205,1,0,0:0:0:0:
475,192,250205,1,0,0:0:0:0:
402,192,250205,1,0,0:0:0:0:
329,192,250282,1,0,0:0:0:0:
256,192,250282,1,0,0:0:0:0:
182,192,250359,1,0,0:0:0:0:
109,192,250359,1,0,0:0:0:0:
475,192,250359,1,0,0:0:0:0:
36,192,250359,1,0,0:0:0:0:
256,192,250436,1,0,0:0:0:0:
329,192,250436,1,0,0:0:0:0:
402,192,250513,1,0,0:0:0:0:
475,192,250513,1,0,0:0:0:0:
109,192,250513,1,0,0:0:0:0:
36,192,250513,1,0,0:0:0:0:
182,192,250590,1,0,0:0:0:0:
256,192,250590,1,0,0:0:0:0:
329,192,250667,1,0,0:0:0:0:
402,192,250667,1,0,0:0:0:0:
475,192,250667,1,0,0:0:0:0:
36,192,250667,1,0,0:0:0:0:
182,192,250744,1,0,0:0:0:0:
256,192,250744,1,0,0:0:0:0:
109,192,250821,1,0,0:0:0:0:
36,192,250821,1,0,0:0:0:0:
402,192,250821,1,0,0:0:0:0:
475,192,250821,1,0,0:0:0:0:
329,192,250859,1,0,0:0:0:0:
256,192,250898,1,0,0:0:0:0:
182,192,250936,1,0,0:0:0:0:
109,192,250975,1,0,0:0:0:0:
475,192,250975,1,0,0:0:0:0:
402,192,251013,1,0,0:0:0:0:
329,192,251051,1,0,0:0:0:0:
256,192,251090,1,0,0:0:0:0:
182,192,251128,1,0,0:0:0:0:
36,192,251128,1,0,0:0:0:0:
475,192,251167,1,0,0:0:0:0:
402,192,251205,1,0,0:0:0:0:
329,192,251244,1,0,0:0:0:0:
256,192,251282,1,0,0:0:0:0:
109,192,251282,1,0,0:0:0:0:
36,192,251321,1,0,0:0:0:0:
475,192,251359,1,0,0:0:0:0:
402,192,251398,1,0,0:0:0:0:
329,192,251436,1,0,0:0:0:0:
182,192,251436,1,0,0:0:0:0:
109,192,251475,1,0,0:0:0:0:
36,192,251513,1,0,0:0:0:0:
475,192,251551,1,0,0:0:0:0:
402,192,251590,1,0,0:0:0:0:
256,192,251590,1,0,0:0:0:0:
182,192,251628,1,0,0:0:0:0:
109,192,251667,1,0,0:0:0:0:
36,192,251705,1,0,0:0:0:0:
475,192,251744,1,0,0:0:0:0:
329,192,251744,1,0,0:0:0:0:
256,192,251782,1,0,0:0:0:0:
182,192,251821,1,0,0:0:0:0:
109,192,251859,1,0,0:0:0:0:
36,192,251898,1,0,0:0:0:0:
475,192,251898,1,0,0:0:0:0:
402,192,251936,1,0,0:0:0:0:
329,192,251975,1,0,0:0:0:0:
256,192,252013,1,0,0:0:0:0:
182,192,252051,1,0,0:0:0:0:
109,192,252051,1,0,0:0:0:0:
36,192,252051,1,0,0:0:0:0:
402,192,252051,1,0,0:0:0:0:
475,192,252051,1,0,0:0:0:0:
109,192,252282,1,0,0:0:0:0:
109,192,252513,1,0,0:0:0:0:
402,192,252667,1,0,0:0:0:0:
402,192,252898,1,0,0:0:0:0:
402,192,253128,1,0,0:0:0:0:
36,192,253282,1,0,0:0:0:0:
182,192,253282,1,0,0:0:0:0:
36,192,253513,1,0,0:0:0:0:
182,192,253513,1,0,0:0:0:0:
36,192,253744,1,0,0:0:0:0:
182,192,253744,1,0,0:0:0:0:
475,192,253898,1,0,0:0:0:0:
329,192,253898,1,0,0:0:0:0:
475,192,254128,1,0,0:0:0:0:
329,192,254128,1,0,0:0:0:0:
475,192,254359,1,0,0:0:0:0:
329,192,254359,1,0,0:0:0:0:
256,192,254513,1,0,0:0:0:0:
109,192,254513,1,0,0:0:0:0:
402,192,254513,1,0,0:0:0:0:
256,192,254744,1,0,0:0:0:0:
109,192,254744,1,0,0:0:0:0:
402,192,254744,1,0,0:0:0:0:
256,192,254975,1,0,0:0:0:0:
109,192,254975,1,0,0:0:0:0:
402,192,254975,1,0,0:0:0:0:
329,192,255128,1,0,0:0:0:0:
475,192,255128,1,0,0:0:0:0:
182,192,255128,1,0,0:0:0:0:
36,192,255128,1,0,0:0:0:0:
36,192,255359,1,0,0:0:0:0:
182,192,255359,1,0,0:0:0:0:
329,192,255359,1,0,0:0:0:0:
475,192,255359,1,0,0:0:0:0:
329,192,255590,1,0,0:0:0:0:
475,192,255590,1,0,0:0:0:0:
182,192,255590,1,0,0:0:0:0:
36,192,255590,1,0,0:0:0:0:
109,192,255744,1,0,0:0:0:0:
36,192,255744,1,0,0:0:0:0:
402,192,255744,1,0,0:0:0:0:
475,192,255744,1,0,0:0:0:0:
256,192,255744,1,0,0:0:0:0:
402,192,255898,1,0,0:0:0:0:
475,192,255898,1,0,0:0:0:0:
109,192,255898,1,0,0:0:0:0:
36,192,255898,1,0,0:0:0:0:
182,192,255975,1,0,0:0:0:0:
329,192,255975,1,0,0:0:0:0:
402,192,256051,1,0,0:0:0:0:
475,192,256051,1,0,0:0:0:0:
109,192,256051,1,0,0:0:0:0:
36,192,256051,1,0,0:0:0:0:
256,192,256205,1,0,0:0:0:0:
402,192,256205,1,0,0:0:0:0:
475,192,256205,1,0,0:0:0:0:
109,192,256205,1,0,0:0:0:0:
36,192,256205,1,0,0:0:0:0:
182,192,256359,1,0,0:0:0:0:
36,192,256359,1,0,0:0:0:0:
109,192,256359,1,0,0:0:0:0:
329,192,256359,1,0,0:0:0:0:
402,192,256359,1,0,0:0:0:0:
475,192,256359,1,0,0:0:0:0:
402,192,256513,1,0,0:0:0:0:
475,192,256513,1,0,0:0:0:0:
109,192,256513,1,0,0:0:0:0:
36,192,256513,1,0,0:0:0:0:
182,192,256590,1,0,0:0:0:0:
256,192,256590,1,0,0:0:0:0:
329,192,256590,1,0,0:0:0:0:
475,192,256744,1,0,0:0:0:0:
36,192,256744,1,0,0:0:0:0:
182,192,256744,1,0,0:0:0:0:
329,192,256744,1,0,0:0:0:0:
109,192,256821,1,0,0:0:0:0:
256,192,256821,1,0,0:0:0:0:
402,192,256821,1,0,0:0:0:0:
329,192,256898,1,0,0:0:0:0:
182,192,256898,1,0,0:0:0:0:
36,192,256975,1,0,0:0:0:0:
109,192,256975,1,0,0:0:0:0:
256,192,256975,1,0,0:0:0:0:
402,192,256975,1,0,0:0:0:0:
475,192,256975,1,0,0:0:0:0:
329,192,257051,1,0,0:0:0:0:
256,192,257128,1,0,0:0:0:0:
109,192,257128,1,0,0:0:0:0:
36,192,257128,1,0,0:0:0:0:
182,192,257205,1,0,0:0:0:0:
329,192,257205,1,0,0:0:0:0:
402,192,257282,1,0,0:0:0:0:
475,192,257282,1,0,0:0:0:0:
256,192,257282,1,0,0:0:0:0:
109,192,257282,1,0,0:0:0:0:
36,192,257282,1,0,0:0:0:0:
182,192,257359,1,0,0:0:0:0:
256,192,257436,1,0,0:0:0:0:
475,192,257436,1,0,0:0:0:0:
36,192,257436,1,0,0:0:0:0:
109,192,257513,1,0,0:0:0:0:
182,192,257590,1,0,0:0:0:0:
329,192,257590,1,0,0:0:0:0:
402,192,257590,1,0,0:0:0:0:
475,192,257590,1,0,0:0:0:0:
109,192,257667,1,0,0:0:0:0:
36,192,257744,1,0,0:0:0:0:
256,192,257744,1,0,0:0:0:0:
402,192,257744,1,0,0:0:0:0:
182,192,257821,1,0,0:0:0:0:
329,192,257821,1,0,0:0:0:0:
256,192,257898,1,0,0:0:0:0:
36,192,257898,1,0,0:0:0:0:
109,192,257898,1,0,0:0:0:0:
402,192,257898,1,0,0:0:0:0:
475,192,257898,1,0,0:0:0:0:
329,192,257975,1,0,0:0:0:0:
182,192,258051,1,0,0:0:0:0:
36,192,258051,1,0,0:0:0:0:
475,192,258051,1,0,0:0:0:0:
256,192,258128,1,0,0:0:0:0:
475,192,258205,1,0,0:0:0:0:
109,192,258205,1,0,0:0:0:0:
182,192,258205,1,0,0:0:0:0:
402,192,258205,1,0,0:0:0:0:
329,192,258282,1,0,0:0:0:0:
402,192,258359,1,0,0:0:0:0:
256,192,258359,1,0,0:0:0:0:
109,192,258359,1,0,0:0:0:0:
329,192,258436,1,0,0:0:0:0:
182,192,258436,1,0,0:0:0:0:
402,192,258513,1,0,0:0:0:0:
256,192,258513,1,0,0:0:0:0:
109,192,258513,1,0,0:0:0:0:
36,192,258513,1,0,0:0:0:0:
475,192,258513,1,0,0:0:0:0:
182,192,258590,1,0,0:0:0:0:
256,192,258667,1,0,0:0:0:0:
475,192,258667,1,0,0:0:0:0:
36,192,258667,1,0,0:0:0:0:
329,192,258744,1,0,0:0:0:0:
402,192,258821,1,0,0:0:0:0:
109,192,258821,1,0,0:0:0:0:
36,192,258821,1,0,0:0:0:0:
475,192,258821,1,0,0:0:0:0:
182,192,258898,1,0,0:0:0:0:
256,192,258975,1,0,0:0:0:0:
402,192,258975,1,0,0:0:0:0:
109,192,258975,1,0,0:0:0:0:
329,192,259051,1,0,0:0:0:0:
182,192,259051,1,0,0:0:0:0:
256,192,259128,1,0,0:0:0:0:
109,192,259128,1,0,0:0:0:0:
36,192,259128,1,0,0:0:0:0:
402,192,259128,1,0,0:0:0:0:
475,192,259128,1,0,0:0:0:0:
329,192,259205,1,0,0:0:0:0:
36,192,259282,1,0,0:0:0:0:
109,192,259282,1,0,0:0:0:0:
256,192,259282,1,0,0:0:0:0:
475,192,259282,1,0,0:0:0:0:
182,192,259359,1,0,0:0:0:0:
402,192,259436,1,0,0:0:0:0:
329,192,259436,1,0,0:0:0:0:
475,192,259436,1,0,0:0:0:0:
109,192,259436,1,0,0:0:0:0:
36,192,259436,1,0,0:0:0:0:
256,192,259436,1,0,0:0:0:0:
182,192,259513,1,0,0:0:0:0:
402,192,259590,1,0,0:0:0:0:
329,192,259590,1,0,0:0:0:0:
475,192,259590,1,0,0:0:0:0:
36,192,259667,1,0,0:0:0:0:
109,192,259667,1,0,0:0:0:0:
256,192,259744,1,0,0:0:0:0:
402,192,259744,1,0,0:0:0:0:
475,192,259744,1,0,0:0:0:0:
182,192,259744,1,0,0:0:0:0:
329,192,259744,1,0,0:0:0:0:
109,192,259821,1,0,0:0:0:0:
36,192,259898,1,0,0:0:0:0:
402,192,259898,1,0,0:0:0:0:
256,192,259898,1,0,0:0:0:0:
475,192,259975,1,0,0:0:0:0:
182,192,260051,1,0,0:0:0:0:
36,192,260051,1,0,0:0:0:0:
109,192,260051,1,0,0:0:0:0:
256,192,260051,1,0,0:0:0:0:
329,192,260128,1,0,0:0:0:0:
475,192,260205,1,0,0:0:0:0:
109,192,260205,1,0,0:0:0:0:
402,192,260205,1,0,0:0:0:0:
182,192,260282,1,0,0:0:0:0:
329,192,260282,1,0,0:0:0:0:
256,192,260359,1,0,0:0:0:0:
475,192,260359,1,0,0:0:0:0:
109,192,260359,1,0,0:0:0:0:
36,192,260359,1,0,0:0:0:0:
402,192,260359,1,0,0:0:0:0:
329,192,260436,1,0,0:0:0:0:
36,192,260513,1,0,0:0:0:0:
182,192,260513,1,0,0:0:0:0:
256,192,260513,1,0,0:0:0:0:
109,192,260590,1,0,0:0:0:0:
182,192,260667,1,0,0:0:0:0:
402,192,260667,1,0,0:0:0:0:
475,192,260667,1,0,0:0:0:0:
329,192,260667,1,0,0:0:0:0:
109,192,260744,1,0,0:0:0:0:
36,192,260821,1,0,0:0:0:0:
256,192,260821,1,0,0:0:0:0:
475,192,260821,1,0,0:0:0:0:
182,192,260898,1,0,0:0:0:0:
402,192,260898,1,0,0:0:0:0:
329,192,260975,1,0,0:0:0:0:
109,192,260975,1,0,0:0:0:0:
36,192,260975,1,0,0:0:0:0:
475,192,260975,1,0,0:0:0:0:
256,192,260975,1,0,0:0:0:0:
402,192,261051,1,0,0:0:0:0:
329,192,261128,1,0,0:0:0:0:
182,192,261128,1,0,0:0:0:0:
256,192,261128,1,0,0:0:0:0:
36,192,261205,1,0,0:0:0:0:
109,192,261282,1,0,0:0:0:0:
182,192,261282,1,0,0:0:0:0:
256,192,261282,1,0,0:0:0:0:
329,192,261282,1,0,0:0:0:0:
402,192,261282,1,0,0:0:0:0:
475,192,261282,1,0,0:0:0:0:
36,192,261359,1,0,0:0:0:0:
475,192,261436,1,0,0:0:0:0:
329,192,261436,1,0,0:0:0:0:
109,192,261436,1,0,0:0:0:0:
402,192,261513,1,0,0:0:0:0:
182,192,261513,1,0,0:0:0:0:
109,192,261590,1,0,0:0:0:0:
475,192,261590,1,0,0:0:0:0:
256,192,261590,1,0,0:0:0:0:
36,192,261590,1,0,0:0:0:0:
402,192,261667,1,0,0:0:0:0:
182,192,261744,1,0,0:0:0:0:
109,192,261744,1,0,0:0:0:0:
256,192,261744,1,0,0:0:0:0:
329,192,261744,1,0,0:0:0:0:
475,192,261821,1,0,0:0:0:0:
109,192,261898,1,0,0:0:0:0:
182,192,261898,1,0,0:0:0:0:
256,192,261898,1,0,0:0:0:0:
36,192,261898,1,0,0:0:0:0:
329,192,261898,1,0,0:0:0:0:
402,192,261898,1,0,0:0:0:0:
475,192,261975,1,0,0:0:0:0:
182,192,262051,1,0,0:0:0:0:
36,192,262051,1,0,0:0:0:0:
402,192,262051,1,0,0:0:0:0:
109,192,262128,1,0,0:0:0:0:
256,192,262128,1,0,0:0:0:0:
182,192,262205,1,0,0:0:0:0:
329,192,262205,1,0,0:0:0:0:
402,192,262205,1,0,0:0:0:0:
475,192,262205,1,0,0:0:0:0:
36,192,262205,1,0,0:0:0:0:
109,192,262282,1,0,0:0:0:0:
402,192,262359,1,0,0:0:0:0:
475,192,262359,1,0,0:0:0:0:
182,192,262359,1,0,0:0:0:0:
256,192,262436,1,0,0:0:0:0:
402,192,262513,1,0,0:0:0:0:
329,192,262513,1,0,0:0:0:0:
36,192,262513,1,0,0:0:0:0:
109,192,262513,1,0,0:0:0:0:
182,192,262513,1,0,0:0:0:0:
256,192,262590,1,0,0:0:0:0:
329,192,262667,1,0,0:0:0:0:
475,192,262667,1,0,0:0:0:0:
109,192,262667,1,0,0:0:0:0:
402,192,262744,1,0,0:0:0:0:
256,192,262744,1,0,0:0:0:0:
182,192,262821,1,0,0:0:0:0:
329,192,262821,1,0,0:0:0:0:
109,192,262821,1,0,0:0:0:0:
36,192,262821,1,0,0:0:0:0:
475,192,262821,1,0,0:0:0:0:
402,192,262898,1,0,0:0:0:0:
329,192,262975,1,0,0:0:0:0:
109,192,262975,1,0,0:0:0:0:
36,192,262975,1,0,0:0:0:0:
256,192,263051,1,0,0:0:0:0:
182,192,263128,1,0,0:0:0:0:
36,192,263128,1,0,0:0:0:0:
402,192,263128,1,0,0:0:0:0:
475,192,263128,1,0,0:0:0:0:
329,192,263205,1,0,0:0:0:0:
256,192,263282,1,0,0:0:0:0:
109,192,263282,1,0,0:0:0:0:
475,192,263282,1,0,0:0:0:0:
182,192,263359,1,0,0:0:0:0:
36,192,263359,1,0,0:0:0:0:
109,192,263436,1,0,0:0:0:0:
329,192,263436,1,0,0:0:0:0:
402,192,263436,1,0,0:0:0:0:
475,192,263436,1,0,0:0:0:0:
256,192,263436,1,0,0:0:0:0:
36,192,263513,1,0,0:0:0:0:
182,192,263590,1,0,0:0:0:0:
402,192,263590,1,0,0:0:0:0:
475,192,263590,1,0,0:0:0:0:
256,192,263667,1,0,0:0:0:0:
329,192,263744,1,0,0:0:0:0:
475,192,263744,1,0,0:0:0:0:
109,192,263744,1,0,0:0:0:0:
36,192,263744,1,0,0:0:0:0:
182,192,263821,1,0,0:0:0:0:
256,192,263898,1,0,0:0:0:0:
402,192,263898,1,0,0:0:0:0:
36,192,263898,1,0,0:0:0:0:
329,192,263975,1,0,0:0:0:0:
475,192,263975,1,0,0:0:0:0:
402,192,264051,1,0,0:0:0:0:
256,192,264051,1,0,0:0:0:0:
182,192,264051,1,0,0:0:0:0:
109,192,264051,1,0,0:0:0:0:
36,192,264051,1,0,0:0:0:0:
475,192,264128,1,0,0:0:0:0:
329,192,264205,1,0,0:0:0:0:
109,192,264205,1,0,0:0:0:0:
36,192,264205,1,0,0:0:0:0:
256,192,264282,1,0,0:0:0:0:
182,192,264359,1,0,0:0:0:0:
36,192,264359,1,0,0:0:0:0:
402,192,264359,1,0,0:0:0:0:
475,192,264359,1,0,0:0:0:0:
256,192,264436,1,0,0:0:0:0:
402,192,264513,1,0,0:0:0:0:
109,192,264513,1,0,0:0:0:0:
475,192,264513,1,0,0:0:0:0:
182,192,264590,1,0,0:0:0:0:
329,192,264590,1,0,0:0:0:0:
256,192,264667,1,0,0:0:0:0:
402,192,264667,1,0,0:0:0:0:
475,192,264667,1,0,0:0:0:0:
109,192,264667,1,0,0:0:0:0:
36,192,264667,1,0,0:0:0:0:
329,192,264744,1,0,0:0:0:0:
256,192,264821,1,0,0:0:0:0:
36,192,264821,1,0,0:0:0:0:
475,192,264821,1,0,0:0:0:0:
182,192,264898,1,0,0:0:0:0:
36,192,264975,1,0,0:0:0:0:
109,192,264975,1,0,0:0:0:0:
402,192,264975,1,0,0:0:0:0:
475,192,264975,1,0,0:0:0:0:
256,192,265051,1,0,0:0:0:0:
329,192,265128,1,0,0:0:0:0:
182,192,265128,1,0,0:0:0:0:
36,192,265128,1,0,0:0:0:0:
402,192,265205,1,0,0:0:0:0:
109,192,265205,1,0,0:0:0:0:
256,192,265282,1,0,0:0:0:0:
182,192,265282,1,0,0:0:0:0:
36,192,265282,1,0,0:0:0:0:
329,192,265282,1,0,0:0:0:0:
475,192,265282,1,0,0:0:0:0:
402,192,265359,1,0,0:0:0:0:
475,192,265436,1,0,0:0:0:0:
256,192,265436,1,0,0:0:0:0:
36,192,265436,1,0,0:0:0:0:
109,192,265513,1,0,0:0:0:0:
182,192,265590,1,0,0:0:0:0:
329,192,265590,1,0,0:0:0:0:
402,192,265590,1,0,0:0:0:0:
475,192,265590,1,0,0:0:0:0:
256,192,265590,1,0,0:0:0:0:
109,192,265667,1,0,0:0:0:0:
36,192,265744,1,0,0:0:0:0:
402,192,265744,1,0,0:0:0:0:
182,192,265744,1,0,0:0:0:0:
329,192,265821,1,0,0:0:0:0:
475,192,265821,1,0,0:0:0:0:
402,192,265898,1,0,0:0:0:0:
256,192,265898,1,0,0:0:0:0:
182,192,265898,1,0,0:0:0:0:
109,192,265898,1,0,0:0:0:0:
36,192,265898,1,0,0:0:0:0:
329,192,265975,1,0,0:0:0:0:
256,192,266051,1,0,0:0:0:0:
109,192,266051,1,0,0:0:0:0:
475,192,266051,1,0,0:0:0:0:
402,192,266128,1,0,0:0:0:0:
256,192,266205,1,0,0:0:0:0:
182,192,266205,1,0,0:0:0:0:
109,192,266205,1,0,0:0:0:0:
36,192,266205,1,0,0:0:0:0:
329,192,266282,1,0,0:0:0:0:
402,192,266282,1,0,0:0:0:0:
475,192,266282,1,0,0:0:0:0:
256,192,266359,1,0,0:0:0:0:
36,192,266436,1,0,0:0:0:0:
182,192,266436,1,0,0:0:0:0:
109,192,266436,1,0,0:0:0:0:
256,192,266513,1,0,0:0:0:0:
329,192,266513,1,0,0:0:0:0:
402,192,266513,1,0,0:0:0:0:
475,192,266513,1,0,0:0:0:0:
182,192,266590,1,0,0:0:0:0:
109,192,266590,1,0,0:0:0:0:
36,192,266590,1,0,0:0:0:0:
402,192,266667,1,0,0:0:0:0:
475,192,266667,1,0,0:0:0:0:
329,192,266667,1,0,0:0:0:0:
256,192,266744,1,0,0:0:0:0:
329,192,266821,1,0,0:0:0:0:
402,192,266821,1,0,0:0:0:0:
475,192,266821,1,0,0:0:0:0:
36,192,266821,1,0,0:0:0:0:
109,192,266821,1,0,0:0:0:0:
182,192,266821,1,0,0:0:0:0:
256,192,266898,1,0,0:0:0:0:
182,192,266975,1,0,0:0:0:0:
36,192,266975,1,0,0:0:0:0:
402,192,266975,1,0,0:0:0:0:
256,192,267051,1,0,0:0:0:0:
109,192,267051,1,0,0:0:0:0:
36,192,267128,1,0,0:0:0:0:
475,192,267128,1,0,0:0:0:0:
329,192,267128,1,0,0:0:0:0:
402,192,267128,1,0,0:0:0:0:
182,192,267128,1,0,0:0:0:0:
256,192,267205,1,0,0:0:0:0:
329,192,267282,1,0,0:0:0:0:
475,192,267282,1,0,0:0:0:0:
109,192,267282,1,0,0:0:0:0:
182,192,267359,1,0,0:0:0:0:
256,192,267436,1,0,0:0:0:0:
402,192,267436,1,0,0:0:0:0:
109,192,267436,1,0,0:0:0:0:
36,192,267436,1,0,0:0:0:0:
182,192,267513,1,0,0:0:0:0:
329,192,267590,1,0,0:0:0:0:
475,192,267590,1,0,0:0:0:0:
109,192,267590,1,0,0:0:0:0:
256,192,267667,1,0,0:0:0:0:
402,192,267667,1,0,0:0:0:0:
182,192,267744,1,0,0:0:0:0:
109,192,267744,1,0,0:0:0:0:
36,192,267744,1,0,0:0:0:0:
475,192,267744,1,0,0:0:0:0:
329,192,267744,1,0,0:0:0:0:
256,192,267821,1,0,0:0:0:0:
402,192,267898,1,0,0:0:0:0:
182,192,267898,1,0,0:0:0:0:
36,192,267898,1,0,0:0:0:0:
329,192,267975,1,0,0:0:0:0:
256,192,268051,1,0,0:0:0:0:
475,192,268051,1,0,0:0:0:0:
109,192,268051,1,0,0:0:0:0:
36,192,268051,1,0,0:0:0:0:
329,192,268128,1,0,0:0:0:0:
109,192,268205,1,0,0:0:0:0:
256,192,268205,1,0,0:0:0:0:
402,192,268205,1,0,0:0:0:0:
475,192,268282,1,0,0:0:0:0:
36,192,268282,1,0,0:0:0:0:
402,192,268359,1,0,0:0:0:0:
329,192,268359,1,0,0:0:0:0:
256,192,268359,1,0,0:0:0:0:
182,192,268359,1,0,0:0:0:0:
109,192,268359,1,0,0:0:0:0:
36,192,268436,1,0,0:0:0:0:
182,192,268513,1,0,0:0:0:0:
256,192,268513,1,0,0:0:0:0:
329,192,268513,1,0,0:0:0:0:
402,192,268590,1,0,0:0:0:0:
182,192,268667,1,0,0:0:0:0:
36,192,268667,1,0,0:0:0:0:
109,192,268667,1,0,0:0:0:0:
475,192,268667,1,0,0:0:0:0:
329,192,268667,1,0,0:0:0:0:
256,192,268667,1,0,0:0:0:0:
402,192,268744,1,0,0:0:0:0:
329,192,268821,1,0,0:0:0:0:
182,192,268821,1,0,0:0:0:0:
36,192,268821,1,0,0:0:0:0:
256,192,268898,1,0,0:0:0:0:
109,192,268898,1,0,0:0:0:0:
182,192,268975,1,0,0:0:0:0:
36,192,268975,1,0,0:0:0:0:
329,192,268975,1,0,0:0:0:0:
475,192,268975,1,0,0:0:0:0:
402,192,268975,1,0,0:0:0:0:
256,192,269051,1,0,0:0:0:0:
182,192,269128,1,0,0:0:0:0:
402,192,269128,1,0,0:0:0:0:
475,192,269128,1,0,0:0:0:0:
109,192,269205,1,0,0:0:0:0:
182,192,269282,1,0,0:0:0:0:
256,192,269282,1,0,0:0:0:0:
329,192,269282,1,0,0:0:0:0:
475,192,269282,1,0,0:0:0:0:
402,192,269282,1,0,0:0:0:0:
36,192,269282,1,0,0:0:0:0:
109,192,269359,1,0,0:0:0:0:
182,192,269436,1,0,0:0:0:0:
329,192,269436,1,0,0:0:0:0:
475,192,269436,1,0,0:0:0:0:
402,192,269513,1,0,0:0:0:0:
256,192,269513,1,0,0:0:0:0:
329,192,269590,1,0,0:0:0:0:
475,192,269590,1,0,0:0:0:0:
36,192,269590,1,0,0:0:0:0:
109,192,269590,1,0,0:0:0:0:
182,192,269590,1,0,0:0:0:0:
256,192,269667,1,0,0:0:0:0:
329,192,269744,1,0,0:0:0:0:
36,192,269744,1,0,0:0:0:0:
402,192,269744,1,0,0:0:0:0:
109,192,269821,1,0,0:0:0:0:
182,192,269898,1,0,0:0:0:0:
402,192,269898,1,0,0:0:0:0:
475,192,269898,1,0,0:0:0:0:
256,192,269898,1,0,0:0:0:0:
329,192,269975,1,0,0:0:0:0:
109,192,270051,1,0,0:0:0:0:
256,192,270051,1,0,0:0:0:0:
475,192,270051,1,0,0:0:0:0:
36,192,270128,1,0,0:0:0:0:
182,192,270128,1,0,0:0:0:0:
109,192,270205,1,0,0:0:0:0:
256,192,270205,1,0,0:0:0:0:
329,192,270205,1,0,0:0:0:0:
402,192,270205,1,0,0:0:0:0:
475,192,270205,1,0,0:0:0:0:
182,192,270282,1,0,0:0:0:0:
36,192,270359,1,0,0:0:0:0:
475,192,270359,1,0,0:0:0:0:
329,192,270359,1,0,0:0:0:0:
402,192,270436,1,0,0:0:0:0:
109,192,270513,1,0,0:0:0:0:
36,192,270513,1,0,0:0:0:0:
256,192,270513,1,0,0:0:0:0:
329,192,270513,1,0,0:0:0:0:
182,192,270590,1,0,0:0:0:0:
256,192,270667,1,0,0:0:0:0:
402,192,270667,1,0,0:0:0:0:
36,192,270667,1,0,0:0:0:0:
329,192,270744,1,0,0:0:0:0:
475,192,270744,1,0,0:0:0:0:
402,192,270821,1,0,0:0:0:0:
256,192,270821,1,0,0:0:0:0:
182,192,270821,1,0,0:0:0:0:
109,192,270821,1,0,0:0:0:0:
36,192,270821,1,0,0:0:0:0:
329,192,270898,1,0,0:0:0:0:
256,192,270975,1,0,0:0:0:0:
475,192,270975,1,0,0:0:0:0:
109,192,270975,1,0,0:0:0:0:
182,192,271051,1,0,0:0:0:0:
329,192,271128,1,0,0:0:0:0:
36,192,271128,1,0,0:0:0:0:
475,192,271128,1,0,0:0:0:0:
109,192,271128,1,0,0:0:0:0:
182,192,271205,1,0,0:0:0:0:
402,192,271282,1,0,0:0:0:0:
109,192,271282,1,0,0:0:0:0:
256,192,271282,1,0,0:0:0:0:
182,192,271359,1,0,0:0:0:0:
329,192,271359,1,0,0:0:0:0:
402,192,271436,1,0,0:0:0:0:
475,192,271436,1,0,0:0:0:0:
256,192,271436,1,0,0:0:0:0:
109,192,271436,1,0,0:0:0:0:
36,192,271436,1,0,0:0:0:0:
182,192,271513,1,0,0:0:0:0:
402,192,271590,1,0,0:0:0:0:
475,192,271590,1,0,0:0:0:0:
36,192,271590,1,0,0:0:0:0:
329,192,271590,1,0,0:0:0:0:
256,192,271667,1,0,0:0:0:0:
402,192,271744,1,0,0:0:0:0:
475,192,271744,1,0,0:0:0:0:
329,192,271744,1,0,0:0:0:0:
182,192,271744,1,0,0:0:0:0:
36,192,271744,1,0,0:0:0:0:
109,192,271744,1,0,0:0:0:0:
256,192,271821,1,0,0:0:0:0:
329,192,271898,1,0,0:0:0:0:
36,192,271898,1,0,0:0:0:0:
109,192,271898,1,0,0:0:0:0:
182,192,271975,1,0,0:0:0:0:
402,192,271975,1,0,0:0:0:0:
256,192,272051,1,0,0:0:0:0:
475,192,272051,1,0,0:0:0:0:
109,192,272051,1,0,0:0:0:0:
36,192,272051,1,0,0:0:0:0:
329,192,272051,1,0,0:0:0:0:
182,192,272128,1,0,0:0:0:0:
256,192,272205,1,0,0:0:0:0:
475,192,272205,1,0,0:0:0:0:
402,192,272205,1,0,0:0:0:0:
182,192,272282,1,0,0:0:0:0:
329,192,272359,1,0,0:0:0:0:
109,192,272359,1,0,0:0:0:0:
402,192,272359,1,0,0:0:0:0:
36,192,272359,1,0,0:0:0:0:
256,192,272436,1,0,0:0:0:0:
402,192,272513,1,0,0:0:0:0:
182,192,272513,1,0,0:0:0:0:
475,192,272513,1,0,0:0:0:0:
329,192,272590,1,0,0:0:0:0:
109,192,272590,1,0,0:0:0:0:
256,192,272667,1,0,0:0:0:0:
36,192,272667,1,0,0:0:0:0:
402,192,272667,1,0,0:0:0:0:
475,192,272667,1,0,0:0:0:0:
182,192,272667,1,0,0:0:0:0:
329,192,272744,1,0,0:0:0:0:
109,192,272821,1,0,0:0:0:0:
36,192,272821,1,0,0:0:0:0:
182,192,272821,1,0,0:0:0:0:
329,192,272898,1,0,0:0:0:0:
402,192,272975,1,0,0:0:0:0:
475,192,272975,1,0,0:0:0:0:
109,192,272975,1,0,0:0:0:0:
256,192,272975,1,0,0:0:0:0:
182,192,273051,1,0,0:0:0:0:
475,192,273128,1,0,0:0:0:0:
36,192,273128,1,0,0:0:0:0:
256,192,273128,1,0,0:0:0:0:
402,192,273205,1,0,0:0:0:0:
109,192,273205,1,0,0:0:0:0:
329,192,273282,1,0,0:0:0:0:
182,192,273282,1,0,0:0:0:0:
256,192,273282,1,0,0:0:0:0:
36,192,273282,1,0,0:0:0:0:
475,192,273282,1,0,0:0:0:0:
402,192,273359,1,0,0:0:0:0:
475,192,273436,1,0,0:0:0:0:
109,192,273436,1,0,0:0:0:0:
329,192,273436,1,0,0:0:0:0:
182,192,273513,1,0,0:0:0:0:
256,192,273590,1,0,0:0:0:0:
36,192,273590,1,0,0:0:0:0:
402,192,273590,1,0,0:0:0:0:
109,192,273590,1,0,0:0:0:0:
475,192,273667,1,0,0:0:0:0:
329,192,273744,1,0,0:0:0:0:
182,192,273744,1,0,0:0:0:0:
256,192,273744,1,0,0:0:0:0:
109,192,273821,1,0,0:0:0:0:
402,192,273821,1,0,0:0:0:0:
36,192,273898,1,0,0:0:0:0:
475,192,273898,1,0,0:0:0:0:
329,192,273898,1,0,0:0:0:0:
256,192,273898,1,0,0:0:0:0:
182,192,273898,1,0,0:0:0:0:
109,192,273975,1,0,0:0:0:0:
329,192,274051,1,0,0:0:0:0:
36,192,274051,1,0,0:0:0:0:
402,192,274051,1,0,0:0:0:0:
256,192,274128,1,0,0:0:0:0:
109,192,274205,1,0,0:0:0:0:
402,192,274205,1,0,0:0:0:0:
475,192,274205,1,0,0:0:0:0:
182,192,274205,1,0,0:0:0:0:
329,192,274282,1,0,0:0:0:0:
256,192,274359,1,0,0:0:0:0:
36,192,274359,1,0,0:0:0:0:
475,192,274359,1,0,0:0:0:0:
329,192,274436,1,0,0:0:0:0:
109,192,274436,1,0,0:0:0:0:
402,192,274513,1,0,0:0:0:0:
182,192,274513,1,0,0:0:0:0:
475,192,274513,1,0,0:0:0:0:
256,192,274513,1,0,0:0:0:0:
36,192,274513,1,0,0:0:0:0:
109,192,274590,1,0,0:0:0:0:
182,192,274667,1,0,0:0:0:0:
329,192,274667,1,0,0:0:0:0:
402,192,274667,1,0,0:0:0:0:
256,192,274744,1,0,0:0:0:0:
36,192,274821,1,0,0:0:0:0:
109,192,274821,1,0,0:0:0:0:
329,192,274821,1,0,0:0:0:0:
475,192,274821,1,0,0:0:0:0:
182,192,274898,1,0,0:0:0:0:
256,192,274975,1,0,0:0:0:0:
475,192,274975,1,0,0:0:0:0:
36,192,274975,1,0,0:0:0:0:
402,192,275051,1,0,0:0:0:0:
182,192,275051,1,0,0:0:0:0:
109,192,275128,1,0,0:0:0:0:
329,192,275128,1,0,0:0:0:0:
475,192,275128,1,0,0:0:0:0:
256,192,275128,1,0,0:0:0:0:
36,192,275128,1,0,0:0:0:0:
402,192,275205,1,0,0:0:0:0:
329,192,275282,1,0,0:0:0:0:
182,192,275282,1,0,0:0:0:0:
109,192,275282,1,0,0:0:0:0:
256,192,275359,1,0,0:0:0:0:
402,192,275436,1,0,0:0:0:0:
475,192,275436,1,0,0:0:0:0:
109,192,275436,1,0,0:0:0:0:
36,192,275436,1,0,0:0:0:0:
182,192,275436,1,0,0:0:0:0:
329,192,275513,1,0,0:0:0:0:
256,192,275590,1,0,0:0:0:0:
36,192,275590,1,0,0:0:0:0:
109,192,275590,1,0,0:0:0:0:
182,192,275667,1,0,0:0:0:0:
402,192,275667,1,0,0:0:0:0:
475,192,275667,1,0,0:0:0:0:
329,192,275744,1,0,0:0:0:0:
256,192,275744,1,0,0:0:0:0:
109,192,275744,1,0,0:0:0:0:
36,192,275744,1,0,0:0:0:0:
182,192,275821,1,0,0:0:0:0:
402,192,275898,1,0,0:0:0:0:
475,192,275898,1,0,0:0:0:0:
256,192,275898,1,0,0:0:0:0:
329,192,275975,1,0,0:0:0:0:
109,192,275975,1,0,0:0:0:0:
36,192,275975,1,0,0:0:0:0:
182,192,276051,1,0,0:0:0:0:
256,192,276051,1,0,0:0:0:0:
402,192,276051,1,0,0:0:0:0:
475,192,276051,1,0,0:0:0:0:
329,192,276128,1,0,0:0:0:0:
256,192,276205,1,0,0:0:0:0:
109,192,276205,1,0,0:0:0:0:
36,192,276205,1,0,0:0:0:0:
182,192,276282,1,0,0:0:0:0:
402,192,276282,1,0,0:0:0:0:
475,192,276282,1,0,0:0:0:0:
329,192,276359,1,0,0:0:0:0:
256,192,276359,1,0,0:0:0:0:
36,192,276359,1,0,0:0:0:0:
182,192,276436,1,0,0:0:0:0:
109,192,276436,1,0,0:0:0:0:
475,192,276436,1,0,0:0:0:0:
329,192,276513,1,0,0:0:0:0:
402,192,276513,1,0,0:0:0:0:
36,192,276513,1,0,0:0:0:0:
256,192,276590,1,0,0:0:0:0:
329,192,276667,1,0,0:0:0:0:
475,192,276667,1,0,0:0:0:0:
402,192,276667,1,0,0:0:0:0:
182,192,276667,1,0,0:0:0:0:
109,192,276667,1,0,0:0:0:0:
36,192,276667,1,0,0:0:0:0:
256,192,276744,1,0,0:0:0:0:
182,192,276821,1,0,0:0:0:0:
402,192,276821,1,0,0:0:0:0:
475,192,276821,1,0,0:0:0:0:
329,192,276898,1,0,0:0:0:0:
109,192,276898,1,0,0:0:0:0:
182,192,276975,1,0,0:0:0:0:
36,192,276975,1,0,0:0:0:0:
256,192,276975,1,0,0:0:0:0:
402,192,276975,1,0,0:0:0:0:
475,192,276975,1,0,0:0:0:0:
329,192,277051,1,0,0:0:0:0:
256,192,277128,1,0,0:0:0:0:
36,192,277128,1,0,0:0:0:0:
475,192,277128,1,0,0:0:0:0:
402,192,277205,1,0,0:0:0:0:
329,192,277282,1,0,0:0:0:0:
182,192,277282,1,0,0:0:0:0:
109,192,277282,1,0,0:0:0:0:
36,192,277282,1,0,0:0:0:0:
402,192,277359,1,0,0:0:0:0:
475,192,277436,1,0,0:0:0:0:
256,192,277436,1,0,0:0:0:0:
109,192,277436,1,0,0:0:0:0:
329,192,277513,1,0,0:0:0:0:
182,192,277513,1,0,0:0:0:0:
256,192,277590,1,0,0:0:0:0:
475,192,277590,1,0,0:0:0:0:
402,192,277590,1,0,0:0:0:0:
109,192,277590,1,0,0:0:0:0:
36,192,277590,1,0,0:0:0:0:
182,192,277667,1,0,0:0:0:0:
329,192,277744,1,0,0:0:0:0:
475,192,277744,1,0,0:0:0:0:
36,192,277744,1,0,0:0:0:0:
256,192,277821,1,0,0:0:0:0:
36,192,277898,1,0,0:0:0:0:
402,192,277898,1,0,0:0:0:0:
329,192,277898,1,0,0:0:0:0:
109,192,277898,1,0,0:0:0:0:
182,192,277975,1,0,0:0:0:0:
109,192,278051,1,0,0:0:0:0:
256,192,278051,1,0,0:0:0:0:
402,192,278051,1,0,0:0:0:0:
182,192,278128,1,0,0:0:0:0:
329,192,278128,1,0,0:0:0:0:
109,192,278205,1,0,0:0:0:0:
256,192,278205,1,0,0:0:0:0:
402,192,278205,1,0,0:0:0:0:
475,192,278205,1,0,0:0:0:0:
36,192,278205,1,0,0:0:0:0:
329,192,278282,1,0,0:0:0:0:
256,192,278359,1,0,0:0:0:0:
36,192,278359,1,0,0:0:0:0:
475,192,278359,1,0,0:0:0:0:
182,192,278436,1,0,0:0:0:0:
109,192,278513,1,0,0:0:0:0:
402,192,278513,1,0,0:0:0:0:
475,192,278513,1,0,0:0:0:0:
36,192,278513,1,0,0:0:0:0:
329,192,278590,1,0,0:0:0:0:
256,192,278667,1,0,0:0:0:0:
109,192,278667,1,0,0:0:0:0:
402,192,278667,1,0,0:0:0:0:
182,192,278744,1,0,0:0:0:0:
329,192,278744,1,0,0:0:0:0:
256,192,278821,1,0,0:0:0:0:
402,192,278821,1,0,0:0:0:0:
475,192,278821,1,0,0:0:0:0:
109,192,278821,1,0,0:0:0:0:
36,192,278821,1,0,0:0:0:0:
182,192,278898,1,0,0:0:0:0:
475,192,278975,1,0,0:0:0:0:
402,192,278975,1,0,0:0:0:0:
256,192,278975,1,0,0:0:0:0:
36,192,278975,1,0,0:0:0:0:
329,192,279051,1,0,0:0:0:0:
109,192,279128,1,0,0:0:0:0:
182,192,279128,1,0,0:0:0:0:
36,192,279128,1,0,0:0:0:0:
402,192,279128,1,0,0:0:0:0:
475,192,279128,1,0,0:0:0:0:
256,192,279128,1,0,0:0:0:0:
329,192,279205,1,0,0:0:0:0:
109,192,279282,1,0,0:0:0:0:
182,192,279282,1,0,0:0:0:0:
36,192,279282,1,0,0:0:0:0:
475,192,279359,1,0,0:0:0:0:
402,192,279359,1,0,0:0:0:0:
256,192,279436,1,0,0:0:0:0:
109,192,279436,1,0,0:0:0:0:
36,192,279436,1,0,0:0:0:0:
329,192,279436,1,0,0:0:0:0:
182,192,279436,1,0,0:0:0:0:
402,192,279513,1,0,0:0:0:0:
475,192,279590,1,0,0:0:0:0:
109,192,279590,1,0,0:0:0:0:
256,192,279590,1,0,0:0:0:0:
36,192,279667,1,0,0:0:0:0:
329,192,279744,1,0,0:0:0:0:
475,192,279744,1,0,0:0:0:0:
402,192,279744,1,0,0:0:0:0:
256,192,279744,1,0,0:0:0:0:
182,192,279821,1,0,0:0:0:0:
36,192,279898,1,0,0:0:0:0:
402,192,279898,1,0,0:0:0:0:
109,192,279898,1,0,0:0:0:0:
329,192,279975,1,0,0:0:0:0:
182,192,279975,1,0,0:0:0:0:
256,192,280051,1,0,0:0:0:0:
36,192,280051,1,0,0:0:0:0:
402,192,280051,1,0,0:0:0:0:
475,192,280051,1,0,0:0:0:0:
109,192,280051,1,0,0:0:0:0:
182,192,280128,1,0,0:0:0:0:
475,192,280205,1,0,0:0:0:0:
329,192,280205,1,0,0:0:0:0:
256,192,280205,1,0,0:0:0:0:
402,192,280282,1,0,0:0:0:0:
329,192,280359,1,0,0:0:0:0:
109,192,280359,1,0,0:0:0:0:
36,192,280359,1,0,0:0:0:0:
182,192,280359,1,0,0:0:0:0:
402,192,280436,1,0,0:0:0:0:
475,192,280513,1,0,0:0:0:0:
256,192,280513,1,0,0:0:0:0:
36,192,280513,1,0,0:0:0:0:
329,192,280590,1,0,0:0:0:0:
109,192,280590,1,0,0:0:0:0:
182,192,280667,1,0,0:0:0:0:
402,192,280667,1,0,0:0:0:0:
475,192,280667,1,0,0:0:0:0:
36,192,280667,1,0,0:0:0:0:
256,192,280667,1,0,0:0:0:0:
109,192,280744,1,0,0:0:0:0:
182,192,280821,1,0,0:0:0:0:
329,192,280821,1,0,0:0:0:0:
256,192,280821,1,0,0:0:0:0:
475,192,280898,1,0,0:0:0:0:
109,192,280975,1,0,0:0:0:0:
329,192,280975,1,0,0:0:0:0:
256,192,280975,1,0,0:0:0:0:
182,192,280975,1,0,0:0:0:0:
36,192,280975,1,0,0:0:0:0:
402,192,280975,1,0,0:0:0:0:
475,192,281051,1,0,0:0:0:0:
402,192,281128,1,0,0:0:0:0:
36,192,281128,1,0,0:0:0:0:
182,192,281128,1,0,0:0:0:0:
109,192,281205,1,0,0:0:0:0:
329,192,281205,1,0,0:0:0:0:
36,192,281282,1,0,0:0:0:0:
256,192,281282,1,0,0:0:0:0:
402,192,281282,1,0,0:0:0:0:
475,192,281282,1,0,0:0:0:0:
109,192,281359,1,0,0:0:0:0:
402,192,281436,1,0,0:0:0:0:
182,192,281436,1,0,0:0:0:0:
329,192,281436,1,0,0:0:0:0:
256,192,281436,1,0,0:0:0:0:
36,192,281513,1,0,0:0:0:0:
402,192,281590,1,0,0:0:0:0:
329,192,281590,1,0,0:0:0:0:
256,192,281590,1,0,0:0:0:0:
475,192,281590,1,0,0:0:0:0:
182,192,281590,1,0,0:0:0:0:
109,192,281590,1,0,0:0:0:0:
36,192,281667,1,0,0:0:0:0:
329,192,281744,1,0,0:0:0:0:
475,192,281744,1,0,0:0:0:0:
182,192,281744,1,0,0:0:0:0:
402,192,281821,1,0,0:0:0:0:
256,192,281821,1,0,0:0:0:0:
329,192,281898,1,0,0:0:0:0:
182,192,281898,1,0,0:0:0:0:
109,192,281898,1,0,0:0:0:0:
36,192,281898,1,0,0:0:0:0:
475,192,281898,1,0,0:0:0:0:
402,192,281975,1,0,0:0:0:0:
109,192,282051,1,0,0:0:0:0:
36,192,282051,1,0,0:0:0:0:
329,192,282051,1,0,0:0:0:0:
256,192,282128,1,0,0:0:0:0:
109,192,282205,1,0,0:0:0:0:
182,192,282205,1,0,0:0:0:0:
475,192,282205,1,0,0:0:0:0:
402,192,282205,1,0,0:0:0:0:
329,192,282205,1,0,0:0:0:0:
256,192,282282,1,0,0:0:0:0:
182,192,282359,1,0,0:0:0:0:
36,192,282359,1,0,0:0:0:0:
402,192,282359,1,0,0:0:0:0:
109,192,282436,1,0,0:0:0:0:
256,192,282436,1,0,0:0:0:0:
329,192,282513,1,0,0:0:0:0:
182,192,282513,1,0,0:0:0:0:
402,192,282513,1,0,0:0:0:0:
475,192,282513,1,0,0:0:0:0:
36,192,282513,1,0,0:0:0:0:
109,192,282590,1,0,0:0:0:0:
182,192,282667,1,0,0:0:0:0:
402,192,282667,1,0,0:0:0:0:
475,192,282667,1,0,0:0:0:0:
256,192,282744,1,0,0:0:0:0:
329,192,282821,1,0,0:0:0:0:
475,192,282821,1,0,0:0:0:0:
109,192,282821,1,0,0:0:0:0:
36,192,282821,1,0,0:0:0:0:
182,192,282898,1,0,0:0:0:0:
256,192,282975,1,0,0:0:0:0:
402,192,282975,1,0,0:0:0:0:
36,192,282975,1,0,0:0:0:0:
329,192,283051,1,0,0:0:0:0:
475,192,283051,1,0,0:0:0:0:
402,192,283128,1,0,0:0:0:0:
182,192,283128,1,0,0:0:0:0:
109,192,283128,1,0,0:0:0:0:
36,192,283128,1,0,0:0:0:0:
256,192,283128,1,0,0:0:0:0:
475,192,283205,1,0,0:0:0:0:
329,192,283282,1,0,0:0:0:0:
109,192,283282,1,0,0:0:0:0:
36,192,283282,1,0,0:0:0:0:
256,192,283359,1,0,0:0:0:0:
182,192,283436,1,0,0:0:0:0:
36,192,283436,1,0,0:0:0:0:
402,192,283436,1,0,0:0:0:0:
475,192,283436,1,0,0:0:0:0:
329,192,283513,1,0,0:0:0:0:
256,192,283590,1,0,0:0:0:0:
109,192,283590,1,0,0:0:0:0:
475,192,283590,1,0,0:0:0:0:
182,192,283667,1,0,0:0:0:0:
36,192,283667,1,0,0:0:0:0:
109,192,283744,1,0,0:0:0:0:
256,192,283744,1,0,0:0:0:0:
329,192,283744,1,0,0:0:0:0:
402,192,283744,1,0,0:0:0:0:
475,192,283744,1,0,0:0:0:0:
36,192,283821,1,0,0:0:0:0:
182,192,283898,1,0,0:0:0:0:
402,192,283898,1,0,0:0:0:0:
475,192,283898,1,0,0:0:0:0:
256,192,283975,1,0,0:0:0:0:
329,192,284051,1,0,0:0:0:0:
475,192,284051,1,0,0:0:0:0:
109,192,284051,1,0,0:0:0:0:
36,192,284051,1,0,0:0:0:0:
256,192,284128,1,0,0:0:0:0:
109,192,284205,1,0,0:0:0:0:
402,192,284205,1,0,0:0:0:0:
36,192,284205,1,0,0:0:0:0:
329,192,284282,1,0,0:0:0:0:
182,192,284282,1,0,0:0:0:0:
256,192,284359,1,0,0:0:0:0:
109,192,284359,1,0,0:0:0:0:
36,192,284359,1,0,0:0:0:0:
402,192,284359,1,0,0:0:0:0:
475,192,284359,1,0,0:0:0:0:
182,192,284436,1,0,0:0:0:0:
256,192,284513,1,0,0:0:0:0:
475,192,284513,1,0,0:0:0:0:
36,192,284513,1,0,0:0:0:0:
329,192,284590,1,0,0:0:0:0:
475,192,284667,1,0,0:0:0:0:
402,192,284667,1,0,0:0:0:0:
109,192,284667,1,0,0:0:0:0:
36,192,284667,1,0,0:0:0:0:
256,192,284744,1,0,0:0:0:0:
182,192,284821,1,0,0:0:0:0:
329,192,284821,1,0,0:0:0:0:
475,192,284821,1,0,0:0:0:0:
109,192,284898,1,0,0:0:0:0:
402,192,284898,1,0,0:0:0:0:
256,192,284975,1,0,0:0:0:0:
329,192,284975,1,0,0:0:0:0:
475,192,284975,1,0,0:0:0:0:
182,192,284975,1,0,0:0:0:0:
36,192,284975,1,0,0:0:0:0:
109,192,285051,1,0,0:0:0:0:
36,192,285128,1,0,0:0:0:0:
256,192,285128,1,0,0:0:0:0:
475,192,285128,1,0,0:0:0:0:
402,192,285205,1,0,0:0:0:0:
329,192,285282,1,0,0:0:0:0:
182,192,285282,1,0,0:0:0:0:
109,192,285282,1,0,0:0:0:0:
36,192,285282,1,0,0:0:0:0:
256,192,285282,1,0,0:0:0:0:
402,192,285359,1,0,0:0:0:0:
475,192,285436,1,0,0:0:0:0:
109,192,285436,1,0,0:0:0:0:
329,192,285436,1,0,0:0:0:0:
182,192,285513,1,0,0:0:0:0:
36,192,285513,1,0,0:0:0:0:
109,192,285590,1,0,0:0:0:0:
256,192,285590,1,0,0:0:0:0:
329,192,285590,1,0,0:0:0:0:
402,192,285590,1,0,0:0:0:0:
475,192,285590,1,0,0:0:0:0:
182,192,285667,1,0,0:0:0:0:
256,192,285744,1,0,0:0:0:0:
402,192,285744,1,0,0:0:0:0:
36,192,285744,1,0,0:0:0:0:
109,192,285821,1,0,0:0:0:0:
329,192,285898,1,0,0:0:0:0:
402,192,285898,1,0,0:0:0:0:
475,192,285898,1,0,0:0:0:0:
182,192,285898,1,0,0:0:0:0:
109,192,285975,1,0,0:0:0:0:
36,192,285975,1,0,0:0:0:0:
256,192,285975,1,0,0:0:0:0:
182,192,286051,1,0,0:0:0:0:
475,192,286128,1,0,0:0:0:0:
402,192,286128,1,0,0:0:0:0:
256,192,286128,1,0,0:0:0:0:
182,192,286205,1,0,0:0:0:0:
109,192,286205,1,0,0:0:0:0:
36,192,286205,1,0,0:0:0:0:
329,192,286205,1,0,0:0:0:0:
402,192,286282,1,0,0:0:0:0:
475,192,286282,1,0,0:0:0:0:
256,192,286282,1,0,0:0:0:0:
182,192,286359,1,0,0:0:0:0:
329,192,286359,1,0,0:0:0:0:
36,192,286359,1,0,0:0:0:0:
256,192,286436,1,0,0:0:0:0:
182,192,286513,1,0,0:0:0:0:
109,192,286513,1,0,0:0:0:0:
36,192,286513,1,0,0:0:0:0:
475,192,286513,1,0,0:0:0:0:
402,192,286513,1,0,0:0:0:0:
329,192,286513,1,0,0:0:0:0:
256,192,286590,1,0,0:0:0:0:
329,192,286667,1,0,0:0:0:0:
475,192,286667,1,0,0:0:0:0:
109,192,286667,1,0,0:0:0:0:
256,192,286744,1,0,0:0:0:0:
402,192,286744,1,0,0:0:0:0:
475,192,286821,1,0,0:0:0:0:
36,192,286821,1,0,0:0:0:0:
182,192,286821,1,0,0:0:0:0:
109,192,286821,1,0,0:0:0:0:
329,192,286821,1,0,0:0:0:0:
256,192,286898,1,0,0:0:0:0:
182,192,286975,1,0,0:0:0:0:
36,192,286975,1,0,0:0:0:0:
402,192,286975,1,0,0:0:0:0:
329,192,287051,1,0,0:0:0:0:
256,192,287128,1,0,0:0:0:0:
109,192,287128,1,0,0:0:0:0:
402,192,287128,1,0,0:0:0:0:
475,192,287128,1,0,0:0:0:0:
329,192,287205,1,0,0:0:0:0:
182,192,287282,1,0,0:0:0:0:
36,192,287282,1,0,0:0:0:0:
402,192,287282,1,0,0:0:0:0:
256,192,287359,1,0,0:0:0:0:
109,192,287359,1,0,0:0:0:0:
329,192,287436,1,0,0:0:0:0:
402,192,287436,1,0,0:0:0:0:
475,192,287436,1,0,0:0:0:0:
36,192,287436,1,0,0:0:0:0:
182,192,287436,1,0,0:0:0:0:
256,192,287513,1,0,0:0:0:0:
109,192,287590,1,0,0:0:0:0:
329,192,287590,1,0,0:0:0:0:
475,192,287590,1,0,0:0:0:0:
182,192,287667,1,0,0:0:0:0:
256,192,287744,1,0,0:0:0:0:
36,192,287744,1,0,0:0:0:0:
402,192,287744,1,0,0:0:0:0:
475,192,287744,1,0,0:0:0:0:
182,192,287821,1,0,0:0:0:0:
402,192,287898,1,0,0:0:0:0:
256,192,287898,1,0,0:0:0:0:
109,192,287898,1,0,0:0:0:0:
36,192,287975,1,0,0:0:0:0:
475,192,287975,1,0,0:0:0:0:
109,192,288051,1,0,0:0:0:0:
182,192,288051,1,0,0:0:0:0:
256,192,288051,1,0,0:0:0:0:
329,192,288051,1,0,0:0:0:0:
402,192,288051,1,0,0:0:0:0:
475,192,288128,1,0,0:0:0:0:
329,192,288205,1,0,0:0:0:0:
256,192,288205,1,0,0:0:0:0:
182,192,288205,1,0,0:0:0:0:
109,192,288282,1,0,0:0:0:0:
329,192,288359,1,0,0:0:0:0:
475,192,288359,1,0,0:0:0:0:
402,192,288359,1,0,0:0:0:0:
36,192,288359,1,0,0:0:0:0:
182,192,288359,1,0,0:0:0:0:
256,192,288359,1,0,0:0:0:0:
109,192,288436,1,0,0:0:0:0:
182,192,288513,1,0,0:0:0:0:
329,192,288513,1,0,0:0:0:0:
475,192,288513,1,0,0:0:0:0:
256,192,288590,1,0,0:0:0:0:
402,192,288590,1,0,0:0:0:0:
329,192,288667,1,0,0:0:0:0:
475,192,288667,1,0,0:0:0:0:
182,192,288667,1,0,0:0:0:0:
36,192,288667,1,0,0:0:0:0:
109,192,288667,1,0,0:0:0:0:
256,192,288744,1,0,0:0:0:0:
329,192,288821,1,0,0:0:0:0:
109,192,288821,1,0,0:0:0:0:
36,192,288821,1,0,0:0:0:0:
402,192,288898,1,0,0:0:0:0:
329,192,288975,1,0,0:0:0:0:
256,192,288975,1,0,0:0:0:0:
182,192,288975,1,0,0:0:0:0:
36,192,288975,1,0,0:0:0:0:
109,192,288975,1,0,0:0:0:0:
475,192,288975,1,0,0:0:0:0:
402,192,289051,1,0,0:0:0:0:
329,192,289128,1,0,0:0:0:0:
182,192,289128,1,0,0:0:0:0:
36,192,289128,1,0,0:0:0:0:
109,192,289205,1,0,0:0:0:0:
256,192,289205,1,0,0:0:0:0:
182,192,289282,1,0,0:0:0:0:
36,192,289282,1,0,0:0:0:0:
475,192,289282,1,0,0:0:0:0:
402,192,289282,1,0,0:0:0:0:
329,192,289282,1,0,0:0:0:0:
256,192,289359,1,0,0:0:0:0:
182,192,289436,1,0,0:0:0:0:
475,192,289436,1,0,0:0:0:0:
109,192,289436,1,0,0:0:0:0:
402,192,289513,1,0,0:0:0:0:
329,192,289590,1,0,0:0:0:0:
256,192,289590,1,0,0:0:0:0:
109,192,289590,1,0,0:0:0:0:
36,192,289590,1,0,0:0:0:0:
182,192,289667,1,0,0:0:0:0:
402,192,289744,1,0,0:0:0:0:
256,192,289744,1,0,0:0:0:0:
36,192,289744,1,0,0:0:0:0:
475,192,289821,1,0,0:0:0:0:
329,192,289821,1,0,0:0:0:0:
402,192,289898,1,0,0:0:0:0:
256,192,289898,1,0,0:0:0:0:
182,192,289898,1,0,0:0:0:0:
109,192,289898,1,0,0:0:0:0:
36,192,289898,1,0,0:0:0:0:
329,192,289975,1,0,0:0:0:0:
256,192,290051,1,0,0:0:0:0:
475,192,290051,1,0,0:0:0:0:
36,192,290051,1,0,0:0:0:0:
109,192,290128,1,0,0:0:0:0:
402,192,290205,1,0,0:0:0:0:
475,192,290205,1,0,0:0:0:0:
256,192,290205,1,0,0:0:0:0:
182,192,290205,1,0,0:0:0:0:
329,192,290282,1,0,0:0:0:0:
256,192,290359,1,0,0:0:0:0:
109,192,290359,1,0,0:0:0:0:
475,192,290359,1,0,0:0:0:0:
182,192,290436,1,0,0:0:0:0:
36,192,290436,1,0,0:0:0:0:
109,192,290513,1,0,0:0:0:0:
256,192,290513,1,0,0:0:0:0:
329,192,290513,1,0,0:0:0:0:
402,192,290513,1,0,0:0:0:0:
475,192,290513,1,0,0:0:0:0:
182,192,290590,1,0,0:0:0:0:
256,192,290667,1,0,0:0:0:0:
36,192,290667,1,0,0:0:0:0:
402,192,290667,1,0,0:0:0:0:
329,192,290744,1,0,0:0:0:0:
182,192,290821,1,0,0:0:0:0:
475,192,290821,1,0,0:0:0:0:
36,192,290821,1,0,0:0:0:0:
402,192,290821,1,0,0:0:0:0:
329,192,290898,1,0,0:0:0:0:
109,192,290975,1,0,0:0:0:0:
402,192,290975,1,0,0:0:0:0:
256,192,290975,1,0,0:0:0:0:
329,192,291051,1,0,0:0:0:0:
182,192,291051,1,0,0:0:0:0:
109,192,291128,1,0,0:0:0:0:
36,192,291128,1,0,0:0:0:0:
256,192,291128,1,0,0:0:0:0:
402,192,291128,1,0,0:0:0:0:
475,192,291128,1,0,0:0:0:0:
329,192,291205,1,0,0:0:0:0:
109,192,291282,1,0,0:0:0:0:
36,192,291282,1,0,0:0:0:0:
475,192,291282,1,0,0:0:0:0:
182,192,291282,1,0,0:0:0:0:
256,192,291359,1,0,0:0:0:0:
109,192,291436,1,0,0:0:0:0:
36,192,291436,1,0,0:0:0:0:
182,192,291436,1,0,0:0:0:0:
329,192,291436,1,0,0:0:0:0:
475,192,291436,1,0,0:0:0:0:
402,192,291436,1,0,0:0:0:0:
256,192,291513,1,0,0:0:0:0:
402,192,291590,1,0,0:0:0:0:
182,192,291590,1,0,0:0:0:0:
475,192,291590,1,0,0:0:0:0:
329,192,291667,1,0,0:0:0:0:
109,192,291667,1,0,0:0:0:0:
256,192,291744,1,0,0:0:0:0:
36,192,291744,1,0,0:0:0:0:
402,192,291744,1,0,0:0:0:0:
475,192,291744,1,0,0:0:0:0:
182,192,291744,1,0,0:0:0:0:
329,192,291821,1,0,0:0:0:0:
256,192,291898,1,0,0:0:0:0:
36,192,291898,1,0,0:0:0:0:
109,192,291898,1,0,0:0:0:0:
329,192,291975,1,0,0:0:0:0:
182,192,292051,1,0,0:0:0:0:
402,192,292051,1,0,0:0:0:0:
109,192,292051,1,0,0:0:0:0:
475,192,292051,1,0,0:0:0:0:
256,192,292128,1,0,0:0:0:0:
109,192,292205,1,0,0:0:0:0:
329,192,292205,1,0,0:0:0:0:
36,192,292205,1,0,0:0:0:0:
182,192,292282,1,0,0:0:0:0:
402,192,292282,1,0,0:0:0:0:
256,192,292359,1,0,0:0:0:0:
475,192,292359,1,0,0:0:0:0:
109,192,292359,1,0,0:0:0:0:
36,192,292359,1,0,0:0:0:0:
329,192,292359,1,0,0:0:0:0:
182,192,292436,1,0,0:0:0:0:
402,192,292513,1,0,0:0:0:0:
475,192,292513,1,0,0:0:0:0:
329,192,292513,1,0,0:0:0:0:
182,192,292590,1,0,0:0:0:0:
109,192,292667,1,0,0:0:0:0:
36,192,292667,1,0,0:0:0:0:
402,192,292667,1,0,0:0:0:0:
256,192,292667,1,0,0:0:0:0:
329,192,292744,1,0,0:0:0:0:
36,192,292821,1,0,0:0:0:0:
475,192,292821,1,0,0:0:0:0:
256,192,292821,1,0,0:0:0:0:
109,192,292898,1,0,0:0:0:0:
402,192,292898,1,0,0:0:0:0:
182,192,292975,1,0,0:0:0:0:
329,192,292975,1,0,0:0:0:0:
256,192,292975,1,0,0:0:0:0:
475,192,292975,1,0,0:0:0:0:
36,192,292975,1,0,0:0:0:0:
109,192,293051,1,0,0:0:0:0:
36,192,293128,1,0,0:0:0:0:
402,192,293128,1,0,0:0:0:0:
182,192,293128,1,0,0:0:0:0:
329,192,293205,1,0,0:0:0:0:
256,192,293282,1,0,0:0:0:0:
475,192,293282,1,0,0:0:0:0:
109,192,293282,1,0,0:0:0:0:
402,192,293282,1,0,0:0:0:0:
36,192,293359,1,0,0:0:0:0:
182,192,293436,1,0,0:0:0:0:
329,192,293436,1,0,0:0:0:0:
256,192,293436,1,0,0:0:0:0:
402,192,293513,1,0,0:0:0:0:
109,192,293513,1,0,0:0:0:0:
475,192,293590,1,0,0:0:0:0:
36,192,293590,1,0,0:0:0:0:
182,192,293590,1,0,0:0:0:0:
256,192,293590,1,0,0:0:0:0:
329,192,293590,1,0,0:0:0:0:
402,192,293667,1,0,0:0:0:0:
182,192,293744,1,0,0:0:0:0:
475,192,293744,1,0,0:0:0:0:
109,192,293744,1,0,0:0:0:0:
256,192,293821,1,0,0:0:0:0:
109,192,293898,1,0,0:0:0:0:
36,192,293898,1,0,0:0:0:0:
329,192,293898,1,0,0:0:0:0:
475,192,293898,1,0,0:0:0:0:
182,192,293975,1,0,0:0:0:0:
402,192,293975,1,0,0:0:0:0:
256,192,294051,1,0,0:0:0:0:
475,192,294051,1,0,0:0:0:0:
329,192,294128,1,0,0:0:0:0:
109,192,294128,1,0,0:0:0:0:
182,192,294205,1,0,0:0:0:0:
256,192,294205,1,0,0:0:0:0:
402,192,294205,1,0,0:0:0:0:
475,192,294205,1,0,0:0:0:0:
36,192,294205,1,0,0:0:0:0:
329,192,294282,1,0,0:0:0:0:
109,192,294282,1,0,0:0:0:0:
256,192,294359,1,0,0:0:0:0:
36,192,294359,1,0,0:0:0:0:
402,192,294436,1,0,0:0:0:0:
182,192,294436,1,0,0:0:0:0:
329,192,294513,1,0,0:0:0:0:
36,192,294513,1,0,0:0:0:0:
109,192,294513,1,0,0:0:0:0:
256,192,294513,1,0,0:0:0:0:
182,192,294590,1,0,0:0:0:0:
402,192,294590,1,0,0:0:0:0:
256,192,294667,1,0,0:0:0:0:
475,192,294667,1,0,0:0:0:0:
329,192,294744,1,0,0:0:0:0:
109,192,294744,1,0,0:0:0:0:
182,192,294821,1,0,0:0:0:0:
256,192,294821,1,0,0:0:0:0:
402,192,294821,1,0,0:0:0:0:
475,192,294821,1,0,0:0:0:0:
36,192,294821,1,0,0:0:0:0:
329,192,294898,1,0,0:0:0:0:
109,192,294898,1,0,0:0:0:0:
256,192,294975,1,0,0:0:0:0:
36,192,294975,1,0,0:0:0:0:
182,192,295051,1,0,0:0:0:0:
402,192,295051,1,0,0:0:0:0:
256,192,295128,1,0,0:0:0:0:
36,192,295128,1,0,0:0:0:0:
109,192,295128,1,0,0:0:0:0:
475,192,295128,1,0,0:0:0:0:
329,192,295128,1,0,0:0:0:0:
182,192,295205,1,0,0:0:0:0:
109,192,295282,5,0,0:0:0:0:
256,192,295282,1,0,0:0:0:0:
402,192,295282,1,0,0:0:0:0:
329,192,295359,1,0,0:0:0:0:
182,192,295359,1,0,0:0:0:0:
475,192,295359,1,0,0:0:0:0:
256,192,295436,1,0,0:0:0:0:
402,192,295436,1,0,0:0:0:0:
109,192,295436,1,0,0:0:0:0:
36,192,295436,1,0,0:0:0:0:
475,192,295513,1,0,0:0:0:0:
329,192,295590,1,0,0:0:0:0:
182,192,295590,1,0,0:0:0:0:
36,192,295590,1,0,0:0:0:0:
109,192,295667,1,0,0:0:0:0:
256,192,295667,1,0,0:0:0:0:
402,192,295667,1,0,0:0:0:0:
182,192,295744,1,0,0:0:0:0:
329,192,295744,1,0,0:0:0:0:
475,192,295744,1,0,0:0:0:0:
36,192,295744,1,0,0:0:0:0:
256,192,295821,1,0,0:0:0:0:
475,192,295898,1,0,0:0:0:0:
402,192,295898,1,0,0:0:0:0:
182,192,295898,1,0,0:0:0:0:
36,192,295975,1,0,0:0:0:0:
109,192,295975,1,0,0:0:0:0:
329,192,295975,1,0,0:0:0:0:
182,192,296051,1,0,0:0:0:0:
402,192,296051,1,0,0:0:0:0:
475,192,296051,1,0,0:0:0:0:
256,192,296051,1,0,0:0:0:0:
109,192,296128,1,0,0:0:0:0:
329,192,296128,1,0,0:0:0:0:
36,192,296128,1,0,0:0:0:0:
475,192,296205,1,0,0:0:0:0:
402,192,296205,1,0,0:0:0:0:
256,192,296205,1,0,0:0:0:0:
329,192,296282,1,0,0:0:0:0:
182,192,296282,1,0,0:0:0:0:
402,192,296359,1,0,0:0:0:0:
475,192,296359,1,0,0:0:0:0:
36,192,296359,1,0,0:0:0:0:
109,192,296359,1,0,0:0:0:0:
256,192,296359,1,0,0:0:0:0:
182,192,296436,1,0,0:0:0:0:
329,192,296513,1,0,0:0:0:0:
475,192,296513,1,0,0:0:0:0:
256,192,296590,1,0,0:0:0:0:
182,192,296667,1,0,0:0:0:0:
36,192,296667,1,0,0:0:0:0:
402,192,296667,1,0,0:0:0:0:
475,192,296667,1,0,0:0:0:0:
109,192,296667,1,0,0:0:0:0:
329,192,296744,1,0,0:0:0:0:
256,192,296821,1,0,0:0:0:0:
36,192,296821,1,0,0:0:0:0:
402,192,296898,1,0,0:0:0:0:
329,192,296975,1,0,0:0:0:0:
109,192,296975,1,0,0:0:0:0:
182,192,296975,1,0,0:0:0:0:
36,192,296975,1,0,0:0:0:0:
475,192,297051,1,0,0:0:0:0:
256,192,297128,1,0,0:0:0:0:
182,192,297128,1,0,0:0:0:0:
402,192,297205,1,0,0:0:0:0:
182,192,297282,1,0,0:0:0:0:
256,192,297282,1,0,0:0:0:0:
475,192,297282,1,0,0:0:0:0:
36,192,297282,1,0,0:0:0:0:
109,192,297282,1,0,0:0:0:0:
329,192,297359,1,0,0:0:0:0:
109,192,297436,1,0,0:0:0:0:
402,192,297436,1,0,0:0:0:0:
256,192,297513,1,0,0:0:0:0:
475,192,297590,1,0,0:0:0:0:
182,192,297590,1,0,0:0:0:0:
36,192,297590,1,0,0:0:0:0:
109,192,297590,1,0,0:0:0:0:
329,192,297667,1,0,0:0:0:0:
402,192,297744,1,0,0:0:0:0:
182,192,297744,1,0,0:0:0:0:
256,192,297821,1,0,0:0:0:0:
329,192,297898,1,0,0:0:0:0:
402,192,297898,1,0,0:0:0:0:
475,192,297898,1,0,0:0:0:0:
109,192,297898,1,0,0:0:0:0:
36,192,297898,1,0,0:0:0:0:
182,192,297975,1,0,0:0:0:0:
256,192,298051,1,0,0:0:0:0:
475,192,298051,1,0,0:0:0:0:
109,192,298128,1,0,0:0:0:0:
182,192,298205,1,0,0:0:0:0:
329,192,298205,1,0,0:0:0:0:
475,192,298205,1,0,0:0:0:0:
402,192,298205,1,0,0:0:0:0:
36,192,298282,1,0,0:0:0:0:
256,192,298359,1,0,0:0:0:0:
329,192,298359,1,0,0:0:0:0:
109,192,298436,1,0,0:0:0:0:
329,192,298513,1,0,0:0:0:0:
475,192,298513,1,0,0:0:0:0:
256,192,298513,1,0,0:0:0:0:
36,192,298513,1,0,0:0:0:0:
402,192,298513,1,0,0:0:0:0:
182,192,298590,1,0,0:0:0:0:
402,192,298667,1,0,0:0:0:0:
109,192,298667,1,0,0:0:0:0:
256,192,298744,1,0,0:0:0:0:
36,192,298821,1,0,0:0:0:0:
475,192,298821,1,0,0:0:0:0:
329,192,298821,1,0,0:0:0:0:
109,192,298821,1,0,0:0:0:0:
182,192,298898,1,0,0:0:0:0:
329,192,298975,1,0,0:0:0:0:
402,192,298975,1,0,0:0:0:0:
109,192,299051,1,0,0:0:0:0:
256,192,299128,1,0,0:0:0:0:
36,192,299128,1,0,0:0:0:0:
329,192,299128,1,0,0:0:0:0:
475,192,299128,1,0,0:0:0:0:
182,192,299128,1,0,0:0:0:0:
402,192,299205,1,0,0:0:0:0:
182,192,299282,1,0,0:0:0:0:
109,192,299282,1,0,0:0:0:0:
329,192,299359,1,0,0:0:0:0:
475,192,299436,1,0,0:0:0:0:
402,192,299436,1,0,0:0:0:0:
182,192,299436,1,0,0:0:0:0:
36,192,299436,1,0,0:0:0:0:
109,192,299513,1,0,0:0:0:0:
256,192,299590,1,0,0:0:0:0:
182,192,299590,1,0,0:0:0:0:
402,192,299667,1,0,0:0:0:0:
36,192,299744,1,0,0:0:0:0:
109,192,299744,1,0,0:0:0:0:
256,192,299744,1,0,0:0:0:0:
329,192,299744,1,0,0:0:0:0:
475,192,299744,1,0,0:0:0:0:
182,192,299821,1,0,0:0:0:0:
329,192,299898,1,0,0:0:0:0:
402,192,299898,1,0,0:0:0:0:
109,192,299975,1,0,0:0:0:0:
475,192,300051,1,0,0:0:0:0:
256,192,300051,1,0,0:0:0:0:
402,192,300051,1,0,0:0:0:0:
36,192,300051,1,0,0:0:0:0:
329,192,300128,1,0,0:0:0:0:
182,192,300205,1,0,0:0:0:0:
109,192,300205,1,0,0:0:0:0:
402,192,300282,1,0,0:0:0:0:
256,192,300359,1,0,0:0:0:0:
182,192,300359,1,0,0:0:0:0:
36,192,300359,1,0,0:0:0:0:
329,192,300359,1,0,0:0:0:0:
475,192,300359,1,0,0:0:0:0:
109,192,300436,1,0,0:0:0:0:
329,192,300513,1,0,0:0:0:0:
402,192,300513,1,0,0:0:0:0:
182,192,300590,1,0,0:0:0:0:
36,192,300667,1,0,0:0:0:0:
256,192,300667,1,0,0:0:0:0:
109,192,300667,1,0,0:0:0:0:
475,192,300667,1,0,0:0:0:0:
402,192,300744,1,0,0:0:0:0:
256,192,300821,1,0,0:0:0:0:
329,192,300821,1,0,0:0:0:0:
109,192,300898,1,0,0:0:0:0:
475,192,300975,1,0,0:0:0:0:
402,192,300975,1,0,0:0:0:0:
256,192,300975,1,0,0:0:0:0:
36,192,300975,1,0,0:0:0:0:
182,192,300975,1,0,0:0:0:0:
329,192,301051,1,0,0:0:0:0:
36,192,301128,1,0,0:0:0:0:
475,192,301128,1,0,0:0:0:0:
109,192,301128,1,0,0:0:0:0:
182,192,301128,1,0,0:0:0:0:
256,192,301205,1,0,0:0:0:0:
109,192,301282,1,0,0:0:0:0:
36,192,301282,1,0,0:0:0:0:
475,192,301282,1,0,0:0:0:0:
182,192,301282,1,0,0:0:0:0:
329,192,301282,1,0,0:0:0:0:
256,192,301359,1,0,0:0:0:0:
402,192,301436,1,0,0:0:0:0:
329,192,301436,1,0,0:0:0:0:
182,192,301513,1,0,0:0:0:0:
475,192,301590,1,0,0:0:0:0:
402,192,301590,1,0,0:0:0:0:
36,192,301590,1,0,0:0:0:0:
109,192,301590,1,0,0:0:0:0:
256,192,301590,1,0,0:0:0:0:
329,192,301667,1,0,0:0:0:0:
182,192,301744,1,0,0:0:0:0:
256,192,301744,1,0,0:0:0:0:
36,192,301821,1,0,0:0:0:0:
256,192,301898,1,0,0:0:0:0:
109,192,301898,1,0,0:0:0:0:
402,192,301898,1,0,0:0:0:0:
475,192,301898,1,0,0:0:0:0:
329,192,301975,1,0,0:0:0:0:
402,192,302051,1,0,0:0:0:0:
182,192,302051,1,0,0:0:0:0:
256,192,302128,1,0,0:0:0:0:
329,192,302205,1,0,0:0:0:0:
109,192,302205,1,0,0:0:0:0:
36,192,302205,1,0,0:0:0:0:
402,192,302205,1,0,0:0:0:0:
475,192,302205,1,0,0:0:0:0:
182,192,302282,1,0,0:0:0:0:
256,192,302359,1,0,0:0:0:0:
36,192,302359,1,0,0:0:0:0:
109,192,302436,1,0,0:0:0:0:
182,192,302513,1,0,0:0:0:0:
402,192,302513,1,0,0:0:0:0:
475,192,302513,1,0,0:0:0:0:
256,192,302513,1,0,0:0:0:0:
329,192,302590,1,0,0:0:0:0:
109,192,302667,1,0,0:0:0:0:
182,192,302667,1,0,0:0:0:0:
256,192,302744,1,0,0:0:0:0:
36,192,302821,1,0,0:0:0:0:
109,192,302821,1,0,0:0:0:0:
329,192,302821,1,0,0:0:0:0:
402,192,302821,1,0,0:0:0:0:
475,192,302821,1,0,0:0:0:0:
182,192,302898,1,0,0:0:0:0:
329,192,302975,1,0,0:0:0:0:
256,192,302975,1,0,0:0:0:0:
475,192,303051,1,0,0:0:0:0:
256,192,303128,1,0,0:0:0:0:
109,192,303128,1,0,0:0:0:0:
402,192,303128,1,0,0:0:0:0:
36,192,303128,1,0,0:0:0:0:
182,192,303205,1,0,0:0:0:0:
109,192,303282,1,0,0:0:0:0:
329,192,303282,1,0,0:0:0:0:
256,192,303359,1,0,0:0:0:0:
182,192,303436,1,0,0:0:0:0:
402,192,303436,1,0,0:0:0:0:
36,192,303436,1,0,0:0:0:0:
109,192,303436,1,0,0:0:0:0:
475,192,303436,1,0,0:0:0:0:
329,192,303513,1,0,0:0:0:0:
256,192,303590,1,0,0:0:0:0:
475,192,303590,1,0,0:0:0:0:
402,192,303667,1,0,0:0:0:0:
329,192,303744,1,0,0:0:0:0:
182,192,303744,1,0,0:0:0:0:
109,192,303744,1,0,0:0:0:0:
475,192,303744,1,0,0:0:0:0:
36,192,303821,1,0,0:0:0:0:
256,192,303898,1,0,0:0:0:0:
402,192,303898,1,0,0:0:0:0:
109,192,303975,1,0,0:0:0:0:
329,192,304051,1,0,0:0:0:0:
402,192,304051,1,0,0:0:0:0:
475,192,304051,1,0,0:0:0:0:
256,192,304051,1,0,0:0:0:0:
36,192,304051,1,0,0:0:0:0:
182,192,304128,1,0,0:0:0:0:
402,192,304205,1,0,0:0:0:0:
109,192,304205,1,0,0:0:0:0:
256,192,304282,1,0,0:0:0:0:
329,192,304359,1,0,0:0:0:0:
182,192,304359,1,0,0:0:0:0:
36,192,304359,1,0,0:0:0:0:
109,192,304359,1,0,0:0:0:0:
475,192,304436,1,0,0:0:0:0:
256,192,304513,1,0,0:0:0:0:
329,192,304513,1,0,0:0:0:0:
402,192,304590,1,0,0:0:0:0:
182,192,304667,1,0,0:0:0:0:
109,192,304667,1,0,0:0:0:0:
36,192,304667,1,0,0:0:0:0:
256,192,304667,1,0,0:0:0:0:
475,192,304667,1,0,0:0:0:0:
329,192,304744,1,0,0:0:0:0:
109,192,304821,1,0,0:0:0:0:
402,192,304821,1,0,0:0:0:0:
256,192,304898,1,0,0:0:0:0:
329,192,304975,1,0,0:0:0:0:
182,192,304975,1,0,0:0:0:0:
36,192,304975,1,0,0:0:0:0:
109,192,304975,1,0,0:0:0:0:
475,192,305051,1,0,0:0:0:0:
256,192,305128,1,0,0:0:0:0:
329,192,305128,1,0,0:0:0:0:
402,192,305205,1,0,0:0:0:0:
182,192,305282,1,0,0:0:0:0:
256,192,305282,1,0,0:0:0:0:
109,192,305282,1,0,0:0:0:0:
36,192,305282,1,0,0:0:0:0:
475,192,305282,1,0,0:0:0:0:
329,192,305359,1,0,0:0:0:0:
109,192,305436,1,0,0:0:0:0:
402,192,305436,1,0,0:0:0:0:
256,192,305513,1,0,0:0:0:0:
475,192,305590,1,0,0:0:0:0:
402,192,305590,1,0,0:0:0:0:
182,192,305590,1,0,0:0:0:0:
109,192,305667,1,0,0:0:0:0:
329,192,305667,1,0,0:0:0:0:
36,192,305667,1,0,0:0:0:0:
256,192,305744,1,0,0:0:0:0:
475,192,305821,1,0,0:0:0:0:
402,192,305821,1,0,0:0:0:0:
182,192,305821,1,0,0:0:0:0:
36,192,305898,1,0,0:0:0:0:
256,192,305898,1,0,0:0:0:0:
329,192,305898,1,0,0:0:0:0:
109,192,305898,1,0,0:0:0:0:
182,192,305975,1,0,0:0:0:0:
402,192,305975,1,0,0:0:0:0:
475,192,305975,1,0,0:0:0:0:
36,192,306051,1,0,0:0:0:0:
256,192,306051,1,0,0:0:0:0:
329,192,306051,1,0,0:0:0:0:
182,192,306128,1,0,0:0:0:0:
109,192,306128,1,0,0:0:0:0:
402,192,306128,1,0,0:0:0:0:
36,192,306205,1,0,0:0:0:0:
256,192,306205,1,0,0:0:0:0:
329,192,306205,1,0,0:0:0:0:
475,192,306205,1,0,0:0:0:0:
182,192,306282,1,0,0:0:0:0:
329,192,306359,1,0,0:0:0:0:
109,192,306359,1,0,0:0:0:0:
256,192,306436,1,0,0:0:0:0:
182,192,306513,1,0,0:0:0:0:
475,192,306513,1,0,0:0:0:0:
109,192,306513,1,0,0:0:0:0:
36,192,306513,1,0,0:0:0:0:
402,192,306513,1,0,0:0:0:0:
329,192,306590,1,0,0:0:0:0:
36,192,306667,1,0,0:0:0:0:
256,192,306667,1,0,0:0:0:0:
109,192,306744,1,0,0:0:0:0:
182,192,306821,1,0,0:0:0:0:
402,192,306821,1,0,0:0:0:0:
329,192,306821,1,0,0:0:0:0:
475,192,306821,1,0,0:0:0:0:
36,192,306898,1,0,0:0:0:0:
256,192,306975,1,0,0:0:0:0:
329,192,306975,1,0,0:0:0:0:
109,192,307051,1,0,0:0:0:0:
329,192,307128,1,0,0:0:0:0:
256,192,307128,1,0,0:0:0:0:
36,192,307128,1,0,0:0:0:0:
475,192,307128,1,0,0:0:0:0:
402,192,307128,1,0,0:0:0:0:
182,192,307205,1,0,0:0:0:0:
402,192,307282,1,0,0:0:0:0:
109,192,307282,1,0,0:0:0:0:
256,192,307359,1,0,0:0:0:0:
36,192,307436,1,0,0:0:0:0:
329,192,307436,1,0,0:0:0:0:
475,192,307436,1,0,0:0:0:0:
402,192,307436,1,0,0:0:0:0:
182,192,307513,1,0,0:0:0:0:
109,192,307590,1,0,0:0:0:0:
329,192,307590,1,0,0:0:0:0:
256,192,307667,1,0,0:0:0:0:
182,192,307744,1,0,0:0:0:0:
109,192,307744,1,0,0:0:0:0:
36,192,307744,1,0,0:0:0:0:
402,192,307744,1,0,0:0:0:0:
475,192,307744,1,0,0:0:0:0:
329,192,307821,1,0,0:0:0:0:
256,192,307898,1,0,0:0:0:0:
36,192,307898,1,0,0:0:0:0:
402,192,307975,1,0,0:0:0:0:
329,192,308051,1,0,0:0:0:0:
182,192,308051,1,0,0:0:0:0:
36,192,308051,1,0,0:0:0:0:
109,192,308051,1,0,0:0:0:0:
475,192,308128,1,0,0:0:0:0:
256,192,308205,1,0,0:0:0:0:
182,192,308205,1,0,0:0:0:0:
402,192,308282,1,0,0:0:0:0:
182,192,308359,1,0,0:0:0:0:
36,192,308359,1,0,0:0:0:0:
256,192,308359,1,0,0:0:0:0:
475,192,308359,1,0,0:0:0:0:
109,192,308359,1,0,0:0:0:0:
329,192,308436,1,0,0:0:0:0:
109,192,308513,1,0,0:0:0:0:
402,192,308513,1,0,0:0:0:0:
256,192,308590,1,0,0:0:0:0:
475,192,308667,1,0,0:0:0:0:
36,192,308667,1,0,0:0:0:0:
182,192,308667,1,0,0:0:0:0:
402,192,308667,1,0,0:0:0:0:
329,192,308744,1,0,0:0:0:0:
182,192,308821,1,0,0:0:0:0:
109,192,308821,1,0,0:0:0:0:
402,192,308898,1,0,0:0:0:0:
256,192,308975,1,0,0:0:0:0:
475,192,308975,1,0,0:0:0:0:
182,192,308975,1,0,0:0:0:0:
36,192,308975,1,0,0:0:0:0:
329,192,308975,1,0,0:0:0:0:
109,192,309051,1,0,0:0:0:0:
329,192,309128,1,0,0:0:0:0:
402,192,309128,1,0,0:0:0:0:
182,192,309205,1,0,0:0:0:0:
36,192,309282,1,0,0:0:0:0:
109,192,309282,1,0,0:0:0:0:
329,192,309282,1,0,0:0:0:0:
475,192,309282,1,0,0:0:0:0:
402,192,309359,1,0,0:0:0:0:
256,192,309436,1,0,0:0:0:0:
329,192,309436,1,0,0:0:0:0:
109,192,309513,1,0,0:0:0:0:
475,192,309590,1,0,0:0:0:0:
402,192,309590,1,0,0:0:0:0:
256,192,309590,1,0,0:0:0:0:
182,192,309590,1,0,0:0:0:0:
36,192,309590,1,0,0:0:0:0:
329,192,309667,1,0,0:0:0:0:
182,192,309744,1,0,0:0:0:0:
109,192,309744,1,0,0:0:0:0:
402,192,309821,1,0,0:0:0:0:
36,192,309898,1,0,0:0:0:0:
256,192,309898,1,0,0:0:0:0:
109,192,309898,1,0,0:0:0:0:
475,192,309898,1,0,0:0:0:0:
182,192,309975,1,0,0:0:0:0:
329,192,310051,1,0,0:0:0:0:
402,192,310051,1,0,0:0:0:0:
109,192,310128,1,0,0:0:0:0:
256,192,310205,1,0,0:0:0:0:
329,192,310205,1,0,0:0:0:0:
475,192,310205,1,0,0:0:0:0:
182,192,310205,1,0,0:0:0:0:
36,192,310205,1,0,0:0:0:0:
402,192,310282,1,0,0:0:0:0:
182,192,310359,1,0,0:0:0:0:
109,192,310359,1,0,0:0:0:0:
329,192,310436,1,0,0:0:0:0:
475,192,310513,1,0,0:0:0:0:
256,192,310513,1,0,0:0:0:0:
402,192,310513,1,0,0:0:0:0:
36,192,310513,1,0,0:0:0:0:
182,192,310590,1,0,0:0:0:0:
109,192,310667,1,0,0:0:0:0:
329,192,310667,1,0,0:0:0:0:
182,192,310744,1,0,0:0:0:0:
36,192,310821,1,0,0:0:0:0:
329,192,310821,1,0,0:0:0:0:
256,192,310821,1,0,0:0:0:0:
475,192,310821,1,0,0:0:0:0:
402,192,310821,1,0,0:0:0:0:
109,192,310898,1,0,0:0:0:0:
182,192,310975,1,0,0:0:0:0:
256,192,310975,1,0,0:0:0:0:
402,192,310975,1,0,0:0:0:0:
475,192,310975,1,0,0:0:0:0:
329,192,311051,1,0,0:0:0:0:
109,192,311128,1,0,0:0:0:0:
36,192,311128,1,0,0:0:0:0:
475,192,311128,1,0,0:0:0:0:
182,192,311128,1,0,0:0:0:0:
256,192,311128,1,0,0:0:0:0:
402,192,311205,1,0,0:0:0:0:
109,192,311282,1,0,0:0:0:0:
36,192,311282,1,0,0:0:0:0:
329,192,311282,1,0,0:0:0:0:
256,192,311282,1,0,0:0:0:0:
402,192,311359,1,0,0:0:0:0:
109,192,311436,1,0,0:0:0:0:
36,192,311436,1,0,0:0:0:0:
475,192,311436,1,0,0:0:0:0:
182,192,311436,1,0,0:0:0:0:
256,192,311513,1,0,0:0:0:0:
109,192,311590,1,0,0:0:0:0:
36,192,311590,1,0,0:0:0:0:
329,192,311590,1,0,0:0:0:0:
402,192,311590,1,0,0:0:0:0:
256,192,311667,1,0,0:0:0:0:
109,192,311744,1,0,0:0:0:0:
36,192,311744,1,0,0:0:0:0:
475,192,311744,1,0,0:0:0:0:
182,192,311744,1,0,0:0:0:0:
402,192,311821,1,0,0:0:0:0:
109,192,311898,1,0,0:0:0:0:
36,192,311898,1,0,0:0:0:0:
329,192,311898,1,0,0:0:0:0:
475,192,311898,1,0,0:0:0:0:
256,192,311975,1,0,0:0:0:0:
36,192,312051,1,0,0:0:0:0:
109,192,312051,1,0,0:0:0:0:
402,192,312051,1,0,0:0:0:0:
182,192,312051,1,0,0:0:0:0:
256,192,312128,1,0,0:0:0:0:
109,192,312205,1,0,0:0:0:0:
36,192,312205,1,0,0:0:0:0:
475,192,312205,1,0,0:0:0:0:
329,192,312205,1,0,0:0:0:0:
256,192,312282,1,0,0:0:0:0:
402,192,312359,1,0,0:0:0:0:
475,192,312359,1,0,0:0:0:0:
182,192,312359,1,0,0:0:0:0:
36,192,312359,1,0,0:0:0:0:
109,192,312436,5,0,0:0:0:0:
475,192,312513,5,0,0:0:0:0:
256,192,312513,1,0,0:0:0:0:
402,192,312513,1,0,0:0:0:0:
182,192,312513,1,0,0:0:0:0:
109,192,312590,1,0,0:0:0:0:
475,192,312667,1,0,0:0:0:0:
402,192,312667,1,0,0:0:0:0:
329,192,312667,1,0,0:0:0:0:
36,192,312667,1,0,0:0:0:0:
256,192,312744,1,0,0:0:0:0:
402,192,312821,1,0,0:0:0:0:
475,192,312821,1,0,0:0:0:0:
109,192,312821,1,0,0:0:0:0:
182,192,312821,1,0,0:0:0:0:
256,192,312898,1,0,0:0:0:0:
475,192,312975,1,0,0:0:0:0:
402,192,312975,1,0,0:0:0:0:
329,192,312975,1,0,0:0:0:0:
36,192,312975,1,0,0:0:0:0:
109,192,313051,1,0,0:0:0:0:
475,192,313128,1,0,0:0:0:0:
402,192,313128,1,0,0:0:0:0:
36,192,313128,1,0,0:0:0:0:
182,192,313128,1,0,0:0:0:0:
256,192,313205,1,0,0:0:0:0:
402,192,313282,1,0,0:0:0:0:
475,192,313282,1,0,0:0:0:0:
329,192,313282,1,0,0:0:0:0:
109,192,313282,1,0,0:0:0:0:
256,192,313359,1,0,0:0:0:0:
475,192,313436,1,0,0:0:0:0:
402,192,313436,1,0,0:0:0:0:
182,192,313436,1,0,0:0:0:0:
36,192,313436,1,0,0:0:0:0:
256,192,313513,1,0,0:0:0:0:
329,192,313590,5,0,0:0:0:0:
402,192,313590,1,0,0:0:0:0:
475,192,313590,1,0,0:0:0:0:
109,192,313667,1,0,0:0:0:0:
36,192,313667,1,0,0:0:0:0:
256,192,313744,1,0,0:0:0:0:
329,192,313744,1,0,0:0:0:0:
182,192,313744,1,0,0:0:0:0:
475,192,313821,1,0,0:0:0:0:
402,192,313821,1,0,0:0:0:0:
256,192,313898,1,0,0:0:0:0:
182,192,313898,1,0,0:0:0:0:
36,192,313898,1,0,0:0:0:0:
109,192,313898,1,0,0:0:0:0:
329,192,313975,1,0,0:0:0:0:
402,192,313975,1,0,0:0:0:0:
475,192,314051,1,0,0:0:0:0:
182,192,314051,1,0,0:0:0:0:
109,192,314051,1,0,0:0:0:0:
256,192,314128,1,0,0:0:0:0:
329,192,314128,1,0,0:0:0:0:
402,192,314128,1,0,0:0:0:0:
36,192,314205,1,0,0:0:0:0:
182,192,314205,1,0,0:0:0:0:
109,192,314205,1,0,0:0:0:0:
475,192,314282,1,0,0:0:0:0:
402,192,314282,1,0,0:0:0:0:
329,192,314359,1,0,0:0:0:0:
256,192,314359,1,0,0:0:0:0:
182,192,314359,1,0,0:0:0:0:
109,192,314436,1,0,0:0:0:0:
36,192,314436,1,0,0:0:0:0:
475,192,314513,1,0,0:0:0:0:
256,192,314513,1,0,0:0:0:0:
329,192,314513,1,0,0:0:0:0:
402,192,314513,1,0,0:0:0:0:
182,192,314590,1,0,0:0:0:0:
109,192,314590,1,0,0:0:0:0:
329,192,314667,1,0,0:0:0:0:
402,192,314667,1,0,0:0:0:0:
36,192,314667,1,0,0:0:0:0:
182,192,314744,1,0,0:0:0:0:
256,192,314744,1,0,0:0:0:0:
109,192,314744,1,0,0:0:0:0:
402,192,314821,1,0,0:0:0:0:
475,192,314821,1,0,0:0:0:0:
36,192,314821,1,0,0:0:0:0:
256,192,314898,1,0,0:0:0:0:
329,192,314898,1,0,0:0:0:0:
182,192,314975,1,0,0:0:0:0:
109,192,314975,1,0,0:0:0:0:
36,192,314975,1,0,0:0:0:0:
329,192,315051,1,0,0:0:0:0:
402,192,315051,1,0,0:0:0:0:
475,192,315128,1,0,0:0:0:0:
256,192,315128,1,0,0:0:0:0:
182,192,315128,1,0,0:0:0:0:
329,192,315205,1,0,0:0:0:0:
402,192,315205,1,0,0:0:0:0:
109,192,315282,1,0,0:0:0:0:
36,192,315282,1,0,0:0:0:0:
182,192,315282,1,0,0:0:0:0:
329,192,315359,1,0,0:0:0:0:
256,192,315359,1,0,0:0:0:0:
109,192,315436,1,0,0:0:0:0:
36,192,315436,1,0,0:0:0:0:
402,192,315436,1,0,0:0:0:0:
182,192,315513,1,0,0:0:0:0:
256,192,315513,1,0,0:0:0:0:
329,192,315590,1,0,0:0:0:0:
402,192,315590,1,0,0:0:0:0:
475,192,315590,1,0,0:0:0:0:
109,192,315667,1,0,0:0:0:0:
182,192,315667,1,0,0:0:0:0:
36,192,315744,1,0,0:0:0:0:
256,192,315744,1,0,0:0:0:0:
402,192,315744,1,0,0:0:0:0:
475,192,315744,1,0,0:0:0:0:
109,192,315821,1,0,0:0:0:0:
182,192,315821,1,0,0:0:0:0:
329,192,315821,1,0,0:0:0:0:
475,192,315898,1,0,0:0:0:0:
256,192,315898,1,0,0:0:0:0:
36,192,315898,1,0,0:0:0:0:
182,192,315975,1,0,0:0:0:0:
329,192,315975,1,0,0:0:0:0:
402,192,315975,1,0,0:0:0:0:
475,192,316051,1,0,0:0:0:0:
36,192,316051,1,0,0:0:0:0:
109,192,316051,1,0,0:0:0:0:
256,192,316051,1,0,0:0:0:0:
