osu file format v14

[General]
AudioFilename: Pacific Girls.mp3
AudioLeadIn: 1500
PreviewTime: 256399
Countdown: 0
SampleSet: None
StackLeniency: 0.7
Mode: 2
LetterboxInBreaks: 0
WidescreenStoryboard: 1

[Editor]
Bookmarks: 49015,49630,68707,69323,163780,171318,177011,186857,187780,189011,270857,294376
DistanceSpacing: 0.4
BeatDivisor: 16
GridSize: 16
TimelineZoom: 4.311726

[Metadata]
Title:Pacific Girls
TitleUnicode:Pacific Girls
Artist:DJ Sharpnel
ArtistUnicode:DJ Sharpnel
Creator:ExGon
Version:Part 1
Source:艦隊これくしょん
Tags:Combined Fleet Kantai Collection Nuclear Blast JS Awesome Bomb Filez 5 NB5 OTAKUSPEEDVIBE KanColle Stepmania,Dakkychan
BeatmapID:1146298
BeatmapSetID:539728

[Difficulty]
HPDrainRate:1.1
CircleSize:4
OverallDifficulty:9.6
ApproachRate:9.6
SliderMultiplier:2.5
SliderTickRate:1

[Events]
//Background and Video events
0,0,"pacific-bg2.png",0,0
//Break Periods
2,197518,199255
//Storyboard Layer 0 (Background)
//Storyboard Layer 1 (Fail)
//Storyboard Layer 2 (Pass)
//Storyboard Layer 3 (Foreground)
//Storyboard Sound Samples

[TimingPoints]
400,307.692307692308,4,1,1,30,1,0
21400,-86.9565217391304,4,1,1,30,0,0
22015,-86.9565217391304,4,2,1,30,0,0
22092,-86.9565217391304,4,1,1,30,0,0
24476,-86.9565217391304,4,2,1,30,0,0
24553,-86.9565217391304,4,1,1,30,0,0
24630,-86.9565217391304,4,2,1,30,0,0
24707,-86.9565217391304,4,1,1,30,0,0
25015,-86.9565217391304,4,1,1,50,0,0
25092,-86.9565217391304,4,1,1,30,0,0
26938,-86.9565217391304,4,2,1,30,0,0
27015,-86.9565217391304,4,1,1,30,0,0
29400,-86.9565217391304,4,2,1,30,0,0
29476,-86.9565217391304,4,1,1,30,0,0
29553,-86.9565217391304,4,2,1,30,0,0
29630,-86.9565217391304,4,1,1,30,0,0
29938,-86.9565217391304,4,1,1,50,0,0
30015,-86.9565217391304,4,1,1,30,0,0
31861,-86.9565217391304,4,2,1,30,0,0
31938,-86.9565217391304,4,1,1,30,0,0
34323,-86.9565217391304,4,2,1,30,0,0
34400,-86.9565217391304,4,1,1,30,0,0
34476,-86.9565217391304,4,2,1,30,0,0
34553,-86.9565217391304,4,1,1,30,0,0
34861,-86.9565217391304,4,1,1,50,0,0
34938,-86.9565217391304,4,1,1,50,0,0
37323,-100,4,1,1,50,0,0
37400,-100,4,2,1,35,0,0
37476,-100,4,1,1,50,0,0
37707,-100,4,2,1,35,0,0
37784,-100,4,1,1,50,0,0
38015,-100,4,2,1,35,0,0
38092,-100,4,1,1,50,0,0
38323,-100,4,2,1,35,0,0
38400,-100,4,1,1,50,0,0
38553,-100,4,1,1,50,0,0
38630,-100,4,2,1,35,0,0
38707,-100,4,1,1,50,0,0
38784,-100,4,2,1,35,0,0
38861,-100,4,1,1,50,0,0
38938,-100,4,2,1,35,0,0
39015,-100,4,1,1,50,0,0
39092,-100,4,2,1,35,0,0
39169,-100,4,1,1,50,0,0
39246,-100,4,2,1,35,0,0
39323,-100,4,1,1,50,0,0
39400,-100,4,2,1,35,0,0
39476,-100,4,1,1,50,0,0
39553,-100,4,2,1,35,0,0
39630,-100,4,1,1,50,0,0
39707,-100,4,2,1,35,0,0
39784,-100,4,1,1,50,0,0
39861,-100,4,2,1,40,0,0
39938,-100,4,1,1,40,0,0
40169,-100,4,2,1,40,0,0
40246,-100,4,1,1,40,0,0
40400,-117.647058823529,4,1,1,40,0,0
40476,-117.647058823529,4,2,1,40,0,0
40553,-117.647058823529,4,1,1,40,0,0
40784,-117.647058823529,4,2,1,40,0,0
40861,-117.647058823529,4,1,1,40,0,0
41015,-100,4,1,1,40,0,0
41092,-100,4,2,1,40,0,0
41169,-100,4,1,1,40,0,0
41400,-100,4,2,1,40,0,0
41476,-100,4,1,1,40,0,0
41630,-117.647058823529,4,1,1,40,0,0
41707,-117.647058823529,4,2,1,40,0,0
41784,-117.647058823529,4,1,1,40,0,0
42015,-117.647058823529,4,2,1,40,0,0
42092,-117.647058823529,4,1,1,40,0,0
42246,-100,4,1,1,40,0,0
42323,-100,4,2,1,40,0,0
42400,-100,4,1,1,40,0,0
42630,-100,4,2,1,40,0,0
42707,-100,4,1,1,40,0,0
42938,-100,4,2,1,40,0,0
43015,-100,4,1,1,40,0,0
43246,-100,4,2,1,40,0,0
43323,-100,4,1,1,40,0,0
43553,-100,4,2,1,40,0,0
43630,-100,4,1,1,40,0,0
43861,-100,4,2,1,40,0,0
43938,-100,4,1,1,40,0,0
44169,-100,4,2,1,40,0,0
44246,-100,4,1,1,40,0,0
44476,-100,4,2,1,40,0,0
44553,-100,4,1,1,40,0,0
44630,-100,4,2,1,40,0,0
44707,-100,4,1,1,40,0,0
44784,-100,4,2,1,40,0,0
44861,-100,4,1,1,40,0,0
45092,-100,4,2,1,40,0,0
45169,-100,4,1,1,40,0,0
45400,-100,4,2,1,40,0,0
45476,-100,4,1,1,40,0,0
45707,-100,4,2,1,40,0,0
45784,-100,4,1,1,40,0,0
46015,-100,4,2,1,40,0,0
46092,-100,4,1,1,40,0,0
46323,-100,4,2,1,40,0,0
46400,-100,4,1,1,40,0,0
46630,-100,4,2,1,40,0,0
46707,-100,4,1,1,40,0,0
46938,-100,4,2,1,40,0,0
47015,-100,4,1,1,40,0,0
47246,-100,4,2,1,40,0,0
47323,-100,4,1,1,40,0,0
47553,-100,4,2,1,40,0,0
47630,-100,4,1,1,40,0,0
47861,-100,4,2,1,40,0,0
47938,-100,4,1,1,40,0,0
48169,-100,4,2,1,40,0,0
48246,-100,4,1,1,40,0,0
48476,-100,4,2,1,40,0,0
48553,-100,4,1,1,40,0,0
48784,-100,4,2,1,40,0,0
48861,-100,4,1,1,40,0,0
49630,-100,4,1,1,40,0,0
49707,-100,4,2,1,40,0,0
49784,-100,4,1,1,40,0,0
50015,-100,4,2,1,40,0,0
50092,-100,4,1,1,40,0,0
50323,-100,4,2,1,40,0,0
50400,-100,4,1,1,40,0,0
50630,-100,4,2,1,40,0,0
50707,-100,4,1,1,40,0,0
50938,-100,4,2,1,40,0,0
51015,-100,4,1,1,40,0,0
51246,-100,4,2,1,40,0,0
51323,-100,4,1,1,40,0,0
51553,-100,4,2,1,40,0,0
51630,-100,4,1,1,40,0,0
51861,-100,4,2,1,40,0,0
51938,-100,4,1,1,40,0,0
52169,-100,4,2,1,40,0,0
52246,-100,4,1,1,40,0,0
52476,-100,4,2,1,40,0,0
52553,-100,4,1,1,40,0,0
52784,-100,4,2,1,40,0,0
52861,-100,4,1,1,40,0,0
53092,-100,4,2,1,40,0,0
53169,-100,4,1,1,40,0,0
53400,-100,4,2,1,40,0,0
53476,-100,4,1,1,40,0,0
53707,-100,4,2,1,40,0,0
53784,-100,4,1,1,40,0,0
54015,-100,4,2,1,40,0,0
54092,-100,4,1,1,40,0,0
54323,-100,4,2,1,40,0,0
54400,-100,4,1,1,40,0,0
54476,-100,4,2,1,40,0,0
54553,-100,4,1,1,40,0,0
54630,-100,4,2,1,40,0,0
54707,-100,4,1,1,40,0,0
54938,-100,4,2,1,40,0,0
55015,-100,4,1,1,40,0,0
55246,-100,4,2,1,40,0,0
55323,-100,4,1,1,40,0,0
55553,-100,4,2,1,40,0,0
55630,-100,4,1,1,40,0,0
55861,-100,4,2,1,40,0,0
55938,-100,4,1,1,40,0,0
56169,-100,4,2,1,40,0,0
56246,-100,4,1,1,40,0,0
56400,-117.647058823529,4,1,1,40,0,0
56476,-117.647058823529,4,2,1,40,0,0
56553,-117.647058823529,4,1,1,40,0,0
56784,-117.647058823529,4,2,1,40,0,0
56861,-117.647058823529,4,1,1,40,0,0
57169,-117.647058823529,4,3,1,40,0,0
57323,-117.647058823529,4,1,1,40,0,0
59476,-83.3333333333333,4,1,1,40,0,0
59553,-83.3333333333333,4,2,1,40,0,0
59630,-83.3333333333333,4,1,1,40,0,0
59861,-83.3333333333333,4,2,1,40,0,0
59938,-83.3333333333333,4,1,1,40,0,0
60169,-83.3333333333333,4,2,1,40,0,0
60246,-83.3333333333333,4,1,1,40,0,0
60476,-83.3333333333333,4,2,1,40,0,0
60553,-83.3333333333333,4,1,1,40,0,0
60784,-83.3333333333333,4,2,1,40,0,0
60861,-83.3333333333333,4,1,1,40,0,0
61092,-83.3333333333333,4,2,1,40,0,0
61169,-83.3333333333333,4,1,1,40,0,0
61400,-83.3333333333333,4,2,1,40,0,0
61476,-83.3333333333333,4,1,1,40,0,0
61707,-83.3333333333333,4,2,1,40,0,0
61784,-83.3333333333333,4,1,1,40,0,0
61938,-90.9090909090909,4,1,1,40,0,0
62015,-90.9090909090909,4,2,1,40,0,0
62092,-90.9090909090909,4,1,1,40,0,0
62323,-90.9090909090909,4,2,1,40,0,0
62400,-90.9090909090909,4,1,1,40,0,0
62630,-90.9090909090909,4,2,1,40,0,0
62707,-90.9090909090909,4,1,1,40,0,0
62938,-90.9090909090909,4,2,1,40,0,0
63015,-90.9090909090909,4,1,1,40,0,0
63246,-90.9090909090909,4,2,1,40,0,0
63323,-90.9090909090909,4,1,1,40,0,0
63553,-90.9090909090909,4,2,1,40,0,0
63630,-90.9090909090909,4,1,1,40,0,0
63861,-90.9090909090909,4,2,1,40,0,0
63938,-90.9090909090909,4,1,1,40,0,0
64169,-90.9090909090909,4,2,1,40,0,0
64246,-90.9090909090909,4,1,1,40,0,0
64323,-90.9090909090909,4,2,1,40,0,0
64400,-90.9090909090909,4,1,1,40,0,0
64476,-90.9090909090909,4,2,1,40,0,0
64553,-90.9090909090909,4,1,1,40,0,0
64784,-90.9090909090909,4,2,1,40,0,0
64861,-90.9090909090909,4,1,1,40,0,0
65092,-90.9090909090909,4,2,1,40,0,0
65169,-90.9090909090909,4,1,1,40,0,0
65323,-76.9230769230769,4,1,1,40,0,0
65400,-76.9230769230769,4,2,1,40,0,0
65476,-76.9230769230769,4,1,1,40,0,0
65707,-76.9230769230769,4,2,1,40,0,0
65784,-76.9230769230769,4,1,1,40,0,0
66015,-76.9230769230769,4,2,1,40,0,0
66092,-76.9230769230769,4,1,1,40,0,0
66323,-76.9230769230769,4,2,1,40,0,0
66400,-76.9230769230769,4,1,1,40,0,0
66630,-76.9230769230769,4,2,1,40,0,0
66707,-76.9230769230769,4,1,1,40,0,0
66938,-76.9230769230769,4,2,1,40,0,0
67015,-76.9230769230769,4,1,1,40,0,0
67246,-76.9230769230769,4,2,1,40,0,0
67323,-76.9230769230769,4,1,1,40,0,0
67553,-76.9230769230769,4,2,1,40,0,0
67630,-76.9230769230769,4,1,1,40,0,0
67861,-76.9230769230769,4,2,1,40,0,0
67938,-76.9230769230769,4,1,1,40,0,0
68169,-76.9230769230769,4,2,1,40,0,0
68246,-76.9230769230769,4,1,1,40,0,0
68476,-76.9230769230769,4,2,1,40,0,0
68553,-76.9230769230769,4,1,1,40,0,0
68784,-76.9230769230769,4,2,1,40,0,0
68861,-76.9230769230769,4,1,1,40,0,0
68938,-76.9230769230769,4,2,1,40,0,0
69015,-76.9230769230769,4,1,1,40,0,0
69092,-76.9230769230769,4,2,1,40,0,0
69169,-76.9230769230769,4,1,1,40,0,0
69323,-76.9230769230769,4,1,1,40,0,0
69400,-76.9230769230769,4,2,1,40,0,0
69476,-76.9230769230769,4,1,1,40,0,0
69707,-76.9230769230769,4,2,1,40,0,0
69784,-76.9230769230769,4,1,1,40,0,0
70015,-76.9230769230769,4,2,1,40,0,0
70092,-76.9230769230769,4,1,1,40,0,0
70323,-76.9230769230769,4,2,1,40,0,0
70400,-76.9230769230769,4,1,1,40,0,0
70630,-76.9230769230769,4,2,1,40,0,0
70707,-76.9230769230769,4,1,1,40,0,0
70938,-76.9230769230769,4,2,1,40,0,0
71015,-76.9230769230769,4,1,1,40,0,0
71246,-76.9230769230769,4,2,1,40,0,0
71323,-76.9230769230769,4,1,1,40,0,0
71553,-76.9230769230769,4,2,1,40,0,0
71630,-76.9230769230769,4,1,1,40,0,0
71861,-76.9230769230769,4,2,1,40,0,0
71938,-76.9230769230769,4,1,1,40,0,0
72169,-76.9230769230769,4,2,1,40,0,0
72246,-76.9230769230769,4,1,1,40,0,0
72476,-76.9230769230769,4,2,1,40,0,0
72553,-76.9230769230769,4,1,1,40,0,0
72784,-76.9230769230769,4,2,1,40,0,0
72861,-76.9230769230769,4,1,1,40,0,0
73092,-76.9230769230769,4,2,1,40,0,0
73169,-76.9230769230769,4,1,1,40,0,0
73400,-76.9230769230769,4,2,1,40,0,0
73476,-76.9230769230769,4,1,1,40,0,0
73707,-76.9230769230769,4,2,1,40,0,0
73784,-76.9230769230769,4,1,1,40,0,0
74015,-76.9230769230769,4,2,1,40,0,0
74092,-76.9230769230769,4,1,1,40,0,0
74169,-76.9230769230769,4,2,1,40,0,0
74246,-76.9230769230769,4,1,1,40,0,0
74323,-76.9230769230769,4,2,1,40,0,0
74400,-76.9230769230769,4,1,1,40,0,0
74630,-76.9230769230769,4,2,1,40,0,0
74707,-76.9230769230769,4,1,1,40,0,0
74938,-76.9230769230769,4,2,1,40,0,0
75015,-76.9230769230769,4,1,1,40,0,0
75246,-76.9230769230769,4,2,1,40,0,0
75323,-76.9230769230769,4,1,1,40,0,0
75553,-76.9230769230769,4,2,1,40,0,0
75630,-76.9230769230769,4,1,1,40,0,0
75861,-76.9230769230769,4,2,1,40,0,0
75938,-76.9230769230769,4,1,1,40,0,0
76784,-76.9230769230769,4,2,1,40,0,0
76861,-76.9230769230769,4,1,1,40,0,0
77092,-76.9230769230769,4,2,1,40,0,0
77169,-76.9230769230769,4,1,1,40,0,0
77400,-76.9230769230769,4,2,1,40,0,0
77476,-76.9230769230769,4,1,1,40,0,0
77707,-76.9230769230769,4,2,1,40,0,0
77784,-76.9230769230769,4,1,1,40,0,0
78015,-76.9230769230769,4,2,1,50,0,0
78092,-76.9230769230769,4,1,1,50,0,0
78323,-76.9230769230769,4,2,1,50,0,0
78400,-76.9230769230769,4,1,1,50,0,0
79169,-76.9230769230769,4,1,1,50,0,0
79246,-76.9230769230769,4,2,1,50,0,0
79400,-76.9230769230769,4,1,1,50,0,0
79938,-76.9230769230769,4,2,1,50,0,0
80015,-76.9230769230769,4,1,1,50,0,0
80476,-76.9230769230769,4,2,1,50,0,0
80630,-76.9230769230769,4,1,1,50,0,0
81013,153.846153846154,4,1,1,50,1,0
81013,-153.846153846154,4,1,1,50,0,0
81474,-153.846153846154,4,2,1,50,0,0
81551,-153.846153846154,4,1,1,50,0,0
81627,307.692307692308,4,1,1,50,1,0
81627,-76.9230769230769,4,1,1,50,0,0
81780,-76.9230769230769,4,2,1,50,0,0
81857,-76.9230769230769,4,1,1,50,0,0
82319,-76.9230769230769,4,2,1,50,0,0
82473,-76.9230769230769,4,1,1,50,0,0
82934,-76.9230769230769,4,2,1,50,0,0
83088,-76.9230769230769,4,1,1,50,0,0
83473,153.846153846154,4,1,1,50,1,0
83473,-153.846153846154,4,1,1,50,0,0
84088,307.692307692308,4,1,1,50,1,0
84088,-76.9230769230769,4,1,1,50,0,0
84164,-76.9230769230769,4,2,1,50,0,0
84318,-76.9230769230769,4,1,1,50,0,0
84780,-76.9230769230769,4,2,1,50,0,0
84934,-76.9230769230769,4,1,1,50,0,0
85395,-76.9230769230769,4,2,1,50,0,0
85549,-76.9230769230769,4,1,1,50,0,0
86011,-76.9230769230769,4,2,1,50,0,0
86164,-76.9230769230769,4,1,1,50,0,0
86626,-76.9230769230769,4,2,1,50,0,0
86780,-76.9230769230769,4,1,1,50,0,0
87241,-76.9230769230769,4,2,1,50,0,0
87395,-76.9230769230769,4,1,1,50,0,0
87857,-76.9230769230769,4,2,1,50,0,0
88011,-76.9230769230769,4,1,1,50,0,0
88472,-76.9230769230769,4,2,1,50,0,0
88549,-76.9230769230769,4,1,1,50,0,0
89088,-76.9230769230769,4,2,1,50,0,0
89241,-76.9230769230769,4,1,1,50,0,0
89703,-76.9230769230769,4,2,1,50,0,0
89857,-76.9230769230769,4,1,1,50,0,0
90318,-76.9230769230769,4,2,1,50,0,0
90472,-76.9230769230769,4,1,1,50,0,0
90934,-76.9230769230769,4,2,1,50,0,0
91088,-76.9230769230769,4,1,1,50,0,0
91703,-76.9230769230769,4,1,1,50,0,0
92164,-76.9230769230769,4,2,1,50,0,0
92318,-76.9230769230769,4,1,1,50,0,0
94395,-76.9230769230769,4,2,1,50,0,0
94549,-76.9230769230769,4,1,1,50,0,0
95011,-76.9230769230769,4,2,1,50,0,0
95164,-76.9230769230769,4,1,1,50,0,0
95626,-76.9230769230769,4,2,1,50,0,0
95780,-76.9230769230769,4,1,1,50,0,0
96241,-76.9230769230769,4,2,1,50,0,0
96395,-76.9230769230769,4,1,1,50,0,0
96857,-76.9230769230769,4,2,1,50,0,0
97011,-76.9230769230769,4,1,1,50,0,0
97472,-76.9230769230769,4,2,1,50,0,0
97626,-76.9230769230769,4,1,1,50,0,0
98395,-76.9230769230769,4,1,1,50,0,0
98472,-76.9230769230769,4,2,1,50,0,0
98549,-76.9230769230769,4,1,1,50,0,0
98626,-76.9230769230769,4,2,1,30,0,0
98703,-76.9230769230769,4,1,1,50,0,0
98780,-76.9230769230769,4,2,1,30,0,0
98857,-76.9230769230769,4,1,1,50,0,0
98934,-76.9230769230769,4,2,1,30,0,0
99011,-76.9230769230769,4,1,1,50,0,0
99164,-83.3333333333333,4,1,1,50,0,0
99241,-83.3333333333333,4,2,1,30,0,0
99472,-83.3333333333333,4,1,1,50,0,0
99549,-83.3333333333333,4,2,1,30,0,0
99780,-83.3333333333333,4,1,1,50,0,0
99857,-83.3333333333333,4,2,1,30,0,0
100088,-83.3333333333333,4,1,1,50,0,0
100164,-83.3333333333333,4,2,1,30,0,0
100395,-83.3333333333333,4,1,1,50,0,0
100472,-83.3333333333333,4,2,1,30,0,0
100703,-83.3333333333333,4,1,1,50,0,0
100780,-83.3333333333333,4,2,1,30,0,0
101011,-83.3333333333333,4,1,1,50,0,0
101088,-83.3333333333333,4,2,1,30,0,0
101318,-83.3333333333333,4,1,1,50,0,0
101395,-83.3333333333333,4,2,1,30,0,0
101626,-83.3333333333333,4,1,1,50,0,0
101703,-83.3333333333333,4,2,1,30,0,0
101934,-83.3333333333333,4,1,1,50,0,0
102011,-83.3333333333333,4,2,1,30,0,0
102241,-83.3333333333333,4,1,1,50,0,0
102318,-83.3333333333333,4,2,1,30,0,0
102549,-83.3333333333333,4,1,1,50,0,0
102626,-83.3333333333333,4,2,1,30,0,0
102857,-83.3333333333333,4,1,1,50,0,0
102934,-83.3333333333333,4,2,1,30,0,0
103164,-83.3333333333333,4,1,1,50,0,0
103241,-83.3333333333333,4,2,1,30,0,0
103472,-83.3333333333333,4,1,1,50,0,0
103549,-83.3333333333333,4,2,1,30,0,0
103780,-83.3333333333333,4,1,1,50,0,0
103857,-83.3333333333333,4,2,1,30,0,0
104088,-83.3333333333333,4,1,1,50,0,0
104472,-83.3333333333333,4,2,1,30,0,0
104549,-83.3333333333333,4,1,1,50,0,0
105088,-83.3333333333333,4,2,1,30,0,0
105164,-83.3333333333333,4,1,1,50,0,0
105703,-83.3333333333333,4,2,1,30,0,0
105780,-83.3333333333333,4,1,1,50,0,0
106318,-83.3333333333333,4,2,1,30,0,0
106395,-83.3333333333333,4,1,1,50,0,0
106934,-83.3333333333333,4,2,1,30,0,0
107011,-83.3333333333333,4,1,1,50,0,0
107549,-83.3333333333333,4,2,1,30,0,0
107626,-83.3333333333333,4,1,1,50,0,0
108164,-83.3333333333333,4,1,1,50,0,0
108318,-83.3333333333333,4,2,1,30,0,0
108395,-83.3333333333333,4,1,1,50,0,0
108472,-83.3333333333333,4,2,1,30,0,0
108549,-83.3333333333333,4,1,1,50,0,0
108626,-83.3333333333333,4,2,1,30,0,0
108703,-83.3333333333333,4,1,1,50,0,0
108780,-83.3333333333333,4,2,1,30,0,0
108857,-83.3333333333333,4,1,1,50,0,0
108934,-83.3333333333333,4,2,1,50,0,0
109011,-83.3333333333333,4,1,1,50,0,0
109241,-83.3333333333333,4,2,1,50,0,0
109318,-83.3333333333333,4,1,1,50,0,0
109549,-83.3333333333333,4,2,1,50,0,0
109626,-83.3333333333333,4,1,1,50,0,0
109857,-83.3333333333333,4,2,1,50,0,0
109934,-83.3333333333333,4,1,1,50,0,0
110164,-83.3333333333333,4,2,1,50,0,0
110241,-83.3333333333333,4,1,1,50,0,0
110472,-83.3333333333333,4,2,1,50,0,0
110549,-83.3333333333333,4,1,1,50,0,0
110780,-83.3333333333333,4,2,1,50,0,0
110857,-83.3333333333333,4,1,1,50,0,0
111088,-83.3333333333333,4,2,1,50,0,0
111164,-83.3333333333333,4,1,1,50,0,0
111395,-83.3333333333333,4,2,1,50,0,0
111472,-83.3333333333333,4,1,1,50,0,0
111703,-83.3333333333333,4,2,1,50,0,0
111780,-83.3333333333333,4,1,1,50,0,0
112011,-83.3333333333333,4,2,1,50,0,0
112088,-83.3333333333333,4,1,1,50,0,0
112318,-83.3333333333333,4,2,1,50,0,0
112395,-83.3333333333333,4,1,1,50,0,0
112626,-83.3333333333333,4,2,1,50,0,0
112703,-83.3333333333333,4,1,1,50,0,0
112934,-83.3333333333333,4,2,1,50,0,0
113011,-83.3333333333333,4,1,1,50,0,0
113241,-83.3333333333333,4,2,1,50,0,0
113318,-83.3333333333333,4,1,1,50,0,0
113549,-83.3333333333333,4,2,1,50,0,0
113626,-83.3333333333333,4,1,1,50,0,0
116164,-83.3333333333333,4,2,1,50,0,0
116241,-83.3333333333333,4,1,1,50,0,0
116472,-83.3333333333333,4,2,1,50,0,0
116549,-83.3333333333333,4,1,1,50,0,0
116780,-83.3333333333333,4,2,1,50,0,0
116857,-83.3333333333333,4,1,1,50,0,0
117088,-83.3333333333333,4,2,1,50,0,0
117164,-83.3333333333333,4,1,1,50,0,0
117395,-83.3333333333333,4,2,1,50,0,0
117472,-83.3333333333333,4,1,1,50,0,0
117549,-83.3333333333333,4,2,1,50,0,0
117626,-83.3333333333333,4,1,1,50,0,0
117703,-83.3333333333333,4,2,1,50,0,0
117780,-83.3333333333333,4,1,1,50,0,0
117857,-83.3333333333333,4,2,1,50,0,0
117934,-83.3333333333333,4,1,1,50,0,0
118011,-83.3333333333333,4,2,1,50,0,0
118088,-83.3333333333333,4,1,1,50,0,0
118164,-83.3333333333333,4,2,1,50,0,0
118241,-83.3333333333333,4,1,1,50,0,0
118318,-83.3333333333333,4,2,1,50,0,0
118395,-83.3333333333333,4,1,1,50,0,0
118472,-83.3333333333333,4,2,1,50,0,0
118549,-83.3333333333333,4,1,1,50,0,1
118626,-83.3333333333333,4,2,1,50,0,1
118703,-83.3333333333333,4,1,1,50,0,1
118934,-83.3333333333333,4,2,1,50,0,1
119011,-83.3333333333333,4,1,1,50,0,1
119241,-83.3333333333333,4,2,1,50,0,1
119318,-83.3333333333333,4,1,1,50,0,1
119549,-83.3333333333333,4,2,1,50,0,1
119626,-83.3333333333333,4,1,1,50,0,1
119857,-83.3333333333333,4,2,1,50,0,1
119934,-83.3333333333333,4,1,1,50,0,1
120164,-83.3333333333333,4,2,1,50,0,1
120241,-83.3333333333333,4,1,1,50,0,1
120472,-83.3333333333333,4,2,1,50,0,1
120549,-83.3333333333333,4,1,1,50,0,1
120780,-83.3333333333333,4,2,1,50,0,1
120857,-83.3333333333333,4,1,1,50,0,1
120934,-83.3333333333333,4,2,1,50,0,1
121011,-83.3333333333333,4,1,1,50,0,1
121088,-83.3333333333333,4,2,1,50,0,1
121164,-83.3333333333333,4,1,1,50,0,1
121395,-83.3333333333333,4,2,1,50,0,1
121472,-83.3333333333333,4,1,1,50,0,1
121549,-83.3333333333333,4,2,1,50,0,1
121626,-83.3333333333333,4,1,1,50,0,1
121703,-83.3333333333333,4,2,1,50,0,1
121780,-83.3333333333333,4,1,1,50,0,1
122011,-83.3333333333333,4,2,1,50,0,1
122088,-83.3333333333333,4,1,1,50,0,1
122164,-83.3333333333333,4,2,1,50,0,1
122241,-83.3333333333333,4,1,1,50,0,1
122318,-83.3333333333333,4,2,1,50,0,1
122395,-83.3333333333333,4,1,1,50,0,1
122626,-83.3333333333333,4,2,1,50,0,1
122703,-83.3333333333333,4,1,1,50,0,1
122934,-83.3333333333333,4,2,1,50,0,1
123011,-83.3333333333333,4,1,1,50,0,1
123241,-83.3333333333333,4,2,1,50,0,1
123318,-83.3333333333333,4,1,1,50,0,1
123549,-83.3333333333333,4,2,1,50,0,1
123626,-83.3333333333333,4,1,1,50,0,1
123857,-83.3333333333333,4,2,1,50,0,1
123934,-83.3333333333333,4,1,1,50,0,1
124164,-83.3333333333333,4,2,1,50,0,1
124241,-83.3333333333333,4,1,1,50,0,1
124472,-83.3333333333333,4,2,1,50,0,1
124549,-83.3333333333333,4,1,1,50,0,1
124780,-83.3333333333333,4,2,1,50,0,1
124857,-83.3333333333333,4,1,1,50,0,1
125088,-83.3333333333333,4,2,1,50,0,1
125164,-83.3333333333333,4,1,1,50,0,1
125395,-83.3333333333333,4,2,1,50,0,1
125472,-83.3333333333333,4,1,1,50,0,1
125703,-83.3333333333333,4,2,1,50,0,1
125780,-83.3333333333333,4,1,1,50,0,1
126011,-83.3333333333333,4,2,1,50,0,1
126088,-83.3333333333333,4,1,1,50,0,1
126318,-83.3333333333333,4,2,1,50,0,1
126395,-83.3333333333333,4,1,1,50,0,1
126626,-83.3333333333333,4,2,1,50,0,1
126703,-83.3333333333333,4,1,1,50,0,1
126934,-83.3333333333333,4,2,1,50,0,1
127011,-83.3333333333333,4,1,1,50,0,1
127241,-83.3333333333333,4,2,1,50,0,1
127318,-83.3333333333333,4,1,1,50,0,1
127549,-83.3333333333333,4,2,1,50,0,1
127626,-83.3333333333333,4,1,1,50,0,1
127857,-83.3333333333333,4,2,1,50,0,1
127934,-83.3333333333333,4,1,1,50,0,1
128164,-83.3333333333333,4,2,1,50,0,1
128241,-83.3333333333333,4,1,1,50,0,1
128318,-83.3333333333333,4,2,1,50,0,1
128395,-83.3333333333333,4,1,1,50,0,1
128472,-83.3333333333333,4,2,1,50,0,1
128549,-83.3333333333333,4,1,1,50,0,1
128780,-83.3333333333333,4,2,1,50,0,1
128857,-83.3333333333333,4,1,1,50,0,1
129088,-83.3333333333333,4,2,1,50,0,1
129164,-83.3333333333333,4,1,1,50,0,1
129395,-83.3333333333333,4,2,1,50,0,1
129472,-83.3333333333333,4,1,1,50,0,1
129703,-83.3333333333333,4,2,1,50,0,1
129780,-83.3333333333333,4,1,1,50,0,1
130011,-83.3333333333333,4,2,1,50,0,1
130088,-83.3333333333333,4,1,1,50,0,1
130318,-83.3333333333333,4,2,1,50,0,1
130395,-83.3333333333333,4,1,1,50,0,1
130626,-83.3333333333333,4,2,1,50,0,1
130703,-83.3333333333333,4,1,1,50,0,1
130934,-83.3333333333333,4,2,1,50,0,1
131011,-83.3333333333333,4,1,1,50,0,1
131241,-83.3333333333333,4,2,1,50,0,1
131318,-83.3333333333333,4,1,1,50,0,1
131549,-83.3333333333333,4,2,1,50,0,1
131626,-83.3333333333333,4,1,1,50,0,1
131857,-83.3333333333333,4,2,1,50,0,1
131934,-83.3333333333333,4,1,1,50,0,1
132164,-83.3333333333333,4,2,1,50,0,1
132241,-83.3333333333333,4,1,1,50,0,1
132472,-83.3333333333333,4,2,1,50,0,1
132549,-83.3333333333333,4,1,1,50,0,1
132780,-83.3333333333333,4,2,1,50,0,1
132857,-83.3333333333333,4,1,1,50,0,1
133088,-83.3333333333333,4,2,1,50,0,1
133164,-83.3333333333333,4,1,1,50,0,1
133241,-83.3333333333333,4,2,1,50,0,1
133318,-83.3333333333333,4,1,1,50,0,1
133395,-83.3333333333333,4,2,1,50,0,1
133472,-83.3333333333333,4,1,1,50,0,1
133703,-83.3333333333333,4,2,1,50,0,1
133780,-83.3333333333333,4,1,1,50,0,1
133857,-83.3333333333333,4,2,1,50,0,1
133934,-83.3333333333333,4,1,1,50,0,1
134011,-83.3333333333333,4,2,1,50,0,1
134088,-83.3333333333333,4,1,1,50,0,1
134318,-83.3333333333333,4,2,1,50,0,1
134395,-83.3333333333333,4,1,1,50,0,1
134472,-83.3333333333333,4,2,1,50,0,1
134549,-83.3333333333333,4,1,1,50,0,1
134626,-83.3333333333333,4,2,1,50,0,1
134703,-83.3333333333333,4,1,1,50,0,1
134934,-83.3333333333333,4,2,1,50,0,1
135011,-83.3333333333333,4,1,1,50,0,1
135241,-83.3333333333333,4,2,1,50,0,1
135318,-83.3333333333333,4,1,1,50,0,1
135549,-83.3333333333333,4,2,1,50,0,1
135626,-83.3333333333333,4,1,1,50,0,1
135780,-83.3333333333333,4,1,1,50,0,0
135857,-83.3333333333333,4,2,1,50,0,0
135934,-83.3333333333333,4,1,1,50,0,0
136164,-83.3333333333333,4,2,1,50,0,0
136241,-83.3333333333333,4,1,1,50,0,0
136472,-83.3333333333333,4,2,1,50,0,0
136549,-83.3333333333333,4,1,1,50,0,0
136780,-83.3333333333333,4,2,1,50,0,0
136857,-83.3333333333333,4,1,1,50,0,0
137088,-83.3333333333333,4,2,1,50,0,0
137164,-83.3333333333333,4,1,1,50,0,0
137395,-83.3333333333333,4,2,1,50,0,0
137472,-83.3333333333333,4,1,1,50,0,0
137703,-83.3333333333333,4,2,1,50,0,0
137780,-83.3333333333333,4,1,1,50,0,0
138011,-83.3333333333333,4,2,1,50,0,0
138088,-83.3333333333333,4,1,1,50,0,0
138164,-83.3333333333333,4,2,1,50,0,0
138241,-83.3333333333333,4,1,1,50,0,1
138241,-83.3333333333333,4,1,1,50,0,1
138318,-83.3333333333333,4,2,1,50,0,1
138395,-83.3333333333333,4,1,1,50,0,1
138626,-83.3333333333333,4,2,1,50,0,1
138703,-83.3333333333333,4,1,1,50,0,1
138933,-83.3333333333333,4,2,1,50,0,1
139010,-83.3333333333333,4,1,1,50,0,1
139241,-83.3333333333333,4,2,1,50,0,1
139318,-83.3333333333333,4,1,1,50,0,1
139549,-83.3333333333333,4,2,1,50,0,1
139626,-83.3333333333333,4,1,1,50,0,1
139856,-83.3333333333333,4,2,1,50,0,1
139933,-83.3333333333333,4,1,1,50,0,1
140164,-83.3333333333333,4,2,1,50,0,1
140241,-83.3333333333333,4,1,1,50,0,1
140472,-83.3333333333333,4,2,1,50,0,1
140549,-83.3333333333333,4,1,1,50,0,1
140626,-83.3333333333333,4,2,1,50,0,1
140703,-83.3333333333333,4,1,1,50,0,1
140780,-83.3333333333333,4,2,1,50,0,1
140856,-83.3333333333333,4,1,1,50,0,1
141087,-83.3333333333333,4,2,1,50,0,1
141164,-83.3333333333333,4,1,1,50,0,1
141241,-83.3333333333333,4,2,1,50,0,1
141318,-83.3333333333333,4,1,1,50,0,1
141395,-83.3333333333333,4,2,1,50,0,1
141472,-83.3333333333333,4,1,1,50,0,1
141703,-83.3333333333333,4,2,1,50,0,1
141780,-83.3333333333333,4,1,1,50,0,1
141856,-83.3333333333333,4,2,1,50,0,1
141933,-83.3333333333333,4,1,1,50,0,1
142010,-83.3333333333333,4,2,1,50,0,1
142087,-83.3333333333333,4,1,1,50,0,1
142318,-83.3333333333333,4,2,1,50,0,1
142395,-83.3333333333333,4,1,1,50,0,1
142626,-83.3333333333333,4,2,1,50,0,1
142703,-83.3333333333333,4,1,1,50,0,1
142933,-83.3333333333333,4,2,1,50,0,1
143010,-83.3333333333333,4,1,1,50,0,1
143241,-83.3333333333333,4,2,1,50,0,1
143318,-83.3333333333333,4,1,1,50,0,1
143549,-83.3333333333333,4,2,1,50,0,1
143626,-83.3333333333333,4,1,1,50,0,1
143856,-83.3333333333333,4,2,1,50,0,1
143933,-83.3333333333333,4,1,1,50,0,1
144164,-83.3333333333333,4,2,1,50,0,1
144241,-83.3333333333333,4,1,1,50,0,1
144472,-83.3333333333333,4,2,1,50,0,1
144549,-83.3333333333333,4,1,1,50,0,1
144780,-83.3333333333333,4,2,1,50,0,1
144856,-83.3333333333333,4,1,1,50,0,1
145087,-83.3333333333333,4,2,1,50,0,1
145164,-83.3333333333333,4,1,1,50,0,1
145395,-83.3333333333333,4,2,1,50,0,1
145472,-83.3333333333333,4,1,1,50,0,1
145703,-83.3333333333333,4,2,1,50,0,1
145780,-83.3333333333333,4,1,1,50,0,1
146010,-83.3333333333333,4,2,1,50,0,1
146087,-83.3333333333333,4,1,1,50,0,1
146241,-100,4,1,1,50,0,1
146318,-83.3333333333333,4,2,1,50,0,1
146395,-100,4,1,1,50,0,1
146626,-100,4,2,1,50,0,1
146703,-100,4,1,1,50,0,1
146857,-83.3333333333333,4,1,1,50,0,1
146933,-83.3333333333333,4,2,1,50,0,1
147010,-83.3333333333333,4,1,1,50,0,1
147241,-83.3333333333333,4,2,1,50,0,1
147318,-83.3333333333333,4,1,1,50,0,1
147549,-83.3333333333333,4,2,1,50,0,1
147626,-100,4,1,1,50,0,1
147856,-83.3333333333333,4,2,1,50,0,1
147933,-100,4,1,1,50,0,1
148010,-100,4,2,1,50,0,1
148087,-100,4,1,1,50,0,1
148164,-100,4,2,1,50,0,1
148241,-83.3333333333333,4,1,1,50,0,1
148241,-83.3333333333333,4,1,1,50,0,1
148472,-83.3333333333333,4,2,1,50,0,1
148549,-83.3333333333333,4,1,1,50,0,1
148780,-83.3333333333333,4,2,1,50,0,1
148856,-83.3333333333333,4,1,1,50,0,1
149087,-83.3333333333333,4,2,1,50,0,1
149164,-83.3333333333333,4,1,1,50,0,1
149395,-83.3333333333333,4,2,1,50,0,1
149472,-83.3333333333333,4,1,1,50,0,1
149703,-83.3333333333333,4,2,1,50,0,1
149780,-83.3333333333333,4,1,1,50,0,1
150010,-83.3333333333333,4,2,1,50,0,1
150087,-83.3333333333333,4,1,1,50,0,1
150318,-83.3333333333333,4,2,1,50,0,1
150395,-83.3333333333333,4,1,1,50,0,1
150626,-83.3333333333333,4,2,1,50,0,1
150703,-83.3333333333333,4,1,1,50,0,1
150933,-83.3333333333333,4,2,1,50,0,1
151010,-83.3333333333333,4,1,1,50,0,1
151241,-83.3333333333333,4,2,1,50,0,1
151318,-83.3333333333333,4,1,1,50,0,1
151549,-83.3333333333333,4,2,1,50,0,1
151626,-83.3333333333333,4,1,1,50,0,1
151856,-83.3333333333333,4,2,1,50,0,1
151933,-83.3333333333333,4,1,1,50,0,1
152164,-83.3333333333333,4,2,1,50,0,1
152241,-83.3333333333333,4,1,1,50,0,1
152472,-83.3333333333333,4,2,1,50,0,1
152549,-83.3333333333333,4,1,1,50,0,1
152780,-83.3333333333333,4,2,1,50,0,1
152856,-83.3333333333333,4,1,1,50,0,1
152933,-83.3333333333333,4,2,1,50,0,1
153010,-83.3333333333333,4,1,1,50,0,1
155549,-83.3333333333333,4,2,1,50,0,1
155626,-83.3333333333333,4,1,1,50,0,1
155857,-83.3333333333333,4,2,1,50,0,1
155934,-83.3333333333333,4,1,1,50,0,1
156164,-83.3333333333333,4,2,1,50,0,1
156241,-83.3333333333333,4,1,1,50,0,1
156472,-83.3333333333333,4,2,1,50,0,1
156549,-83.3333333333333,4,1,1,50,0,1
156780,-83.3333333333333,4,2,1,50,0,1
156857,-83.3333333333333,4,1,1,50,0,1
156934,-83.3333333333333,4,2,1,50,0,1
157011,-83.3333333333333,4,1,1,50,0,1
157088,-83.3333333333333,4,2,1,50,0,1
157126,-83.3333333333333,4,1,1,50,0,1
157203,-83.3333333333333,4,2,1,50,0,1
157280,-83.3333333333333,4,1,1,50,0,1
157357,-83.3333333333333,4,2,1,50,0,1
157434,-83.3333333333333,4,1,1,50,0,1
157511,-83.3333333333333,4,2,1,50,0,1
157588,-83.3333333333333,4,1,1,50,0,1
157664,-83.3333333333333,4,2,1,50,0,1
157741,-83.3333333333333,4,1,1,50,0,1
157818,-83.3333333333333,4,2,1,50,0,1
157895,-83.3333333333333,4,1,1,50,0,1
157938,-83.3333333333333,4,1,1,50,0,0
158088,-83.3333333333333,4,2,1,35,0,0
158164,-83.3333333333333,4,1,1,35,0,0
158395,-83.3333333333333,4,2,1,35,0,0
158472,-83.3333333333333,4,1,1,35,0,0
158703,-83.3333333333333,4,2,1,35,0,0
158780,-83.3333333333333,4,1,1,35,0,0
159011,-83.3333333333333,4,2,1,35,0,0
159088,-83.3333333333333,4,1,1,35,0,0
159318,-83.3333333333333,4,2,1,35,0,0
159395,-83.3333333333333,4,1,1,35,0,0
159626,-83.3333333333333,4,2,1,35,0,0
159703,-83.3333333333333,4,1,1,35,0,0
159934,-83.3333333333333,4,2,1,35,0,0
160011,-83.3333333333333,4,1,1,35,0,0
160241,-83.3333333333333,4,2,1,35,0,0
160318,-83.3333333333333,4,1,1,35,0,0
160472,-83.3333333333333,4,2,1,35,0,0
160626,-83.3333333333333,4,1,1,35,0,0
160780,-83.3333333333333,4,2,1,35,0,0
160934,-83.3333333333333,4,1,1,35,0,0
161088,-83.3333333333333,4,2,1,35,0,0
161241,-83.3333333333333,4,1,1,35,0,0
161395,-83.3333333333333,4,2,1,35,0,0
161549,-83.3333333333333,4,1,1,35,0,0
161703,-83.3333333333333,4,2,1,35,0,0
161857,-83.3333333333333,4,1,1,35,0,0
162011,-83.3333333333333,4,2,1,35,0,0
162164,-83.3333333333333,4,1,1,35,0,0
162318,-83.3333333333333,4,2,1,35,0,0
162472,-83.3333333333333,4,1,1,35,0,0
162626,-83.3333333333333,4,2,1,35,0,0
162780,-83.3333333333333,4,1,1,35,0,0
162934,-83.3333333333333,4,2,1,35,0,0
163088,-83.3333333333333,4,1,1,35,0,0
163241,-83.3333333333333,4,2,1,35,0,0
163395,-83.3333333333333,4,1,1,35,0,0
163549,-83.3333333333333,4,2,1,35,0,0
163703,-83.3333333333333,4,1,1,35,0,0
163934,-83.3333333333333,4,2,1,35,0,0
164011,-83.3333333333333,4,1,1,35,0,0
164241,-83.3333333333333,4,2,1,35,0,0
164318,-83.3333333333333,4,1,1,35,0,0
164549,-83.3333333333333,4,2,1,35,0,0
164626,-83.3333333333333,4,1,1,35,0,0
164857,-83.3333333333333,4,2,1,35,0,0
164934,-83.3333333333333,4,1,1,35,0,0
165164,-83.3333333333333,4,2,1,35,0,0
165241,-83.3333333333333,4,1,1,35,0,0
165472,-83.3333333333333,4,2,1,35,0,0
165549,-83.3333333333333,4,1,1,35,0,0
165780,-83.3333333333333,4,2,1,35,0,0
165857,-83.3333333333333,4,1,1,35,0,0
166088,-83.3333333333333,4,2,1,35,0,0
166164,-83.3333333333333,4,1,1,35,0,0
166395,-83.3333333333333,4,2,1,35,0,0
166472,-83.3333333333333,4,1,1,35,0,0
166703,-83.3333333333333,4,2,1,35,0,0
166780,-83.3333333333333,4,1,1,35,0,0
167011,-83.3333333333333,4,2,1,35,0,0
167088,-83.3333333333333,4,1,1,35,0,0
167318,-83.3333333333333,4,2,1,35,0,0
167472,-83.3333333333333,4,1,1,35,0,0
167703,-83.3333333333333,4,2,1,35,0,0
167780,-83.3333333333333,4,1,1,35,0,0
167934,-83.3333333333333,4,2,1,35,0,0
168011,-83.3333333333333,4,1,1,35,0,0
168241,-83.3333333333333,4,2,1,35,0,0
168318,-83.3333333333333,4,1,1,35,0,0
168549,-83.3333333333333,4,2,1,35,0,0
168626,-83.3333333333333,4,1,1,35,0,0
168857,-83.3333333333333,4,2,1,35,0,0
168934,-83.3333333333333,4,1,1,35,0,0
169164,-83.3333333333333,4,2,1,35,0,0
169241,-83.3333333333333,4,1,1,35,0,0
169472,-83.3333333333333,4,2,1,35,0,0
169549,-83.3333333333333,4,1,1,35,0,0
169780,-83.3333333333333,4,2,1,35,0,0
169857,-83.3333333333333,4,1,1,35,0,0
170088,-83.3333333333333,4,2,1,35,0,0
170164,-83.3333333333333,4,1,1,35,0,0
170395,-83.3333333333333,4,2,1,35,0,0
170472,-83.3333333333333,4,1,1,35,0,0
170703,-83.3333333333333,4,2,1,35,0,0
170780,-83.3333333333333,4,1,1,35,0,0
171011,-83.3333333333333,4,2,1,35,0,0
171088,-83.3333333333333,4,1,1,35,0,0
171318,-83.3333333333333,4,2,1,35,0,0
171472,-83.3333333333333,4,1,1,35,0,0
171626,-83.3333333333333,4,2,1,35,0,0
171780,-83.3333333333333,4,1,1,35,0,0
171934,-83.3333333333333,4,2,1,35,0,0
172088,-83.3333333333333,4,1,1,35,0,0
172241,-83.3333333333333,4,2,1,35,0,0
172395,-83.3333333333333,4,1,1,35,0,0
172549,-83.3333333333333,4,2,1,35,0,0
172703,-83.3333333333333,4,1,1,35,0,0
172857,-83.3333333333333,4,2,1,35,0,0
173011,-83.3333333333333,4,1,1,35,0,0
173159,-83.3333333333333,4,2,1,35,0,0
173318,-83.3333333333333,4,1,1,35,0,0
173472,-83.3333333333333,4,2,1,35,0,0
173626,-83.3333333333333,4,1,1,35,0,0
173780,-83.3333333333333,4,2,1,35,0,0
173934,-83.3333333333333,4,1,1,35,0,0
174088,-83.3333333333333,4,2,1,35,0,0
174241,-83.3333333333333,4,1,1,35,0,0
174395,-83.3333333333333,4,2,1,35,0,0
174549,-83.3333333333333,4,1,1,35,0,0
174703,-83.3333333333333,4,2,1,35,0,0
174857,-83.3333333333333,4,1,1,35,0,0
175011,-83.3333333333333,4,2,1,35,0,0
175164,-83.3333333333333,4,1,1,35,0,0
175318,-83.3333333333333,4,2,1,35,0,0
175472,-83.3333333333333,4,1,1,35,0,0
175626,-83.3333333333333,4,2,1,35,0,0
175780,-83.3333333333333,4,1,1,35,0,0
175934,-83.3333333333333,4,2,1,35,0,0
176088,-83.3333333333333,4,1,1,35,0,0
176241,-83.3333333333333,4,2,1,35,0,0
176395,-83.3333333333333,4,1,1,35,0,0
176549,-83.3333333333333,4,2,1,35,0,0
176703,-83.3333333333333,4,1,1,35,0,0
176857,-83.3333333333333,4,2,1,35,0,0
177011,-83.3333333333333,4,1,1,35,0,0
177164,-83.3333333333333,4,2,1,35,0,0
177318,-83.3333333333333,4,1,1,35,0,0
177549,-83.3333333333333,4,2,1,35,0,0
177626,-83.3333333333333,4,1,1,35,0,0
177780,-83.3333333333333,4,2,1,35,0,0
177857,-83.3333333333333,4,1,1,35,0,0
178088,-83.3333333333333,4,2,1,35,0,0
178164,-83.3333333333333,4,1,1,35,0,0
178395,-83.3333333333333,4,2,1,35,0,0
178472,-83.3333333333333,4,1,1,35,0,0
178703,-83.3333333333333,4,2,1,35,0,0
178780,-83.3333333333333,4,1,1,35,0,0
179011,-83.3333333333333,4,2,1,35,0,0
179088,-83.3333333333333,4,1,1,35,0,0
179318,-83.3333333333333,4,2,1,35,0,0
179395,-83.3333333333333,4,1,1,35,0,0
179626,-83.3333333333333,4,2,1,35,0,0
179703,-83.3333333333333,4,1,1,35,0,0
179934,-83.3333333333333,4,2,1,35,0,0
180011,-83.3333333333333,4,1,1,35,0,0
180241,-83.3333333333333,4,2,1,35,0,0
180318,-83.3333333333333,4,1,1,35,0,0
180549,-83.3333333333333,4,2,1,35,0,0
180626,-83.3333333333333,4,1,1,35,0,0
180857,-83.3333333333333,4,2,1,35,0,0
180934,-83.3333333333333,4,1,1,35,0,0
181164,-83.3333333333333,4,2,1,35,0,0
181241,-83.3333333333333,4,1,1,35,0,0
181472,-83.3333333333333,4,2,1,35,0,0
181549,-83.3333333333333,4,1,1,35,0,0
181780,-83.3333333333333,4,2,1,35,0,0
181857,-83.3333333333333,4,1,1,35,0,0
182088,-83.3333333333333,4,2,1,35,0,0
182164,-83.3333333333333,4,1,1,35,0,0
182395,-83.3333333333333,4,2,1,35,0,0
182472,-83.3333333333333,4,1,1,35,0,0
182703,-83.3333333333333,4,2,1,35,0,0
182780,-83.3333333333333,4,1,1,35,0,0
183011,-83.3333333333333,4,2,1,35,0,0
183088,-83.3333333333333,4,1,1,35,0,0
183318,-83.3333333333333,4,2,1,35,0,0
183395,-83.3333333333333,4,1,1,35,0,0
183626,-83.3333333333333,4,2,1,35,0,0
183703,-83.3333333333333,4,1,1,35,0,0
183934,-83.3333333333333,4,2,1,35,0,0
184011,-83.3333333333333,4,1,1,35,0,0
184241,-83.3333333333333,4,2,1,35,0,0
184318,-83.3333333333333,4,1,1,35,0,0
184549,-83.3333333333333,4,2,1,35,0,0
184626,-83.3333333333333,4,1,1,35,0,0
184857,-83.3333333333333,4,2,1,35,0,0
184934,-83.3333333333333,4,1,1,35,0,0
185164,-83.3333333333333,4,2,1,35,0,0
185241,-83.3333333333333,4,1,1,35,0,0
185472,-83.3333333333333,4,2,1,35,0,0
185549,-83.3333333333333,4,1,1,35,0,0
185780,-83.3333333333333,4,2,1,35,0,0
185857,-83.3333333333333,4,1,1,35,0,0
186088,-83.3333333333333,4,2,1,35,0,0
186164,-83.3333333333333,4,1,1,35,0,0
186395,-83.3333333333333,4,2,1,35,0,0
186472,-83.3333333333333,4,1,1,35,0,0
186703,-83.3333333333333,4,2,1,35,0,0
186780,-83.3333333333333,4,1,1,35,0,0
186934,-83.3333333333333,4,2,1,35,0,0
187088,-83.3333333333333,4,1,1,35,0,0
187549,-83.3333333333333,4,2,1,35,0,0
187703,-83.3333333333333,4,1,1,35,0,0
187857,-83.3333333333333,4,2,1,35,0,0
188011,-83.3333333333333,4,1,1,35,0,0
188164,-83.3333333333333,4,2,1,35,0,0
188318,-83.3333333333333,4,1,1,35,0,0
188472,-83.3333333333333,4,2,1,35,0,0
188626,-83.3333333333333,4,1,1,35,0,0
188780,-83.3333333333333,4,2,1,35,0,0
188934,-83.3333333333333,4,1,1,35,0,0
189164,-83.3333333333333,4,2,1,35,0,0
189241,-83.3333333333333,4,1,1,35,0,0
189472,-83.3333333333333,4,2,1,35,0,0
189549,-83.3333333333333,4,1,1,35,0,0
189780,-83.3333333333333,4,2,1,35,0,0
189857,-83.3333333333333,4,1,1,35,0,0
190088,-83.3333333333333,4,2,1,35,0,0
190164,-83.3333333333333,4,1,1,35,0,0
190395,-83.3333333333333,4,2,1,35,0,0
190472,-83.3333333333333,4,1,1,35,0,0
190703,-83.3333333333333,4,2,1,35,0,0
190780,-83.3333333333333,4,1,1,35,0,0
191011,-83.3333333333333,4,2,1,35,0,0
191088,-83.3333333333333,4,1,1,35,0,0
191318,-83.3333333333333,4,2,1,35,0,0
191395,-83.3333333333333,4,1,1,35,0,0
191626,-83.3333333333333,4,2,1,35,0,0
191703,-83.3333333333333,4,1,1,35,0,0
191934,-83.3333333333333,4,2,1,35,0,0
192011,-83.3333333333333,4,1,1,35,0,0
192318,-83.3333333333333,4,1,1,50,0,0
192395,-100,4,1,1,50,0,0
194857,-100,4,1,1,60,0,0
194934,-100,4,2,1,60,0,0
195011,-100,4,1,1,60,0,0
195241,-100,4,2,1,60,0,0
195318,-100,4,1,1,60,0,0
195549,-100,4,2,1,60,0,0
195626,-100,4,1,1,60,0,0
195857,-100,4,2,1,60,0,0
195934,-100,4,1,1,60,0,0
196049,-100,4,2,1,60,0,0
196088,-100,4,1,1,60,0,0
196126,-100,4,2,1,60,0,0
196164,-100,4,1,1,60,0,0
196203,-100,4,2,1,60,0,0
196241,-100,4,1,1,60,0,0
196280,-100,4,2,1,60,0,0
196318,-100,4,1,1,60,0,0
196357,-100,4,2,1,60,0,0
196395,-100,4,1,1,60,0,0
197318,-100,4,1,1,100,0,0
199780,-100,4,1,1,40,0,0
202241,-100,4,1,1,50,0,0
204703,-100,4,1,1,60,0,0
207164,-100,4,1,1,70,0,0
214549,-83.3333333333333,4,1,1,70,0,0
214626,-83.3333333333333,4,2,1,35,0,0
214703,-83.3333333333333,4,1,1,70,0,0
214780,-83.3333333333333,4,2,1,35,0,0
214857,-83.3333333333333,4,1,1,70,0,0
214934,-83.3333333333333,4,2,1,35,0,0
215011,-83.3333333333333,4,1,1,70,0,0
215088,-83.3333333333333,4,2,1,35,0,0
215164,-83.3333333333333,4,1,1,70,0,0
215241,-83.3333333333333,4,2,1,35,0,0
215318,-83.3333333333333,4,1,1,70,0,0
215395,-83.3333333333333,4,2,1,35,0,0
215472,-83.3333333333333,4,1,1,70,0,0
215549,-83.3333333333333,4,2,1,35,0,0
215626,-83.3333333333333,4,1,1,70,0,0
215703,-83.3333333333333,4,2,1,35,0,0
215780,-83.3333333333333,4,1,1,70,0,0
219241,-83.3333333333333,4,2,1,35,0,0
219318,-83.3333333333333,4,1,1,70,0,0
219395,-83.3333333333333,4,2,1,35,0,0
219472,-83.3333333333333,4,1,1,70,0,0
221703,-83.3333333333333,4,2,1,35,0,0
221780,-83.3333333333333,4,1,1,70,0,0
221857,-83.3333333333333,4,2,1,35,0,0
221934,-83.3333333333333,4,1,1,70,0,0
222318,-83.3333333333333,4,2,1,35,0,0
222395,-83.3333333333333,4,1,1,70,0,0
222934,-83.3333333333333,4,2,1,35,0,0
223011,-83.3333333333333,4,1,1,70,0,0
225395,-83.3333333333333,4,2,1,35,0,0
225472,-83.3333333333333,4,1,1,70,0,0
225549,-83.3333333333333,4,2,1,35,0,0
225626,-83.3333333333333,4,1,1,70,0,0
226626,-83.3333333333333,4,2,1,35,0,0
226703,-83.3333333333333,4,1,1,70,0,0
226780,-83.3333333333333,4,2,1,35,0,0
226857,-83.3333333333333,4,1,1,70,0,0
226934,-83.3333333333333,4,1,1,60,0,0
231241,-83.3333333333333,4,2,1,30,0,0
231318,-83.3333333333333,4,1,1,60,0,0
232780,-83.3333333333333,4,2,1,30,0,0
232857,-83.3333333333333,4,1,1,60,0,0
233011,-83.3333333333333,4,1,1,70,0,0
233703,-83.3333333333333,4,2,1,35,0,0
233780,-83.3333333333333,4,1,1,70,0,0
234472,-83.3333333333333,4,2,1,35,0,0
234549,-83.3333333333333,4,1,1,70,0,0
235011,-83.3333333333333,4,2,1,35,0,0
235164,-83.3333333333333,4,1,1,70,0,0
235241,-83.3333333333333,4,2,1,35,0,0
235318,-83.3333333333333,4,1,1,70,0,0
235703,-83.3333333333333,4,2,1,35,0,0
235780,-83.3333333333333,4,1,1,70,0,0
236164,-83.3333333333333,4,2,1,35,0,0
236241,-83.3333333333333,4,1,1,70,0,0
236472,-83.3333333333333,4,2,1,35,0,0
236549,-83.3333333333333,4,1,1,70,0,0
236703,-83.3333333333333,4,1,1,60,0,0
240318,-83.3333333333333,4,2,1,30,0,0
240395,-83.3333333333333,4,1,1,60,0,0
240934,-83.3333333333333,4,2,1,30,0,0
241011,-83.3333333333333,4,1,1,60,0,0
242780,-83.3333333333333,4,2,1,30,0,0
242857,-83.3333333333333,4,1,1,60,0,0
243395,-83.3333333333333,4,2,1,30,0,0
243472,-83.3333333333333,4,1,1,60,0,0
244088,-83.3333333333333,4,1,1,50,0,0
244703,-83.3333333333333,4,1,1,40,0,0
245318,-83.3333333333333,4,1,1,30,0,0
245626,-83.3333333333333,4,1,1,25,0,0
245934,-83.3333333333333,4,1,1,35,0,0
246241,-83.3333333333333,4,1,1,50,0,0
246549,-83.3333333333333,4,1,1,70,0,0
249049,-83.3333333333333,4,2,1,35,0,0
249126,-83.3333333333333,4,1,1,70,0,0
249203,-83.3333333333333,4,2,1,35,0,0
249280,-83.3333333333333,4,1,1,70,0,0
249357,-83.3333333333333,4,2,1,35,0,0
249434,-83.3333333333333,4,1,1,70,0,0
249511,-83.3333333333333,4,2,1,35,0,0
249588,-83.3333333333333,4,1,1,70,0,0
249664,-83.3333333333333,4,2,1,35,0,0
249741,-83.3333333333333,4,1,1,70,0,0
249818,-83.3333333333333,4,2,1,35,0,0
249895,-83.3333333333333,4,1,1,70,0,0
249972,-83.3333333333333,4,2,1,35,0,0
250049,-83.3333333333333,4,1,1,70,0,0
250126,-83.3333333333333,4,2,1,35,0,0
250203,-83.3333333333333,4,1,1,35,0,0
251472,-83.3333333333333,4,1,1,100,0,0
255164,-83.3333333333333,4,1,1,70,0,0
256395,-83.3333333333333,4,1,1,70,0,1
256472,-83.3333333333333,4,2,1,40,0,1
256549,-83.3333333333333,4,1,1,70,0,1
256780,-83.3333333333333,4,2,1,40,0,1
256857,-83.3333333333333,4,1,1,70,0,1
257088,-83.3333333333333,4,2,1,40,0,1
257164,-83.3333333333333,4,1,1,70,0,1
257395,-83.3333333333333,4,2,1,40,0,1
257472,-83.3333333333333,4,1,1,70,0,1
257703,-83.3333333333333,4,2,1,40,0,1
257780,-83.3333333333333,4,1,1,70,0,1
258011,-83.3333333333333,4,2,1,40,0,1
258088,-83.3333333333333,4,1,1,70,0,1
258318,-83.3333333333333,4,2,1,40,0,1
258395,-83.3333333333333,4,1,1,70,0,1
258626,-83.3333333333333,4,2,1,40,0,1
258703,-83.3333333333333,4,1,1,70,0,1
258780,-83.3333333333333,4,2,1,40,0,1
258857,-83.3333333333333,4,1,1,70,0,1
258934,-83.3333333333333,4,2,1,40,0,1
259011,-83.3333333333333,4,1,1,70,0,1
259241,-83.3333333333333,4,2,1,40,0,1
259318,-83.3333333333333,4,1,1,70,0,1
259549,-83.3333333333333,4,2,1,40,0,1
259626,-83.3333333333333,4,1,1,70,0,1
259857,-83.3333333333333,4,2,1,40,0,1
259934,-83.3333333333333,4,1,1,70,0,1
260164,-83.3333333333333,4,2,1,40,0,1
260241,-83.3333333333333,4,1,1,70,0,1
260472,-83.3333333333333,4,2,1,40,0,1
260549,-83.3333333333333,4,1,1,70,0,1
260780,-83.3333333333333,4,2,1,40,0,1
260857,-83.3333333333333,4,1,1,70,0,1
261088,-83.3333333333333,4,2,1,40,0,1
261164,-83.3333333333333,4,1,1,70,0,1
261318,-90.9090909090909,4,1,1,80,0,1
261395,-90.9090909090909,4,2,1,40,0,1
261472,-90.9090909090909,4,1,1,70,0,1
261703,-90.9090909090909,4,2,1,40,0,1
261780,-90.9090909090909,4,1,1,70,0,1
262011,-90.9090909090909,4,2,1,40,0,1
262088,-90.9090909090909,4,1,1,70,0,1
262318,-90.9090909090909,4,2,1,40,0,1
262395,-90.9090909090909,4,1,1,70,0,1
262626,-90.9090909090909,4,2,1,40,0,1
262703,-90.9090909090909,4,1,1,70,0,1
262934,-90.9090909090909,4,2,1,40,0,1
263011,-90.9090909090909,4,1,1,70,0,1
263241,-90.9090909090909,4,2,1,40,0,1
263318,-90.9090909090909,4,1,1,70,0,1
263549,-90.9090909090909,4,2,1,40,0,1
263626,-90.9090909090909,4,1,1,70,0,1
263780,-83.3333333333333,4,1,1,70,0,1
263818,-83.3333333333333,4,2,1,40,0,1
263895,-83.3333333333333,4,1,1,70,0,1
263972,-83.3333333333333,4,2,1,40,0,1
264049,-83.3333333333333,4,1,1,70,0,1
264126,-83.3333333333333,4,2,1,40,0,1
264203,-83.3333333333333,4,1,1,70,0,1
264280,-83.3333333333333,4,2,1,40,0,1
264357,-83.3333333333333,4,1,1,70,0,1
264434,-83.3333333333333,4,2,1,40,0,1
264511,-83.3333333333333,4,1,1,70,0,1
264741,-83.3333333333333,4,2,1,40,0,1
264818,-83.3333333333333,4,1,1,70,0,1
265088,-83.3333333333333,4,2,1,40,0,1
265126,-83.3333333333333,4,1,1,70,0,1
265241,-83.3333333333333,4,2,1,40,0,1
265280,-83.3333333333333,4,1,1,70,0,1
265357,-83.3333333333333,4,2,1,40,0,1
265434,-83.3333333333333,4,1,1,70,0,1
265511,-83.3333333333333,4,2,1,40,0,1
265588,-83.3333333333333,4,1,1,70,0,1
265664,-83.3333333333333,4,2,1,40,0,1
265741,-83.3333333333333,4,1,1,70,0,1
265857,-83.3333333333333,4,2,1,40,0,1
265895,-83.3333333333333,4,1,1,70,0,1
265972,-83.3333333333333,4,2,1,40,0,1
266049,-83.3333333333333,4,1,1,70,0,1
266164,-83.3333333333333,4,2,1,40,0,1
266203,-83.3333333333333,4,1,1,70,0,1
266241,-90.9090909090909,4,1,1,70,0,1
266318,-90.9090909090909,4,2,1,40,0,1
266357,-90.9090909090909,4,1,1,70,0,1
266626,-90.9090909090909,4,2,1,40,0,1
266664,-90.9090909090909,4,1,1,70,0,1
266934,-90.9090909090909,4,2,1,40,0,1
266972,-90.9090909090909,4,1,1,70,0,1
267241,-90.9090909090909,4,2,1,40,0,1
267280,-90.9090909090909,4,1,1,70,0,1
267549,-90.9090909090909,4,2,1,40,0,1
267588,-90.9090909090909,4,1,1,70,0,1
267857,-90.9090909090909,4,2,1,40,0,1
267895,-90.9090909090909,4,1,1,70,0,1
268164,-90.9090909090909,4,2,1,40,0,1
268203,-90.9090909090909,4,1,1,70,0,1
268434,-90.9090909090909,4,2,1,40,0,1
268511,-90.9090909090909,4,1,1,70,0,1
268703,-83.3333333333333,4,1,1,70,0,1
268780,-83.3333333333333,4,2,1,40,0,1
268818,-83.3333333333333,4,1,1,70,0,1
269088,-83.3333333333333,4,2,1,40,0,1
269126,-83.3333333333333,4,1,1,70,0,1
269395,-83.3333333333333,4,2,1,40,0,1
269434,-83.3333333333333,4,1,1,70,0,1
269664,-83.3333333333333,4,2,1,40,0,1
269741,-83.3333333333333,4,1,1,70,0,1
269972,-83.3333333333333,4,2,1,40,0,1
270049,-83.3333333333333,4,1,1,70,0,1
270318,-83.3333333333333,4,2,1,40,0,1
270357,-83.3333333333333,4,1,1,70,0,1
270626,-83.3333333333333,4,2,1,40,0,1
270664,-83.3333333333333,4,1,1,70,0,1
270934,-83.3333333333333,4,2,1,40,0,1
270972,-83.3333333333333,4,1,1,70,0,1
271088,-83.3333333333333,4,2,1,40,0,1
271126,-83.3333333333333,4,1,1,70,0,1
271241,-83.3333333333333,4,2,1,40,0,1
271280,-83.3333333333333,4,1,1,70,0,1
271549,-83.3333333333333,4,2,1,40,0,1
271588,-83.3333333333333,4,1,1,70,0,1
271857,-83.3333333333333,4,2,1,40,0,1
271895,-83.3333333333333,4,1,1,70,0,1
272164,-83.3333333333333,4,2,1,40,0,1
272203,-83.3333333333333,4,1,1,70,0,1
272472,-83.3333333333333,4,2,1,40,0,1
272511,-83.3333333333333,4,1,1,70,0,1
272780,-83.3333333333333,4,2,1,40,0,1
272818,-83.3333333333333,4,1,1,70,0,1
273088,-83.3333333333333,4,2,1,40,0,1
273126,-83.3333333333333,4,1,1,70,0,1
273395,-83.3333333333333,4,2,1,40,0,1
273434,-83.3333333333333,4,1,1,70,0,1
273703,-83.3333333333333,4,2,1,40,0,1
273741,-83.3333333333333,4,1,1,70,0,1
274011,-83.3333333333333,4,2,1,40,0,1
274049,-83.3333333333333,4,1,1,70,0,1
274318,-83.3333333333333,4,2,1,40,0,1
274357,-83.3333333333333,4,1,1,70,0,1
274626,-83.3333333333333,4,2,1,40,0,1
274664,-83.3333333333333,4,1,1,70,0,1
274895,-83.3333333333333,4,2,1,40,0,1
274972,-83.3333333333333,4,1,1,70,0,1
275049,-83.3333333333333,4,2,1,40,0,1
275126,-83.3333333333333,4,1,1,70,0,1
275203,-83.3333333333333,4,2,1,40,0,1
275280,-83.3333333333333,4,1,1,70,0,1
275357,-83.3333333333333,4,2,1,40,0,1
275472,-83.3333333333333,4,1,1,70,0,1
275491,-83.3333333333333,4,2,1,40,0,1
275626,-83.3333333333333,4,1,1,70,0,1
275645,-83.3333333333333,4,2,1,40,0,1
275703,-83.3333333333333,4,1,1,70,0,1
275722,-83.3333333333333,4,2,1,40,0,1
275780,-83.3333333333333,4,1,1,70,0,1
275799,-83.3333333333333,4,2,1,40,0,1
275857,-83.3333333333333,4,1,1,70,0,1
275876,-83.3333333333333,4,2,1,40,0,1
275934,-83.3333333333333,4,1,1,70,0,1
275953,-83.3333333333333,4,2,1,40,0,1
276088,153.846153846154,4,1,1,70,1,1
285645,-83.3333333333333,4,2,1,40,0,1
285780,-83.3333333333333,4,1,1,70,0,1
285799,-83.3333333333333,4,2,1,40,0,1
285934,-100,4,1,1,70,0,1
285953,-83.3333333333333,4,1,1,30,0,1
286241,-83.3333333333333,4,1,1,70,0,1
286261,-83.3333333333333,4,1,1,30,0,1
286549,-83.3333333333333,4,1,1,70,0,1
286568,-83.3333333333333,4,1,1,30,0,1
286857,-83.3333333333333,4,1,1,70,0,1
286876,-83.3333333333333,4,1,1,30,0,1
287164,-83.3333333333333,4,1,1,70,0,1
287184,-83.3333333333333,4,1,1,30,0,1
287472,-83.3333333333333,4,1,1,70,0,1
287491,-83.3333333333333,4,1,1,30,0,1
287780,-83.3333333333333,4,1,1,70,0,1
287799,-83.3333333333333,4,1,1,30,0,1
288088,-83.3333333333333,4,1,1,70,0,1
288107,-83.3333333333333,4,1,1,30,0,1
288395,-83.3333333333333,4,1,1,70,0,1
288414,-83.3333333333333,4,1,1,30,0,1
288703,-83.3333333333333,4,1,1,70,0,1
288722,-83.3333333333333,4,1,1,30,0,1
289011,-83.3333333333333,4,1,1,70,0,1
289030,-83.3333333333333,4,1,1,30,0,1
289318,-83.3333333333333,4,1,1,70,0,1
289338,-83.3333333333333,4,1,1,30,0,1
289626,-83.3333333333333,4,1,1,70,0,1
289645,-83.3333333333333,4,1,1,30,0,1
289934,-83.3333333333333,4,1,1,70,0,1
289953,-83.3333333333333,4,1,1,30,0,1
290241,-83.3333333333333,4,1,1,70,0,1
290261,-83.3333333333333,4,1,1,30,0,1
290549,-83.3333333333333,4,1,1,70,0,1
290568,-83.3333333333333,4,1,1,30,0,1
290703,-83.3333333333333,4,1,1,70,0,1
290722,-83.3333333333333,4,1,1,30,0,1
290857,-83.3333333333333,4,1,1,70,0,1
290876,-83.3333333333333,4,1,1,30,0,1
291164,-83.3333333333333,4,1,1,70,0,1
291184,-83.3333333333333,4,1,1,30,0,1
291472,-83.3333333333333,4,1,1,70,0,1
291491,-83.3333333333333,4,1,1,30,0,1
291780,-83.3333333333333,4,1,1,70,0,1
291799,-83.3333333333333,4,1,1,30,0,1
292088,-83.3333333333333,4,1,1,70,0,1
292107,-83.3333333333333,4,1,1,30,0,1
292395,-83.3333333333333,4,1,1,70,0,1
292414,-83.3333333333333,4,1,1,30,0,1
292703,-83.3333333333333,4,1,1,70,0,1
292722,-83.3333333333333,4,1,1,30,0,1
293011,-83.3333333333333,4,1,1,70,0,1
293030,-83.3333333333333,4,1,1,30,0,1
293318,-83.3333333333333,4,1,1,70,0,1
293338,-83.3333333333333,4,1,1,30,0,1
293626,-83.3333333333333,4,1,1,70,0,1
293645,-83.3333333333333,4,1,1,30,0,1
293934,-83.3333333333333,4,1,1,70,0,1
293953,-83.3333333333333,4,1,1,30,0,1
294241,-83.3333333333333,4,1,1,70,0,1
294261,-83.3333333333333,4,1,1,30,0,1
294549,-83.3333333333333,4,1,1,70,0,1
294568,-83.3333333333333,4,1,1,30,0,1
294703,-83.3333333333333,4,1,1,70,0,1
294722,-83.3333333333333,4,1,1,30,0,1
294780,-83.3333333333333,4,1,1,70,0,1
294799,-83.3333333333333,4,1,1,30,0,1
294857,-83.3333333333333,4,1,1,70,0,1
294876,-83.3333333333333,4,1,1,30,0,1
295011,-83.3333333333333,4,1,1,70,0,1
295030,-83.3333333333333,4,1,1,30,0,1
295087,-83.3333333333333,4,1,1,70,0,1
295107,-83.3333333333333,4,1,1,30,0,1
295164,-83.3333333333333,4,1,1,70,0,1
295184,-83.3333333333333,4,1,1,30,0,1
295318,-83.3333333333333,4,1,1,70,0,1
295338,-83.3333333333333,4,1,1,30,0,1
295395,-83.3333333333333,4,1,1,70,0,1
295414,-83.3333333333333,4,1,1,30,0,1
295472,-83.3333333333333,4,1,1,70,0,1
295491,-83.3333333333333,4,1,1,30,0,1
295549,-83.3333333333333,4,1,1,70,0,1
295568,-83.3333333333333,4,1,1,30,0,1
295626,-83.3333333333333,4,1,1,70,0,1
295645,-83.3333333333333,4,1,1,30,0,1
295780,307.692307692308,4,1,1,100,1,0
295799,-100,4,1,1,30,0,0
300549,-83.3333333333333,4,1,1,30,0,0
300626,-83.3333333333333,4,2,1,30,0,0
300703,-83.3333333333333,4,1,1,30,0,0
301164,-83.3333333333333,4,2,1,30,0,0
301318,-83.3333333333333,4,1,1,30,0,0
302395,-83.3333333333333,4,2,1,30,0,0
302549,-83.3333333333333,4,1,1,30,0,0
303011,-83.3333333333333,4,2,1,30,0,0
303164,-83.3333333333333,4,1,1,30,0,0
303626,-83.3333333333333,4,2,1,30,0,0
303780,-83.3333333333333,4,1,1,30,0,0
304241,-83.3333333333333,4,2,1,30,0,0
304395,-83.3333333333333,4,1,1,30,0,0
304857,-83.3333333333333,4,2,1,30,0,0
305011,-83.3333333333333,4,1,1,30,0,0
305241,-83.3333333333333,4,2,1,30,0,0
305318,-83.3333333333333,4,1,1,30,0,0
305395,-83.3333333333333,4,2,1,30,0,0
305472,-83.3333333333333,4,1,1,30,0,0
305549,-83.3333333333333,4,2,1,30,0,0
305626,-83.3333333333333,4,1,1,30,0,0
313088,-83.3333333333333,4,2,1,30,0,0
313164,-83.3333333333333,4,1,1,30,0,0
313703,-83.3333333333333,4,2,1,30,0,0
313780,-83.3333333333333,4,1,1,30,0,0
314318,-83.3333333333333,4,2,1,30,0,0
314395,-83.3333333333333,4,1,1,30,0,0
314934,-83.3333333333333,4,2,1,30,0,0
315011,-83.3333333333333,4,1,1,30,0,0
315626,-83.3333333333333,4,1,1,30,0,0
316703,-83.3333333333333,4,1,1,25,0,0
317934,-83.3333333333333,4,1,1,20,0,0
319164,-83.3333333333333,4,1,1,15,0,0
320395,-83.3333333333333,4,1,1,10,0,0

[HitObjects]
256,192,400,5,12,0:0:0:0:
96,192,553,1,0,0:0:0:0:
256,112,707,1,0,0:0:0:0:
176,112,784,1,0,0:0:0:0:
256,112,861,1,0,0:0:0:0:
176,112,938,1,0,0:0:0:0:
256,112,1015,1,0,0:0:0:0:
112,192,1169,1,0,0:0:0:0:
352,256,1323,1,0,0:0:0:0:
432,256,1400,1,0,0:0:0:0:
352,256,1476,1,0,0:0:0:0:
128,272,1630,5,0,0:0:0:0:
256,272,1784,1,0,0:0:0:0:
384,272,1938,1,0,0:0:0:0:
304,272,2015,1,0,0:0:0:0:
224,272,2092,1,0,0:0:0:0:
144,272,2169,1,0,0:0:0:0:
64,272,2246,1,0,0:0:0:0:
384,272,2400,1,0,0:0:0:0:
240,208,2553,1,0,0:0:0:0:
320,208,2630,1,0,0:0:0:0:
240,208,2707,1,0,0:0:0:0:
320,208,2784,1,0,0:0:0:0:
240,208,2861,5,4,0:0:0:0:
480,144,3169,1,0,0:0:0:0:
320,144,3323,1,0,0:0:0:0:
480,144,3476,1,0,0:0:0:0:
224,144,3630,1,0,0:0:0:0:
304,144,3707,1,0,0:0:0:0:
224,144,3784,1,0,0:0:0:0:
480,144,3938,1,0,0:0:0:0:
320,256,4092,5,0,0:0:0:0:
240,256,4169,1,0,0:0:0:0:
160,256,4246,1,0,0:0:0:0:
240,256,4323,1,0,0:0:0:0:
320,256,4400,1,0,0:0:0:0:
160,192,4553,1,0,0:0:0:0:
336,320,4707,1,0,0:0:0:0:
416,320,4784,1,0,0:0:0:0:
336,320,4861,1,0,0:0:0:0:
112,320,5015,1,0,0:0:0:0:
32,320,5092,1,0,0:0:0:0:
112,320,5169,1,0,0:0:0:0:
256,192,5323,5,12,0:0:0:0:
416,192,5476,1,0,0:0:0:0:
128,192,5630,1,0,0:0:0:0:
48,192,5707,1,0,0:0:0:0:
128,192,5784,1,0,0:0:0:0:
208,192,5861,1,0,0:0:0:0:
128,192,5938,1,0,0:0:0:0:
384,192,6092,1,0,0:0:0:0:
224,192,6246,1,0,0:0:0:0:
304,192,6323,1,0,0:0:0:0:
224,192,6400,1,0,0:0:0:0:
64,192,6553,5,0,0:0:0:0:
320,192,6707,1,0,0:0:0:0:
64,272,6861,1,0,0:0:0:0:
144,272,6938,1,0,0:0:0:0:
224,272,7015,1,0,0:0:0:0:
304,272,7092,1,0,0:0:0:0:
384,272,7169,1,0,0:0:0:0:
224,272,7323,1,0,0:0:0:0:
400,208,7476,1,0,0:0:0:0:
320,208,7553,1,0,0:0:0:0:
240,208,7630,1,0,0:0:0:0:
320,208,7707,1,0,0:0:0:0:
400,208,7784,5,4,0:0:0:0:
32,144,8092,1,0,0:0:0:0:
256,144,8246,1,0,0:0:0:0:
480,144,8400,1,0,0:0:0:0:
112,144,8553,1,0,0:0:0:0:
256,144,8630,1,0,0:0:0:0:
400,144,8707,1,0,0:0:0:0:
256,144,8861,1,0,0:0:0:0:
480,160,9015,5,0,0:0:0:0:
396,160,9092,1,0,0:0:0:0:
256,160,9169,1,0,0:0:0:0:
172,160,9246,1,0,0:0:0:0:
32,160,9323,1,0,0:0:0:0:
172,160,9476,1,0,0:0:0:0:
320,256,9630,1,0,0:0:0:0:
240,256,9707,1,0,0:0:0:0:
160,256,9784,1,0,0:0:0:0:
336,256,9938,1,0,0:0:0:0:
256,256,10015,1,0,0:0:0:0:
176,256,10092,1,0,0:0:0:0:
336,192,10246,5,12,0:0:0:0:
176,192,10400,1,0,0:0:0:0:
32,128,10553,1,0,0:0:0:0:
116,128,10630,1,0,0:0:0:0:
256,128,10707,1,0,0:0:0:0:
340,128,10784,1,0,0:0:0:0:
480,128,10861,1,0,0:0:0:0:
340,192,11015,1,0,0:0:0:0:
480,192,11169,1,0,0:0:0:0:
400,192,11246,1,0,0:0:0:0:
480,192,11323,1,0,0:0:0:0:
336,320,11476,5,0,0:0:0:0:
32,320,11630,1,0,0:0:0:0:
336,240,11784,1,0,0:0:0:0:
416,240,11861,1,0,0:0:0:0:
496,240,11938,1,0,0:0:0:0:
416,240,12015,1,0,0:0:0:0:
496,240,12092,1,0,0:0:0:0:
336,240,12246,1,0,0:0:0:0:
496,240,12400,1,0,0:0:0:0:
416,240,12476,1,0,0:0:0:0:
336,240,12553,1,0,0:0:0:0:
256,240,12630,1,0,0:0:0:0:
176,240,12707,5,4,0:0:0:0:
416,240,12861,1,0,0:0:0:0:
176,240,13015,1,0,0:0:0:0:
432,240,13169,1,0,0:0:0:0:
208,240,13323,1,0,0:0:0:0:
368,160,13476,1,0,0:0:0:0:
288,160,13553,1,0,0:0:0:0:
208,160,13630,1,0,0:0:0:0:
480,160,13784,1,0,0:0:0:0:
256,320,13938,5,0,0:0:0:0:
176,320,14015,1,0,0:0:0:0:
96,320,14092,1,0,0:0:0:0:
16,320,14169,1,0,0:0:0:0:
96,320,14246,1,0,0:0:0:0:
336,320,14400,1,0,0:0:0:0:
32,240,14553,1,0,0:0:0:0:
112,240,14630,1,0,0:0:0:0:
32,240,14707,1,0,0:0:0:0:
212,240,14861,1,0,0:0:0:0:
132,240,14938,1,0,0:0:0:0:
212,240,15015,1,0,0:0:0:0:
48,176,15169,5,12,0:0:0:0:
192,176,15323,1,0,0:0:0:0:
352,176,15476,1,0,0:0:0:0:
432,176,15553,1,0,0:0:0:0:
352,176,15630,1,0,0:0:0:0:
272,176,15707,1,0,0:0:0:0:
352,176,15784,1,0,0:0:0:0:
112,176,15938,1,0,0:0:0:0:
256,176,16092,1,0,0:0:0:0:
336,176,16169,1,0,0:0:0:0:
256,176,16246,1,0,0:0:0:0:
416,176,16400,5,0,0:0:0:0:
256,176,16553,1,0,0:0:0:0:
96,272,16707,1,0,0:0:0:0:
176,272,16784,1,0,0:0:0:0:
256,272,16861,1,0,0:0:0:0:
336,272,16938,1,0,0:0:0:0:
416,272,17015,1,0,0:0:0:0:
176,272,17169,1,0,0:0:0:0:
416,272,17323,1,0,0:0:0:0:
336,272,17400,1,0,0:0:0:0:
256,272,17476,1,0,0:0:0:0:
176,272,17553,1,0,0:0:0:0:
96,272,17630,5,4,0:0:0:0:
336,272,17784,1,0,0:0:0:0:
176,272,17938,1,0,0:0:0:0:
416,272,18092,1,0,0:0:0:0:
256,272,18246,1,0,0:0:0:0:
496,272,18400,1,0,0:0:0:0:
416,272,18476,1,0,0:0:0:0:
496,272,18553,1,0,0:0:0:0:
336,272,18707,1,0,0:0:0:0:
48,240,18861,5,12,0:0:0:0:
128,240,18938,1,0,0:0:0:0:
208,240,19015,1,0,0:0:0:0:
464,240,19169,1,12,0:0:0:0:
384,240,19246,1,0,0:0:0:0:
304,240,19323,1,0,0:0:0:0:
16,240,19476,1,12,0:0:0:0:
96,240,19553,1,0,0:0:0:0:
176,240,19630,1,0,0:0:0:0:
496,240,19784,1,12,0:0:0:0:
416,240,19861,1,0,0:0:0:0:
336,240,19938,1,0,0:0:0:0:
96,240,20092,5,6,0:0:0:0:
256,240,20246,1,0,0:0:0:0:
96,240,20400,1,0,0:0:0:0:
176,240,20476,1,0,0:0:0:0:
256,240,20553,1,0,0:0:0:0:
176,240,20630,1,0,0:0:0:0:
96,240,20707,1,8,0:0:0:0:
336,240,20861,1,0,0:0:0:0:
16,208,21015,1,0,0:0:0:0:
100,208,21092,1,0,0:0:0:0:
240,208,21169,1,0,0:0:0:0:
324,208,21246,1,0,0:0:0:0:
464,208,21323,5,8,0:0:0:0:
176,192,21476,2,0,L|104:192,1,71.8750013709069
32,144,21630,2,0,L|112:144,1,71.8750013709069
352,192,21784,2,0,L|432:192,1,71.8750013709069
176,192,21938,2,8,L|92:192,1,71.8750013709069
288,128,22092,1,0,0:0:0:0:
448,128,22246,1,0,0:0:0:0:
288,128,22400,1,0,0:0:0:0:
368,128,22476,1,0,0:0:0:0:
448,128,22553,5,12,0:0:0:0:
208,128,22707,1,0,0:0:0:0:
480,208,22861,1,0,0:0:0:0:
396,208,22938,1,0,0:0:0:0:
256,208,23015,1,0,0:0:0:0:
172,208,23092,1,0,0:0:0:0:
32,208,23169,1,8,0:0:0:0:
172,208,23323,1,0,0:0:0:0:
32,208,23476,1,0,0:0:0:0:
116,208,23553,1,0,0:0:0:0:
256,208,23630,1,0,0:0:0:0:
340,208,23707,1,0,0:0:0:0:
480,208,23784,5,12,0:0:0:0:
340,208,23938,1,0,0:0:0:0:
208,208,24092,2,0,L|120:164,1,71.8750013709069
400,208,24246,2,0,L|316:168,1,71.8750013709069
176,208,24400,2,8,L|96:168,1,71.8750013709069
368,208,24553,2,8,L|288:168,1,71.8750013709069
144,176,24707,1,8,0:0:0:0:
32,112,24861,1,8,0:0:0:0:
112,112,24938,1,0,0:0:0:0:
288,112,25015,5,6,0:0:0:0:
448,112,25169,1,0,0:0:0:0:
288,112,25323,1,0,0:0:0:0:
368,112,25400,1,0,0:0:0:0:
288,112,25476,1,0,0:0:0:0:
368,112,25553,1,0,0:0:0:0:
288,112,25630,1,8,0:0:0:0:
200,112,25784,1,0,0:0:0:0:
368,112,25938,1,0,0:0:0:0:
288,112,26015,1,0,0:0:0:0:
368,112,26092,1,0,0:0:0:0:
288,112,26169,1,0,0:0:0:0:
368,112,26246,5,8,0:0:0:0:
208,240,26400,2,0,L|132:240,1,71.8750013709069
352,288,26553,2,0,L|424:288,1,71.8750013709069
496,288,26707,2,0,L|424:288,1,71.8750013709069
160,192,26861,2,8,L|84:192,1,71.8750013709069
320,128,27015,1,0,0:0:0:0:
192,128,27169,1,0,0:0:0:0:
416,128,27323,1,0,0:0:0:0:
496,128,27400,1,0,0:0:0:0:
416,128,27476,5,12,0:0:0:0:
96,128,27630,1,0,0:0:0:0:
256,176,27784,1,0,0:0:0:0:
336,176,27861,1,0,0:0:0:0:
256,176,27938,1,0,0:0:0:0:
176,176,28015,1,0,0:0:0:0:
256,176,28092,1,8,0:0:0:0:
416,128,28246,1,0,0:0:0:0:
256,176,28400,1,0,0:0:0:0:
176,176,28476,1,0,0:0:0:0:
256,176,28553,1,0,0:0:0:0:
336,176,28630,1,0,0:0:0:0:
256,176,28707,5,8,0:0:0:0:
48,176,28861,1,0,0:0:0:0:
425,213,29015,2,0,L|360:180,1,71.8750013709069
208,208,29169,2,0,L|140:176,1,71.8750013709069
392,212,29323,2,8,L|320:176,1,71.8750013709069
176,208,29476,2,8,L|112:172,1,71.8750013709069
352,176,29630,1,8,0:0:0:0:
480,112,29784,1,8,0:0:0:0:
400,112,29861,1,0,0:0:0:0:
224,112,29938,5,6,0:0:0:0:
336,112,30092,1,0,0:0:0:0:
176,112,30246,1,0,0:0:0:0:
256,112,30323,1,0,0:0:0:0:
336,112,30400,1,0,0:0:0:0:
256,112,30476,1,0,0:0:0:0:
176,112,30553,1,8,0:0:0:0:
336,240,30707,1,0,0:0:0:0:
32,208,30861,1,0,0:0:0:0:
112,208,30938,1,0,0:0:0:0:
272,208,31015,1,0,0:0:0:0:
192,208,31092,1,0,0:0:0:0:
32,208,31169,5,8,0:0:0:0:
304,144,31323,2,0,L|396:100,1,71.8750013709069
208,128,31476,2,0,L|140:160,1,71.8750013709069
336,144,31630,2,0,L|404:112,1,71.8750013709069
176,144,31784,2,8,L|108:176,1,71.8750013709069
384,240,31938,1,0,0:0:0:0:
512,128,32092,1,0,0:0:0:0:
192,240,32246,1,0,0:0:0:0:
112,240,32323,1,0,0:0:0:0:
192,240,32400,5,8,0:0:0:0:
336,240,32553,1,0,0:0:0:0:
480,240,32707,1,0,0:0:0:0:
400,240,32784,1,0,0:0:0:0:
256,240,32861,1,0,0:0:0:0:
336,240,32938,1,0,0:0:0:0:
480,240,33015,1,8,0:0:0:0:
336,240,33169,1,0,0:0:0:0:
192,240,33323,1,0,0:0:0:0:
272,240,33400,1,0,0:0:0:0:
352,240,33476,1,0,0:0:0:0:
272,240,33553,1,0,0:0:0:0:
192,240,33630,5,8,0:0:0:0:
48,240,33784,1,0,0:0:0:0:
304,96,33938,2,0,L|380:96,1,71.8750013709069
448,96,34092,2,0,L|376:96,1,71.8750013709069
176,96,34246,2,8,L|104:96,1,71.8750013709069
32,96,34400,2,8,P|104:96|112:96,1,71.8750013709069
320,96,34553,1,8,0:0:0:0:
480,112,34707,1,8,0:0:0:0:
400,112,34784,1,0,0:0:0:0:
480,112,34861,5,14,0:0:0:0:
320,112,35015,1,0,0:0:0:0:
176,112,35169,1,0,0:0:0:0:
336,208,35323,1,0,0:0:0:0:
160,208,35476,1,14,0:0:0:0:
352,208,35630,1,0,0:0:0:0:
144,208,35784,1,0,0:0:0:0:
368,208,35938,1,0,0:0:0:0:
480,80,36092,5,14,0:0:0:0:
180,128,36246,1,0,0:0:0:0:
328,128,36400,1,0,0:0:0:0:
32,80,36553,1,0,0:0:0:0:
328,128,36707,1,14,0:0:0:0:
180,128,36861,1,0,0:0:0:0:
480,80,37015,1,0,0:0:0:0:
32,112,37169,1,0,0:0:0:0:
480,193,37323,6,8,L|480:256,1,62.5
336,193,37476,2,0,L|336:256,1,62.5
184,193,37630,2,8,L|184:256,1,62.5
32,193,37784,2,0,L|32:256,1,62.5
336,256,37938,2,8,L|336:192,1,62.5
184,256,38092,2,0,L|184:192,1,62.5
32,256,38246,2,8,L|32:192,1,62.5
336,256,38400,2,0,L|336:192,1,62.5
184,256,38553,6,8,L|184:192,1,62.5
480,256,38707,2,8,L|480:184,1,62.5
184,256,38861,2,8,L|184:192,1,62.5
336,256,39015,2,8,L|336:192,1,62.5
32,256,39169,2,8,L|32:184,1,62.5
480,256,39323,2,8,L|480:192,1,62.5
32,256,39476,2,8,L|32:192,1,62.5
480,256,39630,2,8,L|480:192,1,62.5
192,192,39784,6,12,L|120:192,1,62.5
320,144,39938,2,0,L|388:144,1,62.5
176,128,40092,2,8,L|112:128,1,62.5
336,208,40246,2,0,L|400:208,1,62.5
80,64,40400,2,8,L|136:64,1,53.125001013279
341,80,40553,2,0,L|400:80,1,53.125001013279
64,128,40707,2,8,L|128:128,1,53.125001013279
357,144,40861,2,0,L|420:144,1,53.125001013279
128,192,41015,6,8,L|60:192,1,62.5
368,208,41169,2,0,L|432:208,1,62.5
144,256,41323,2,8,L|80:256,1,62.5
352,272,41476,2,0,L|416:272,1,62.5
160,64,41630,2,8,L|104:64,1,53.125001013279
400,64,41784,2,0,L|344:64,1,53.125001013279
144,128,41938,2,8,L|88:128,1,53.125001013279
416,128,42092,2,0,L|348:128,1,53.125001013279
48,320,42246,6,8,L|48:256,1,62.5
208,320,42400,2,0,L|208:256,1,62.5
48,245,42553,2,8,L|48:172,1,62.5
208,245,42707,2,0,L|208:176,1,62.5
464,240,42861,2,8,L|464:168,1,62.5
304,240,43015,2,0,L|304:176,1,62.5
464,352,43169,2,8,L|464:284,1,62.5
304,352,43323,2,0,L|304:288,1,62.5
48,336,43476,6,8,L|36:260,1,62.5
220,224,43630,2,0,L|284:224,1,62.5
48,261,43784,2,8,L|36:192,1,62.5
292,184,43938,2,0,L|360:184,1,62.5
48,336,44092,2,8,L|36:272,1,62.5
224,128,44246,2,0,L|292:128,1,62.5
48,336,44400,2,8,L|36:272,1,62.5
224,256,44553,2,8,L|292:256,1,62.5
464,336,44707,6,12,L|480:276,1,62.5
288,320,44861,2,0,L|224:320,1,62.5
464,256,45015,2,8,L|480:188,1,62.5
208,256,45169,2,0,L|144:256,1,62.5
464,256,45323,2,8,L|480:180,1,62.5
208,192,45476,2,0,L|144:192,1,62.5
464,192,45630,2,8,L|480:120,1,62.5
304,112,45784,2,0,L|228:112,1,62.5
48,80,45938,6,8,L|48:156,1,62.5
272,80,46092,2,0,L|272:144,1,62.5
112,208,46246,2,8,L|112:280,1,62.5
336,208,46400,2,0,L|336:288,1,62.5
192,208,46553,2,8,L|192:280,1,62.5
416,208,46707,2,0,L|416:272,1,62.5
272,208,46861,2,8,L|272:284,1,62.5
496,208,47015,2,0,L|496:276,1,62.5
336,208,47169,6,8,L|336:280,1,62.5
496,208,47323,2,0,L|496:272,1,62.5
256,208,47476,2,8,L|256:272,1,62.5
416,208,47630,2,0,L|416:272,1,62.5
176,208,47784,2,8,L|176:276,1,62.5
336,208,47938,2,0,L|336:272,1,62.5
96,208,48092,2,8,L|96:272,1,62.5
256,208,48246,2,0,L|256:272,1,62.5
416,144,48400,6,8,L|480:144,1,62.5
112,144,48553,2,0,L|40:144,1,62.5
256,80,48707,2,8,L|256:144,1,62.5
416,144,48861,2,0,L|480:144,1,62.5
144,80,49015,5,12,0:0:0:0:
64,80,49092,1,4,0:0:0:0:
208,48,49246,5,4,0:0:0:0:
352,48,49323,1,12,0:0:0:0:
496,48,49400,1,4,0:0:0:0:
352,48,49476,1,12,0:0:0:0:
208,48,49553,1,4,0:0:0:0:
80,48,49630,6,12,L|16:72,1,62.5
240,48,49784,2,0,L|300:72,1,62.5
80,48,49938,2,8,L|16:72,1,62.5
368,192,50092,2,0,L|428:216,1,62.5
256,272,50246,2,8,L|176:308,1,62.5
416,192,50400,2,0,L|476:216,1,62.5
208,272,50553,2,8,L|144:300,1,62.5
416,192,50707,2,0,L|480:216,1,62.5
128,176,50861,6,8,L|64:176,1,62.5
16,176,51015,2,0,L|80:176,1,62.5
320,128,51169,2,8,L|396:128,1,62.5
416,128,51323,2,0,L|344:128,1,62.5
176,112,51476,2,8,L|108:112,1,62.5
336,224,51630,2,0,L|400:224,1,62.5
144,112,51784,2,8,L|80:112,1,62.5
304,224,51938,2,0,L|372:224,1,62.5
32,256,52092,6,8,L|32:192,1,62.5
176,256,52246,2,0,L|176:192,1,62.5
336,256,52400,2,8,L|336:192,1,62.5
480,256,52553,2,0,L|480:192,1,62.5
32,256,52707,2,8,L|32:192,1,62.5
176,256,52861,2,0,L|176:192,1,62.5
336,256,53015,2,8,L|336:192,1,62.5
32,256,53169,2,0,L|32:192,1,62.5
176,256,53323,6,8,L|176:192,1,62.5
32,256,53476,2,0,L|32:192,1,62.5
352,128,53630,2,8,L|416:128,1,62.5
160,128,53784,2,0,L|96:128,1,62.5
384,128,53938,2,8,L|448:128,1,62.5
128,128,54092,2,0,L|64:128,1,62.5
480,288,54246,2,8,L|480:224,1,62.5
336,288,54400,2,8,L|336:224,1,62.5
176,288,54553,6,12,L|176:224,1,62.5
32,288,54707,2,0,L|32:224,1,62.5
480,288,54861,2,8,L|480:224,1,62.5
336,288,55015,2,0,L|336:224,1,62.5
176,288,55169,2,8,L|176:224,1,62.5
480,288,55323,2,0,L|480:224,1,62.5
336,288,55476,2,8,L|336:224,1,62.5
480,288,55630,2,0,L|480:224,1,62.5
112,272,55784,6,8,L|40:272,1,62.5
112,208,55938,2,0,L|176:208,1,62.5
384,144,56092,2,8,L|452:144,1,62.5
384,80,56246,2,0,L|320:80,1,62.5
144,80,56400,2,8,L|76:80,1,53.125001013279
432,80,56553,2,0,L|376:80,1,53.125001013279
192,80,56707,2,8,L|136:80,1,53.125001013279
480,80,56861,2,0,L|424:80,1,53.125001013279
144,144,57015,5,12,0:0:0:0:
32,272,57130,1,12,0:0:0:0:
16,240,57169,1,12,0:0:0:0:
32,208,57207,1,12,0:0:0:0:
128,192,57323,1,8,0:0:0:0:
336,208,57476,1,0,0:0:0:0:
192,304,57630,1,8,0:0:0:0:
112,304,57707,1,12,0:0:0:0:
32,304,57784,1,12,0:0:0:0:
320,304,57938,1,12,0:0:0:0:
400,304,58015,1,8,0:0:0:0:
480,304,58092,1,8,0:0:0:0:
320,304,58246,5,0,0:0:0:0:
480,304,58400,1,0,0:0:0:0:
176,304,58553,1,12,0:0:0:0:
352,208,58784,1,12,0:0:0:0:
160,112,58938,1,8,0:0:0:0:
0,160,59092,1,8,0:0:0:0:
160,128,59246,1,8,0:0:0:0:
352,160,59476,6,12,L|272:160,1,74.9999977111817
352,96,59630,2,0,L|432:96,1,74.9999977111817
277,160,59784,2,8,L|192:160,1,74.9999977111817
277,96,59938,2,0,L|357:96,1,74.9999977111817
202,160,60092,2,8,L|96:160,1,74.9999977111817
202,160,60246,2,0,L|304:160,1,74.9999977111817
127,160,60400,2,8,L|48:160,1,74.9999977111817
127,160,60553,2,0,L|208:160,1,74.9999977111817
128,160,60707,6,8,L|48:160,1,74.9999977111817
202,160,60861,2,0,L|288:160,1,74.9999977111817
202,160,61015,2,8,L|128:160,1,74.9999977111817
277,160,61169,2,0,L|352:160,1,74.9999977111817
277,160,61323,2,8,L|192:160,1,74.9999977111817
352,160,61476,2,0,L|448:160,1,74.9999977111817
352,160,61630,2,8,L|272:160,1,74.9999977111817
427,160,61784,2,0,L|512:160,1,74.9999977111817
240,160,61938,6,8,L|144:160,1,68.7500020980836
416,160,62092,2,0,L|416:80,1,68.7500020980836
160,160,62246,2,8,L|160:80,1,68.7500020980836
368,160,62400,2,0,L|302:114,1,68.7500020980836
160,160,62553,2,8,L|94:114,1,68.7500020980836
304,160,62707,2,0,L|304:80,1,68.7500020980836
96,160,62861,2,8,L|96:80,1,68.7500020980836
304,160,63015,2,0,L|199:86,1,68.7500020980836
80,160,63169,6,8,L|14:114,1,68.7500020980836
240,160,63323,2,0,L|305:205,1,68.7500020980836
80,160,63476,2,8,L|80:80,1,68.7500020980836
288,160,63630,2,0,L|288:80,1,68.7500020980836
80,160,63784,2,8,L|145:205,1,68.7500020980836
288,160,63938,2,0,L|353:205,1,68.7500020980836
148,160,64092,2,8,L|148:80,1,68.7500020980836
356,160,64246,2,8,L|356:80,1,68.7500020980836
148,160,64400,6,12,L|213:205,1,68.7500020980836
356,160,64553,2,0,L|421:205,1,68.7500020980836
224,160,64707,2,8,L|224:80,1,68.7500020980836
416,160,64861,2,0,L|416:80,1,68.7500020980836
224,160,65015,2,8,L|289:205,1,68.7500020980836
432,159,65169,2,0,L|510:215,1,68.7500020980836
208,256,65323,2,8,L|90:173,1,81.2499962806703
320,255,65476,2,0,L|398:311,1,81.2499962806703
176,256,65630,6,8,L|97:311,1,81.2499962806703
352,256,65784,2,0,L|430:200,1,81.2499962806703
64,304,65938,2,8,L|80:192,1,81.2499962806703
432,304,66092,2,0,L|448:192,1,81.2499962806703
48,304,66246,2,8,L|64:192,1,81.2499962806703
448,304,66400,2,0,L|464:192,1,81.2499962806703
32,304,66553,2,8,L|48:192,1,81.2499962806703
464,304,66707,2,0,L|480:192,1,81.2499962806703
80,160,66861,6,8,L|64:80,1,81.2499962806703
432,160,67015,2,0,L|416:80,1,81.2499962806703
64,160,67169,2,8,L|48:80,1,81.2499962806703
448,160,67323,2,0,L|432:80,1,81.2499962806703
48,160,67476,2,8,L|32:80,1,81.2499962806703
464,160,67630,2,0,L|448:80,1,81.2499962806703
176,192,67784,2,8,L|84:127,1,81.2499962806703
336,192,67938,2,0,L|414:136,1,81.2499962806703
96,176,68092,6,8,L|112:80,1,81.2499962806703
384,80,68246,2,0,L|368:176,1,81.2499962806703
80,96,68400,2,8,L|66:192,1,81.2499962806703
410,150,68553,2,0,L|480:192,1,81.2499962806703
272,192,68707,2,12,L|202:150,1,81.2499962806703
440,112,68938,2,12,L|497:169,1,81.2499962806703
272,112,69092,2,12,L|190:112,1,81.2499962806703
32,112,69246,1,4,0:0:0:0:
190,112,69323,6,12,L|252:164,1,81.2499962806703
96,112,69476,2,0,L|33:59,1,81.2499962806703
271,112,69630,2,8,L|357:184,1,81.2499962806703
96,176,69784,2,0,L|22:114,1,81.2499962806703
255,176,69938,2,8,L|329:237,1,81.2499962806703
256,176,70092,2,0,L|182:114,1,81.2499962806703
384,288,70246,2,8,L|457:349,1,81.2499962806703
304,288,70400,2,0,L|205:205,1,81.2499962806703
222,288,70553,6,8,L|297:350,1,81.2499962806703
128,288,70707,2,0,L|42:216,1,81.2499962806703
222,288,70861,2,8,B|284:340|272:330,1,81.2499962806703
304,288,71015,2,0,L|230:226,1,81.2499962806703
384,288,71169,2,8,L|457:349,1,81.2499962806703
256,288,71323,2,0,L|170:216,1,81.2499962806703
256,288,71476,2,8,L|329:349,1,81.2499962806703
96,288,71630,2,0,L|22:226,1,81.2499962806703
464,224,71784,6,8,L|464:128,1,81.2499962806703
328,224,71938,2,0,L|328:128,1,81.2499962806703
464,224,72092,2,8,L|464:128,1,81.2499962806703
240,224,72246,2,0,L|240:128,1,81.2499962806703
464,224,72400,2,8,L|464:128,1,81.2499962806703
152,224,72553,2,0,L|152:128,1,81.2499962806703
464,224,72707,2,8,L|464:128,1,81.2499962806703
48,224,72861,2,0,L|48:128,1,81.2499962806703
464,224,73015,6,8,L|464:128,1,81.2499962806703
48,224,73169,2,0,L|48:128,1,81.2499962806703
360,224,73323,2,8,L|360:128,1,81.2499962806703
48,224,73476,2,0,L|48:128,1,81.2499962806703
272,224,73630,2,8,L|272:128,1,81.2499962806703
48,224,73784,2,0,L|48:128,1,81.2499962806703
184,224,73938,2,8,L|184:128,1,81.2499962806703
48,224,74092,2,8,L|48:128,1,81.2499962806703
192,320,74246,6,12,L|192:224,1,81.2499962806703
336,320,74400,2,0,L|336:224,1,81.2499962806703
480,320,74553,2,8,L|480:224,1,81.2499962806703
48,224,74707,2,0,L|48:128,1,81.2499962806703
192,320,74861,2,8,L|192:224,1,81.2499962806703
336,320,75015,2,0,L|336:224,1,81.2499962806703
480,320,75169,2,8,L|480:224,1,81.2499962806703
48,320,75323,2,0,L|64:224,1,81.2499962806703
480,192,75476,6,8,L|496:112,1,81.2499962806703
48,304,75630,2,0,L|64:208,1,81.2499962806703
480,160,75784,2,8,L|496:80,1,81.2499962806703
48,272,75938,2,0,L|80:160,1,81.2499962806703
208,192,76092,1,8,0:0:0:0:
352,192,76169,1,0,0:0:0:0:
208,192,76246,1,0,0:0:0:0:
64,192,76323,1,0,0:0:0:0:
208,192,76400,1,8,0:0:0:0:
352,192,76476,1,0,0:0:0:0:
208,192,76553,1,0,0:0:0:0:
272,192,76630,1,0,0:0:0:0:
480,320,76707,6,8,L|480:224,1,81.2499962806703
336,320,76861,2,0,L|336:224,1,81.2499962806703
192,320,77015,2,8,L|192:224,1,81.2499962806703
48,320,77169,2,0,L|48:208,1,81.2499962806703
480,192,77323,2,8,L|480:96,1,81.2499962806703
336,192,77476,2,0,L|336:96,1,81.2499962806703
192,192,77630,2,8,L|192:96,1,81.2499962806703
48,192,77784,2,0,L|48:96,1,81.2499962806703
480,192,77938,6,12,L|496:112,1,81.2499962806703
48,304,78092,2,0,L|64:208,1,81.2499962806703
480,160,78246,2,12,L|496:80,1,81.2499962806703
16,272,78400,2,0,L|48:160,1,81.2499962806703
256,192,78553,1,12,0:0:0:0:
480,192,78630,1,0,0:0:0:0:
256,192,78707,1,12,0:0:0:0:
32,192,78784,1,0,0:0:0:0:
256,192,78861,1,12,0:0:0:0:
480,192,78938,1,0,0:0:0:0:
256,192,79015,1,12,0:0:0:0:
32,192,79092,1,0,0:0:0:0:
352,192,79169,6,12,P|464:160|464:96,1,162.499992561341
160,192,79476,2,0,P|48:160|48:96,1,162.499992561341
464,336,79784,2,8,P|416:240|352:224,1,162.499992561341
48,336,80092,2,0,P|96:240|160:224,1,162.499992561341
384,336,80400,6,8,P|336:240|272:224,1,162.499992561341
128,336,80707,2,0,P|176:240|240:224,1,162.499992561341
496,192,81015,2,8,L|0:192,1,487.499977684022
92,192,81551,1,0,0:0:0:0:
176,192,81628,6,12,L|-16:192,1,162.499992561341
176,192,81934,2,0,L|368:192,1,162.499992561341
496,192,82242,2,8,L|320:192,1,162.499992561341
176,192,82550,2,0,L|368:192,1,162.499992561341
176,192,82857,6,8,L|0:192,1,162.499992561341
176,192,83165,1,0,0:0:0:0:
336,192,83319,1,0,0:0:0:0:
13,192,83473,2,8,L|509:192,1,487.499977684022
416,192,84011,5,0,0:0:0:0:
332,192,84088,2,12,L|524:192,1,162.499992561341
320,192,84395,2,0,L|528:192,1,162.499992561341
304,192,84703,2,8,L|496:192,1,162.499992561341
288,192,85011,2,0,L|512:192,1,162.499992561341
192,192,85318,6,8,L|0:192,1,162.499992561341
208,192,85626,2,0,L|32:192,1,162.499992561341
224,192,85934,2,8,L|48:192,1,162.499992561341
240,192,86241,2,0,L|48:192,1,162.499992561341
480,192,86549,6,8,B|432:112|432:112|480:192,1,162.499992561341
32,192,86857,2,0,B|96:128|96:128|32:192,1,162.499992561341
336,192,87164,2,8,B|384:128|384:128|464:208,1,162.499992561341
176,192,87472,2,0,B|128:128|128:128|48:208,1,162.499992561341
442,186,87780,6,8,B|384:128|384:128|336:192,1,162.499992561341
69,186,88088,2,0,B|128:128|128:128|176:192,1,162.499992561341
336,96,88395,2,8,L|240:96,1,81.2499962806703
480,96,88626,1,0,0:0:0:0:
396,96,88703,1,8,0:0:0:0:
256,96,88780,1,0,0:0:0:0:
172,96,88857,1,8,0:0:0:0:
256,96,88934,1,0,0:0:0:0:
480,272,89011,6,12,L|416:112,1,162.499992561341
32,272,89318,2,0,L|96:112,1,162.499992561341
432,272,89626,2,8,L|368:112,1,162.499992561341
80,272,89934,2,0,L|144:112,1,162.499992561341
371,121,90241,6,8,L|432:272,1,162.499992561341
140,121,90549,2,0,L|80:272,1,162.499992561341
336,256,90857,2,8,L|432:256,2,81.2499962806703
176,256,91164,2,0,L|64:256,2,81.2499962806703
404,192,91472,5,8,0:0:0:0:
256,192,91549,1,0,0:0:0:0:
108,192,91626,1,0,0:0:0:0:
256,192,91780,1,0,0:0:0:0:
400,192,91934,1,0,0:0:0:0:
256,192,92088,1,8,0:0:0:0:
432,192,92241,1,0,0:0:0:0:
256,192,92395,1,0,0:0:0:0:
80,192,92549,1,0,0:0:0:0:
256,192,92703,5,8,0:0:0:0:
32,192,92857,1,0,0:0:0:0:
256,192,93011,1,0,0:0:0:0:
480,192,93164,1,0,0:0:0:0:
336,192,93241,1,0,0:0:0:0:
192,192,93318,1,8,0:0:0:0:
16,192,93472,1,0,0:0:0:0:
160,192,93549,1,0,0:0:0:0:
304,192,93626,1,0,0:0:0:0:
464,192,93780,1,8,0:0:0:0:
288,192,93857,1,0,0:0:0:0:
112,192,93934,5,12,0:0:0:0:
336,304,94088,2,0,P|432:304|464:224,1,162.499992561341
176,304,94395,2,8,P|80:304|48:224,1,162.499992561341
384,304,94703,2,0,P|480:304|512:224,1,162.499992561341
128,304,95011,2,8,P|32:304|0:224,1,162.499992561341
448,256,95318,6,0,P|397:196|304:190,1,162.499992561341
64,256,95626,2,8,P|114:196|207:190,1,162.499992561341
496,256,95934,2,0,P|445:196|352:190,1,162.499992561341
16,256,96241,2,8,P|66:196|159:190,1,162.499992561341
368,288,96549,6,0,L|480:288,2,81.2499962806703
96,288,96857,2,8,L|0:288,2,81.2499962806703
304,208,97164,2,0,L|416:208,2,81.2499962806703
160,208,97472,2,12,L|48:208,2,81.2499962806703
320,208,97780,6,4,L|352:128,1,81.2499962806703
208,128,97934,1,12,0:0:0:0:
385,208,98088,2,4,L|417:128,1,81.2499962806703
160,128,98241,1,12,0:0:0:0:
432,208,98395,2,4,L|464:128,1,81.2499962806703
64,192,98549,2,12,L|96:112,1,81.2499962806703
480,208,98703,2,12,L|512:128,1,81.2499962806703
144,256,98857,6,12,L|32:256,1,81.2499962806703
144,256,99011,2,0,L|256:256,1,81.2499962806703
304,256,99164,2,8,L|384:256,3,74.9999977111817
296,256,99472,2,8,L|384:256,3,74.9999977111817
288,256,99780,2,8,L|384:256,3,74.9999977111817
280,256,100088,2,8,L|384:256,3,74.9999977111817
200,256,100395,2,8,L|112:256,3,74.9999977111817
208,256,100703,2,8,L|128:256,3,74.9999977111817
216,256,101011,2,8,L|128:256,3,74.9999977111817
416,256,101318,6,8,L|481:301,1,74.9999977111817
496,192,101472,2,0,L|430:146,1,74.9999977111817
111,256,101626,2,8,L|20:191,1,74.9999977111817
32,192,101780,2,0,L|123:256,1,74.9999977111817
336,192,101934,2,8,L|401:237,1,74.9999977111817
176,192,102088,2,0,L|110:146,1,74.9999977111817
368,192,102241,2,8,L|446:247,1,74.9999977111817
128,144,102395,2,0,L|36:79,1,74.9999977111817
32,96,102549,6,8,L|136:169,1,74.9999977111817
384,144,102703,2,0,L|449:189,1,74.9999977111817
480,96,102857,2,8,L|375:22,1,74.9999977111817
160,111,103011,2,0,L|94:66,1,74.9999977111817
352,111,103164,2,8,L|417:157,1,74.9999977111817
128,112,103318,2,0,L|62:66,1,74.9999977111817
384,112,103472,2,8,L|449:157,1,74.9999977111817
107,48,103626,2,0,L|45:4,1,74.9999977111817
368,288,103780,6,8,L|400:192,1,74.9999977111817
144,288,103934,2,0,L|176:192,1,74.9999977111817
384,288,104088,2,0,L|416:208,1,74.9999977111817
128,288,104241,2,0,L|160:208,1,74.9999977111817
480,288,104395,2,8,L|464:192,1,74.9999977111817
32,288,104549,2,0,L|16:192,1,74.9999977111817
496,288,104703,2,0,L|480:208,1,74.9999977111817
48,288,104857,2,0,L|32:208,1,74.9999977111817
464,192,105011,6,8,L|464:96,1,74.9999977111817
256,192,105164,2,0,L|256:96,1,74.9999977111817
48,192,105318,2,0,L|48:112,1,74.9999977111817
256,192,105472,2,0,L|256:112,1,74.9999977111817
464,192,105626,2,8,L|464:112,1,74.9999977111817
256,192,105780,2,0,L|256:112,1,74.9999977111817
48,192,105934,2,0,L|48:112,1,74.9999977111817
464,192,106088,2,0,L|480:96,1,74.9999977111817
48,192,106241,6,8,L|64:112,1,74.9999977111817
480,192,106395,2,0,L|496:112,1,74.9999977111817
48,192,106549,2,0,L|48:112,1,74.9999977111817
256,192,106703,2,0,L|256:96,1,74.9999977111817
464,192,106857,2,8,L|464:112,1,74.9999977111817
256,192,107011,2,0,L|256:112,1,74.9999977111817
48,192,107164,2,0,L|48:112,1,74.9999977111817
256,192,107318,2,0,L|256:112,1,74.9999977111817
464,192,107472,6,8,L|464:112,1,74.9999977111817
32,111,107626,2,0,L|110:167,1,74.9999977111817
256,112,107780,2,0,L|321:157,1,74.9999977111817
107,112,107934,2,0,L|28:56,1,74.9999977111817
268,160,108088,1,12,0:0:0:0:
341,160,108164,1,4,0:0:0:0:
421,160,108318,2,12,L|482:203,1,74.9999977111817
288,160,108472,2,12,L|226:116,1,74.9999977111817
80,160,108626,2,12,L|18:116,1,74.9999977111817
288,240,108780,6,12,L|368:224,1,74.9999977111817,12|0,0:0|0:0,0:0:0:0:
224,240,108934,2,8,L|144:224,1,74.9999977111817
320,240,109088,2,0,L|400:224,1,74.9999977111817
192,240,109241,2,8,L|112:224,1,74.9999977111817
352,240,109395,2,0,L|432:224,1,74.9999977111817
160,240,109549,2,8,L|80:224,1,74.9999977111817
384,240,109703,2,0,L|464:224,1,74.9999977111817
128,240,109857,2,8,L|48:224,2,74.9999977111817,8|8|0,0:0|0:0|0:0,0:0:0:0:
480,288,110088,6,0,L|448:208,1,74.9999977111817
32,288,110241,2,0,L|64:208,1,74.9999977111817,8|0,0:0|0:0,0:0:0:0:
448,288,110395,2,0,L|416:208,1,74.9999977111817
64,288,110549,2,0,L|96:208,1,74.9999977111817,8|0,0:0|0:0,0:0:0:0:
288,208,110703,2,0,L|384:208,1,74.9999977111817
288,208,110857,2,0,L|192:208,1,74.9999977111817,8|0,0:0|0:0,0:0:0:0:
352,208,111011,2,0,L|432:208,1,74.9999977111817
352,208,111164,2,0,L|272:208,1,74.9999977111817,8|0,0:0|0:0,0:0:0:0:
427,208,111318,6,0,L|512:208,1,74.9999977111817
427,208,111472,2,0,L|320:208,1,74.9999977111817,8|0,0:0|0:0,0:0:0:0:
208,208,111626,2,0,L|128:208,1,74.9999977111817
208,208,111780,2,0,L|288:208,1,74.9999977111817,8|0,0:0|0:0,0:0:0:0:
144,208,111934,2,0,L|59:208,1,74.9999977111817
144,208,112088,2,0,L|235:208,1,74.9999977111817,8|0,0:0|0:0,0:0:0:0:
80,208,112241,2,0,L|-16:208,1,74.9999977111817
80,208,112395,2,0,L|160:208,1,74.9999977111817,8|0,0:0|0:0,0:0:0:0:
336,208,112549,6,0,L|432:208,1,74.9999977111817
240,144,112703,2,0,L|144:144,1,74.9999977111817,8|0,0:0|0:0,0:0:0:0:
160,80,112857,2,0,L|272:80,1,74.9999977111817
80,144,113011,2,0,L|0:144,1,74.9999977111817,8|0,0:0|0:0,0:0:0:0:
240,288,113164,2,0,L|336:288,1,74.9999977111817
320,224,113318,2,0,L|224:224,1,74.9999977111817,8|0,0:0|0:0,0:0:0:0:
416,288,113472,2,0,L|512:288,1,74.9999977111817
416,288,113626,5,12,0:0:0:0:
240,224,113780,1,0,0:0:0:0:
96,224,113934,1,0,0:0:0:0:
256,224,114088,1,0,0:0:0:0:
400,224,114241,1,8,0:0:0:0:
256,160,114395,1,0,0:0:0:0:
496,160,114549,1,0,0:0:0:0:
256,96,114703,1,0,0:0:0:0:
416,96,114857,5,8,0:0:0:0:
192,96,115011,1,0,0:0:0:0:
352,96,115164,1,0,0:0:0:0:
128,96,115318,1,0,0:0:0:0:
288,96,115472,1,8,0:0:0:0:
460,96,115626,1,0,0:0:0:0:
240,96,115780,1,0,0:0:0:0:
16,96,115934,1,0,0:0:0:0:
336,171,116088,6,8,L|336:96,1,74.9999977111817
480,171,116241,2,0,L|480:96,1,74.9999977111817
336,171,116395,2,8,L|336:96,1,74.9999977111817
480,171,116549,2,0,L|480:96,1,74.9999977111817
336,171,116703,2,8,L|336:96,1,74.9999977111817
480,171,116857,2,0,L|480:96,1,74.9999977111817
240,171,117011,2,8,L|240:96,1,74.9999977111817
480,171,117164,2,0,L|480:96,1,74.9999977111817
144,171,117318,6,8,L|144:96,1,74.9999977111817
480,171,117472,2,8,L|480:96,1,74.9999977111817
48,171,117626,2,8,L|48:96,1,74.9999977111817
336,171,117780,2,8,L|336:96,1,74.9999977111817
48,171,117934,2,8,L|48:96,1,74.9999977111817
416,171,118088,2,8,L|416:96,1,74.9999977111817
16,171,118241,2,8,L|16:96,1,74.9999977111817
496,171,118395,2,8,L|496:96,1,74.9999977111817
304,192,118549,6,14,L|192:192,1,74.9999977111817,14|0,0:0|0:0,0:0:0:0:
96,192,118703,2,0,L|12:144,1,74.9999977111817
208,192,118857,2,8,L|336:192,1,74.9999977111817
416,191,119011,2,0,L|485:152,1,74.9999977111817
304,192,119164,2,8,L|224:192,1,74.9999977111817
96,192,119318,2,0,L|26:152,1,74.9999977111817
208,192,119472,2,8,L|320:192,1,74.9999977111817
416,191,119626,2,0,L|499:144,1,74.9999977111817
304,192,119780,6,8,L|192:192,1,74.9999977111817
96,192,119934,2,0,L|12:144,1,74.9999977111817
208,192,120088,2,8,L|320:192,1,74.9999977111817
416,191,120241,2,0,L|485:152,1,74.9999977111817
304,192,120395,2,8,L|192:192,1,74.9999977111817
96,192,120549,2,0,L|26:152,1,74.9999977111817
224,127,120703,2,8,L|307:176,1,74.9999977111817,2|8,0:2|0:0,0:0:0:0:
80,128,120857,2,8,L|-16:72,1,74.9999977111817,2|8,0:2|0:0,0:0:0:0:
208,64,121011,6,12,L|288:64,1,74.9999977111817,2|8,0:2|0:0,0:0:0:0:
416,63,121164,2,0,L|485:103,1,74.9999977111817
288,64,121318,2,8,L|177:0,1,74.9999977111817,2|8,0:2|0:0,0:0:0:0:
432,128,121472,2,0,L|515:176,1,74.9999977111817,2|0,0:2|0:0,0:0:0:0:
304,128,121626,2,8,L|192:128,1,74.9999977111817,2|8,0:2|0:0,0:0:0:0:
96,127,121780,2,0,L|12:79,1,74.9999977111817
296,280,121934,6,8,L|216:168,1,74.9999977111817,2|8,0:2|0:0,0:0:0:0:
184,152,122088,2,0,L|120:104,1,74.9999977111817,2|0,0:2|0:0,0:0:0:0:
384,272,122241,6,8,L|304:160,1,74.9999977111817,2|8,0:2|0:0,0:0:0:0:
272,144,122395,2,0,L|208:96,1,74.9999977111817
416,111,122549,2,8,L|467:172,1,74.9999977111817
208,272,122703,2,0,L|256:208,1,74.9999977111817
304,160,122857,2,12,L|384:112,1,74.9999977111817
128,272,123011,2,0,L|208:160,1,74.9999977111817
240,144,123164,2,12,L|304:96,1,74.9999977111817
112,128,123318,2,0,L|38:42,1,74.9999977111817
280,224,123472,6,12,L|312:144,1,74.9999977111817
232,224,123626,2,0,L|200:144,1,74.9999977111817
400,224,123780,2,8,L|469:264,1,74.9999977111817
128,224,123934,2,0,L|44:272,1,74.9999977111817
128,176,124088,2,8,L|211:224,1,74.9999977111817
128,128,124241,2,0,L|58:88,1,74.9999977111817
400,128,124395,2,8,L|483:79,1,74.9999977111817
232,192,124549,2,0,L|200:112,1,74.9999977111817
280,192,124703,6,8,L|312:112,1,74.9999977111817
128,128,124857,2,0,L|31:72,1,74.9999977111817
400,128,125011,2,8,L|483:79,1,74.9999977111817
400,80,125164,2,0,L|316:32,1,74.9999977111817
400,32,125318,2,8,L|483:80,1,74.9999977111817
127,64,125472,2,0,L|44:111,1,74.9999977111817
256,240,125626,2,8,L|339:288,1,74.9999977111817
256,192,125780,2,0,L|172:144,1,74.9999977111817
400,304,125934,6,8,L|483:352,1,74.9999977111817
112,304,126088,2,0,L|96:224,1,74.9999977111817
288,304,126241,2,8,L|320:208,1,74.9999977111817
240,304,126395,2,0,L|208:208,1,74.9999977111817
400,240,126549,2,8,L|432:160,1,74.9999977111817
96,192,126703,2,0,L|64:96,1,74.9999977111817
256,192,126857,2,8,L|352:248,1,74.9999977111817
256,192,127011,2,0,L|172:144,1,74.9999977111817
432,176,127164,6,8,L|448:96,1,74.9999977111817
96,192,127318,2,0,L|64:112,1,74.9999977111817
384,272,127472,2,8,L|453:312,1,74.9999977111817
384,224,127626,2,0,L|300:272,1,74.9999977111817
384,175,127780,2,8,L|467:224,1,74.9999977111817
176,144,127934,2,0,L|92:96,1,74.9999977111817
336,144,128088,2,8,L|432:88,1,74.9999977111817
160,80,128241,2,8,L|49:16,1,74.9999977111817
320,80,128395,6,12,L|416:24,1,74.9999977111817
128,80,128549,2,0,L|96:176,1,74.9999977111817
384,160,128703,2,8,L|496:160,1,74.9999977111817
480,224,128857,2,0,L|384:224,1,74.9999977111817
256,224,129011,2,8,L|144:224,1,74.9999977111817
16,224,129164,2,0,L|0:320,1,74.9999977111817
240,272,129318,2,8,L|320:272,1,74.9999977111817
480,272,129472,2,0,L|496:352,1,74.9999977111817
112,128,129626,6,8,L|80:240,1,74.9999977111817
288,192,129780,2,0,L|304:288,1,74.9999977111817
228,192,129934,2,8,L|196:320,1,74.9999977111817
368,136,130088,2,0,L|388:224,1,74.9999977111817
176,128,130241,2,8,L|64:176,1,74.9999977111817
336,128,130395,2,0,L|432:160,1,74.9999977111817
144,128,130549,2,8,L|64:144,1,74.9999977111817
368,128,130703,2,0,L|480:144,1,74.9999977111817
48,48,130857,6,12,L|48:128,1,74.9999977111817
464,48,131011,2,0,L|464:160,1,74.9999977111817
64,64,131164,2,8,L|80:144,1,74.9999977111817
448,64,131318,2,0,L|432:144,1,74.9999977111817
80,80,131472,2,8,L|112:160,1,74.9999977111817
432,80,131626,2,0,L|400:160,1,74.9999977111817
96,96,131780,2,8,L|144:176,1,74.9999977111817
416,96,131934,2,0,L|368:176,1,74.9999977111817
112,112,132088,6,8,L|160:176,1,74.9999977111817
400,112,132241,2,0,L|352:176,1,74.9999977111817
128,128,132395,2,8,L|192:192,1,74.9999977111817
384,128,132549,2,0,L|320:192,1,74.9999977111817
144,144,132703,2,8,L|224:208,1,74.9999977111817
368,144,132857,2,0,L|288:208,1,74.9999977111817
156,160,133011,2,8,L|236:208,1,74.9999977111817,2|8,0:2|0:0,0:0:0:0:
356,160,133164,2,8,L|276:208,1,74.9999977111817,2|8,0:2|0:0,0:0:0:0:
208,208,133318,6,8,L|140:174,1,74.9999977111817,2|8,0:2|0:0,0:0:0:0:
304,208,133472,2,0,L|371:174,1,74.9999977111817
192,224,133626,2,8,L|121:197,1,74.9999977111817,2|8,0:2|0:0,0:0:0:0:
320,224,133780,2,0,L|391:200,1,74.9999977111817,2|0,0:2|0:0,0:0:0:0:
176,240,133934,2,8,L|80:208,1,74.9999977111817,2|8,0:2|0:0,0:0:0:0:
336,240,134088,2,0,L|416:216,1,74.9999977111817
160,256,134241,2,8,L|72:224,1,74.9999977111817,2|8,0:2|0:0,0:0:0:0:
352,256,134395,2,0,L|440:232,1,74.9999977111817,2|0,0:2|0:0,0:0:0:0:
144,272,134549,6,8,L|64:288,1,74.9999977111817,2|8,0:2|0:0,0:0:0:0:
368,272,134703,2,0,L|441:286,1,74.9999977111817
128,288,134857,2,8,L|48:320,1,74.9999977111817
384,288,135011,2,0,L|464:320,1,74.9999977111817
112,144,135164,2,8,L|48:192,1,74.9999977111817
400,304,135318,2,0,L|480:352,1,74.9999977111817
96,160,135472,2,8,L|32:224,1,74.9999977111817
416,320,135626,2,0,L|480:368,1,74.9999977111817
80,192,135780,6,8,L|32:256,1,74.9999977111817
416,192,135934,2,0,L|464:256,1,74.9999977111817
64,224,136088,2,8,L|32:304,1,74.9999977111817
448,224,136241,2,0,L|480:304,1,74.9999977111817
48,256,136395,2,8,L|32:336,1,74.9999977111817
464,256,136549,2,0,L|480:336,1,74.9999977111817
48,256,136703,2,8,L|48:352,1,74.9999977111817
464,256,136857,2,0,L|464:352,1,74.9999977111817
304,320,137011,6,12,L|183:276,1,74.9999977111817
80,320,137164,1,0,0:0:0:0:
320,255,137318,2,12,L|249:230,1,74.9999977111817
80,256,137472,1,0,0:0:0:0:
336,192,137626,2,12,L|215:148,1,74.9999977111817
80,192,137780,1,0,0:0:0:0:
352,127,137934,2,12,L|281:102,1,74.9999977111817
80,128,138088,2,12,L|15:90,1,74.9999977111817
224,64,138241,6,12,L|299:64,1,74.9999977111817
400,32,138395,2,0,L|469:72,1,74.9999977111817
304,192,138549,2,8,L|224:160,1,74.9999977111817
304,192,138703,2,0,L|384:160,1,74.9999977111817
304,192,138857,2,8,L|224:160,1,74.9999977111817
96,192,139011,2,0,L|0:136,1,74.9999977111817
224,304,139164,2,8,L|307:352,1,74.9999977111817
80,288,139318,2,0,L|-3:240,1,74.9999977111817
208,240,139472,6,8,L|304:208,1,74.9999977111817
208,240,139626,2,0,L|112:208,1,74.9999977111817
208,240,139780,2,8,L|288:208,1,74.9999977111817
432,240,139934,2,0,L|515:288,1,74.9999977111817
208,240,140088,2,8,L|111:184,1,74.9999977111817
304,240,140241,2,0,L|387:288,1,74.9999977111817
80,240,140395,2,8,L|-3:192,1,74.9999977111817,2|8,0:2|0:0,0:0:0:0:
304,176,140549,2,8,L|387:224,1,74.9999977111817,2|8,0:2|0:0,0:0:0:0:
208,175,140703,6,8,L|111:120,1,74.9999977111817,2|8,0:2|0:0,0:0:0:0:
432,176,140857,2,0,L|505:237,1,74.9999977111817
144,304,141011,2,8,L|208:224,1,74.9999977111817,2|8,0:2|0:0,0:0:0:0:
248,176,141164,2,0,L|312:128,1,74.9999977111817,2|0,0:2|0:0,0:0:0:0:
32,288,141318,2,8,L|96:208,1,74.9999977111817,2|8,0:2|0:0,0:0:0:0:
140,160,141472,2,0,L|220:96,1,74.9999977111817
368,304,141626,2,8,L|304:224,1,74.9999977111817,2|8,0:2|0:0,0:0:0:0:
264,180,141780,2,0,L|200:132,1,74.9999977111817,2|0,0:2|0:0,0:0:0:0:
480,304,141934,2,8,L|416:224,1,74.9999977111817,2|8,0:2|0:0,0:0:0:0:
376,176,142088,6,0,L|312:128,1,74.9999977111817
112,240,142241,2,8,L|32:208,1,74.9999977111817
112,192,142395,2,0,L|192:160,1,74.9999977111817
112,144,142549,2,8,L|32:112,1,74.9999977111817
448,304,142703,2,0,L|480:192,1,74.9999977111817
64,304,142857,2,8,L|32:192,1,74.9999977111817
336,304,143011,2,0,L|368:192,1,74.9999977111817
176,304,143164,6,12,L|144:192,1,74.9999977111817
416,304,143318,2,0,L|496:272,1,74.9999977111817
416,304,143472,2,8,L|320:272,1,74.9999977111817
416,304,143626,2,0,L|496:272,1,74.9999977111817
236,192,143780,2,8,L|192:112,1,74.9999977111817
276,192,143934,2,0,L|320:112,1,74.9999977111817
112,192,144088,2,8,L|28:144,1,74.9999977111817
400,192,144241,2,0,L|469:152,1,74.9999977111817
32,288,144395,6,8,L|64:192,1,74.9999977111817
464,304,144549,2,0,L|496:208,1,74.9999977111817
32,288,144703,2,8,L|64:192,1,74.9999977111817
464,304,144857,2,0,L|496:208,1,74.9999977111817
55,216,145011,2,8,L|32:288,1,74.9999977111817
487,232,145164,2,0,L|463:303,1,74.9999977111817
55,216,145318,2,8,L|32:288,1,74.9999977111817
487,232,145472,2,0,L|463:303,1,74.9999977111817
192,128,145626,6,8,L|127:90,1,74.9999977111817
384,127,145780,2,0,L|453:88,1,74.9999977111817
232,304,145934,2,8,L|135:248,1,74.9999977111817
240,224,146088,2,0,L|350:288,1,74.9999977111817
96,224,146241,2,8,L|64:288,1,62.5
315,224,146395,2,0,L|400:224,1,62.5
80,160,146549,2,8,L|48:224,1,62.5
304,160,146703,2,0,L|384:160,1,62.5
144,96,146857,6,8,L|32:96,1,74.9999977111817
320,96,147011,2,0,L|448:96,1,74.9999977111817
128,32,147164,2,8,L|16:32,1,74.9999977111817
304,32,147318,2,0,L|400:32,1,74.9999977111817
304,32,147472,2,8,L|220:79,1,74.9999977111817
432,192,147626,2,0,L|320:224,1,62.5
208,192,147780,2,8,L|96:224,1,62.5
416,128,147934,2,8,L|304:160,1,62.5
192,128,148088,6,12,L|80:160,1,62.5
368,304,148241,2,0,L|437:344,1,74.9999977111817
192,304,148395,2,8,L|108:256,1,74.9999977111817
384,240,148549,2,0,L|467:288,1,74.9999977111817
304,240,148703,2,8,L|234:200,1,74.9999977111817
96,240,148857,2,0,L|12:192,1,74.9999977111817
96,176,149011,2,8,L|179:224,1,74.9999977111817
176,112,149164,2,0,L|92:64,1,74.9999977111817
256,112,149318,6,8,L|339:160,1,74.9999977111817
336,48,149472,2,0,L|252:0,1,74.9999977111817
416,111,149626,2,8,L|485:152,1,74.9999977111817
480,48,149780,2,0,L|396:0,1,74.9999977111817
432,176,149934,2,8,L|512:176,1,74.9999977111817
336,256,150088,2,0,L|224:256,1,74.9999977111817
272,192,150241,2,8,L|368:192,1,74.9999977111817
160,256,150395,2,0,L|64:256,1,74.9999977111817
96,192,150549,6,8,L|192:192,1,74.9999977111817
320,336,150703,2,0,L|389:376,1,74.9999977111817
192,336,150857,2,8,L|108:384,1,74.9999977111817
256,272,151011,2,0,L|332:316,1,74.9999977111817
464,272,151164,2,8,L|464:176,1,74.9999977111817
48,272,151318,2,0,L|48:192,1,74.9999977111817
336,272,151472,2,8,L|336:192,1,74.9999977111817
192,272,151626,2,0,L|192:192,1,74.9999977111817
464,272,151780,6,8,L|464:192,1,74.9999977111817
208,144,151934,2,0,L|128:144,1,74.9999977111817
208,80,152088,2,8,L|277:119,1,74.9999977111817
96,144,152241,2,0,L|16:144,1,74.9999977111817
96,80,152395,2,8,L|179:127,1,74.9999977111817
352,144,152549,2,0,L|448:144,1,74.9999977111817
352,80,152703,2,8,L|268:128,1,74.9999977111817
432,240,152857,2,8,L|501:280,1,74.9999977111817
432,240,153011,5,12,0:0:0:0:
272,240,153164,1,0,0:0:0:0:
424,176,153318,1,8,0:0:0:0:
120,176,153472,1,8,0:0:0:0:
272,176,153626,1,8,0:0:0:0:
120,112,153780,1,0,0:0:0:0:
272,112,153934,1,8,0:0:0:0:
432,112,154088,1,0,0:0:0:0:
272,112,154241,5,8,0:0:0:0:
424,112,154395,1,0,0:0:0:0:
112,112,154549,1,8,0:0:0:0:
268,76,154703,1,0,0:0:0:0:
432,76,154857,1,8,0:0:0:0:
80,112,155011,1,0,0:0:0:0:
232,112,155164,1,8,0:0:0:0:
392,112,155318,1,0,0:0:0:0:
48,112,155472,6,8,L|16:192,1,74.9999977111817
208,192,155626,2,0,L|320:192,1,74.9999977111817
464,112,155780,2,8,L|496:192,1,74.9999977111817
304,192,155934,2,0,L|192:192,1,74.9999977111817
48,112,156088,2,8,L|16:192,1,74.9999977111817
336,304,156241,2,0,L|419:352,1,74.9999977111817
176,304,156395,2,8,L|92:352,1,74.9999977111817
368,240,156549,2,0,L|437:280,1,74.9999977111817
144,240,156703,6,8,L|47:296,1,74.9999977111817
400,176,156857,2,8,L|483:223,1,74.9999977111817
112,176,157011,2,8,L|42:216,1,74.9999977111817
256,176,157126,1,0,0:0:0:0:
432,128,157164,2,8,L|480:128,2,37.4999988555909
256,128,157280,1,0,0:0:0:0:
80,128,157318,2,8,L|16:128,2,37.4999988555909
256,128,157434,1,0,0:0:0:0:
448,80,157472,2,8,L|512:80,2,37.4999988555909
256,128,157588,1,0,0:0:0:0:
64,80,157626,2,8,L|16:80,2,37.4999988555909
256,128,157741,1,0,0:0:0:0:
464,32,157780,2,8,L|512:32,2,37.4999988555909
256,128,157895,1,0,0:0:0:0:
48,32,157934,6,12,P|0:80|80:128,1,149.999995422363
192,128,158164,1,0,0:0:0:0:
352,128,158241,2,8,P|400:177|357:231,1,149.999995422363
256,240,158472,1,0,0:0:0:0:
160,128,158549,2,8,P|112:176|192:224,1,149.999995422363
304,256,158780,1,0,0:0:0:0:
464,256,158857,2,8,P|512:305|469:359,1,149.999995422363
256,352,159088,1,0,0:0:0:0:
48,256,159164,6,8,P|0:305|43:359,1,149.999995422363
256,352,159395,1,0,0:0:0:0:
464,256,159472,2,8,P|512:305|469:359,1,149.999995422363
304,256,159703,1,0,0:0:0:0:
160,128,159780,2,8,P|112:176|192:224,1,149.999995422363
256,240,160011,1,0,0:0:0:0:
352,128,160088,2,8,P|400:176|320:224,1,149.999995422363
208,128,160318,1,0,0:0:0:0:
64,80,160395,6,8,L|0:128,2,74.9999977111817
160,128,160626,1,0,0:0:0:0:
256,128,160703,2,8,L|316:83,2,74.9999977111817
352,128,160934,1,0,0:0:0:0:
444,128,161011,2,8,L|504:83,2,74.9999977111817
288,208,161241,1,0,0:0:0:0:
128,208,161318,2,8,L|68:163,2,74.9999977111817
288,208,161549,1,0,0:0:0:0:
444,308,161626,6,8,L|504:353,2,74.9999977111817
160,304,161857,1,0,0:0:0:0:
68,308,161934,2,8,L|8:353,2,74.9999977111817
160,304,162164,1,0,0:0:0:0:
64,224,162241,2,8,L|4:269,2,74.9999977111817
160,304,162472,1,0,0:0:0:0:
64,224,162549,2,8,L|4:269,2,74.9999977111817
256,224,162780,1,0,0:0:0:0:
448,224,162857,6,8,L|508:269,2,74.9999977111817
352,224,163088,1,0,0:0:0:0:
448,224,163164,2,8,L|508:269,2,74.9999977111817
352,224,163395,1,0,0:0:0:0:
448,224,163472,2,8,L|508:269,2,74.9999977111817
288,192,163703,1,0,0:0:0:0:
112,256,163780,2,8,P|32:224|32:160,1,149.999995422363
176,160,164011,1,0,0:0:0:0:
312,256,164088,6,8,P|392:224|392:160,1,149.999995422363
292,176,164318,1,0,0:0:0:0:
200,256,164395,2,8,P|120:224|120:160,1,149.999995422363
256,160,164626,1,0,0:0:0:0:
400,256,164703,2,8,P|480:224|480:160,1,149.999995422363
256,176,164934,1,0,0:0:0:0:
16,176,165011,2,8,L|32:16,1,149.999995422363
256,176,165241,1,0,0:0:0:0:
480,176,165318,6,8,P|448:96|384:80,1,149.999995422363
224,176,165549,1,0,0:0:0:0:
28,176,165626,2,8,P|60:96|124:80,1,149.999995422363
256,176,165857,1,0,0:0:0:0:
396,176,165934,2,8,P|364:96|300:80,1,149.999995422363
212,132,166164,1,0,0:0:0:0:
104,176,166241,2,8,P|124:106|191:79,1,149.999995422363
332,176,166472,1,0,0:0:0:0:
484,176,166549,6,8,P|452:96|388:80,1,149.999995422363
256,76,166780,1,0,0:0:0:0:
120,228,166857,2,8,P|120:164|120:60,1,149.999995422363
36,128,167088,1,0,0:0:0:0:
120,228,167164,1,8,0:0:0:0:
360,136,167318,1,4,0:0:0:0:
120,132,167472,1,8,0:0:0:0:
256,240,167626,2,8,L|348:240,2,74.9999977111817
168,232,167857,5,0,0:0:0:0:
80,232,167934,2,8,L|120:32,1,149.999995422363
256,88,168164,1,0,0:0:0:0:
432,240,168241,2,8,L|392:40,1,149.999995422363
304,96,168472,1,0,0:0:0:0:
192,240,168549,2,8,L|232:40,1,149.999995422363
304,96,168780,1,0,0:0:0:0:
432,240,168857,2,8,L|392:40,1,149.999995422363
256,96,169088,5,0,0:0:0:0:
80,232,169164,2,8,L|120:32,1,149.999995422363
208,96,169395,1,0,0:0:0:0:
320,240,169472,2,8,L|280:40,1,149.999995422363
208,96,169703,1,0,0:0:0:0:
80,232,169780,2,8,L|120:32,1,149.999995422363
248,88,170011,1,0,0:0:0:0:
400,256,170088,2,8,P|512:200|512:176,1,149.999995422363
288,200,170318,5,0,0:0:0:0:
112,256,170395,2,8,P|39:255|0:196,1,149.999995422363
224,88,170626,1,0,0:0:0:0:
400,256,170703,2,8,P|512:200|512:176,1,149.999995422363
224,184,170934,1,0,0:0:0:0:
112,224,171011,2,8,P|39:223|0:164,1,149.999995422363
96,160,171241,1,0,0:0:0:0:
171,160,171318,2,8,L|67:160,2,74.9999977111817
272,160,171549,5,0,0:0:0:0:
347,160,171626,2,8,L|243:160,2,74.9999977111817
424,160,171857,1,0,0:0:0:0:
499,160,171934,2,8,L|395:160,2,74.9999977111817
256,192,172164,1,0,0:0:0:0:
104,192,172241,2,8,L|16:192,2,74.9999977111817
256,192,172472,1,0,0:0:0:0:
408,192,172549,2,8,L|488:192,2,74.9999977111817
328,192,172780,5,0,0:0:0:0:
253,192,172857,2,8,L|333:192,2,74.9999977111817
179,192,173088,1,0,0:0:0:0:
104,192,173164,2,8,L|184:192,2,74.9999977111817
256,192,173395,1,0,0:0:0:0:
344,192,173472,2,8,L|432:192,2,74.9999977111817
256,192,173703,1,0,0:0:0:0:
168,192,173780,2,8,L|80:192,2,74.9999977111817
256,192,174011,5,0,0:0:0:0:
331,192,174088,2,8,L|227:192,2,74.9999977111817
256,192,174318,1,0,0:0:0:0:
181,192,174395,2,8,L|285:192,2,74.9999977111817
344,192,174626,1,0,0:0:0:0:
488,320,174703,2,8,L|488:112,1,149.999995422363
256,192,174934,1,0,0:0:0:0:
24,320,175011,2,8,L|24:112,1,149.999995422363
256,192,175241,5,0,0:0:0:0:
488,320,175318,2,8,L|432:120,1,149.999995422363
240,192,175549,1,0,0:0:0:0:
24,320,175626,2,8,L|104:128,1,149.999995422363
272,192,175857,1,0,0:0:0:0:
488,320,175934,2,8,L|384:136,1,149.999995422363
216,192,176164,1,0,0:0:0:0:
24,320,176241,2,8,L|168:176,1,149.999995422363
296,208,176472,5,0,0:0:0:0:
488,320,176549,2,8,L|320:200,1,149.999995422363
200,312,176780,1,0,0:0:0:0:
24,320,176857,2,8,L|224:264,1,149.999995422363
312,320,177088,1,0,0:0:0:0:
496,320,177164,2,8,L|288:312,1,149.999995422363
272,280,177395,1,0,0:0:0:0:
416,248,177472,2,8,L|512:224,1,74.9999977111817
416,168,177626,6,12,L|320:24,1,149.999995422363
264,24,177857,1,0,0:0:0:0:
96,168,177934,2,8,L|208:32,1,149.999995422363
240,152,178164,1,0,0:0:0:0:
384,168,178241,2,8,L|296:24,1,149.999995422363
264,72,178472,1,0,0:0:0:0:
128,168,178549,2,8,L|216:8,1,149.999995422363
224,80,178780,1,0,0:0:0:0:
464,320,178857,6,8,L|480:144,1,149.999995422363
496,120,179088,1,0,0:0:0:0:
48,320,179164,2,8,L|32:144,1,149.999995422363
16,120,179395,1,0,0:0:0:0:
440,320,179472,2,8,L|456:144,1,149.999995422363
472,120,179703,1,0,0:0:0:0:
80,320,179780,2,8,L|64:144,1,149.999995422363
48,120,180011,1,0,0:0:0:0:
440,320,180088,6,8,P|488:248|440:200,1,149.999995422363
376,200,180318,1,0,0:0:0:0:
72,320,180395,2,8,P|24:248|72:200,1,149.999995422363
136,200,180626,1,0,0:0:0:0:
400,320,180703,2,8,P|448:248|400:200,1,149.999995422363
336,200,180934,1,0,0:0:0:0:
112,320,181011,2,8,P|64:248|112:200,1,149.999995422363
176,200,181241,1,0,0:0:0:0:
256,200,181318,6,8,B|176:200|176:200|264:200,1,149.999995422363
312,80,181549,1,0,0:0:0:0:
400,80,181626,2,8,B|320:80|320:80|408:80,1,149.999995422363
480,80,181857,1,0,0:0:0:0:
400,80,181934,2,8,B|480:80|480:80|392:80,1,149.999995422363
312,80,182164,1,0,0:0:0:0:
224,80,182241,2,8,B|304:80|304:80|216:80,1,149.999995422363
136,80,182472,1,0,0:0:0:0:
56,80,182549,6,8,B|136:80|136:80|48:80,1,149.999995422363
352,248,182780,1,0,0:0:0:0:
376,200,182857,2,8,L|352:32,1,149.999995422363
160,248,183088,1,0,0:0:0:0:
136,200,183164,2,8,L|160:32,1,149.999995422363
464,248,183395,1,0,0:0:0:0:
440,200,183472,2,8,L|416:32,1,149.999995422363
48,248,183703,1,0,0:0:0:0:
72,200,183780,6,8,L|96:32,1,149.999995422363
256,200,184011,1,0,0:0:0:0:
416,328,184088,2,8,L|504:168,1,149.999995422363
256,200,184318,1,0,0:0:0:0:
40,200,184395,2,8,L|128:40,1,149.999995422363
256,200,184626,1,0,0:0:0:0:
432,328,184703,2,8,L|520:168,1,149.999995422363
256,200,184934,1,0,0:0:0:0:
16,200,185011,6,8,L|104:40,1,149.999995422363
256,200,185241,1,0,0:0:0:0:
496,200,185318,2,8,L|408:40,1,149.999995422363
272,192,185549,1,0,0:0:0:0:
88,192,185626,2,8,L|0:32,1,149.999995422363
272,192,185857,1,0,0:0:0:0:
496,200,185934,2,8,L|408:40,1,149.999995422363
272,192,186164,1,0,0:0:0:0:
88,192,186241,6,8,L|0:32,1,149.999995422363
256,192,186472,1,0,0:0:0:0:
472,200,186549,2,8,P|448:128|464:48,1,149.999995422363
256,192,186780,1,0,0:0:0:0:
40,200,186857,2,8,P|64:112|48:48,1,149.999995422363
256,192,187088,1,0,0:0:0:0:
472,200,187164,2,8,P|464:128|464:48,1,149.999995422363
256,192,187395,1,0,0:0:0:0:
40,200,187472,6,12,P|64:128|32:32,1,149.999995422363
256,192,187703,1,0,0:0:0:0:
408,312,187780,2,8,L|496:312,2,74.9999977111817
256,192,188011,1,0,0:0:0:0:
104,312,188088,2,8,L|16:312,2,74.9999977111817
256,192,188318,1,0,0:0:0:0:
408,312,188395,2,8,L|496:312,2,74.9999977111817
256,192,188626,1,0,0:0:0:0:
104,312,188703,6,8,L|16:312,2,74.9999977111817
256,272,188934,1,0,0:0:0:0:
408,248,189011,2,8,P|456:192|360:152,1,149.999995422363
256,160,189241,1,0,0:0:0:0:
104,248,189318,2,8,P|56:192|152:152,1,149.999995422363
256,160,189549,1,0,0:0:0:0:
440,248,189626,2,8,P|488:192|392:152,1,149.999995422363
256,160,189857,1,0,0:0:0:0:
72,248,189934,6,8,P|24:192|120:152,1,149.999995422363
256,160,190164,1,0,0:0:0:0:
456,304,190241,2,8,L|472:152,1,149.999995422363
488,112,190472,1,0,0:0:0:0:
56,304,190549,2,8,L|40:152,1,149.999995422363
24,112,190780,1,0,0:0:0:0:
456,304,190857,2,8,L|472:152,1,149.999995422363
432,104,191088,1,0,0:0:0:0:
56,304,191164,6,8,L|40:152,1,149.999995422363
80,104,191395,1,0,0:0:0:0:
448,280,191472,2,8,P|424:184|368:176,1,149.999995422363
320,176,191703,1,0,0:0:0:0:
64,280,191780,2,8,P|88:184|144:176,1,149.999995422363
176,176,192011,1,0,0:0:0:0:
488,288,192088,2,8,P|464:192|408:184,1,149.999995422363
352,184,192318,1,0,0:0:0:0:
272,192,192395,5,12,0:0:0:0:
32,192,192549,1,0,0:0:0:0:
256,128,192703,1,8,0:0:0:0:
32,128,192857,1,0,0:0:0:0:
256,128,193011,1,8,0:0:0:0:
480,128,193164,1,0,0:0:0:0:
256,192,193318,1,8,0:0:0:0:
480,192,193472,1,0,0:0:0:0:
256,192,193626,5,8,0:0:0:0:
32,192,193780,1,0,0:0:0:0:
256,192,193934,1,8,0:0:0:0:
480,192,194088,1,0,0:0:0:0:
256,192,194241,1,8,0:0:0:0:
32,192,194395,1,0,0:0:0:0:
256,192,194549,1,8,0:0:0:0:
480,192,194703,1,0,0:0:0:0:
120,192,194857,6,12,L|56:192,2,62.5
256,192,195088,1,4,0:0:0:0:
392,192,195164,2,12,L|454:192,2,62.5
256,192,195395,1,4,0:0:0:0:
96,192,195472,2,12,L|32:192,2,62.5
256,192,195703,1,4,0:0:0:0:
448,192,195780,2,12,L|510:192,2,62.5
264,192,195991,1,4,0:0:0:0:
127,192,196049,6,4,L|79:192,2,31.25
256,192,196164,1,0,0:0:0:0:
400,192,196203,2,4,L|431:192,2,31.25
256,192,196318,1,4,0:0:0:0:
96,192,196357,2,4,L|48:192,2,31.25
256,192,196472,1,4,0:0:0:0:
431,192,196511,2,4,L|462:192,2,31.25
256,192,196626,1,4,0:0:0:0:
64,192,196664,2,4,L|16:192,2,31.25
256,192,196780,1,4,0:0:0:0:
462,192,196818,2,4,L|493:192,2,31.25
256,192,196934,5,4,0:0:0:0:
48,192,196972,2,4,L|28:192,2,15.625
256,192,197030,1,4,0:0:0:0:
462,192,197049,2,4,L|477:192,2,15.625
256,192,197107,1,4,0:0:0:0:
32,192,197126,2,4,L|16:192,2,15.625
256,192,197184,1,4,0:0:0:0:
477,192,197203,2,4,L|492:192,2,15.625
256,192,197261,1,4,0:0:0:0:
32,124,197280,1,0,0:0:0:0:
16,124,197299,1,0,0:0:0:0:
32,124,197318,1,12,0:0:0:0:
32,192,199780,5,4,0:0:0:0:
256,192,200011,1,0,0:0:0:0:
32,192,200241,1,0,0:0:0:0:
176,192,200395,1,4,0:0:0:0:
480,192,200626,1,0,0:0:0:0:
256,192,200857,1,0,0:0:0:0:
480,192,201011,5,4,0:0:0:0:
336,192,201241,1,0,0:0:0:0:
128,192,201472,1,0,0:0:0:0:
288,192,201626,1,4,0:0:0:0:
48,192,201857,1,0,0:0:0:0:
256,192,202088,1,0,0:0:0:0:
400,192,202241,5,4,0:0:0:0:
272,192,202472,1,0,0:0:0:0:
480,192,202703,1,0,0:0:0:0:
336,192,202857,1,4,0:0:0:0:
176,192,203088,1,0,0:0:0:0:
112,192,203318,1,0,0:0:0:0:
304,192,203472,5,4,0:0:0:0:
160,128,203703,1,0,0:0:0:0:
224,128,203934,1,0,0:0:0:0:
32,80,204088,1,4,0:0:0:0:
160,128,204318,1,0,0:0:0:0:
320,208,204549,1,0,0:0:0:0:
16,208,204703,5,4,0:0:0:0:
208,208,204934,1,0,0:0:0:0:
400,208,205164,1,0,0:0:0:0:
208,208,205318,1,4,0:0:0:0:
32,208,205549,1,0,0:0:0:0:
256,208,205780,1,0,0:0:0:0:
448,208,205934,5,12,0:0:0:0:
256,272,206164,1,8,0:0:0:0:
464,272,206395,1,8,0:0:0:0:
48,272,206549,1,12,0:0:0:0:
224,272,206780,1,8,0:0:0:0:
32,192,207011,1,8,0:0:0:0:
416,192,207164,5,12,0:0:0:0:
208,192,207395,1,0,0:0:0:0:
416,192,207626,2,0,L|320:192,1,62.5
144,192,207780,1,12,0:0:0:0:
304,192,208011,1,0,0:0:0:0:
96,144,208241,2,0,L|176:144,1,62.5
384,144,208395,5,12,0:0:0:0:
208,144,208626,1,0,0:0:0:0:
416,256,208857,2,0,L|496:256,1,62.5
176,256,209011,1,12,0:0:0:0:
352,256,209241,1,0,0:0:0:0:
144,256,209472,2,0,L|32:256,1,62.5
432,192,209626,5,12,0:0:0:0:
256,192,209857,1,0,0:0:0:0:
480,96,210088,1,0,0:0:0:0:
400,96,210164,1,0,0:0:0:0:
480,96,210241,1,12,0:0:0:0:
256,160,210472,1,0,0:0:0:0:
32,160,210703,1,0,0:0:0:0:
112,160,210780,1,0,0:0:0:0:
32,160,210857,5,12,0:0:0:0:
256,160,211088,1,0,0:0:0:0:
48,160,211318,2,0,L|160:160,1,62.5
464,160,211472,1,12,0:0:0:0:
256,240,211703,1,0,0:0:0:0:
448,160,211934,2,0,L|352:160,1,62.5
88,160,212088,5,12,0:0:0:0:
244,160,212241,1,0,0:0:0:0:
104,160,212395,1,8,0:0:0:0:
272,160,212549,1,0,0:0:0:0:
120,160,212703,1,8,0:0:0:0:
288,160,212857,1,0,0:0:0:0:
136,160,213011,1,8,0:0:0:0:
304,160,213164,1,0,0:0:0:0:
472,160,213318,5,8,0:0:0:0:
288,160,213472,1,0,0:0:0:0:
456,160,213626,1,8,0:0:0:0:
272,160,213780,1,0,0:0:0:0:
440,160,213934,1,8,0:0:0:0:
256,160,214088,1,0,0:0:0:0:
428,160,214241,1,8,0:0:0:0:
240,160,214395,1,0,0:0:0:0:
64,160,214549,6,8,L|48:80,1,74.9999977111817
216,176,214703,2,8,L|312:176,1,74.9999977111817
448,160,214857,2,8,L|464:80,1,74.9999977111817
296,136,215011,2,8,L|221:136,1,74.9999977111817
448,160,215164,2,8,L|488:88,1,74.9999977111817
64,160,215318,2,8,L|24:88,1,74.9999977111817
216,176,215472,2,8,L|312:176,1,74.9999977111817
64,160,215626,2,8,L|48:80,1,74.9999977111817
256,112,215741,1,0,0:0:0:0:
472,312,215780,6,4,L|448:216,1,74.9999977111817
256,112,215895,1,0,0:0:0:0:
56,320,215934,2,4,L|32:224,1,74.9999977111817
256,112,216049,1,0,0:0:0:0:
456,312,216088,2,4,L|488:216,1,74.9999977111817
256,112,216203,1,0,0:0:0:0:
32,320,216241,2,4,L|72:224,1,74.9999977111817
160,216,216338,1,0,0:0:0:0:
256,184,216357,1,0,0:0:0:0:
348,176,216376,1,0,0:0:0:0:
432,168,216395,6,4,L|472:168,2,37.4999988555909
348,176,216491,1,4,0:0:0:0:
256,184,216511,1,4,0:0:0:0:
168,168,216530,1,4,0:0:0:0:
80,168,216549,2,4,L|16:168,2,37.4999988555909
168,168,216645,1,4,0:0:0:0:
256,184,216664,1,4,0:0:0:0:
360,168,216684,1,4,0:0:0:0:
456,112,216703,2,4,L|504:112,2,37.4999988555909
360,112,216799,1,4,0:0:0:0:
256,184,216818,1,4,0:0:0:0:
168,112,216838,1,4,0:0:0:0:
56,112,216857,2,4,L|-8:112,2,37.4999988555909
168,112,216953,1,4,0:0:0:0:
256,184,216972,1,4,0:0:0:0:
360,184,216991,1,4,0:0:0:0:
464,184,217011,5,12,0:0:0:0:
352,184,217164,1,0,0:0:0:0:
272,184,217241,1,0,0:0:0:0:
192,184,217318,1,0,0:0:0:0:
272,184,217395,1,0,0:0:0:0:
352,184,217472,1,0,0:0:0:0:
192,184,217626,1,8,0:0:0:0:
32,192,217780,1,0,0:0:0:0:
112,192,217857,1,0,0:0:0:0:
192,192,217934,1,0,0:0:0:0:
112,192,218011,1,0,0:0:0:0:
32,192,218088,1,0,0:0:0:0:
112,192,218164,1,0,0:0:0:0:
192,192,218241,5,8,0:0:0:0:
368,192,218395,1,0,0:0:0:0:
288,192,218472,1,0,0:0:0:0:
368,192,218549,1,0,0:0:0:0:
288,192,218626,1,0,0:0:0:0:
208,192,218703,1,0,0:0:0:0:
48,192,218857,1,8,0:0:0:0:
336,127,219011,2,0,L|432:184,1,74.9999977111817
224,127,219164,2,8,L|113:192,1,74.9999977111817
368,64,219318,2,8,L|437:104,1,74.9999977111817
192,64,219472,5,12,0:0:0:0:
48,64,219626,1,0,0:0:0:0:
192,256,219780,2,0,L|108:208,1,74.9999977111817
192,256,219934,2,0,L|288:256,1,74.9999977111817
428,256,220088,1,8,0:0:0:0:
320,256,220241,2,0,L|224:224,1,74.9999977111817
80,256,220395,2,0,L|-16:224,1,74.9999977111817
144,256,220549,2,0,L|240:224,1,74.9999977111817
352,256,220703,5,8,0:0:0:0:
512,256,220857,2,0,L|416:256,3,74.9999977111817
352,256,221164,1,0,0:0:0:0:
32,256,221318,1,8,0:0:0:0:
384,192,221472,2,0,L|494:256,1,74.9999977111817
384,127,221626,2,8,L|300:79,1,74.9999977111817
388,60,221780,2,8,L|292:116,1,74.9999977111817
136,128,221934,5,12,0:0:0:0:
32,124,222088,6,0,L|142:188,1,74.9999977111817
32,124,222241,2,8,L|96:86,1,74.9999977111817
32,64,222395,1,0,0:0:0:0:
176,64,222549,1,8,0:0:0:0:
416,144,222703,2,0,L|499:192,1,74.9999977111817
304,144,222857,2,8,L|208:144,1,74.9999977111817
95,144,223011,2,0,L|26:184,1,74.9999977111817
256,288,223164,5,8,0:0:0:0:
416,288,223318,1,0,0:0:0:0:
336,288,223395,1,0,0:0:0:0:
256,288,223472,1,8,0:0:0:0:
176,288,223549,1,0,0:0:0:0:
96,288,223626,1,0,0:0:0:0:
416,288,223780,1,8,0:0:0:0:
96,288,223934,1,0,0:0:0:0:
176,288,224011,1,0,0:0:0:0:
256,288,224088,1,8,0:0:0:0:
336,288,224164,1,0,0:0:0:0:
256,288,224241,1,8,0:0:0:0:
336,288,224318,1,0,0:0:0:0:
416,288,224395,5,8,0:0:0:0:
256,208,224549,1,0,0:0:0:0:
176,208,224626,1,0,0:0:0:0:
96,208,224703,1,8,0:0:0:0:
176,144,224780,1,0,0:0:0:0:
96,144,224857,1,0,0:0:0:0:
240,144,225011,1,8,0:0:0:0:
488,128,225164,6,0,L|472:224,1,74.9999977111817
328,128,225318,2,8,L|312:224,1,74.9999977111817
168,128,225472,2,8,L|152:224,1,74.9999977111817
16,128,225626,5,12,0:0:0:0:
160,128,225780,1,0,0:0:0:0:
240,128,225857,1,0,0:0:0:0:
320,128,225934,1,12,0:0:0:0:
240,128,226011,1,0,0:0:0:0:
160,128,226088,1,12,0:0:0:0:
304,128,226241,1,12,0:0:0:0:
24,128,226395,6,0,L|40:224,1,74.9999977111817
184,128,226549,2,12,L|200:224,1,74.9999977111817
344,128,226703,2,12,L|360:224,1,74.9999977111817
496,128,226857,5,12,0:0:0:0:
288,128,227088,1,0,0:0:0:0:
208,128,227164,1,0,0:0:0:0:
288,128,227241,1,0,0:0:0:0:
208,128,227318,1,0,0:0:0:0:
48,128,227472,1,8,0:0:0:0:
208,128,227626,1,0,0:0:0:0:
288,128,227703,1,0,0:0:0:0:
208,128,227780,1,0,0:0:0:0:
288,128,227857,1,0,0:0:0:0:
368,128,227934,1,0,0:0:0:0:
208,128,228088,5,8,0:0:0:0:
416,192,228318,1,0,0:0:0:0:
496,192,228395,1,0,0:0:0:0:
416,192,228472,1,0,0:0:0:0:
336,192,228549,1,0,0:0:0:0:
112,208,228703,1,8,0:0:0:0:
32,208,228780,1,0,0:0:0:0:
112,208,228857,1,0,0:0:0:0:
32,208,228934,1,0,0:0:0:0:
112,208,229011,1,8,0:0:0:0:
272,208,229164,1,8,0:0:0:0:
432,128,229318,5,8,0:0:0:0:
192,128,229549,1,0,0:0:0:0:
272,128,229626,1,0,0:0:0:0:
352,128,229703,1,0,0:0:0:0:
432,128,229780,1,0,0:0:0:0:
60,132,229934,1,8,0:0:0:0:
272,128,230088,1,0,0:0:0:0:
352,128,230164,1,0,0:0:0:0:
272,128,230241,1,0,0:0:0:0:
192,128,230318,1,0,0:0:0:0:
116,128,230395,1,0,0:0:0:0:
352,128,230549,5,8,0:0:0:0:
176,208,230780,1,0,0:0:0:0:
256,208,230857,1,0,0:0:0:0:
176,208,230934,1,0,0:0:0:0:
256,208,231011,1,0,0:0:0:0:
112,176,231164,2,8,L|28:128,1,74.9999977111817
224,176,231318,2,0,L|320:119,1,74.9999977111817
108,112,231472,1,8,0:0:0:0:
256,112,231626,1,8,0:0:0:0:
404,112,231780,5,8,0:0:0:0:
108,112,232011,1,0,0:0:0:0:
192,112,232088,1,8,0:0:0:0:
272,112,232164,1,0,0:0:0:0:
192,112,232241,1,0,0:0:0:0:
32,112,232395,1,8,0:0:0:0:
304,256,232549,2,0,L|384:224,1,74.9999977111817
208,256,232703,2,8,L|128:224,1,74.9999977111817
352,256,232857,2,0,L|432:224,1,74.9999977111817
80,224,233011,5,8,0:0:0:0:
272,176,233241,1,0,0:0:0:0:
192,176,233318,1,8,0:0:0:0:
112,176,233395,1,0,0:0:0:0:
192,176,233472,1,0,0:0:0:0:
32,176,233626,2,8,L|144:176,1,74.9999977111817
240,176,233780,2,0,L|320:176,1,74.9999977111817
452,176,233934,1,8,0:0:0:0:
304,176,234088,1,8,0:0:0:0:
156,176,234241,5,8,0:0:0:0:
452,176,234472,2,8,L|368:176,1,74.9999977111817
452,176,234626,2,0,L|372:176,1,74.9999977111817
256,176,234857,1,8,0:0:0:0:
80,176,235011,2,8,L|160:176,3,74.9999977111817
80,176,235318,1,0,0:0:0:0:
256,176,235472,5,8,0:0:0:0:
456,176,235703,2,8,L|385:201,1,74.9999977111817
192,176,235857,2,0,L|262:201,1,74.9999977111817
408,104,236088,2,8,L|498:136,1,74.9999977111817
280,104,236241,2,0,L|174:142,1,74.9999977111817
432,32,236395,2,8,L|507:4,1,74.9999977111817
192,40,236549,5,8,0:0:0:0:
32,32,236703,1,12,0:0:0:0:
248,40,236934,1,0,0:0:0:0:
464,32,237164,1,0,0:0:0:0:
32,32,237318,1,12,0:0:0:0:
248,40,237549,1,0,0:0:0:0:
464,32,237780,1,0,0:0:0:0:
32,32,237934,5,12,0:0:0:0:
240,32,238164,1,0,0:0:0:0:
32,32,238395,1,0,0:0:0:0:
480,32,238549,1,12,0:0:0:0:
268,32,238780,1,0,0:0:0:0:
48,32,239011,1,0,0:0:0:0:
480,32,239164,5,12,0:0:0:0:
256,40,239395,1,0,0:0:0:0:
48,32,239626,1,0,0:0:0:0:
480,32,239780,1,12,0:0:0:0:
272,32,240011,1,0,0:0:0:0:
480,32,240241,2,0,L|400:32,1,74.9999977111817
32,32,240395,5,12,0:0:0:0:
240,32,240626,1,0,0:0:0:0:
32,32,240857,2,0,L|128:32,1,74.9999977111817
480,32,241011,1,12,0:0:0:0:
272,32,241241,1,0,0:0:0:0:
480,32,241472,1,0,0:0:0:0:
400,32,241549,1,0,0:0:0:0:
480,32,241626,5,12,0:0:0:0:
256,32,241857,1,0,0:0:0:0:
32,32,242088,1,0,0:0:0:0:
112,32,242164,1,0,0:0:0:0:
32,32,242241,1,12,0:0:0:0:
320,32,242472,1,0,0:0:0:0:
112,32,242703,2,0,L|16:32,1,74.9999977111817
380,32,242857,5,12,0:0:0:0:
192,32,243088,1,0,0:0:0:0:
400,32,243318,2,0,L|480:32,1,74.9999977111817
32,32,243472,1,12,0:0:0:0:
228,32,243703,1,0,0:0:0:0:
32,32,243934,1,0,0:0:0:0:
480,32,244088,5,12,0:0:0:0:
280,32,244318,1,0,0:0:0:0:
480,32,244549,1,0,0:0:0:0:
280,32,244703,1,12,0:0:0:0:
120,32,244934,1,0,0:0:0:0:
352,32,245164,1,0,0:0:0:0:
112,128,245318,5,12,0:0:0:0:
352,128,245549,1,0,0:0:0:0:
120,128,245780,1,0,0:0:0:0:
368,208,245934,1,12,0:0:0:0:
32,208,246164,1,0,0:0:0:0:
488,208,246395,1,0,0:0:0:0:
408,208,246472,1,0,0:0:0:0:
488,208,246549,5,12,0:0:0:0:
