osu file format v14

[General]
AudioFilename: Pacific Girls.mp3
AudioLeadIn: 1500
PreviewTime: 256399
Countdown: 0
SampleSet: None
StackLeniency: 0.7
Mode: 2
LetterboxInBreaks: 0
WidescreenStoryboard: 1

[Editor]
Bookmarks: 49015,49630,68707,69323,163780,171318,177011,186857,187780,189011,270857,294376
DistanceSpacing: 0.4
BeatDivisor: 1
GridSize: 16
TimelineZoom: 1.22469

[Metadata]
Title:Pacific Girls
TitleUnicode:Pacific Girls
Artist:DJ Sharpnel
ArtistUnicode:DJ Sharpnel
Creator:ExGon
Version:Part 2
Source:艦隊これくしょん
Tags:Combined Fleet Kantai Collection Nuclear Blast JS Awesome Bomb Filez 5 NB5 OTAKUSPEEDVIBE KanColle Stepmania,Dakkychan
BeatmapID:1146299
BeatmapSetID:539728

[Difficulty]
HPDrainRate:1.1
CircleSize:4
OverallDifficulty:9.6
ApproachRate:9.6
SliderMultiplier:2.5
SliderTickRate:1

[Events]
//Background and Video events
0,0,"pacific-bg2.png",0,0
//Break Periods
2,251672,254639
//Storyboard Layer 0 (Background)
//Storyboard Layer 1 (Fail)
//Storyboard Layer 2 (Pass)
//Storyboard Layer 3 (Foreground)
//Storyboard Sound Samples

[TimingPoints]
400,307.692307692308,4,1,1,30,1,0
21400,-86.9565217391304,4,1,1,30,0,0
22015,-86.9565217391304,4,2,1,30,0,0
22092,-86.9565217391304,4,1,1,30,0,0
24476,-86.9565217391304,4,2,1,30,0,0
24553,-86.9565217391304,4,1,1,30,0,0
24630,-86.9565217391304,4,2,1,30,0,0
24707,-86.9565217391304,4,1,1,30,0,0
25015,-86.9565217391304,4,1,1,50,0,0
25092,-86.9565217391304,4,1,1,30,0,0
26938,-86.9565217391304,4,2,1,30,0,0
27015,-86.9565217391304,4,1,1,30,0,0
29400,-86.9565217391304,4,2,1,30,0,0
29476,-86.9565217391304,4,1,1,30,0,0
29553,-86.9565217391304,4,2,1,30,0,0
29630,-86.9565217391304,4,1,1,30,0,0
29938,-86.9565217391304,4,1,1,50,0,0
30015,-86.9565217391304,4,1,1,30,0,0
31861,-86.9565217391304,4,2,1,30,0,0
31938,-86.9565217391304,4,1,1,30,0,0
34323,-86.9565217391304,4,2,1,30,0,0
34400,-86.9565217391304,4,1,1,30,0,0
34476,-86.9565217391304,4,2,1,30,0,0
34553,-86.9565217391304,4,1,1,30,0,0
34861,-86.9565217391304,4,1,1,50,0,0
34938,-86.9565217391304,4,1,1,50,0,0
37323,-100,4,1,1,50,0,0
37400,-100,4,2,1,35,0,0
37476,-100,4,1,1,50,0,0
37707,-100,4,2,1,35,0,0
37784,-100,4,1,1,50,0,0
38015,-100,4,2,1,35,0,0
38092,-100,4,1,1,50,0,0
38323,-100,4,2,1,35,0,0
38400,-100,4,1,1,50,0,0
38553,-100,4,1,1,50,0,0
38630,-100,4,2,1,35,0,0
38707,-100,4,1,1,50,0,0
38784,-100,4,2,1,35,0,0
38861,-100,4,1,1,50,0,0
38938,-100,4,2,1,35,0,0
39015,-100,4,1,1,50,0,0
39092,-100,4,2,1,35,0,0
39169,-100,4,1,1,50,0,0
39246,-100,4,2,1,35,0,0
39323,-100,4,1,1,50,0,0
39400,-100,4,2,1,35,0,0
39476,-100,4,1,1,50,0,0
39553,-100,4,2,1,35,0,0
39630,-100,4,1,1,50,0,0
39707,-100,4,2,1,35,0,0
39784,-100,4,1,1,50,0,0
39861,-100,4,2,1,40,0,0
39938,-100,4,1,1,40,0,0
40169,-100,4,2,1,40,0,0
40246,-100,4,1,1,40,0,0
40400,-117.647058823529,4,1,1,40,0,0
40476,-117.647058823529,4,2,1,40,0,0
40553,-117.647058823529,4,1,1,40,0,0
40784,-117.647058823529,4,2,1,40,0,0
40861,-117.647058823529,4,1,1,40,0,0
41015,-100,4,1,1,40,0,0
41092,-100,4,2,1,40,0,0
41169,-100,4,1,1,40,0,0
41400,-100,4,2,1,40,0,0
41476,-100,4,1,1,40,0,0
41630,-117.647058823529,4,1,1,40,0,0
41707,-117.647058823529,4,2,1,40,0,0
41784,-117.647058823529,4,1,1,40,0,0
42015,-117.647058823529,4,2,1,40,0,0
42092,-117.647058823529,4,1,1,40,0,0
42246,-100,4,1,1,40,0,0
42323,-100,4,2,1,40,0,0
42400,-100,4,1,1,40,0,0
42630,-100,4,2,1,40,0,0
42707,-100,4,1,1,40,0,0
42938,-100,4,2,1,40,0,0
43015,-100,4,1,1,40,0,0
43246,-100,4,2,1,40,0,0
43323,-100,4,1,1,40,0,0
43553,-100,4,2,1,40,0,0
43630,-100,4,1,1,40,0,0
43861,-100,4,2,1,40,0,0
43938,-100,4,1,1,40,0,0
44169,-100,4,2,1,40,0,0
44246,-100,4,1,1,40,0,0
44476,-100,4,2,1,40,0,0
44553,-100,4,1,1,40,0,0
44630,-100,4,2,1,40,0,0
44707,-100,4,1,1,40,0,0
44784,-100,4,2,1,40,0,0
44861,-100,4,1,1,40,0,0
45092,-100,4,2,1,40,0,0
45169,-100,4,1,1,40,0,0
45400,-100,4,2,1,40,0,0
45476,-100,4,1,1,40,0,0
45707,-100,4,2,1,40,0,0
45784,-100,4,1,1,40,0,0
46015,-100,4,2,1,40,0,0
46092,-100,4,1,1,40,0,0
46323,-100,4,2,1,40,0,0
46400,-100,4,1,1,40,0,0
46630,-100,4,2,1,40,0,0
46707,-100,4,1,1,40,0,0
46938,-100,4,2,1,40,0,0
47015,-100,4,1,1,40,0,0
47246,-100,4,2,1,40,0,0
47323,-100,4,1,1,40,0,0
47553,-100,4,2,1,40,0,0
47630,-100,4,1,1,40,0,0
47861,-100,4,2,1,40,0,0
47938,-100,4,1,1,40,0,0
48169,-100,4,2,1,40,0,0
48246,-100,4,1,1,40,0,0
48476,-100,4,2,1,40,0,0
48553,-100,4,1,1,40,0,0
48784,-100,4,2,1,40,0,0
48861,-100,4,1,1,40,0,0
49630,-100,4,1,1,40,0,0
49707,-100,4,2,1,40,0,0
49784,-100,4,1,1,40,0,0
50015,-100,4,2,1,40,0,0
50092,-100,4,1,1,40,0,0
50323,-100,4,2,1,40,0,0
50400,-100,4,1,1,40,0,0
50630,-100,4,2,1,40,0,0
50707,-100,4,1,1,40,0,0
50938,-100,4,2,1,40,0,0
51015,-100,4,1,1,40,0,0
51246,-100,4,2,1,40,0,0
51323,-100,4,1,1,40,0,0
51553,-100,4,2,1,40,0,0
51630,-100,4,1,1,40,0,0
51861,-100,4,2,1,40,0,0
51938,-100,4,1,1,40,0,0
52169,-100,4,2,1,40,0,0
52246,-100,4,1,1,40,0,0
52476,-100,4,2,1,40,0,0
52553,-100,4,1,1,40,0,0
52784,-100,4,2,1,40,0,0
52861,-100,4,1,1,40,0,0
53092,-100,4,2,1,40,0,0
53169,-100,4,1,1,40,0,0
53400,-100,4,2,1,40,0,0
53476,-100,4,1,1,40,0,0
53707,-100,4,2,1,40,0,0
53784,-100,4,1,1,40,0,0
54015,-100,4,2,1,40,0,0
54092,-100,4,1,1,40,0,0
54323,-100,4,2,1,40,0,0
54400,-100,4,1,1,40,0,0
54476,-100,4,2,1,40,0,0
54553,-100,4,1,1,40,0,0
54630,-100,4,2,1,40,0,0
54707,-100,4,1,1,40,0,0
54938,-100,4,2,1,40,0,0
55015,-100,4,1,1,40,0,0
55246,-100,4,2,1,40,0,0
55323,-100,4,1,1,40,0,0
55553,-100,4,2,1,40,0,0
55630,-100,4,1,1,40,0,0
55861,-100,4,2,1,40,0,0
55938,-100,4,1,1,40,0,0
56169,-100,4,2,1,40,0,0
56246,-100,4,1,1,40,0,0
56400,-117.647058823529,4,1,1,40,0,0
56476,-117.647058823529,4,2,1,40,0,0
56553,-117.647058823529,4,1,1,40,0,0
56784,-117.647058823529,4,2,1,40,0,0
56861,-117.647058823529,4,1,1,40,0,0
57169,-117.647058823529,4,3,1,40,0,0
57323,-117.647058823529,4,1,1,40,0,0
59476,-83.3333333333333,4,1,1,40,0,0
59553,-83.3333333333333,4,2,1,40,0,0
59630,-83.3333333333333,4,1,1,40,0,0
59861,-83.3333333333333,4,2,1,40,0,0
59938,-83.3333333333333,4,1,1,40,0,0
60169,-83.3333333333333,4,2,1,40,0,0
60246,-83.3333333333333,4,1,1,40,0,0
60476,-83.3333333333333,4,2,1,40,0,0
60553,-83.3333333333333,4,1,1,40,0,0
60784,-83.3333333333333,4,2,1,40,0,0
60861,-83.3333333333333,4,1,1,40,0,0
61092,-83.3333333333333,4,2,1,40,0,0
61169,-83.3333333333333,4,1,1,40,0,0
61400,-83.3333333333333,4,2,1,40,0,0
61476,-83.3333333333333,4,1,1,40,0,0
61707,-83.3333333333333,4,2,1,40,0,0
61784,-83.3333333333333,4,1,1,40,0,0
61938,-90.9090909090909,4,1,1,40,0,0
62015,-90.9090909090909,4,2,1,40,0,0
62092,-90.9090909090909,4,1,1,40,0,0
62323,-90.9090909090909,4,2,1,40,0,0
62400,-90.9090909090909,4,1,1,40,0,0
62630,-90.9090909090909,4,2,1,40,0,0
62707,-90.9090909090909,4,1,1,40,0,0
62938,-90.9090909090909,4,2,1,40,0,0
63015,-90.9090909090909,4,1,1,40,0,0
63246,-90.9090909090909,4,2,1,40,0,0
63323,-90.9090909090909,4,1,1,40,0,0
63553,-90.9090909090909,4,2,1,40,0,0
63630,-90.9090909090909,4,1,1,40,0,0
63861,-90.9090909090909,4,2,1,40,0,0
63938,-90.9090909090909,4,1,1,40,0,0
64169,-90.9090909090909,4,2,1,40,0,0
64246,-90.9090909090909,4,1,1,40,0,0
64323,-90.9090909090909,4,2,1,40,0,0
64400,-90.9090909090909,4,1,1,40,0,0
64476,-90.9090909090909,4,2,1,40,0,0
64553,-90.9090909090909,4,1,1,40,0,0
64784,-90.9090909090909,4,2,1,40,0,0
64861,-90.9090909090909,4,1,1,40,0,0
65092,-90.9090909090909,4,2,1,40,0,0
65169,-90.9090909090909,4,1,1,40,0,0
65323,-76.9230769230769,4,1,1,40,0,0
65400,-76.9230769230769,4,2,1,40,0,0
65476,-76.9230769230769,4,1,1,40,0,0
65707,-76.9230769230769,4,2,1,40,0,0
65784,-76.9230769230769,4,1,1,40,0,0
66015,-76.9230769230769,4,2,1,40,0,0
66092,-76.9230769230769,4,1,1,40,0,0
66323,-76.9230769230769,4,2,1,40,0,0
66400,-76.9230769230769,4,1,1,40,0,0
66630,-76.9230769230769,4,2,1,40,0,0
66707,-76.9230769230769,4,1,1,40,0,0
66938,-76.9230769230769,4,2,1,40,0,0
67015,-76.9230769230769,4,1,1,40,0,0
67246,-76.9230769230769,4,2,1,40,0,0
67323,-76.9230769230769,4,1,1,40,0,0
67553,-76.9230769230769,4,2,1,40,0,0
67630,-76.9230769230769,4,1,1,40,0,0
67861,-76.9230769230769,4,2,1,40,0,0
67938,-76.9230769230769,4,1,1,40,0,0
68169,-76.9230769230769,4,2,1,40,0,0
68246,-76.9230769230769,4,1,1,40,0,0
68476,-76.9230769230769,4,2,1,40,0,0
68553,-76.9230769230769,4,1,1,40,0,0
68784,-76.9230769230769,4,2,1,40,0,0
68861,-76.9230769230769,4,1,1,40,0,0
68938,-76.9230769230769,4,2,1,40,0,0
69015,-76.9230769230769,4,1,1,40,0,0
69092,-76.9230769230769,4,2,1,40,0,0
69169,-76.9230769230769,4,1,1,40,0,0
69323,-76.9230769230769,4,1,1,40,0,0
69400,-76.9230769230769,4,2,1,40,0,0
69476,-76.9230769230769,4,1,1,40,0,0
69707,-76.9230769230769,4,2,1,40,0,0
69784,-76.9230769230769,4,1,1,40,0,0
70015,-76.9230769230769,4,2,1,40,0,0
70092,-76.9230769230769,4,1,1,40,0,0
70323,-76.9230769230769,4,2,1,40,0,0
70400,-76.9230769230769,4,1,1,40,0,0
70630,-76.9230769230769,4,2,1,40,0,0
70707,-76.9230769230769,4,1,1,40,0,0
70938,-76.9230769230769,4,2,1,40,0,0
71015,-76.9230769230769,4,1,1,40,0,0
71246,-76.9230769230769,4,2,1,40,0,0
71323,-76.9230769230769,4,1,1,40,0,0
71553,-76.9230769230769,4,2,1,40,0,0
71630,-76.9230769230769,4,1,1,40,0,0
71861,-76.9230769230769,4,2,1,40,0,0
71938,-76.9230769230769,4,1,1,40,0,0
72169,-76.9230769230769,4,2,1,40,0,0
72246,-76.9230769230769,4,1,1,40,0,0
72476,-76.9230769230769,4,2,1,40,0,0
72553,-76.9230769230769,4,1,1,40,0,0
72784,-76.9230769230769,4,2,1,40,0,0
72861,-76.9230769230769,4,1,1,40,0,0
73092,-76.9230769230769,4,2,1,40,0,0
73169,-76.9230769230769,4,1,1,40,0,0
73400,-76.9230769230769,4,2,1,40,0,0
73476,-76.9230769230769,4,1,1,40,0,0
73707,-76.9230769230769,4,2,1,40,0,0
73784,-76.9230769230769,4,1,1,40,0,0
74015,-76.9230769230769,4,2,1,40,0,0
74092,-76.9230769230769,4,1,1,40,0,0
74169,-76.9230769230769,4,2,1,40,0,0
74246,-76.9230769230769,4,1,1,40,0,0
74323,-76.9230769230769,4,2,1,40,0,0
74400,-76.9230769230769,4,1,1,40,0,0
74630,-76.9230769230769,4,2,1,40,0,0
74707,-76.9230769230769,4,1,1,40,0,0
74938,-76.9230769230769,4,2,1,40,0,0
75015,-76.9230769230769,4,1,1,40,0,0
75246,-76.9230769230769,4,2,1,40,0,0
75323,-76.9230769230769,4,1,1,40,0,0
75553,-76.9230769230769,4,2,1,40,0,0
75630,-76.9230769230769,4,1,1,40,0,0
75861,-76.9230769230769,4,2,1,40,0,0
75938,-76.9230769230769,4,1,1,40,0,0
76784,-76.9230769230769,4,2,1,40,0,0
76861,-76.9230769230769,4,1,1,40,0,0
77092,-76.9230769230769,4,2,1,40,0,0
77169,-76.9230769230769,4,1,1,40,0,0
77400,-76.9230769230769,4,2,1,40,0,0
77476,-76.9230769230769,4,1,1,40,0,0
77707,-76.9230769230769,4,2,1,40,0,0
77784,-76.9230769230769,4,1,1,40,0,0
78015,-76.9230769230769,4,2,1,50,0,0
78092,-76.9230769230769,4,1,1,50,0,0
78323,-76.9230769230769,4,2,1,50,0,0
78400,-76.9230769230769,4,1,1,50,0,0
79169,-76.9230769230769,4,1,1,50,0,0
79246,-76.9230769230769,4,2,1,50,0,0
79400,-76.9230769230769,4,1,1,50,0,0
79938,-76.9230769230769,4,2,1,50,0,0
80015,-76.9230769230769,4,1,1,50,0,0
80476,-76.9230769230769,4,2,1,50,0,0
80630,-76.9230769230769,4,1,1,50,0,0
81013,153.846153846154,4,1,1,50,1,0
81013,-153.846153846154,4,1,1,50,0,0
81474,-153.846153846154,4,2,1,50,0,0
81551,-153.846153846154,4,1,1,50,0,0
81627,307.692307692308,4,1,1,50,1,0
81627,-76.9230769230769,4,1,1,50,0,0
81780,-76.9230769230769,4,2,1,50,0,0
81857,-76.9230769230769,4,1,1,50,0,0
82319,-76.9230769230769,4,2,1,50,0,0
82473,-76.9230769230769,4,1,1,50,0,0
82934,-76.9230769230769,4,2,1,50,0,0
83088,-76.9230769230769,4,1,1,50,0,0
83473,153.846153846154,4,1,1,50,1,0
83473,-153.846153846154,4,1,1,50,0,0
84088,307.692307692308,4,1,1,50,1,0
84088,-76.9230769230769,4,1,1,50,0,0
84164,-76.9230769230769,4,2,1,50,0,0
84318,-76.9230769230769,4,1,1,50,0,0
84780,-76.9230769230769,4,2,1,50,0,0
84934,-76.9230769230769,4,1,1,50,0,0
85395,-76.9230769230769,4,2,1,50,0,0
85549,-76.9230769230769,4,1,1,50,0,0
86011,-76.9230769230769,4,2,1,50,0,0
86164,-76.9230769230769,4,1,1,50,0,0
86626,-76.9230769230769,4,2,1,50,0,0
86780,-76.9230769230769,4,1,1,50,0,0
87241,-76.9230769230769,4,2,1,50,0,0
87395,-76.9230769230769,4,1,1,50,0,0
87857,-76.9230769230769,4,2,1,50,0,0
88011,-76.9230769230769,4,1,1,50,0,0
88472,-76.9230769230769,4,2,1,50,0,0
88549,-76.9230769230769,4,1,1,50,0,0
89088,-76.9230769230769,4,2,1,50,0,0
89241,-76.9230769230769,4,1,1,50,0,0
89703,-76.9230769230769,4,2,1,50,0,0
89857,-76.9230769230769,4,1,1,50,0,0
90318,-76.9230769230769,4,2,1,50,0,0
90472,-76.9230769230769,4,1,1,50,0,0
90934,-76.9230769230769,4,2,1,50,0,0
91088,-76.9230769230769,4,1,1,50,0,0
91703,-76.9230769230769,4,1,1,50,0,0
92164,-76.9230769230769,4,2,1,50,0,0
92318,-76.9230769230769,4,1,1,50,0,0
94395,-76.9230769230769,4,2,1,50,0,0
94549,-76.9230769230769,4,1,1,50,0,0
95011,-76.9230769230769,4,2,1,50,0,0
95164,-76.9230769230769,4,1,1,50,0,0
95626,-76.9230769230769,4,2,1,50,0,0
95780,-76.9230769230769,4,1,1,50,0,0
96241,-76.9230769230769,4,2,1,50,0,0
96395,-76.9230769230769,4,1,1,50,0,0
96857,-76.9230769230769,4,2,1,50,0,0
97011,-76.9230769230769,4,1,1,50,0,0
97472,-76.9230769230769,4,2,1,50,0,0
97626,-76.9230769230769,4,1,1,50,0,0
98395,-76.9230769230769,4,1,1,50,0,0
98472,-76.9230769230769,4,2,1,50,0,0
98549,-76.9230769230769,4,1,1,50,0,0
98626,-76.9230769230769,4,2,1,30,0,0
98703,-76.9230769230769,4,1,1,50,0,0
98780,-76.9230769230769,4,2,1,30,0,0
98857,-76.9230769230769,4,1,1,50,0,0
98934,-76.9230769230769,4,2,1,30,0,0
99011,-76.9230769230769,4,1,1,50,0,0
99164,-83.3333333333333,4,1,1,50,0,0
99241,-83.3333333333333,4,2,1,30,0,0
99472,-83.3333333333333,4,1,1,50,0,0
99549,-83.3333333333333,4,2,1,30,0,0
99780,-83.3333333333333,4,1,1,50,0,0
99857,-83.3333333333333,4,2,1,30,0,0
100088,-83.3333333333333,4,1,1,50,0,0
100164,-83.3333333333333,4,2,1,30,0,0
100395,-83.3333333333333,4,1,1,50,0,0
100472,-83.3333333333333,4,2,1,30,0,0
100703,-83.3333333333333,4,1,1,50,0,0
100780,-83.3333333333333,4,2,1,30,0,0
101011,-83.3333333333333,4,1,1,50,0,0
101088,-83.3333333333333,4,2,1,30,0,0
101318,-83.3333333333333,4,1,1,50,0,0
101395,-83.3333333333333,4,2,1,30,0,0
101626,-83.3333333333333,4,1,1,50,0,0
101703,-83.3333333333333,4,2,1,30,0,0
101934,-83.3333333333333,4,1,1,50,0,0
102011,-83.3333333333333,4,2,1,30,0,0
102241,-83.3333333333333,4,1,1,50,0,0
102318,-83.3333333333333,4,2,1,30,0,0
102549,-83.3333333333333,4,1,1,50,0,0
102626,-83.3333333333333,4,2,1,30,0,0
102857,-83.3333333333333,4,1,1,50,0,0
102934,-83.3333333333333,4,2,1,30,0,0
103164,-83.3333333333333,4,1,1,50,0,0
103241,-83.3333333333333,4,2,1,30,0,0
103472,-83.3333333333333,4,1,1,50,0,0
103549,-83.3333333333333,4,2,1,30,0,0
103780,-83.3333333333333,4,1,1,50,0,0
103857,-83.3333333333333,4,2,1,30,0,0
104088,-83.3333333333333,4,1,1,50,0,0
104472,-83.3333333333333,4,2,1,30,0,0
104549,-83.3333333333333,4,1,1,50,0,0
105088,-83.3333333333333,4,2,1,30,0,0
105164,-83.3333333333333,4,1,1,50,0,0
105703,-83.3333333333333,4,2,1,30,0,0
105780,-83.3333333333333,4,1,1,50,0,0
106318,-83.3333333333333,4,2,1,30,0,0
106395,-83.3333333333333,4,1,1,50,0,0
106934,-83.3333333333333,4,2,1,30,0,0
107011,-83.3333333333333,4,1,1,50,0,0
107549,-83.3333333333333,4,2,1,30,0,0
107626,-83.3333333333333,4,1,1,50,0,0
108164,-83.3333333333333,4,1,1,50,0,0
108318,-83.3333333333333,4,2,1,30,0,0
108395,-83.3333333333333,4,1,1,50,0,0
108472,-83.3333333333333,4,2,1,30,0,0
108549,-83.3333333333333,4,1,1,50,0,0
108626,-83.3333333333333,4,2,1,30,0,0
108703,-83.3333333333333,4,1,1,50,0,0
108780,-83.3333333333333,4,2,1,30,0,0
108857,-83.3333333333333,4,1,1,50,0,0
108934,-83.3333333333333,4,2,1,50,0,0
109011,-83.3333333333333,4,1,1,50,0,0
109241,-83.3333333333333,4,2,1,50,0,0
109318,-83.3333333333333,4,1,1,50,0,0
109549,-83.3333333333333,4,2,1,50,0,0
109626,-83.3333333333333,4,1,1,50,0,0
109857,-83.3333333333333,4,2,1,50,0,0
109934,-83.3333333333333,4,1,1,50,0,0
110164,-83.3333333333333,4,2,1,50,0,0
110241,-83.3333333333333,4,1,1,50,0,0
110472,-83.3333333333333,4,2,1,50,0,0
110549,-83.3333333333333,4,1,1,50,0,0
110780,-83.3333333333333,4,2,1,50,0,0
110857,-83.3333333333333,4,1,1,50,0,0
111088,-83.3333333333333,4,2,1,50,0,0
111164,-83.3333333333333,4,1,1,50,0,0
111395,-83.3333333333333,4,2,1,50,0,0
111472,-83.3333333333333,4,1,1,50,0,0
111703,-83.3333333333333,4,2,1,50,0,0
111780,-83.3333333333333,4,1,1,50,0,0
112011,-83.3333333333333,4,2,1,50,0,0
112088,-83.3333333333333,4,1,1,50,0,0
112318,-83.3333333333333,4,2,1,50,0,0
112395,-83.3333333333333,4,1,1,50,0,0
112626,-83.3333333333333,4,2,1,50,0,0
112703,-83.3333333333333,4,1,1,50,0,0
112934,-83.3333333333333,4,2,1,50,0,0
113011,-83.3333333333333,4,1,1,50,0,0
113241,-83.3333333333333,4,2,1,50,0,0
113318,-83.3333333333333,4,1,1,50,0,0
113549,-83.3333333333333,4,2,1,50,0,0
113626,-83.3333333333333,4,1,1,50,0,0
116164,-83.3333333333333,4,2,1,50,0,0
116241,-83.3333333333333,4,1,1,50,0,0
116472,-83.3333333333333,4,2,1,50,0,0
116549,-83.3333333333333,4,1,1,50,0,0
116780,-83.3333333333333,4,2,1,50,0,0
116857,-83.3333333333333,4,1,1,50,0,0
117088,-83.3333333333333,4,2,1,50,0,0
117164,-83.3333333333333,4,1,1,50,0,0
117395,-83.3333333333333,4,2,1,50,0,0
117472,-83.3333333333333,4,1,1,50,0,0
117549,-83.3333333333333,4,2,1,50,0,0
117626,-83.3333333333333,4,1,1,50,0,0
117703,-83.3333333333333,4,2,1,50,0,0
117780,-83.3333333333333,4,1,1,50,0,0
117857,-83.3333333333333,4,2,1,50,0,0
117934,-83.3333333333333,4,1,1,50,0,0
118011,-83.3333333333333,4,2,1,50,0,0
118088,-83.3333333333333,4,1,1,50,0,0
118164,-83.3333333333333,4,2,1,50,0,0
118241,-83.3333333333333,4,1,1,50,0,0
118318,-83.3333333333333,4,2,1,50,0,0
118395,-83.3333333333333,4,1,1,50,0,0
118472,-83.3333333333333,4,2,1,50,0,0
118549,-83.3333333333333,4,1,1,50,0,1
118626,-83.3333333333333,4,2,1,50,0,1
118703,-83.3333333333333,4,1,1,50,0,1
118934,-83.3333333333333,4,2,1,50,0,1
119011,-83.3333333333333,4,1,1,50,0,1
119241,-83.3333333333333,4,2,1,50,0,1
119318,-83.3333333333333,4,1,1,50,0,1
119549,-83.3333333333333,4,2,1,50,0,1
119626,-83.3333333333333,4,1,1,50,0,1
119857,-83.3333333333333,4,2,1,50,0,1
119934,-83.3333333333333,4,1,1,50,0,1
120164,-83.3333333333333,4,2,1,50,0,1
120241,-83.3333333333333,4,1,1,50,0,1
120472,-83.3333333333333,4,2,1,50,0,1
120549,-83.3333333333333,4,1,1,50,0,1
120780,-83.3333333333333,4,2,1,50,0,1
120857,-83.3333333333333,4,1,1,50,0,1
120934,-83.3333333333333,4,2,1,50,0,1
121011,-83.3333333333333,4,1,1,50,0,1
121088,-83.3333333333333,4,2,1,50,0,1
121164,-83.3333333333333,4,1,1,50,0,1
121395,-83.3333333333333,4,2,1,50,0,1
121472,-83.3333333333333,4,1,1,50,0,1
121549,-83.3333333333333,4,2,1,50,0,1
121626,-83.3333333333333,4,1,1,50,0,1
121703,-83.3333333333333,4,2,1,50,0,1
121780,-83.3333333333333,4,1,1,50,0,1
122011,-83.3333333333333,4,2,1,50,0,1
122088,-83.3333333333333,4,1,1,50,0,1
122164,-83.3333333333333,4,2,1,50,0,1
122241,-83.3333333333333,4,1,1,50,0,1
122318,-83.3333333333333,4,2,1,50,0,1
122395,-83.3333333333333,4,1,1,50,0,1
122626,-83.3333333333333,4,2,1,50,0,1
122703,-83.3333333333333,4,1,1,50,0,1
122934,-83.3333333333333,4,2,1,50,0,1
123011,-83.3333333333333,4,1,1,50,0,1
123241,-83.3333333333333,4,2,1,50,0,1
123318,-83.3333333333333,4,1,1,50,0,1
123549,-83.3333333333333,4,2,1,50,0,1
123626,-83.3333333333333,4,1,1,50,0,1
123857,-83.3333333333333,4,2,1,50,0,1
123934,-83.3333333333333,4,1,1,50,0,1
124164,-83.3333333333333,4,2,1,50,0,1
124241,-83.3333333333333,4,1,1,50,0,1
124472,-83.3333333333333,4,2,1,50,0,1
124549,-83.3333333333333,4,1,1,50,0,1
124780,-83.3333333333333,4,2,1,50,0,1
124857,-83.3333333333333,4,1,1,50,0,1
125088,-83.3333333333333,4,2,1,50,0,1
125164,-83.3333333333333,4,1,1,50,0,1
125395,-83.3333333333333,4,2,1,50,0,1
125472,-83.3333333333333,4,1,1,50,0,1
125703,-83.3333333333333,4,2,1,50,0,1
125780,-83.3333333333333,4,1,1,50,0,1
126011,-83.3333333333333,4,2,1,50,0,1
126088,-83.3333333333333,4,1,1,50,0,1
126318,-83.3333333333333,4,2,1,50,0,1
126395,-83.3333333333333,4,1,1,50,0,1
126626,-83.3333333333333,4,2,1,50,0,1
126703,-83.3333333333333,4,1,1,50,0,1
126934,-83.3333333333333,4,2,1,50,0,1
127011,-83.3333333333333,4,1,1,50,0,1
127241,-83.3333333333333,4,2,1,50,0,1
127318,-83.3333333333333,4,1,1,50,0,1
127549,-83.3333333333333,4,2,1,50,0,1
127626,-83.3333333333333,4,1,1,50,0,1
127857,-83.3333333333333,4,2,1,50,0,1
127934,-83.3333333333333,4,1,1,50,0,1
128164,-83.3333333333333,4,2,1,50,0,1
128241,-83.3333333333333,4,1,1,50,0,1
128318,-83.3333333333333,4,2,1,50,0,1
128395,-83.3333333333333,4,1,1,50,0,1
128472,-83.3333333333333,4,2,1,50,0,1
128549,-83.3333333333333,4,1,1,50,0,1
128780,-83.3333333333333,4,2,1,50,0,1
128857,-83.3333333333333,4,1,1,50,0,1
129088,-83.3333333333333,4,2,1,50,0,1
129164,-83.3333333333333,4,1,1,50,0,1
129395,-83.3333333333333,4,2,1,50,0,1
129472,-83.3333333333333,4,1,1,50,0,1
129703,-83.3333333333333,4,2,1,50,0,1
129780,-83.3333333333333,4,1,1,50,0,1
130011,-83.3333333333333,4,2,1,50,0,1
130088,-83.3333333333333,4,1,1,50,0,1
130318,-83.3333333333333,4,2,1,50,0,1
130395,-83.3333333333333,4,1,1,50,0,1
130626,-83.3333333333333,4,2,1,50,0,1
130703,-83.3333333333333,4,1,1,50,0,1
130934,-83.3333333333333,4,2,1,50,0,1
131011,-83.3333333333333,4,1,1,50,0,1
131241,-83.3333333333333,4,2,1,50,0,1
131318,-83.3333333333333,4,1,1,50,0,1
131549,-83.3333333333333,4,2,1,50,0,1
131626,-83.3333333333333,4,1,1,50,0,1
131857,-83.3333333333333,4,2,1,50,0,1
131934,-83.3333333333333,4,1,1,50,0,1
132164,-83.3333333333333,4,2,1,50,0,1
132241,-83.3333333333333,4,1,1,50,0,1
132472,-83.3333333333333,4,2,1,50,0,1
132549,-83.3333333333333,4,1,1,50,0,1
132780,-83.3333333333333,4,2,1,50,0,1
132857,-83.3333333333333,4,1,1,50,0,1
133088,-83.3333333333333,4,2,1,50,0,1
133164,-83.3333333333333,4,1,1,50,0,1
133241,-83.3333333333333,4,2,1,50,0,1
133318,-83.3333333333333,4,1,1,50,0,1
133395,-83.3333333333333,4,2,1,50,0,1
133472,-83.3333333333333,4,1,1,50,0,1
133703,-83.3333333333333,4,2,1,50,0,1
133780,-83.3333333333333,4,1,1,50,0,1
133857,-83.3333333333333,4,2,1,50,0,1
133934,-83.3333333333333,4,1,1,50,0,1
134011,-83.3333333333333,4,2,1,50,0,1
134088,-83.3333333333333,4,1,1,50,0,1
134318,-83.3333333333333,4,2,1,50,0,1
134395,-83.3333333333333,4,1,1,50,0,1
134472,-83.3333333333333,4,2,1,50,0,1
134549,-83.3333333333333,4,1,1,50,0,1
134626,-83.3333333333333,4,2,1,50,0,1
134703,-83.3333333333333,4,1,1,50,0,1
134934,-83.3333333333333,4,2,1,50,0,1
135011,-83.3333333333333,4,1,1,50,0,1
135241,-83.3333333333333,4,2,1,50,0,1
135318,-83.3333333333333,4,1,1,50,0,1
135549,-83.3333333333333,4,2,1,50,0,1
135626,-83.3333333333333,4,1,1,50,0,1
135780,-83.3333333333333,4,1,1,50,0,0
135857,-83.3333333333333,4,2,1,50,0,0
135934,-83.3333333333333,4,1,1,50,0,0
136164,-83.3333333333333,4,2,1,50,0,0
136241,-83.3333333333333,4,1,1,50,0,0
136472,-83.3333333333333,4,2,1,50,0,0
136549,-83.3333333333333,4,1,1,50,0,0
136780,-83.3333333333333,4,2,1,50,0,0
136857,-83.3333333333333,4,1,1,50,0,0
137088,-83.3333333333333,4,2,1,50,0,0
137164,-83.3333333333333,4,1,1,50,0,0
137395,-83.3333333333333,4,2,1,50,0,0
137472,-83.3333333333333,4,1,1,50,0,0
137703,-83.3333333333333,4,2,1,50,0,0
137780,-83.3333333333333,4,1,1,50,0,0
138011,-83.3333333333333,4,2,1,50,0,0
138088,-83.3333333333333,4,1,1,50,0,0
138164,-83.3333333333333,4,2,1,50,0,0
138241,-83.3333333333333,4,1,1,50,0,1
138241,-83.3333333333333,4,1,1,50,0,1
138318,-83.3333333333333,4,2,1,50,0,1
138395,-83.3333333333333,4,1,1,50,0,1
138626,-83.3333333333333,4,2,1,50,0,1
138703,-83.3333333333333,4,1,1,50,0,1
138933,-83.3333333333333,4,2,1,50,0,1
139010,-83.3333333333333,4,1,1,50,0,1
139241,-83.3333333333333,4,2,1,50,0,1
139318,-83.3333333333333,4,1,1,50,0,1
139549,-83.3333333333333,4,2,1,50,0,1
139626,-83.3333333333333,4,1,1,50,0,1
139856,-83.3333333333333,4,2,1,50,0,1
139933,-83.3333333333333,4,1,1,50,0,1
140164,-83.3333333333333,4,2,1,50,0,1
140241,-83.3333333333333,4,1,1,50,0,1
140472,-83.3333333333333,4,2,1,50,0,1
140549,-83.3333333333333,4,1,1,50,0,1
140626,-83.3333333333333,4,2,1,50,0,1
140703,-83.3333333333333,4,1,1,50,0,1
140780,-83.3333333333333,4,2,1,50,0,1
140856,-83.3333333333333,4,1,1,50,0,1
141087,-83.3333333333333,4,2,1,50,0,1
141164,-83.3333333333333,4,1,1,50,0,1
141241,-83.3333333333333,4,2,1,50,0,1
141318,-83.3333333333333,4,1,1,50,0,1
141395,-83.3333333333333,4,2,1,50,0,1
141472,-83.3333333333333,4,1,1,50,0,1
141703,-83.3333333333333,4,2,1,50,0,1
141780,-83.3333333333333,4,1,1,50,0,1
141856,-83.3333333333333,4,2,1,50,0,1
141933,-83.3333333333333,4,1,1,50,0,1
142010,-83.3333333333333,4,2,1,50,0,1
142087,-83.3333333333333,4,1,1,50,0,1
142318,-83.3333333333333,4,2,1,50,0,1
142395,-83.3333333333333,4,1,1,50,0,1
142626,-83.3333333333333,4,2,1,50,0,1
142703,-83.3333333333333,4,1,1,50,0,1
142933,-83.3333333333333,4,2,1,50,0,1
143010,-83.3333333333333,4,1,1,50,0,1
143241,-83.3333333333333,4,2,1,50,0,1
143318,-83.3333333333333,4,1,1,50,0,1
143549,-83.3333333333333,4,2,1,50,0,1
143626,-83.3333333333333,4,1,1,50,0,1
143856,-83.3333333333333,4,2,1,50,0,1
143933,-83.3333333333333,4,1,1,50,0,1
144164,-83.3333333333333,4,2,1,50,0,1
144241,-83.3333333333333,4,1,1,50,0,1
144472,-83.3333333333333,4,2,1,50,0,1
144549,-83.3333333333333,4,1,1,50,0,1
144780,-83.3333333333333,4,2,1,50,0,1
144856,-83.3333333333333,4,1,1,50,0,1
145087,-83.3333333333333,4,2,1,50,0,1
145164,-83.3333333333333,4,1,1,50,0,1
145395,-83.3333333333333,4,2,1,50,0,1
145472,-83.3333333333333,4,1,1,50,0,1
145703,-83.3333333333333,4,2,1,50,0,1
145780,-83.3333333333333,4,1,1,50,0,1
146010,-83.3333333333333,4,2,1,50,0,1
146087,-83.3333333333333,4,1,1,50,0,1
146241,-100,4,1,1,50,0,1
146318,-83.3333333333333,4,2,1,50,0,1
146395,-100,4,1,1,50,0,1
146626,-100,4,2,1,50,0,1
146703,-100,4,1,1,50,0,1
146857,-83.3333333333333,4,1,1,50,0,1
146933,-83.3333333333333,4,2,1,50,0,1
147010,-83.3333333333333,4,1,1,50,0,1
147241,-83.3333333333333,4,2,1,50,0,1
147318,-83.3333333333333,4,1,1,50,0,1
147549,-83.3333333333333,4,2,1,50,0,1
147626,-100,4,1,1,50,0,1
147856,-83.3333333333333,4,2,1,50,0,1
147933,-100,4,1,1,50,0,1
148010,-100,4,2,1,50,0,1
148087,-100,4,1,1,50,0,1
148164,-100,4,2,1,50,0,1
148241,-83.3333333333333,4,1,1,50,0,1
148241,-83.3333333333333,4,1,1,50,0,1
148472,-83.3333333333333,4,2,1,50,0,1
148549,-83.3333333333333,4,1,1,50,0,1
148780,-83.3333333333333,4,2,1,50,0,1
148856,-83.3333333333333,4,1,1,50,0,1
149087,-83.3333333333333,4,2,1,50,0,1
149164,-83.3333333333333,4,1,1,50,0,1
149395,-83.3333333333333,4,2,1,50,0,1
149472,-83.3333333333333,4,1,1,50,0,1
149703,-83.3333333333333,4,2,1,50,0,1
149780,-83.3333333333333,4,1,1,50,0,1
150010,-83.3333333333333,4,2,1,50,0,1
150087,-83.3333333333333,4,1,1,50,0,1
150318,-83.3333333333333,4,2,1,50,0,1
150395,-83.3333333333333,4,1,1,50,0,1
150626,-83.3333333333333,4,2,1,50,0,1
150703,-83.3333333333333,4,1,1,50,0,1
150933,-83.3333333333333,4,2,1,50,0,1
151010,-83.3333333333333,4,1,1,50,0,1
151241,-83.3333333333333,4,2,1,50,0,1
151318,-83.3333333333333,4,1,1,50,0,1
151549,-83.3333333333333,4,2,1,50,0,1
151626,-83.3333333333333,4,1,1,50,0,1
151856,-83.3333333333333,4,2,1,50,0,1
151933,-83.3333333333333,4,1,1,50,0,1
152164,-83.3333333333333,4,2,1,50,0,1
152241,-83.3333333333333,4,1,1,50,0,1
152472,-83.3333333333333,4,2,1,50,0,1
152549,-83.3333333333333,4,1,1,50,0,1
152780,-83.3333333333333,4,2,1,50,0,1
152856,-83.3333333333333,4,1,1,50,0,1
152933,-83.3333333333333,4,2,1,50,0,1
153010,-83.3333333333333,4,1,1,50,0,1
155549,-83.3333333333333,4,2,1,50,0,1
155626,-83.3333333333333,4,1,1,50,0,1
155857,-83.3333333333333,4,2,1,50,0,1
155934,-83.3333333333333,4,1,1,50,0,1
156164,-83.3333333333333,4,2,1,50,0,1
156241,-83.3333333333333,4,1,1,50,0,1
156472,-83.3333333333333,4,2,1,50,0,1
156549,-83.3333333333333,4,1,1,50,0,1
156780,-83.3333333333333,4,2,1,50,0,1
156857,-83.3333333333333,4,1,1,50,0,1
156934,-83.3333333333333,4,2,1,50,0,1
157011,-83.3333333333333,4,1,1,50,0,1
157088,-83.3333333333333,4,2,1,50,0,1
157126,-83.3333333333333,4,1,1,50,0,1
157203,-83.3333333333333,4,2,1,50,0,1
157280,-83.3333333333333,4,1,1,50,0,1
157357,-83.3333333333333,4,2,1,50,0,1
157434,-83.3333333333333,4,1,1,50,0,1
157511,-83.3333333333333,4,2,1,50,0,1
157588,-83.3333333333333,4,1,1,50,0,1
157664,-83.3333333333333,4,2,1,50,0,1
157741,-83.3333333333333,4,1,1,50,0,1
157818,-83.3333333333333,4,2,1,50,0,1
157895,-83.3333333333333,4,1,1,50,0,1
157938,-83.3333333333333,4,1,1,50,0,0
158088,-83.3333333333333,4,2,1,35,0,0
158164,-83.3333333333333,4,1,1,35,0,0
158395,-83.3333333333333,4,2,1,35,0,0
158472,-83.3333333333333,4,1,1,35,0,0
158703,-83.3333333333333,4,2,1,35,0,0
158780,-83.3333333333333,4,1,1,35,0,0
159011,-83.3333333333333,4,2,1,35,0,0
159088,-83.3333333333333,4,1,1,35,0,0
159318,-83.3333333333333,4,2,1,35,0,0
159395,-83.3333333333333,4,1,1,35,0,0
159626,-83.3333333333333,4,2,1,35,0,0
159703,-83.3333333333333,4,1,1,35,0,0
159934,-83.3333333333333,4,2,1,35,0,0
160011,-83.3333333333333,4,1,1,35,0,0
160241,-83.3333333333333,4,2,1,35,0,0
160318,-83.3333333333333,4,1,1,35,0,0
160472,-83.3333333333333,4,2,1,35,0,0
160626,-83.3333333333333,4,1,1,35,0,0
160780,-83.3333333333333,4,2,1,35,0,0
160934,-83.3333333333333,4,1,1,35,0,0
161088,-83.3333333333333,4,2,1,35,0,0
161241,-83.3333333333333,4,1,1,35,0,0
161395,-83.3333333333333,4,2,1,35,0,0
161549,-83.3333333333333,4,1,1,35,0,0
161703,-83.3333333333333,4,2,1,35,0,0
161857,-83.3333333333333,4,1,1,35,0,0
162011,-83.3333333333333,4,2,1,35,0,0
162164,-83.3333333333333,4,1,1,35,0,0
162318,-83.3333333333333,4,2,1,35,0,0
162472,-83.3333333333333,4,1,1,35,0,0
162626,-83.3333333333333,4,2,1,35,0,0
162780,-83.3333333333333,4,1,1,35,0,0
162934,-83.3333333333333,4,2,1,35,0,0
163088,-83.3333333333333,4,1,1,35,0,0
163241,-83.3333333333333,4,2,1,35,0,0
163395,-83.3333333333333,4,1,1,35,0,0
163549,-83.3333333333333,4,2,1,35,0,0
163703,-83.3333333333333,4,1,1,35,0,0
163934,-83.3333333333333,4,2,1,35,0,0
164011,-83.3333333333333,4,1,1,35,0,0
164241,-83.3333333333333,4,2,1,35,0,0
164318,-83.3333333333333,4,1,1,35,0,0
164549,-83.3333333333333,4,2,1,35,0,0
164626,-83.3333333333333,4,1,1,35,0,0
164857,-83.3333333333333,4,2,1,35,0,0
164934,-83.3333333333333,4,1,1,35,0,0
165164,-83.3333333333333,4,2,1,35,0,0
165241,-83.3333333333333,4,1,1,35,0,0
165472,-83.3333333333333,4,2,1,35,0,0
165549,-83.3333333333333,4,1,1,35,0,0
165780,-83.3333333333333,4,2,1,35,0,0
165857,-83.3333333333333,4,1,1,35,0,0
166088,-83.3333333333333,4,2,1,35,0,0
166164,-83.3333333333333,4,1,1,35,0,0
166395,-83.3333333333333,4,2,1,35,0,0
166472,-83.3333333333333,4,1,1,35,0,0
166703,-83.3333333333333,4,2,1,35,0,0
166780,-83.3333333333333,4,1,1,35,0,0
167011,-83.3333333333333,4,2,1,35,0,0
167088,-83.3333333333333,4,1,1,35,0,0
167318,-83.3333333333333,4,2,1,35,0,0
167472,-83.3333333333333,4,1,1,35,0,0
167703,-83.3333333333333,4,2,1,35,0,0
167780,-83.3333333333333,4,1,1,35,0,0
167934,-83.3333333333333,4,2,1,35,0,0
168011,-83.3333333333333,4,1,1,35,0,0
168241,-83.3333333333333,4,2,1,35,0,0
168318,-83.3333333333333,4,1,1,35,0,0
168549,-83.3333333333333,4,2,1,35,0,0
168626,-83.3333333333333,4,1,1,35,0,0
168857,-83.3333333333333,4,2,1,35,0,0
168934,-83.3333333333333,4,1,1,35,0,0
169164,-83.3333333333333,4,2,1,35,0,0
169241,-83.3333333333333,4,1,1,35,0,0
169472,-83.3333333333333,4,2,1,35,0,0
169549,-83.3333333333333,4,1,1,35,0,0
169780,-83.3333333333333,4,2,1,35,0,0
169857,-83.3333333333333,4,1,1,35,0,0
170088,-83.3333333333333,4,2,1,35,0,0
170164,-83.3333333333333,4,1,1,35,0,0
170395,-83.3333333333333,4,2,1,35,0,0
170472,-83.3333333333333,4,1,1,35,0,0
170703,-83.3333333333333,4,2,1,35,0,0
170780,-83.3333333333333,4,1,1,35,0,0
171011,-83.3333333333333,4,2,1,35,0,0
171088,-83.3333333333333,4,1,1,35,0,0
171318,-83.3333333333333,4,2,1,35,0,0
171472,-83.3333333333333,4,1,1,35,0,0
171626,-83.3333333333333,4,2,1,35,0,0
171780,-83.3333333333333,4,1,1,35,0,0
171934,-83.3333333333333,4,2,1,35,0,0
172088,-83.3333333333333,4,1,1,35,0,0
172241,-83.3333333333333,4,2,1,35,0,0
172395,-83.3333333333333,4,1,1,35,0,0
172549,-83.3333333333333,4,2,1,35,0,0
172703,-83.3333333333333,4,1,1,35,0,0
172857,-83.3333333333333,4,2,1,35,0,0
173011,-83.3333333333333,4,1,1,35,0,0
173159,-83.3333333333333,4,2,1,35,0,0
173318,-83.3333333333333,4,1,1,35,0,0
173472,-83.3333333333333,4,2,1,35,0,0
173626,-83.3333333333333,4,1,1,35,0,0
173780,-83.3333333333333,4,2,1,35,0,0
173934,-83.3333333333333,4,1,1,35,0,0
174088,-83.3333333333333,4,2,1,35,0,0
174241,-83.3333333333333,4,1,1,35,0,0
174395,-83.3333333333333,4,2,1,35,0,0
174549,-83.3333333333333,4,1,1,35,0,0
174703,-83.3333333333333,4,2,1,35,0,0
174857,-83.3333333333333,4,1,1,35,0,0
175011,-83.3333333333333,4,2,1,35,0,0
175164,-83.3333333333333,4,1,1,35,0,0
175318,-83.3333333333333,4,2,1,35,0,0
175472,-83.3333333333333,4,1,1,35,0,0
175626,-83.3333333333333,4,2,1,35,0,0
175780,-83.3333333333333,4,1,1,35,0,0
175934,-83.3333333333333,4,2,1,35,0,0
176088,-83.3333333333333,4,1,1,35,0,0
176241,-83.3333333333333,4,2,1,35,0,0
176395,-83.3333333333333,4,1,1,35,0,0
176549,-83.3333333333333,4,2,1,35,0,0
176703,-83.3333333333333,4,1,1,35,0,0
176857,-83.3333333333333,4,2,1,35,0,0
177011,-83.3333333333333,4,1,1,35,0,0
177164,-83.3333333333333,4,2,1,35,0,0
177318,-83.3333333333333,4,1,1,35,0,0
177549,-83.3333333333333,4,2,1,35,0,0
177626,-83.3333333333333,4,1,1,35,0,0
177780,-83.3333333333333,4,2,1,35,0,0
177857,-83.3333333333333,4,1,1,35,0,0
178088,-83.3333333333333,4,2,1,35,0,0
178164,-83.3333333333333,4,1,1,35,0,0
178395,-83.3333333333333,4,2,1,35,0,0
178472,-83.3333333333333,4,1,1,35,0,0
178703,-83.3333333333333,4,2,1,35,0,0
178780,-83.3333333333333,4,1,1,35,0,0
179011,-83.3333333333333,4,2,1,35,0,0
179088,-83.3333333333333,4,1,1,35,0,0
179318,-83.3333333333333,4,2,1,35,0,0
179395,-83.3333333333333,4,1,1,35,0,0
179626,-83.3333333333333,4,2,1,35,0,0
179703,-83.3333333333333,4,1,1,35,0,0
179934,-83.3333333333333,4,2,1,35,0,0
180011,-83.3333333333333,4,1,1,35,0,0
180241,-83.3333333333333,4,2,1,35,0,0
180318,-83.3333333333333,4,1,1,35,0,0
180549,-83.3333333333333,4,2,1,35,0,0
180626,-83.3333333333333,4,1,1,35,0,0
180857,-83.3333333333333,4,2,1,35,0,0
180934,-83.3333333333333,4,1,1,35,0,0
181164,-83.3333333333333,4,2,1,35,0,0
181241,-83.3333333333333,4,1,1,35,0,0
181472,-83.3333333333333,4,2,1,35,0,0
181549,-83.3333333333333,4,1,1,35,0,0
181780,-83.3333333333333,4,2,1,35,0,0
181857,-83.3333333333333,4,1,1,35,0,0
182088,-83.3333333333333,4,2,1,35,0,0
182164,-83.3333333333333,4,1,1,35,0,0
182395,-83.3333333333333,4,2,1,35,0,0
182472,-83.3333333333333,4,1,1,35,0,0
182703,-83.3333333333333,4,2,1,35,0,0
182780,-83.3333333333333,4,1,1,35,0,0
183011,-83.3333333333333,4,2,1,35,0,0
183088,-83.3333333333333,4,1,1,35,0,0
183318,-83.3333333333333,4,2,1,35,0,0
183395,-83.3333333333333,4,1,1,35,0,0
183626,-83.3333333333333,4,2,1,35,0,0
183703,-83.3333333333333,4,1,1,35,0,0
183934,-83.3333333333333,4,2,1,35,0,0
184011,-83.3333333333333,4,1,1,35,0,0
184241,-83.3333333333333,4,2,1,35,0,0
184318,-83.3333333333333,4,1,1,35,0,0
184549,-83.3333333333333,4,2,1,35,0,0
184626,-83.3333333333333,4,1,1,35,0,0
184857,-83.3333333333333,4,2,1,35,0,0
184934,-83.3333333333333,4,1,1,35,0,0
185164,-83.3333333333333,4,2,1,35,0,0
185241,-83.3333333333333,4,1,1,35,0,0
185472,-83.3333333333333,4,2,1,35,0,0
185549,-83.3333333333333,4,1,1,35,0,0
185780,-83.3333333333333,4,2,1,35,0,0
185857,-83.3333333333333,4,1,1,35,0,0
186088,-83.3333333333333,4,2,1,35,0,0
186164,-83.3333333333333,4,1,1,35,0,0
186395,-83.3333333333333,4,2,1,35,0,0
186472,-83.3333333333333,4,1,1,35,0,0
186703,-83.3333333333333,4,2,1,35,0,0
186780,-83.3333333333333,4,1,1,35,0,0
186934,-83.3333333333333,4,2,1,35,0,0
187088,-83.3333333333333,4,1,1,35,0,0
187549,-83.3333333333333,4,2,1,35,0,0
187703,-83.3333333333333,4,1,1,35,0,0
187857,-83.3333333333333,4,2,1,35,0,0
188011,-83.3333333333333,4,1,1,35,0,0
188164,-83.3333333333333,4,2,1,35,0,0
188318,-83.3333333333333,4,1,1,35,0,0
188472,-83.3333333333333,4,2,1,35,0,0
188626,-83.3333333333333,4,1,1,35,0,0
188780,-83.3333333333333,4,2,1,35,0,0
188934,-83.3333333333333,4,1,1,35,0,0
189164,-83.3333333333333,4,2,1,35,0,0
189241,-83.3333333333333,4,1,1,35,0,0
189472,-83.3333333333333,4,2,1,35,0,0
189549,-83.3333333333333,4,1,1,35,0,0
189780,-83.3333333333333,4,2,1,35,0,0
189857,-83.3333333333333,4,1,1,35,0,0
190088,-83.3333333333333,4,2,1,35,0,0
190164,-83.3333333333333,4,1,1,35,0,0
190395,-83.3333333333333,4,2,1,35,0,0
190472,-83.3333333333333,4,1,1,35,0,0
190703,-83.3333333333333,4,2,1,35,0,0
190780,-83.3333333333333,4,1,1,35,0,0
191011,-83.3333333333333,4,2,1,35,0,0
191088,-83.3333333333333,4,1,1,35,0,0
191318,-83.3333333333333,4,2,1,35,0,0
191395,-83.3333333333333,4,1,1,35,0,0
191626,-83.3333333333333,4,2,1,35,0,0
191703,-83.3333333333333,4,1,1,35,0,0
191934,-83.3333333333333,4,2,1,35,0,0
192011,-83.3333333333333,4,1,1,35,0,0
192318,-83.3333333333333,4,1,1,50,0,0
192395,-100,4,1,1,50,0,0
194857,-100,4,1,1,60,0,0
194934,-100,4,2,1,60,0,0
195011,-100,4,1,1,60,0,0
195241,-100,4,2,1,60,0,0
195318,-100,4,1,1,60,0,0
195549,-100,4,2,1,60,0,0
195626,-100,4,1,1,60,0,0
195857,-100,4,2,1,60,0,0
195934,-100,4,1,1,60,0,0
196049,-100,4,2,1,60,0,0
196088,-100,4,1,1,60,0,0
196126,-100,4,2,1,60,0,0
196164,-100,4,1,1,60,0,0
196203,-100,4,2,1,60,0,0
196241,-100,4,1,1,60,0,0
196280,-100,4,2,1,60,0,0
196318,-100,4,1,1,60,0,0
196357,-100,4,2,1,60,0,0
196395,-100,4,1,1,60,0,0
197318,-100,4,1,1,100,0,0
199780,-100,4,1,1,40,0,0
202241,-100,4,1,1,50,0,0
204703,-100,4,1,1,60,0,0
207164,-100,4,1,1,70,0,0
214549,-83.3333333333333,4,1,1,70,0,0
214626,-83.3333333333333,4,2,1,35,0,0
214703,-83.3333333333333,4,1,1,70,0,0
214780,-83.3333333333333,4,2,1,35,0,0
214857,-83.3333333333333,4,1,1,70,0,0
214934,-83.3333333333333,4,2,1,35,0,0
215011,-83.3333333333333,4,1,1,70,0,0
215088,-83.3333333333333,4,2,1,35,0,0
215164,-83.3333333333333,4,1,1,70,0,0
215241,-83.3333333333333,4,2,1,35,0,0
215318,-83.3333333333333,4,1,1,70,0,0
215395,-83.3333333333333,4,2,1,35,0,0
215472,-83.3333333333333,4,1,1,70,0,0
215549,-83.3333333333333,4,2,1,35,0,0
215626,-83.3333333333333,4,1,1,70,0,0
215703,-83.3333333333333,4,2,1,35,0,0
215780,-83.3333333333333,4,1,1,70,0,0
219241,-83.3333333333333,4,2,1,35,0,0
219318,-83.3333333333333,4,1,1,70,0,0
219395,-83.3333333333333,4,2,1,35,0,0
219472,-83.3333333333333,4,1,1,70,0,0
221703,-83.3333333333333,4,2,1,35,0,0
221780,-83.3333333333333,4,1,1,70,0,0
221857,-83.3333333333333,4,2,1,35,0,0
221934,-83.3333333333333,4,1,1,70,0,0
222318,-83.3333333333333,4,2,1,35,0,0
222395,-83.3333333333333,4,1,1,70,0,0
222934,-83.3333333333333,4,2,1,35,0,0
223011,-83.3333333333333,4,1,1,70,0,0
225395,-83.3333333333333,4,2,1,35,0,0
225472,-83.3333333333333,4,1,1,70,0,0
225549,-83.3333333333333,4,2,1,35,0,0
225626,-83.3333333333333,4,1,1,70,0,0
226626,-83.3333333333333,4,2,1,35,0,0
226703,-83.3333333333333,4,1,1,70,0,0
226780,-83.3333333333333,4,2,1,35,0,0
226857,-83.3333333333333,4,1,1,70,0,0
226934,-83.3333333333333,4,1,1,60,0,0
231241,-83.3333333333333,4,2,1,30,0,0
231318,-83.3333333333333,4,1,1,60,0,0
232780,-83.3333333333333,4,2,1,30,0,0
232857,-83.3333333333333,4,1,1,60,0,0
233011,-83.3333333333333,4,1,1,70,0,0
233703,-83.3333333333333,4,2,1,35,0,0
233780,-83.3333333333333,4,1,1,70,0,0
234472,-83.3333333333333,4,2,1,35,0,0
234549,-83.3333333333333,4,1,1,70,0,0
235011,-83.3333333333333,4,2,1,35,0,0
235164,-83.3333333333333,4,1,1,70,0,0
235241,-83.3333333333333,4,2,1,35,0,0
235318,-83.3333333333333,4,1,1,70,0,0
235703,-83.3333333333333,4,2,1,35,0,0
235780,-83.3333333333333,4,1,1,70,0,0
236164,-83.3333333333333,4,2,1,35,0,0
236241,-83.3333333333333,4,1,1,70,0,0
236472,-83.3333333333333,4,2,1,35,0,0
236549,-83.3333333333333,4,1,1,70,0,0
236703,-83.3333333333333,4,1,1,60,0,0
240318,-83.3333333333333,4,2,1,30,0,0
240395,-83.3333333333333,4,1,1,60,0,0
240934,-83.3333333333333,4,2,1,30,0,0
241011,-83.3333333333333,4,1,1,60,0,0
242780,-83.3333333333333,4,2,1,30,0,0
242857,-83.3333333333333,4,1,1,60,0,0
243395,-83.3333333333333,4,2,1,30,0,0
243472,-83.3333333333333,4,1,1,60,0,0
244088,-83.3333333333333,4,1,1,50,0,0
244703,-83.3333333333333,4,1,1,40,0,0
245318,-83.3333333333333,4,1,1,30,0,0
245626,-83.3333333333333,4,1,1,25,0,0
245934,-83.3333333333333,4,1,1,35,0,0
246241,-83.3333333333333,4,1,1,50,0,0
246549,-83.3333333333333,4,1,1,70,0,0
249049,-83.3333333333333,4,2,1,35,0,0
249126,-83.3333333333333,4,1,1,70,0,0
249203,-83.3333333333333,4,2,1,35,0,0
249280,-83.3333333333333,4,1,1,70,0,0
249357,-83.3333333333333,4,2,1,35,0,0
249434,-83.3333333333333,4,1,1,70,0,0
249511,-83.3333333333333,4,2,1,35,0,0
249588,-83.3333333333333,4,1,1,70,0,0
249664,-83.3333333333333,4,2,1,35,0,0
249741,-83.3333333333333,4,1,1,70,0,0
249818,-83.3333333333333,4,2,1,35,0,0
249895,-83.3333333333333,4,1,1,70,0,0
249972,-83.3333333333333,4,2,1,35,0,0
250049,-83.3333333333333,4,1,1,70,0,0
250126,-83.3333333333333,4,2,1,35,0,0
250203,-83.3333333333333,4,1,1,35,0,0
251472,-83.3333333333333,4,1,1,100,0,0
255164,-83.3333333333333,4,1,1,70,0,0
256395,-83.3333333333333,4,1,1,70,0,1
256472,-83.3333333333333,4,2,1,40,0,1
256549,-83.3333333333333,4,1,1,70,0,1
256780,-83.3333333333333,4,2,1,40,0,1
256857,-83.3333333333333,4,1,1,70,0,1
257088,-83.3333333333333,4,2,1,40,0,1
257164,-83.3333333333333,4,1,1,70,0,1
257395,-83.3333333333333,4,2,1,40,0,1
257472,-83.3333333333333,4,1,1,70,0,1
257703,-83.3333333333333,4,2,1,40,0,1
257780,-83.3333333333333,4,1,1,70,0,1
258011,-83.3333333333333,4,2,1,40,0,1
258088,-83.3333333333333,4,1,1,70,0,1
258318,-83.3333333333333,4,2,1,40,0,1
258395,-83.3333333333333,4,1,1,70,0,1
258626,-83.3333333333333,4,2,1,40,0,1
258703,-83.3333333333333,4,1,1,70,0,1
258780,-83.3333333333333,4,2,1,40,0,1
258857,-83.3333333333333,4,1,1,70,0,1
258934,-83.3333333333333,4,2,1,40,0,1
259011,-83.3333333333333,4,1,1,70,0,1
259241,-83.3333333333333,4,2,1,40,0,1
259318,-83.3333333333333,4,1,1,70,0,1
259549,-83.3333333333333,4,2,1,40,0,1
259626,-83.3333333333333,4,1,1,70,0,1
259857,-83.3333333333333,4,2,1,40,0,1
259934,-83.3333333333333,4,1,1,70,0,1
260164,-83.3333333333333,4,2,1,40,0,1
260241,-83.3333333333333,4,1,1,70,0,1
260472,-83.3333333333333,4,2,1,40,0,1
260549,-83.3333333333333,4,1,1,70,0,1
260780,-83.3333333333333,4,2,1,40,0,1
260857,-83.3333333333333,4,1,1,70,0,1
261088,-83.3333333333333,4,2,1,40,0,1
261164,-83.3333333333333,4,1,1,70,0,1
261318,-90.9090909090909,4,1,1,80,0,1
261395,-90.9090909090909,4,2,1,40,0,1
261472,-90.9090909090909,4,1,1,70,0,1
261703,-90.9090909090909,4,2,1,40,0,1
261780,-90.9090909090909,4,1,1,70,0,1
262011,-90.9090909090909,4,2,1,40,0,1
262088,-90.9090909090909,4,1,1,70,0,1
262318,-90.9090909090909,4,2,1,40,0,1
262395,-90.9090909090909,4,1,1,70,0,1
262626,-90.9090909090909,4,2,1,40,0,1
262703,-90.9090909090909,4,1,1,70,0,1
262934,-90.9090909090909,4,2,1,40,0,1
263011,-90.9090909090909,4,1,1,70,0,1
263241,-90.9090909090909,4,2,1,40,0,1
263318,-90.9090909090909,4,1,1,70,0,1
263549,-90.9090909090909,4,2,1,40,0,1
263626,-90.9090909090909,4,1,1,70,0,1
263780,-83.3333333333333,4,1,1,70,0,1
263818,-83.3333333333333,4,2,1,40,0,1
263895,-83.3333333333333,4,1,1,70,0,1
263972,-83.3333333333333,4,2,1,40,0,1
264049,-83.3333333333333,4,1,1,70,0,1
264126,-83.3333333333333,4,2,1,40,0,1
264203,-83.3333333333333,4,1,1,70,0,1
264280,-83.3333333333333,4,2,1,40,0,1
264357,-83.3333333333333,4,1,1,70,0,1
264434,-83.3333333333333,4,2,1,40,0,1
264511,-83.3333333333333,4,1,1,70,0,1
264741,-83.3333333333333,4,2,1,40,0,1
264818,-83.3333333333333,4,1,1,70,0,1
265088,-83.3333333333333,4,2,1,40,0,1
265126,-83.3333333333333,4,1,1,70,0,1
265241,-83.3333333333333,4,2,1,40,0,1
265280,-83.3333333333333,4,1,1,70,0,1
265357,-83.3333333333333,4,2,1,40,0,1
265434,-83.3333333333333,4,1,1,70,0,1
265511,-83.3333333333333,4,2,1,40,0,1
265588,-83.3333333333333,4,1,1,70,0,1
265664,-83.3333333333333,4,2,1,40,0,1
265741,-83.3333333333333,4,1,1,70,0,1
265857,-83.3333333333333,4,2,1,40,0,1
265895,-83.3333333333333,4,1,1,70,0,1
265972,-83.3333333333333,4,2,1,40,0,1
266049,-83.3333333333333,4,1,1,70,0,1
266164,-83.3333333333333,4,2,1,40,0,1
266203,-83.3333333333333,4,1,1,70,0,1
266241,-90.9090909090909,4,1,1,70,0,1
266318,-90.9090909090909,4,2,1,40,0,1
266357,-90.9090909090909,4,1,1,70,0,1
266626,-90.9090909090909,4,2,1,40,0,1
266664,-90.9090909090909,4,1,1,70,0,1
266934,-90.9090909090909,4,2,1,40,0,1
266972,-90.9090909090909,4,1,1,70,0,1
267241,-90.9090909090909,4,2,1,40,0,1
267280,-90.9090909090909,4,1,1,70,0,1
267549,-90.9090909090909,4,2,1,40,0,1
267588,-90.9090909090909,4,1,1,70,0,1
267857,-90.9090909090909,4,2,1,40,0,1
267895,-90.9090909090909,4,1,1,70,0,1
268164,-90.9090909090909,4,2,1,40,0,1
268203,-90.9090909090909,4,1,1,70,0,1
268434,-90.9090909090909,4,2,1,40,0,1
268511,-90.9090909090909,4,1,1,70,0,1
268703,-83.3333333333333,4,1,1,70,0,1
268780,-83.3333333333333,4,2,1,40,0,1
268818,-83.3333333333333,4,1,1,70,0,1
269088,-83.3333333333333,4,2,1,40,0,1
269126,-83.3333333333333,4,1,1,70,0,1
269395,-83.3333333333333,4,2,1,40,0,1
269434,-83.3333333333333,4,1,1,70,0,1
269664,-83.3333333333333,4,2,1,40,0,1
269741,-83.3333333333333,4,1,1,70,0,1
269972,-83.3333333333333,4,2,1,40,0,1
270049,-83.3333333333333,4,1,1,70,0,1
270318,-83.3333333333333,4,2,1,40,0,1
270357,-83.3333333333333,4,1,1,70,0,1
270626,-83.3333333333333,4,2,1,40,0,1
270664,-83.3333333333333,4,1,1,70,0,1
270934,-83.3333333333333,4,2,1,40,0,1
270972,-83.3333333333333,4,1,1,70,0,1
271088,-83.3333333333333,4,2,1,40,0,1
271126,-83.3333333333333,4,1,1,70,0,1
271241,-83.3333333333333,4,2,1,40,0,1
271280,-83.3333333333333,4,1,1,70,0,1
271549,-83.3333333333333,4,2,1,40,0,1
271588,-83.3333333333333,4,1,1,70,0,1
271857,-83.3333333333333,4,2,1,40,0,1
271895,-83.3333333333333,4,1,1,70,0,1
272164,-83.3333333333333,4,2,1,40,0,1
272203,-83.3333333333333,4,1,1,70,0,1
272472,-83.3333333333333,4,2,1,40,0,1
272511,-83.3333333333333,4,1,1,70,0,1
272780,-83.3333333333333,4,2,1,40,0,1
272818,-83.3333333333333,4,1,1,70,0,1
273088,-83.3333333333333,4,2,1,40,0,1
273126,-83.3333333333333,4,1,1,70,0,1
273395,-83.3333333333333,4,2,1,40,0,1
273434,-83.3333333333333,4,1,1,70,0,1
273703,-83.3333333333333,4,2,1,40,0,1
273741,-83.3333333333333,4,1,1,70,0,1
274011,-83.3333333333333,4,2,1,40,0,1
274049,-83.3333333333333,4,1,1,70,0,1
274318,-83.3333333333333,4,2,1,40,0,1
274357,-83.3333333333333,4,1,1,70,0,1
274626,-83.3333333333333,4,2,1,40,0,1
274664,-83.3333333333333,4,1,1,70,0,1
274895,-83.3333333333333,4,2,1,40,0,1
274972,-83.3333333333333,4,1,1,70,0,1
275049,-83.3333333333333,4,2,1,40,0,1
275126,-83.3333333333333,4,1,1,70,0,1
275203,-83.3333333333333,4,2,1,40,0,1
275280,-83.3333333333333,4,1,1,70,0,1
275357,-83.3333333333333,4,2,1,40,0,1
275472,-83.3333333333333,4,1,1,70,0,1
275491,-83.3333333333333,4,2,1,40,0,1
275626,-83.3333333333333,4,1,1,70,0,1
275645,-83.3333333333333,4,2,1,40,0,1
275703,-83.3333333333333,4,1,1,70,0,1
275722,-83.3333333333333,4,2,1,40,0,1
275780,-83.3333333333333,4,1,1,70,0,1
275799,-83.3333333333333,4,2,1,40,0,1
275857,-83.3333333333333,4,1,1,70,0,1
275876,-83.3333333333333,4,2,1,40,0,1
275934,-83.3333333333333,4,1,1,70,0,1
275953,-83.3333333333333,4,2,1,40,0,1
276088,153.846153846154,4,1,1,70,1,1
285645,-83.3333333333333,4,2,1,40,0,1
285780,-83.3333333333333,4,1,1,70,0,1
285799,-83.3333333333333,4,2,1,40,0,1
285934,-100,4,1,1,70,0,1
285953,-83.3333333333333,4,1,1,30,0,1
286241,-83.3333333333333,4,1,1,70,0,1
286261,-83.3333333333333,4,1,1,30,0,1
286549,-83.3333333333333,4,1,1,70,0,1
286568,-83.3333333333333,4,1,1,30,0,1
286857,-83.3333333333333,4,1,1,70,0,1
286876,-83.3333333333333,4,1,1,30,0,1
287164,-83.3333333333333,4,1,1,70,0,1
287184,-83.3333333333333,4,1,1,30,0,1
287472,-83.3333333333333,4,1,1,70,0,1
287491,-83.3333333333333,4,1,1,30,0,1
287780,-83.3333333333333,4,1,1,70,0,1
287799,-83.3333333333333,4,1,1,30,0,1
288088,-83.3333333333333,4,1,1,70,0,1
288107,-83.3333333333333,4,1,1,30,0,1
288395,-83.3333333333333,4,1,1,70,0,1
288414,-83.3333333333333,4,1,1,30,0,1
288703,-83.3333333333333,4,1,1,70,0,1
288722,-83.3333333333333,4,1,1,30,0,1
289011,-83.3333333333333,4,1,1,70,0,1
289030,-83.3333333333333,4,1,1,30,0,1
289318,-83.3333333333333,4,1,1,70,0,1
289338,-83.3333333333333,4,1,1,30,0,1
289626,-83.3333333333333,4,1,1,70,0,1
289645,-83.3333333333333,4,1,1,30,0,1
289934,-83.3333333333333,4,1,1,70,0,1
289953,-83.3333333333333,4,1,1,30,0,1
290241,-83.3333333333333,4,1,1,70,0,1
290261,-83.3333333333333,4,1,1,30,0,1
290549,-83.3333333333333,4,1,1,70,0,1
290568,-83.3333333333333,4,1,1,30,0,1
290703,-83.3333333333333,4,1,1,70,0,1
290722,-83.3333333333333,4,1,1,30,0,1
290857,-83.3333333333333,4,1,1,70,0,1
290876,-83.3333333333333,4,1,1,30,0,1
291164,-83.3333333333333,4,1,1,70,0,1
291184,-83.3333333333333,4,1,1,30,0,1
291472,-83.3333333333333,4,1,1,70,0,1
291491,-83.3333333333333,4,1,1,30,0,1
291780,-83.3333333333333,4,1,1,70,0,1
291799,-83.3333333333333,4,1,1,30,0,1
292088,-83.3333333333333,4,1,1,70,0,1
292107,-83.3333333333333,4,1,1,30,0,1
292395,-83.3333333333333,4,1,1,70,0,1
292414,-83.3333333333333,4,1,1,30,0,1
292703,-83.3333333333333,4,1,1,70,0,1
292722,-83.3333333333333,4,1,1,30,0,1
293011,-83.3333333333333,4,1,1,70,0,1
293030,-83.3333333333333,4,1,1,30,0,1
293318,-83.3333333333333,4,1,1,70,0,1
293338,-83.3333333333333,4,1,1,30,0,1
293626,-83.3333333333333,4,1,1,70,0,1
293645,-83.3333333333333,4,1,1,30,0,1
293934,-83.3333333333333,4,1,1,70,0,1
293953,-83.3333333333333,4,1,1,30,0,1
294241,-83.3333333333333,4,1,1,70,0,1
294261,-83.3333333333333,4,1,1,30,0,1
294549,-83.3333333333333,4,1,1,70,0,1
294568,-83.3333333333333,4,1,1,30,0,1
294703,-83.3333333333333,4,1,1,70,0,1
294722,-83.3333333333333,4,1,1,30,0,1
294780,-83.3333333333333,4,1,1,70,0,1
294799,-83.3333333333333,4,1,1,30,0,1
294857,-83.3333333333333,4,1,1,70,0,1
294876,-83.3333333333333,4,1,1,30,0,1
295011,-83.3333333333333,4,1,1,70,0,1
295030,-83.3333333333333,4,1,1,30,0,1
295087,-83.3333333333333,4,1,1,70,0,1
295107,-83.3333333333333,4,1,1,30,0,1
295164,-83.3333333333333,4,1,1,70,0,1
295184,-83.3333333333333,4,1,1,30,0,1
295318,-83.3333333333333,4,1,1,70,0,1
295338,-83.3333333333333,4,1,1,30,0,1
295395,-83.3333333333333,4,1,1,70,0,1
295414,-83.3333333333333,4,1,1,30,0,1
295472,-83.3333333333333,4,1,1,70,0,1
295491,-83.3333333333333,4,1,1,30,0,1
295549,-83.3333333333333,4,1,1,70,0,1
295568,-83.3333333333333,4,1,1,30,0,1
295626,-83.3333333333333,4,1,1,70,0,1
295645,-83.3333333333333,4,1,1,30,0,1
295780,307.692307692308,4,1,1,100,1,0
295799,-100,4,1,1,30,0,0
300549,-83.3333333333333,4,1,1,30,0,0
300626,-83.3333333333333,4,2,1,30,0,0
300703,-83.3333333333333,4,1,1,30,0,0
301164,-83.3333333333333,4,2,1,30,0,0
301318,-83.3333333333333,4,1,1,30,0,0
302395,-83.3333333333333,4,2,1,30,0,0
302549,-83.3333333333333,4,1,1,30,0,0
303011,-83.3333333333333,4,2,1,30,0,0
303164,-83.3333333333333,4,1,1,30,0,0
303626,-83.3333333333333,4,2,1,30,0,0
303780,-83.3333333333333,4,1,1,30,0,0
304241,-83.3333333333333,4,2,1,30,0,0
304395,-83.3333333333333,4,1,1,30,0,0
304857,-83.3333333333333,4,2,1,30,0,0
305011,-83.3333333333333,4,1,1,30,0,0
305241,-83.3333333333333,4,2,1,30,0,0
305318,-83.3333333333333,4,1,1,30,0,0
305395,-83.3333333333333,4,2,1,30,0,0
305472,-83.3333333333333,4,1,1,30,0,0
305549,-83.3333333333333,4,2,1,30,0,0
305626,-83.3333333333333,4,1,1,30,0,0
313088,-83.3333333333333,4,2,1,30,0,0
313164,-83.3333333333333,4,1,1,30,0,0
313703,-83.3333333333333,4,2,1,30,0,0
313780,-83.3333333333333,4,1,1,30,0,0
314318,-83.3333333333333,4,2,1,30,0,0
314395,-83.3333333333333,4,1,1,30,0,0
314934,-83.3333333333333,4,2,1,30,0,0
315011,-83.3333333333333,4,1,1,30,0,0
315626,-83.3333333333333,4,1,1,30,0,0
316703,-83.3333333333333,4,1,1,25,0,0
317934,-83.3333333333333,4,1,1,20,0,0
319164,-83.3333333333333,4,1,1,15,0,0
320395,-83.3333333333333,4,1,1,10,0,0

[HitObjects]
488,208,246549,5,12,0:0:0:0:
344,208,246703,1,4,0:0:0:0:
184,208,246857,1,12,0:0:0:0:
480,208,247011,1,4,0:0:0:0:
332,208,247164,1,12,0:0:0:0:
172,208,247318,1,4,0:0:0:0:
320,208,247472,1,12,0:0:0:0:
468,208,247626,1,4,0:0:0:0:
40,200,247780,5,12,0:0:0:0:
200,200,247934,1,4,0:0:0:0:
352,200,248088,1,12,0:0:0:0:
56,200,248241,1,4,0:0:0:0:
208,200,248395,1,12,0:0:0:0:
360,200,248549,1,4,0:0:0:0:
8,192,248703,1,12,0:0:0:0:
224,192,248857,1,4,0:0:0:0:
436,192,248972,6,0,L|484:192,2,37.4999988555909,0|8|0,0:0|0:0|0:0,0:0:0:0:
256,192,249088,1,0,0:0:0:0:
80,192,249126,2,0,L|16:192,2,37.4999988555909,0|8|0,0:0|0:0|0:0,0:0:0:0:
256,192,249241,1,0,0:0:0:0:
448,144,249280,2,0,L|504:144,2,37.4999988555909,0|8|0,0:0|0:0|0:0,0:0:0:0:
256,192,249395,1,0,0:0:0:0:
72,136,249434,2,0,L|8:136,2,37.4999988555909,0|8|0,0:0|0:0|0:0,0:0:0:0:
256,192,249549,1,0,0:0:0:0:
456,96,249588,6,0,L|496:96,2,37.4999988555909,0|8|0,0:0|0:0|0:0,0:0:0:0:
256,192,249703,1,0,0:0:0:0:
64,80,249741,2,0,L|8:80,2,37.4999988555909,0|8|0,0:0|0:0|0:0,0:0:0:0:
256,192,249857,1,0,0:0:0:0:
464,48,249895,2,0,L|512:48,2,37.4999988555909,0|8|0,0:0|0:0|0:0,0:0:0:0:
256,192,250011,1,0,0:0:0:0:
48,32,250049,2,0,L|-8:32,2,37.4999988555909,0|8|0,0:0|0:0|0:0,0:0:0:0:
256,192,250164,1,0,0:0:0:0:
320,16,250222,6,0,L|352:16,2,18.7499994277954
192,16,250299,2,0,L|160:16,2,18.7499994277954
336,80,250376,2,0,L|368:80,2,18.7499994277954
176,80,250453,2,0,L|144:80,2,18.7499994277954
416,144,250530,6,0,L|448:144,2,18.7499994277954
96,144,250607,2,0,L|64:144,2,18.7499994277954
352,208,250684,2,0,L|384:208,2,18.7499994277954
160,208,250761,2,0,L|128:208,2,18.7499994277954
464,272,250838,6,0,L|496:272,2,18.7499994277954
256,192,250895,1,0,0:0:0:0:
32,272,250914,2,0,L|0:272,2,18.7499994277954
256,192,250972,1,0,0:0:0:0:
400,336,250991,2,0,L|432:336,2,18.7499994277954
256,192,251049,1,0,0:0:0:0:
112,336,251068,2,0,L|80:336,2,18.7499994277954
256,192,251126,1,0,0:0:0:0:
432,192,251145,6,0,L|464:192,2,18.7499994277954
256,192,251203,1,0,0:0:0:0:
80,192,251222,2,0,L|48:192,2,18.7499994277954
256,192,251280,1,0,0:0:0:0:
480,96,251299,2,0,L|512:96,2,18.7499994277954
256,192,251357,1,0,0:0:0:0:
32,96,251376,2,0,L|0:96,2,18.7499994277954
256,192,251434,1,0,0:0:0:0:
496,192,251453,1,0,0:0:0:0:
512,192,251472,1,4,0:0:0:0:
32,192,255164,5,12,0:0:0:0:
192,192,255318,1,4,0:0:0:0:
32,192,255472,1,12,0:0:0:0:
192,192,255626,1,4,0:0:0:0:
472,184,255780,1,12,0:0:0:0:
368,184,255934,1,8,0:0:0:0:
472,184,256011,1,8,0:0:0:0:
216,128,256164,1,8,0:0:0:0:
300,128,256241,1,8,0:0:0:0:
216,128,256318,1,0,0:0:0:0:
300,128,256395,6,12,L|400:128,1,74.9999977111817
272,128,256511,1,0,0:0:0:0:
160,128,256549,2,0,L|80:128,1,74.9999977111817
208,128,256664,1,0,0:0:0:0:
320,224,256703,2,8,L|416:224,1,74.9999977111817
288,224,256818,1,0,0:0:0:0:
176,224,256857,2,0,L|80:224,1,74.9999977111817
304,224,256972,1,0,0:0:0:0:
480,176,257011,6,8,L|480:268,1,74.9999977111817
368,256,257126,1,0,0:0:0:0:
256,172,257164,2,0,L|256:268,1,74.9999977111817
144,160,257280,1,0,0:0:0:0:
32,160,257318,2,0,L|32:240,1,74.9999977111817
256,160,257434,1,0,0:0:0:0:
480,176,257472,2,0,L|480:256,1,74.9999977111817
368,160,257588,1,0,0:0:0:0:
256,160,257626,6,8,L|256:240,1,74.9999977111817
144,160,257741,1,0,0:0:0:0:
32,160,257780,2,0,L|32:240,1,74.9999977111817
256,160,257895,1,0,0:0:0:0:
480,176,257934,2,8,L|480:256,1,74.9999977111817
256,160,258049,1,0,0:0:0:0:
32,160,258088,2,0,L|32:240,1,74.9999977111817
256,160,258203,1,0,0:0:0:0:
480,176,258241,2,8,L|480:272,1,74.9999977111817
256,160,258357,1,0,0:0:0:0:
32,160,258395,2,0,L|32:240,1,74.9999977111817
144,176,258511,1,0,0:0:0:0:
256,160,258549,2,8,L|256:256,1,74.9999977111817
368,160,258664,1,0,0:0:0:0:
480,176,258703,2,8,L|480:256,1,74.9999977111817
256,160,258818,1,0,0:0:0:0:
32,160,258857,6,12,L|32:256,1,74.9999977111817
144,176,258972,1,0,0:0:0:0:
256,160,259011,2,0,L|256:240,1,74.9999977111817
368,160,259126,1,0,0:0:0:0:
480,176,259164,2,8,L|480:272,1,74.9999977111817
304,176,259280,1,0,0:0:0:0:
128,176,259318,2,0,L|208:112,1,74.9999977111817
288,144,259434,1,0,0:0:0:0:
400,144,259472,6,8,L|320:80,1,74.9999977111817
224,160,259588,1,0,0:0:0:0:
80,144,259626,2,0,L|160:80,1,74.9999977111817
304,160,259741,1,0,0:0:0:0:
448,144,259780,2,8,L|368:80,1,74.9999977111817
256,160,259895,1,0,0:0:0:0:
48,144,259934,2,0,L|128:80,1,74.9999977111817
256,144,260049,1,0,0:0:0:0:
496,144,260088,6,8,L|416:80,1,74.9999977111817
272,176,260203,1,0,0:0:0:0:
16,144,260241,2,0,L|96:80,1,74.9999977111817
256,176,260357,1,0,0:0:0:0:
448,336,260395,2,8,P|464:288|448:272,1,74.9999977111817
256,176,260511,1,0,0:0:0:0:
64,336,260549,2,0,P|48:288|64:272,1,74.9999977111817
256,176,260664,1,0,0:0:0:0:
464,336,260703,6,8,P|480:288|464:272,1,74.9999977111817
256,176,260818,1,0,0:0:0:0:
48,336,260857,2,0,P|32:288|48:272,1,74.9999977111817
256,176,260972,1,0,0:0:0:0:
480,336,261011,2,8,P|496:288|480:272,1,74.9999977111817
256,176,261126,1,0,0:0:0:0:
32,336,261164,2,0,P|16:288|32:272,1,74.9999977111817
256,176,261280,1,0,0:0:0:0:
480,176,261318,6,12,L|424:216,1,68.7500020980836
240,176,261434,1,0,0:0:0:0:
96,160,261472,2,0,L|40:200,1,68.7500020980836
240,176,261588,1,0,0:0:0:0:
464,176,261626,2,8,L|408:216,1,68.7500020980836
240,176,261741,1,0,0:0:0:0:
80,160,261780,2,0,L|24:200,1,68.7500020980836
240,176,261895,1,0,0:0:0:0:
448,176,261934,6,8,L|392:216,1,68.7500020980836
224,176,262049,1,0,0:0:0:0:
64,160,262088,2,0,L|8:200,1,68.7500020980836
224,176,262203,1,0,0:0:0:0:
432,176,262241,2,8,L|376:216,1,68.7500020980836
224,176,262357,1,0,0:0:0:0:
64,160,262395,2,0,L|8:200,1,68.7500020980836
224,176,262511,1,0,0:0:0:0:
384,176,262549,6,8,L|440:136,1,68.7500020980836
256,176,262664,1,0,0:0:0:0:
16,160,262703,2,0,L|72:120,1,68.7500020980836
224,176,262818,1,0,0:0:0:0:
400,176,262857,2,8,L|456:136,1,68.7500020980836
240,176,262972,1,0,0:0:0:0:
32,160,263011,2,0,L|88:120,1,68.7500020980836
240,176,263126,1,0,0:0:0:0:
416,176,263164,6,8,L|472:136,1,68.7500020980836
256,176,263280,1,0,0:0:0:0:
48,160,263318,2,0,L|104:120,1,68.7500020980836
256,176,263434,1,0,0:0:0:0:
432,176,263472,2,8,L|488:136,1,68.7500020980836
272,176,263588,1,0,0:0:0:0:
64,160,263626,2,0,L|120:120,1,68.7500020980836
288,176,263741,1,0,0:0:0:0:
440,288,263780,6,8,L|480:288,2,37.4999988555909
256,288,263895,1,0,0:0:0:0:
72,288,263934,2,0,L|34:288,2,37.4999988555909
256,288,264049,1,0,0:0:0:0:
368,288,264088,2,8,L|408:288,2,37.4999988555909
256,288,264203,1,0,0:0:0:0:
152,288,264241,2,0,L|114:288,2,37.4999988555909
256,288,264357,1,0,0:0:0:0:
405,288,264395,6,8,L|445:288,2,37.4999988555909
256,288,264511,1,0,0:0:0:0:
107,288,264549,2,0,L|69:288,2,37.4999988555909
256,288,264664,1,0,0:0:0:0:
464,288,264703,2,8,L|504:288,2,37.4999988555909
256,288,264818,1,0,0:0:0:0:
48,288,264857,2,0,L|10:288,2,37.4999988555909
256,288,264972,1,0,0:0:0:0:
472,336,265011,6,8,P|488:288|472:272,1,74.9999977111817
360,272,265126,1,0,0:0:0:0:
232,344,265164,2,0,P|212:314|228:282,1,74.9999977111817
336,272,265280,1,0,0:0:0:0:
448,336,265318,2,8,P|464:288|448:272,1,74.9999977111817
336,272,265434,1,0,0:0:0:0:
216,344,265472,2,8,P|208:304|224:272,1,74.9999977111817
116,272,265588,1,0,0:0:0:0:
16,336,265626,6,8,P|0:288|16:272,1,74.9999977111817
128,272,265741,1,0,0:0:0:0:
244,336,265780,2,0,P|260:288|244:272,1,74.9999977111817
128,272,265895,1,0,0:0:0:0:
32,336,265934,2,8,P|16:288|32:272,1,74.9999977111817
140,272,266049,1,0,0:0:0:0:
264,336,266088,2,8,P|280:288|268:264,1,74.9999977111817
172,184,266203,1,0,0:0:0:0:
76,184,266241,6,12,L|0:184,1,68.7500020980836
152,184,266357,1,0,0:0:0:0:
280,184,266395,2,0,L|360:184,1,68.7500020980836
224,184,266511,1,0,0:0:0:0:
96,184,266549,2,8,L|24:184,1,68.7500020980836
160,184,266664,1,0,0:0:0:0:
296,184,266703,2,0,L|368:184,1,68.7500020980836
232,184,266818,1,0,0:0:0:0:
112,184,266857,6,8,L|40:184,1,68.7500020980836
172,184,266972,1,0,0:0:0:0:
320,184,267011,2,0,L|392:184,1,68.7500020980836
240,184,267126,1,0,0:0:0:0:
136,184,267164,2,8,L|64:184,1,68.7500020980836
184,184,267280,1,0,0:0:0:0:
344,184,267318,2,0,L|416:184,1,68.7500020980836
256,184,267434,1,0,0:0:0:0:
152,184,267472,6,8,L|80:184,1,68.7500020980836
256,272,267588,1,0,0:0:0:0:
424,328,267626,2,0,L|504:328,1,68.7500020980836
360,328,267741,1,0,0:0:0:0:
240,328,267780,2,8,P|224:328|160:328,1,68.7500020980836
296,328,267895,1,0,0:0:0:0:
408,272,267934,2,0,L|488:272,1,68.7500020980836
344,272,268049,1,0,0:0:0:0:
224,272,268088,6,8,P|208:272|144:272,1,68.7500020980836
280,272,268203,1,0,0:0:0:0:
392,216,268241,2,0,L|472:216,1,68.7500020980836
328,216,268357,1,0,0:0:0:0:
208,216,268395,2,8,P|192:216|128:216,1,68.7500020980836
264,216,268511,1,0,0:0:0:0:
376,160,268549,2,0,L|456:160,1,68.7500020980836
256,160,268664,1,0,0:0:0:0:
136,160,268703,6,12,L|80:88,1,74.9999977111817
256,112,268818,1,0,0:0:0:0:
376,160,268857,2,0,L|432:88,1,74.9999977111817
256,160,268972,1,0,0:0:0:0:
88,160,269011,2,8,L|32:88,1,74.9999977111817
256,160,269126,1,0,0:0:0:0:
424,160,269164,2,0,L|480:88,1,74.9999977111817
256,160,269280,1,0,0:0:0:0:
88,160,269318,6,12,L|32:88,1,74.9999977111817
256,160,269434,1,0,0:0:0:0:
440,104,269472,2,0,L|488:72,2,37.4999988555909
256,160,269588,1,0,0:0:0:0:
72,104,269626,2,8,L|24:72,2,37.4999988555909
256,160,269741,1,0,0:0:0:0:
456,104,269780,2,0,L|504:72,2,37.4999988555909
256,160,269895,1,0,0:0:0:0:
56,104,269934,6,8,L|8:72,2,37.4999988555909
256,160,270049,1,0,0:0:0:0:
448,160,270088,2,0,L|472:248,1,74.9999977111817
256,160,270203,1,0,0:0:0:0:
44,151,270241,2,8,L|64:224,1,74.9999977111817
272,160,270357,1,0,0:0:0:0:
464,160,270395,2,0,L|488:248,1,74.9999977111817
272,160,270511,1,0,0:0:0:0:
64,152,270549,6,8,L|88:240,1,74.9999977111817
280,160,270664,1,0,0:0:0:0:
480,160,270703,2,0,L|504:248,1,74.9999977111817
280,160,270818,1,0,0:0:0:0:
80,152,270857,2,8,L|104:240,1,74.9999977111817
288,160,270972,1,0,0:0:0:0:
488,160,271011,2,8,L|512:248,1,74.9999977111817
296,160,271126,1,0,0:0:0:0:
88,152,271164,6,12,L|64:240,1,74.9999977111817
280,160,271280,1,0,0:0:0:0:
488,160,271318,2,0,L|464:248,1,74.9999977111817
272,160,271434,1,0,0:0:0:0:
80,152,271472,2,8,L|56:240,1,74.9999977111817
272,160,271588,1,0,0:0:0:0:
480,160,271626,2,0,L|456:248,1,74.9999977111817
256,160,271741,1,0,0:0:0:0:
64,152,271780,6,8,L|40:240,1,74.9999977111817
256,160,271895,1,0,0:0:0:0:
472,160,271934,2,0,L|448:248,1,74.9999977111817
248,160,272049,1,0,0:0:0:0:
48,152,272088,2,8,L|24:240,1,74.9999977111817
240,160,272203,1,0,0:0:0:0:
464,160,272241,2,0,L|440:248,1,74.9999977111817
240,160,272357,1,0,0:0:0:0:
48,64,272395,6,8,L|40:160,1,74.9999977111817
160,144,272511,1,0,0:0:0:0:
288,64,272549,2,0,L|304:160,1,74.9999977111817
160,144,272664,1,0,0:0:0:0:
48,64,272703,2,8,L|40:160,1,74.9999977111817
192,144,272818,1,0,0:0:0:0:
344,64,272857,2,0,L|360:160,1,74.9999977111817
192,144,272972,1,0,0:0:0:0:
48,64,273011,6,8,L|40:160,1,74.9999977111817
224,144,273126,1,0,0:0:0:0:
400,64,273164,2,0,L|416:160,1,74.9999977111817
224,144,273280,1,0,0:0:0:0:
48,64,273318,2,8,L|40:160,1,74.9999977111817
256,144,273434,1,0,0:0:0:0:
456,64,273472,2,0,L|472:160,1,74.9999977111817
288,144,273588,1,0,0:0:0:0:
104,64,273626,6,8,L|88:160,1,74.9999977111817
288,144,273741,1,0,0:0:0:0:
456,64,273780,2,0,L|472:160,1,74.9999977111817
320,144,273895,1,0,0:0:0:0:
160,64,273934,2,8,L|144:160,1,74.9999977111817
320,144,274049,1,0,0:0:0:0:
456,64,274088,2,0,L|472:160,1,74.9999977111817
352,144,274203,1,0,0:0:0:0:
224,64,274241,6,8,L|208:160,1,74.9999977111817
352,144,274357,1,0,0:0:0:0:
464,64,274395,2,0,L|480:160,1,74.9999977111817
376,144,274511,1,0,0:0:0:0:
272,64,274549,2,8,L|256:160,1,74.9999977111817
376,144,274664,1,0,0:0:0:0:
472,68,274703,2,0,L|488:164,1,74.9999977111817
256,192,274818,1,0,0:0:0:0:
0,192,274857,6,0,L|76:192,1,74.9999977111817,12|0,0:0|0:0,0:0:0:0:
368,192,274972,1,0,0:0:0:0:
512,192,275011,2,0,L|436:192,1,74.9999977111817
144,192,275126,1,0,0:0:0:0:
0,192,275164,2,0,L|76:192,1,74.9999977111817,12|0,0:0|0:0,0:0:0:0:
288,192,275280,1,0,0:0:0:0:
512,192,275318,2,0,L|436:192,1,74.9999977111817
224,192,275434,1,0,0:0:0:0:
32,272,275453,6,0,L|0:272,2,18.7499994277954,0|12|0,0:0|0:0|0:0,0:0:0:0:
144,176,275511,1,0,0:0:0:0:
208,176,275549,1,0,0:0:0:0:
272,176,275588,1,0,0:0:0:0:
384,96,275607,2,0,L|416:96,2,18.7499994277954,0|8|0,0:0|0:0|0:0,0:0:0:0:
240,96,275664,1,0,0:0:0:0:
128,96,275684,2,0,L|96:96,2,18.7499994277954,0|8|0,0:0|0:0|0:0,0:0:0:0:
320,192,275741,1,0,0:0:0:0:
464,192,275761,6,0,L|496:192,2,18.7499994277954,0|12|0,0:0|0:0|0:0,0:0:0:0:
256,192,275818,1,0,0:0:0:0:
48,192,275838,2,0,L|16:192,2,18.7499994277954,0|8|0,0:0|0:0|0:0,0:0:0:0:
192,192,275895,1,0,0:0:0:0:
480,272,275914,2,0,L|512:272,2,18.7499994277954,0|8|0,0:0|0:0|0:0,0:0:0:0:
368,272,275972,1,0,0:0:0:0:
256,272,276011,1,0,0:0:0:0:
144,272,276049,1,0,0:0:0:0:
18,96,276068,6,0,L|0:96,1,18.7499994277954,0|6,0:0|0:0,0:0:0:0:
164,96,276164,1,0,0:0:0:0:
348,96,276241,1,0,0:0:0:0:
512,96,276318,1,2,0:0:0:0:
348,96,276395,1,0,0:0:0:0:
164,96,276472,1,0,0:0:0:0:
0,96,276549,1,2,0:0:0:0:
164,96,276626,1,0,0:0:0:0:
512,192,276703,5,2,0:0:0:0:
348,192,276780,1,0,0:0:0:0:
164,192,276857,1,0,0:0:0:0:
0,192,276934,1,2,0:0:0:0:
164,192,277011,1,0,0:0:0:0:
348,192,277088,1,0,0:0:0:0:
512,192,277164,1,2,0:0:0:0:
348,192,277241,1,0,0:0:0:0:
0,192,277318,5,2,0:0:0:0:
164,192,277395,1,0,0:0:0:0:
512,192,277472,1,0,0:0:0:0:
348,192,277549,1,2,0:0:0:0:
0,192,277626,1,0,0:0:0:0:
164,192,277703,1,0,0:0:0:0:
512,192,277780,1,2,0:0:0:0:
348,192,277857,1,0,0:0:0:0:
0,64,277934,5,2,0:0:0:0:
144,64,278011,1,0,0:0:0:0:
256,64,278088,1,0,0:0:0:0:
368,64,278164,1,0,0:0:0:0:
512,64,278241,1,2,0:2:0:0:
256,128,278318,1,0,0:0:0:0:
0,128,278395,1,2,0:2:0:0:
256,128,278472,1,0,0:0:0:0:
512,320,278549,5,2,0:2:0:0:
368,320,278626,1,0,0:0:0:0:
256,320,278703,1,0,0:0:0:0:
144,320,278780,1,0,0:0:0:0:
0,320,278857,1,2,0:2:0:0:
256,256,278934,1,0,0:0:0:0:
512,256,279011,1,2,0:2:0:0:
256,256,279088,1,0,0:0:0:0:
0,160,279164,5,2,0:2:0:0:
144,160,279241,1,0,0:0:0:0:
256,160,279318,1,0,0:0:0:0:
368,160,279395,1,0,0:0:0:0:
512,160,279472,1,2,0:2:0:0:
144,224,279549,1,0,0:0:0:0:
0,224,279626,1,2,0:2:0:0:
368,224,279703,1,0,0:0:0:0:
512,192,279780,5,2,0:0:0:0:
348,192,279857,1,0,0:0:0:0:
164,192,279934,1,0,0:0:0:0:
0,192,280011,1,2,0:0:0:0:
164,192,280088,1,0,0:0:0:0:
348,192,280164,1,0,0:0:0:0:
512,192,280241,1,2,0:0:0:0:
256,192,280318,1,0,0:0:0:0:
0,192,280395,5,2,0:0:0:0:
164,192,280472,1,0,0:0:0:0:
348,192,280549,1,0,0:0:0:0:
512,192,280626,1,2,0:0:0:0:
348,192,280703,1,0,0:0:0:0:
164,192,280780,1,0,0:0:0:0:
0,192,280857,1,2,0:0:0:0:
256,192,280934,1,0,0:0:0:0:
504,0,281001,1,0,0:0:0:0:
512,0,281011,5,2,0:0:0:0:
504,0,281030,1,0,0:0:0:0:
256,0,281088,1,0,0:0:0:0:
104,0,281155,1,0,0:0:0:0:
96,0,281164,1,0,0:0:0:0:
104,0,281184,1,0,0:0:0:0:
408,64,281232,1,0,0:0:0:0:
416,64,281241,1,2,0:0:0:0:
408,64,281261,1,0,0:0:0:0:
256,64,281318,1,0,0:0:0:0:
8,64,281386,1,0,0:0:0:0:
0,64,281395,1,0,0:0:0:0:
8,64,281414,1,0,0:0:0:0:
504,192,281463,1,0,0:0:0:0:
512,192,281472,1,2,0:0:0:0:
504,192,281491,1,0,0:0:0:0:
256,192,281549,1,0,0:0:0:0:
104,384,281616,1,0,0:0:0:0:
96,384,281626,5,2,0:0:0:0:
104,384,281645,1,0,0:0:0:0:
256,384,281703,1,0,0:0:0:0:
504,384,281770,1,0,0:0:0:0:
512,384,281780,1,0,0:0:0:0:
504,384,281799,1,0,0:0:0:0:
8,320,281847,1,0,0:0:0:0:
0,320,281857,1,2,0:0:0:0:
8,320,281876,1,0,0:0:0:0:
256,320,281934,1,0,0:0:0:0:
408,320,282001,1,0,0:0:0:0:
416,320,282011,1,0,0:0:0:0:
408,320,282030,1,0,0:0:0:0:
104,192,282078,1,0,0:0:0:0:
96,192,282088,1,2,0:0:0:0:
104,192,282107,1,0,0:0:0:0:
416,192,282164,1,0,0:0:0:0:
504,0,282232,1,0,0:0:0:0:
512,0,282241,5,2,0:0:0:0:
504,0,282261,1,0,0:0:0:0:
384,0,282280,1,0,0:0:0:0:
256,0,282318,1,0,0:0:0:0:
128,0,282357,1,0,0:0:0:0:
8,0,282386,1,0,0:0:0:0:
0,0,282395,1,0,0:0:0:0:
8,0,282414,1,0,0:0:0:0:
128,0,282434,1,0,0:0:0:0:
256,0,282472,1,2,0:0:0:0:
384,0,282511,1,0,0:0:0:0:
504,384,282539,1,0,0:0:0:0:
512,384,282549,1,0,0:0:0:0:
504,384,282568,1,0,0:0:0:0:
384,384,282588,1,0,0:0:0:0:
256,384,282626,1,0,0:0:0:0:
128,384,282664,1,0,0:0:0:0:
8,384,282693,1,0,0:0:0:0:
0,384,282703,1,2,0:0:0:0:
8,384,282722,1,0,0:0:0:0:
128,384,282741,1,0,0:0:0:0:
256,384,282780,1,0,0:0:0:0:
384,384,282818,1,0,0:0:0:0:
504,0,282847,1,0,0:0:0:0:
512,0,282857,5,2,0:0:0:0:
504,0,282876,1,0,0:0:0:0:
384,0,282895,1,0,0:0:0:0:
256,0,282934,1,0,0:0:0:0:
128,0,282972,1,0,0:0:0:0:
8,0,283001,1,0,0:0:0:0:
0,0,283011,1,0,0:0:0:0:
8,0,283030,1,0,0:0:0:0:
128,0,283049,1,0,0:0:0:0:
256,0,283088,1,2,0:0:0:0:
384,0,283126,1,0,0:0:0:0:
504,384,283155,1,0,0:0:0:0:
512,384,283164,1,0,0:0:0:0:
504,384,283184,1,0,0:0:0:0:
384,384,283203,1,0,0:0:0:0:
256,384,283241,1,0,0:0:0:0:
128,384,283280,1,0,0:0:0:0:
8,384,283309,1,0,0:0:0:0:
0,384,283318,1,2,0:0:0:0:
8,384,283338,1,0,0:0:0:0:
128,384,283357,1,0,0:0:0:0:
256,384,283395,1,0,0:0:0:0:
384,384,283434,1,0,0:0:0:0:
504,128,283463,1,0,0:0:0:0:
512,128,283472,5,2,0:0:0:0:
504,128,283491,1,0,0:0:0:0:
384,128,283511,1,0,0:0:0:0:
256,128,283549,1,0,0:0:0:0:
128,128,283588,1,0,0:0:0:0:
8,128,283616,1,0,0:0:0:0:
0,128,283626,1,0,0:0:0:0:
8,128,283645,1,0,0:0:0:0:
128,96,283664,1,0,0:0:0:0:
504,128,283693,1,0,0:0:0:0:
512,128,283703,1,2,0:0:0:0:
504,128,283722,1,0,0:0:0:0:
384,64,283741,1,0,0:0:0:0:
256,64,283780,1,0,0:0:0:0:
128,64,283818,1,0,0:0:0:0:
8,128,283847,1,0,0:0:0:0:
0,128,283857,1,0,0:0:0:0:
8,128,283876,1,0,0:0:0:0:
384,32,283895,1,0,0:0:0:0:
504,128,283924,1,0,0:0:0:0:
512,128,283934,1,2,0:0:0:0:
504,128,283953,1,0,0:0:0:0:
384,0,283972,1,0,0:0:0:0:
256,0,284011,1,0,0:0:0:0:
128,0,284049,1,0,0:0:0:0:
8,256,284078,1,0,0:0:0:0:
0,256,284088,5,2,0:0:0:0:
8,256,284107,1,0,0:0:0:0:
128,256,284126,1,0,0:0:0:0:
256,256,284164,1,0,0:0:0:0:
384,256,284203,1,0,0:0:0:0:
504,256,284232,1,0,0:0:0:0:
512,256,284241,1,0,0:0:0:0:
504,256,284261,1,0,0:0:0:0:
192,288,284280,1,0,0:0:0:0:
8,256,284309,1,0,0:0:0:0:
0,256,284318,1,2,0:0:0:0:
8,256,284338,1,0,0:0:0:0:
128,320,284357,1,0,0:0:0:0:
256,320,284395,1,0,0:0:0:0:
384,320,284434,1,0,0:0:0:0:
504,256,284463,1,0,0:0:0:0:
512,256,284472,1,0,0:0:0:0:
504,256,284491,1,0,0:0:0:0:
320,352,284511,1,0,0:0:0:0:
8,256,284539,1,0,0:0:0:0:
0,256,284549,1,2,0:0:0:0:
8,256,284568,1,0,0:0:0:0:
128,384,284588,1,0,0:0:0:0:
256,384,284626,1,0,0:0:0:0:
384,384,284664,1,0,0:0:0:0:
504,0,284693,1,0,0:0:0:0:
512,0,284703,5,2,0:0:0:0:
504,0,284722,1,0,0:0:0:0:
384,0,284741,1,0,0:0:0:0:
256,0,284780,1,0,0:0:0:0:
128,0,284818,1,0,0:0:0:0:
8,0,284847,1,0,0:0:0:0:
0,0,284857,1,0,0:0:0:0:
8,0,284876,1,0,0:0:0:0:
128,0,284895,1,0,0:0:0:0:
256,0,284934,1,2,0:0:0:0:
384,0,284972,1,0,0:0:0:0:
504,384,285001,1,0,0:0:0:0:
512,384,285011,1,0,0:0:0:0:
504,384,285030,1,0,0:0:0:0:
384,384,285049,1,0,0:0:0:0:
256,384,285088,1,0,0:0:0:0:
128,384,285126,1,0,0:0:0:0:
8,384,285155,1,0,0:0:0:0:
0,384,285164,1,2,0:0:0:0:
8,384,285184,1,0,0:0:0:0:
128,384,285203,1,0,0:0:0:0:
256,384,285241,1,0,0:0:0:0:
384,384,285280,1,0,0:0:0:0:
504,0,285309,1,0,0:0:0:0:
512,0,285318,5,2,0:0:0:0:
504,0,285338,1,0,0:0:0:0:
384,0,285357,1,0,0:0:0:0:
256,0,285395,1,0,0:0:0:0:
128,0,285434,1,0,0:0:0:0:
8,0,285463,1,0,0:0:0:0:
0,0,285472,1,0,0:0:0:0:
8,0,285491,1,0,0:0:0:0:
128,0,285511,1,0,0:0:0:0:
256,0,285549,1,2,0:0:0:0:
384,0,285588,1,0,0:0:0:0:
504,0,285616,1,0,0:0:0:0:
512,88,285626,6,12,L|512:128,17,31.25,12|12|12|12|12|12|12|12|2|12|12|12|12|12|12|12|12|12,0:0|0:0|0:0|0:0|0:0|0:0|0:0|0:0|0:0|0:0|0:0|0:0|0:0|0:0|0:0|0:0|0:0|0:0,0:0:0:0:
496,144,285972,5,0,0:0:0:0:
488,168,285991,1,0,0:0:0:0:
480,184,286011,1,0,0:0:0:0:
296,144,286030,1,0,0:0:0:0:
280,168,286049,1,0,0:0:0:0:
264,192,286068,1,0,0:0:0:0:
56,128,286088,1,0,0:0:0:0:
40,160,286107,1,0,0:0:0:0:
32,192,286126,1,0,0:0:0:0:
40,232,286145,1,0,0:0:0:0:
52,264,286164,1,0,0:0:0:0:
68,296,286184,1,0,0:0:0:0:
256,320,286203,1,0,0:0:0:0:
280,296,286222,1,0,0:0:0:0:
456,356,286241,5,8,0:0:0:0:
472,328,286261,1,0,0:0:0:0:
488,296,286280,1,0,0:0:0:0:
496,256,286299,1,0,0:0:0:0:
488,216,286318,1,0,0:0:0:0:
480,184,286338,1,0,0:0:0:0:
456,152,286357,1,0,0:0:0:0:
152,96,286376,1,0,0:0:0:0:
136,128,286395,1,0,0:0:0:0:
128,160,286414,1,0,0:0:0:0:
136,200,286434,1,0,0:0:0:0:
144,232,286453,1,0,0:0:0:0:
156,264,286472,1,0,0:0:0:0:
168,296,286491,1,0,0:0:0:0:
184,328,286511,1,0,0:0:0:0:
384,296,286530,1,0,0:0:0:0:
408,256,286549,1,8,0:0:0:0:
416,216,286568,5,0,0:0:0:0:
408,176,286588,1,0,0:0:0:0:
400,144,286607,1,0,0:0:0:0:
388,112,286626,1,0,0:0:0:0:
376,72,286645,1,0,0:0:0:0:
360,36,286664,1,0,0:0:0:0:
96,96,286684,1,0,0:0:0:0:
80,128,286703,1,0,0:0:0:0:
72,160,286722,1,0,0:0:0:0:
80,200,286741,1,0,0:0:0:0:
88,232,286761,1,0,0:0:0:0:
96,264,286780,1,0,0:0:0:0:
108,296,286799,1,0,0:0:0:0:
128,336,286818,1,0,0:0:0:0:
440,296,286838,1,0,0:0:0:0:
464,256,286857,5,8,0:0:0:0:
472,216,286876,1,0,0:0:0:0:
464,176,286895,1,0,0:0:0:0:
456,144,286914,1,0,0:0:0:0:
444,112,286934,1,0,0:0:0:0:
432,72,286953,1,0,0:0:0:0:
412,24,286972,1,0,0:0:0:0:
48,96,286991,1,0,0:0:0:0:
32,128,287011,1,0,0:0:0:0:
24,160,287030,1,0,0:0:0:0:
32,200,287049,1,0,0:0:0:0:
40,232,287068,1,0,0:0:0:0:
52,264,287088,1,0,0:0:0:0:
64,296,287107,1,0,0:0:0:0:
80,332,287126,1,0,0:0:0:0:
472,296,287145,1,0,0:0:0:0:
496,256,287164,5,8,0:0:0:0:
504,216,287184,1,0,0:0:0:0:
496,176,287203,1,0,0:0:0:0:
488,144,287222,1,0,0:0:0:0:
476,112,287241,1,0,0:0:0:0:
460,76,287261,1,0,0:0:0:0:
440,36,287280,1,0,0:0:0:0:
152,364,287299,1,0,0:0:0:0:
128,336,287318,1,0,0:0:0:0:
112,304,287338,1,0,0:0:0:0:
104,272,287357,1,0,0:0:0:0:
96,232,287376,1,0,0:0:0:0:
92,196,287395,1,0,0:0:0:0:
92,160,287414,1,0,0:0:0:0:
96,128,287434,1,0,0:0:0:0:
104,88,287453,1,0,0:0:0:0:
116,64,287472,5,8,0:0:0:0:
132,32,287491,1,0,0:0:0:0:
152,4,287511,1,0,0:0:0:0:
360,364,287530,1,0,0:0:0:0:
384,336,287549,1,0,0:0:0:0:
400,304,287568,1,0,0:0:0:0:
408,272,287588,1,0,0:0:0:0:
416,232,287607,1,0,0:0:0:0:
420,196,287626,1,0,0:0:0:0:
420,160,287645,1,0,0:0:0:0:
416,128,287664,1,0,0:0:0:0:
408,88,287684,1,0,0:0:0:0:
396,64,287703,1,0,0:0:0:0:
380,32,287722,1,0,0:0:0:0:
360,4,287741,1,0,0:0:0:0:
20,344,287761,1,0,0:0:0:0:
20,300,287780,5,8,0:0:0:0:
20,256,287799,1,0,0:0:0:0:
20,256,287818,1,0,0:0:0:0:
20,256,287838,1,0,0:0:0:0:
20,256,287857,1,0,0:0:0:0:
20,256,287876,1,0,0:0:0:0:
20,256,287895,1,0,0:0:0:0:
20,256,287914,1,0,0:0:0:0:
40,256,287934,1,0,0:0:0:0:
224,280,287953,1,0,0:0:0:0:
224,280,287972,1,0,0:0:0:0:
224,280,287991,1,0,0:0:0:0:
224,280,288011,1,0,0:0:0:0:
224,280,288030,1,0,0:0:0:0:
224,280,288049,1,0,0:0:0:0:
224,280,288068,1,0,0:0:0:0:
224,280,288088,5,8,0:0:0:0:
248,280,288107,1,0,0:0:0:0:
456,308,288126,1,0,0:0:0:0:
456,308,288145,1,0,0:0:0:0:
456,308,288164,1,0,0:0:0:0:
456,308,288184,1,0,0:0:0:0:
456,308,288203,1,0,0:0:0:0:
456,308,288222,1,0,0:0:0:0:
456,308,288241,1,0,0:0:0:0:
456,308,288261,1,0,0:0:0:0:
456,308,288280,1,0,0:0:0:0:
424,308,288299,1,0,0:0:0:0:
144,244,288318,1,0,0:0:0:0:
120,200,288338,1,0,0:0:0:0:
104,156,288357,1,0,0:0:0:0:
96,112,288376,1,0,0:0:0:0:
100,72,288395,5,8,0:0:0:0:
112,32,288414,1,0,0:0:0:0:
128,4,288434,1,0,0:0:0:0:
368,244,288453,1,0,0:0:0:0:
392,200,288472,1,0,0:0:0:0:
408,156,288491,1,0,0:0:0:0:
416,112,288511,1,0,0:0:0:0:
412,72,288530,1,0,0:0:0:0:
400,32,288549,1,0,0:0:0:0:
384,4,288568,1,0,0:0:0:0:
84,248,288588,1,0,0:0:0:0:
60,204,288607,1,0,0:0:0:0:
44,160,288626,1,0,0:0:0:0:
36,116,288645,1,0,0:0:0:0:
40,76,288664,1,0,0:0:0:0:
52,36,288684,1,0,0:0:0:0:
68,8,288703,5,8,0:0:0:0:
424,248,288722,1,0,0:0:0:0:
448,204,288741,1,0,0:0:0:0:
464,160,288761,1,0,0:0:0:0:
472,116,288780,1,0,0:0:0:0:
468,76,288799,1,0,0:0:0:0:
456,36,288818,1,0,0:0:0:0:
440,8,288838,1,0,0:0:0:0:
176,348,288857,1,0,0:0:0:0:
164,312,288876,1,0,0:0:0:0:
152,272,288895,1,0,0:0:0:0:
144,244,288914,1,0,0:0:0:0:
136,208,288934,1,0,0:0:0:0:
128,176,288953,1,0,0:0:0:0:
120,140,288972,1,0,0:0:0:0:
112,108,288991,1,0,0:0:0:0:
104,72,289011,5,8,0:0:0:0:
104,40,289030,1,0,0:0:0:0:
104,12,289049,1,0,0:0:0:0:
112,12,289068,1,0,0:0:0:0:
116,12,289088,1,0,0:0:0:0:
132,12,289107,1,0,0:0:0:0:
244,48,289126,1,0,0:0:0:0:
264,80,289145,1,0,0:0:0:0:
288,112,289164,1,0,0:0:0:0:
404,360,289184,1,0,0:0:0:0:
416,324,289203,1,0,0:0:0:0:
428,284,289222,1,0,0:0:0:0:
436,256,289241,1,0,0:0:0:0:
444,220,289261,1,0,0:0:0:0:
452,188,289280,1,0,0:0:0:0:
460,152,289299,1,0,0:0:0:0:
468,120,289318,5,8,0:0:0:0:
476,84,289338,1,0,0:0:0:0:
476,52,289357,1,0,0:0:0:0:
476,24,289376,1,0,0:0:0:0:
468,24,289395,1,0,0:0:0:0:
464,24,289414,1,0,0:0:0:0:
448,24,289434,1,0,0:0:0:0:
272,20,289453,1,0,0:0:0:0:
244,60,289472,1,0,0:0:0:0:
216,96,289491,1,0,0:0:0:0:
80,360,289511,1,0,0:0:0:0:
68,324,289530,1,0,0:0:0:0:
56,284,289549,1,0,0:0:0:0:
48,256,289568,1,0,0:0:0:0:
40,220,289588,1,0,0:0:0:0:
32,188,289607,1,0,0:0:0:0:
24,152,289626,5,8,0:0:0:0:
16,120,289645,1,0,0:0:0:0:
8,84,289664,1,0,0:0:0:0:
8,52,289684,1,0,0:0:0:0:
8,24,289703,1,0,0:0:0:0:
16,24,289722,1,0,0:0:0:0:
20,24,289741,1,0,0:0:0:0:
36,24,289761,1,0,0:0:0:0:
364,296,289780,1,0,0:0:0:0:
388,252,289799,1,0,0:0:0:0:
404,208,289818,1,0,0:0:0:0:
412,164,289838,1,0,0:0:0:0:
408,124,289857,1,0,0:0:0:0:
396,84,289876,1,0,0:0:0:0:
380,56,289895,1,0,0:0:0:0:
148,296,289914,1,0,0:0:0:0:
124,252,289934,5,8,0:0:0:0:
108,208,289953,1,0,0:0:0:0:
100,164,289972,1,0,0:0:0:0:
104,124,289991,1,0,0:0:0:0:
116,84,290011,1,0,0:0:0:0:
132,56,290030,1,0,0:0:0:0:
436,300,290049,1,0,0:0:0:0:
460,256,290068,1,0,0:0:0:0:
476,212,290088,1,0,0:0:0:0:
484,168,290107,1,0,0:0:0:0:
480,128,290126,1,0,0:0:0:0:
468,88,290145,1,0,0:0:0:0:
452,60,290164,1,0,0:0:0:0:
72,292,290184,1,0,0:0:0:0:
48,248,290203,1,0,0:0:0:0:
32,204,290222,1,0,0:0:0:0:
24,160,290241,5,8,0:0:0:0:
28,120,290261,1,0,0:0:0:0:
40,80,290280,1,0,0:0:0:0:
56,52,290299,1,0,0:0:0:0:
440,360,290318,1,0,0:0:0:0:
452,324,290338,1,0,0:0:0:0:
464,284,290357,1,0,0:0:0:0:
472,256,290376,1,0,0:0:0:0:
480,220,290395,1,0,0:0:0:0:
488,188,290414,1,0,0:0:0:0:
496,152,290434,1,0,0:0:0:0:
504,120,290453,1,0,0:0:0:0:
512,84,290472,1,0,0:0:0:0:
512,52,290491,1,0,0:0:0:0:
512,24,290511,1,0,0:0:0:0:
504,24,290530,1,0,0:0:0:0:
500,24,290549,5,12,0:0:0:0:
484,24,290568,1,0,0:0:0:0:
224,280,290588,1,0,0:0:0:0:
224,280,290607,1,0,0:0:0:0:
224,280,290626,1,0,0:0:0:0:
224,280,290645,1,0,0:0:0:0:
224,280,290664,1,0,0:0:0:0:
224,280,290684,1,0,0:0:0:0:
200,280,290703,1,12,0:0:0:0:
0,168,290722,1,0,0:0:0:0:
0,168,290741,1,0,0:0:0:0:
0,168,290761,1,0,0:0:0:0:
0,168,290780,1,0,0:0:0:0:
0,168,290799,1,0,0:0:0:0:
0,168,290818,1,0,0:0:0:0:
0,168,290838,1,0,0:0:0:0:
352,120,290856,1,12,0:0:0:0:
360,152,290875,1,0,0:0:0:0:
352,192,290895,1,0,0:0:0:0:
344,224,290914,1,0,0:0:0:0:
336,256,290933,1,0,0:0:0:0:
328,288,290952,1,0,0:0:0:0:
312,324,290972,1,0,0:0:0:0:
176,84,290991,1,0,0:0:0:0:
160,116,291010,1,0,0:0:0:0:
152,148,291029,1,0,0:0:0:0:
160,188,291049,1,0,0:0:0:0:
168,220,291068,1,0,0:0:0:0:
176,252,291087,1,0,0:0:0:0:
184,284,291106,1,0,0:0:0:0:
200,324,291125,5,0,0:0:0:0:
372,88,291145,1,0,0:0:0:0:
388,120,291164,1,8,0:0:0:0:
396,152,291183,1,0,0:0:0:0:
388,192,291202,1,0,0:0:0:0:
380,224,291222,1,0,0:0:0:0:
372,256,291241,1,0,0:0:0:0:
360,288,291260,1,0,0:0:0:0:
340,328,291279,1,0,0:0:0:0:
140,92,291299,1,0,0:0:0:0:
124,124,291318,1,0,0:0:0:0:
116,156,291337,1,0,0:0:0:0:
124,196,291356,1,0,0:0:0:0:
132,228,291375,1,0,0:0:0:0:
140,260,291395,1,0,0:0:0:0:
152,292,291414,1,0,0:0:0:0:
172,332,291433,5,0,0:0:0:0:
404,88,291452,1,0,0:0:0:0:
420,120,291472,1,8,0:0:0:0:
428,152,291491,1,0,0:0:0:0:
420,192,291510,1,0,0:0:0:0:
412,224,291529,1,0,0:0:0:0:
404,256,291549,1,0,0:0:0:0:
392,288,291568,1,0,0:0:0:0:
376,328,291587,1,0,0:0:0:0:
104,92,291606,1,0,0:0:0:0:
88,124,291625,1,0,0:0:0:0:
80,156,291645,1,0,0:0:0:0:
88,196,291664,1,0,0:0:0:0:
96,228,291683,1,0,0:0:0:0:
104,260,291702,1,0,0:0:0:0:
116,292,291722,1,0,0:0:0:0:
136,332,291741,5,0,0:0:0:0:
432,92,291760,1,0,0:0:0:0:
448,124,291779,1,8,0:0:0:0:
456,156,291799,1,0,0:0:0:0:
448,196,291818,1,0,0:0:0:0:
440,228,291837,1,0,0:0:0:0:
432,260,291856,1,0,0:0:0:0:
420,292,291875,1,0,0:0:0:0:
400,332,291895,1,0,0:0:0:0:
76,96,291914,1,0,0:0:0:0:
60,128,291933,1,0,0:0:0:0:
52,160,291952,1,0,0:0:0:0:
60,200,291972,1,0,0:0:0:0:
68,232,291991,1,0,0:0:0:0:
76,264,292010,1,0,0:0:0:0:
88,296,292029,1,0,0:0:0:0:
108,336,292049,5,0,0:0:0:0:
456,92,292068,1,0,0:0:0:0:
472,124,292087,1,8,0:0:0:0:
480,156,292106,1,0,0:0:0:0:
476,196,292125,1,0,0:0:0:0:
468,228,292145,1,0,0:0:0:0:
460,260,292164,1,0,0:0:0:0:
448,292,292183,1,0,0:0:0:0:
428,332,292202,1,0,0:0:0:0:
56,100,292222,1,0,0:0:0:0:
40,132,292241,1,0,0:0:0:0:
32,164,292260,1,0,0:0:0:0:
40,204,292279,1,0,0:0:0:0:
48,236,292299,1,0,0:0:0:0:
56,268,292318,1,0,0:0:0:0:
68,300,292337,1,0,0:0:0:0:
88,340,292356,5,0,0:0:0:0:
472,100,292375,1,0,0:0:0:0:
488,132,292395,1,8,0:0:0:0:
496,164,292414,1,0,0:0:0:0:
488,204,292433,1,0,0:0:0:0:
480,236,292452,1,0,0:0:0:0:
472,268,292472,1,0,0:0:0:0:
460,300,292491,1,0,0:0:0:0:
440,340,292510,1,0,0:0:0:0:
44,96,292529,1,0,0:0:0:0:
28,128,292549,1,0,0:0:0:0:
20,160,292568,1,0,0:0:0:0:
28,200,292587,1,0,0:0:0:0:
36,232,292606,1,0,0:0:0:0:
44,264,292625,1,0,0:0:0:0:
56,296,292645,1,0,0:0:0:0:
76,336,292664,5,0,0:0:0:0:
488,104,292683,1,0,0:0:0:0:
504,136,292702,1,8,0:0:0:0:
512,168,292722,1,0,0:0:0:0:
504,208,292741,1,0,0:0:0:0:
496,240,292760,1,0,0:0:0:0:
488,272,292779,1,0,0:0:0:0:
476,304,292799,1,0,0:0:0:0:
456,344,292818,1,0,0:0:0:0:
24,100,292837,1,0,0:0:0:0:
8,132,292856,1,0,0:0:0:0:
0,164,292875,1,0,0:0:0:0:
8,204,292895,1,0,0:0:0:0:
16,236,292914,1,0,0:0:0:0:
24,268,292933,1,0,0:0:0:0:
36,300,292952,1,0,0:0:0:0:
56,340,292972,1,0,0:0:0:0:
488,104,292991,5,0,0:0:0:0:
504,136,293011,1,8,0:0:0:0:
512,168,293029,1,0,0:0:0:0:
504,208,293049,1,0,0:0:0:0:
496,240,293068,1,0,0:0:0:0:
488,272,293087,1,0,0:0:0:0:
476,304,293106,1,0,0:0:0:0:
456,344,293125,1,0,0:0:0:0:
24,100,293145,1,0,0:0:0:0:
8,132,293164,1,0,0:0:0:0:
0,164,293183,1,0,0:0:0:0:
8,204,293203,1,0,0:0:0:0:
16,236,293222,1,0,0:0:0:0:
24,268,293241,1,0,0:0:0:0:
36,300,293260,1,0,0:0:0:0:
512,80,293280,1,0,0:0:0:0:
504,80,293299,1,0,0:0:0:0:
496,80,293318,5,8,0:0:0:0:
488,80,293338,1,0,0:0:0:0:
480,80,293357,1,0,0:0:0:0:
472,80,293376,1,0,0:0:0:0:
192,80,293395,1,0,0:0:0:0:
184,80,293414,1,0,0:0:0:0:
0,80,293434,1,0,0:0:0:0:
7,80,293453,1,0,0:0:0:0:
14,80,293472,1,0,0:0:0:0:
21,80,293491,1,0,0:0:0:0:
512,304,293511,1,0,0:0:0:0:
504,304,293530,1,0,0:0:0:0:
496,304,293549,1,0,0:0:0:0:
488,304,293568,1,0,0:0:0:0:
480,304,293588,1,0,0:0:0:0:
472,304,293607,1,0,0:0:0:0:
328,304,293626,5,8,0:0:0:0:
320,304,293645,1,0,0:0:0:0:
0,304,293664,1,0,0:0:0:0:
7,304,293684,1,0,0:0:0:0:
14,304,293703,1,0,0:0:0:0:
21,304,293722,1,0,0:0:0:0:
512,192,293741,1,0,0:0:0:0:
504,192,293761,1,0,0:0:0:0:
496,192,293780,1,0,0:0:0:0:
488,192,293799,1,0,0:0:0:0:
368,192,293818,1,0,0:0:0:0:
224,192,293838,1,0,0:0:0:0:
216,192,293857,1,0,0:0:0:0:
112,192,293876,1,0,0:0:0:0:
0,80,293895,1,0,0:0:0:0:
8,80,293914,1,0,0:0:0:0:
16,80,293934,5,8,0:0:0:0:
24,80,293953,1,0,0:0:0:0:
144,80,293972,1,0,0:0:0:0:
152,80,293991,1,0,0:0:0:0:
256,80,294011,1,0,0:0:0:0:
263,80,294030,1,0,0:0:0:0:
512,80,294049,1,0,0:0:0:0:
505,80,294068,1,0,0:0:0:0:
498,80,294088,1,0,0:0:0:0:
491,80,294107,1,0,0:0:0:0:
0,304,294126,1,0,0:0:0:0:
8,304,294145,1,0,0:0:0:0:
16,304,294164,1,0,0:0:0:0:
24,304,294184,1,0,0:0:0:0:
144,304,294203,1,0,0:0:0:0:
360,304,294222,1,0,0:0:0:0:
367,304,294241,5,8,0:0:0:0:
374,304,294261,1,0,0:0:0:0:
512,304,294280,1,0,0:0:0:0:
505,304,294299,1,0,0:0:0:0:
498,304,294318,1,0,0:0:0:0:
491,304,294338,1,0,0:0:0:0:
0,192,294357,1,0,0:0:0:0:
8,192,294376,1,0,0:0:0:0:
16,192,294395,1,0,0:0:0:0:
24,192,294414,1,0,0:0:0:0:
128,192,294434,1,0,0:0:0:0:
224,192,294453,1,0,0:0:0:0:
320,192,294472,1,0,0:0:0:0:
416,192,294491,1,0,0:0:0:0:
496,192,294511,1,0,0:0:0:0:
504,192,294530,1,0,0:0:0:0:
512,192,294549,5,8,0:0:0:0:
504,192,294568,1,0,0:0:0:0:
412,112,294588,1,0,0:0:0:0:
313,112,294607,1,0,0:0:0:0:
214,112,294626,1,0,0:0:0:0:
116,112,294645,1,0,0:0:0:0:
16,192,294664,1,0,0:0:0:0:
8,192,294684,1,0,0:0:0:0:
0,192,294703,5,8,0:0:0:0:
8,192,294722,1,0,0:0:0:0:
256,192,294732,1,0,0:0:0:0:
496,192,294741,1,0,0:0:0:0:
504,192,294761,1,0,0:0:0:0:
512,192,294780,1,8,0:0:0:0:
504,192,294799,1,0,0:0:0:0:
256,192,294809,1,0,0:0:0:0:
16,192,294818,1,0,0:0:0:0:
8,192,294838,1,0,0:0:0:0:
0,192,294857,5,8,0:0:0:0:
8,192,294876,1,0,0:0:0:0:
100,272,294895,1,0,0:0:0:0:
199,272,294914,1,0,0:0:0:0:
298,272,294934,1,0,0:0:0:0:
396,272,294953,1,0,0:0:0:0:
496,192,294972,1,0,0:0:0:0:
504,192,294991,1,0,0:0:0:0:
512,192,295011,5,8,0:0:0:0:
504,192,295030,1,0,0:0:0:0:
256,192,295039,1,0,0:0:0:0:
16,192,295049,1,0,0:0:0:0:
8,192,295068,1,0,0:0:0:0:
0,192,295088,1,8,0:0:0:0:
8,192,295107,1,0,0:0:0:0:
256,192,295116,1,0,0:0:0:0:
496,192,295126,1,0,0:0:0:0:
504,192,295145,1,0,0:0:0:0:
512,192,295164,5,8,0:0:0:0:
504,192,295184,1,0,0:0:0:0:
412,112,295203,1,0,0:0:0:0:
313,112,295222,1,0,0:0:0:0:
214,112,295241,1,0,0:0:0:0:
116,112,295261,1,0,0:0:0:0:
16,192,295280,1,0,0:0:0:0:
8,192,295299,1,0,0:0:0:0:
0,192,295318,5,8,0:0:0:0:
8,192,295338,1,0,0:0:0:0:
256,192,295347,1,0,0:0:0:0:
496,192,295357,1,0,0:0:0:0:
504,192,295376,1,0,0:0:0:0:
512,192,295395,1,8,0:0:0:0:
504,192,295414,1,0,0:0:0:0:
256,192,295424,1,0,0:0:0:0:
16,192,295434,1,0,0:0:0:0:
8,192,295453,1,0,0:0:0:0:
0,192,295472,5,8,0:0:0:0:
8,192,295491,1,0,0:0:0:0:
256,192,295501,1,0,0:0:0:0:
496,192,295511,1,0,0:0:0:0:
504,192,295530,1,0,0:0:0:0:
512,192,295549,1,8,0:0:0:0:
504,192,295568,1,0,0:0:0:0:
256,192,295578,1,0,0:0:0:0:
16,192,295588,1,0,0:0:0:0:
8,192,295607,1,0,0:0:0:0:
0,192,295626,5,8,0:0:0:0:
8,192,295645,1,0,0:0:0:0:
100,272,295664,1,0,0:0:0:0:
199,272,295684,1,0,0:0:0:0:
298,272,295703,1,0,0:0:0:0:
396,272,295722,1,0,0:0:0:0:
496,192,295741,1,0,0:0:0:0:
504,192,295761,1,0,0:0:0:0:
512,192,295780,5,12,0:0:0:0:
480,80,295933,1,0,0:0:0:0:
256,208,296087,1,0,0:0:0:0:
392,208,296241,1,0,0:0:0:0:
256,208,296318,1,0,0:0:0:0:
112,208,296395,1,8,0:0:0:0:
256,208,296549,1,0,0:0:0:0:
112,208,296703,1,0,0:0:0:0:
256,208,296856,1,0,0:0:0:0:
176,208,296933,1,0,0:0:0:0:
256,208,297010,5,12,0:0:0:0:
408,208,297164,1,0,0:0:0:0:
256,208,297318,1,0,0:0:0:0:
408,208,297472,1,0,0:0:0:0:
328,208,297549,1,0,0:0:0:0:
112,208,297626,1,8,0:0:0:0:
256,208,297780,1,0,0:0:0:0:
80,208,297933,1,0,0:0:0:0:
224,152,298087,1,0,0:0:0:0:
304,152,298164,1,0,0:0:0:0:
456,152,298241,5,8,0:0:0:0:
296,208,298395,1,0,0:0:0:0:
120,208,298549,1,0,0:0:0:0:
264,152,298703,1,0,0:0:0:0:
352,152,298780,1,0,0:0:0:0:
432,152,298856,1,8,0:0:0:0:
264,152,299010,1,0,0:0:0:0:
432,152,299164,1,0,0:0:0:0:
184,156,299318,1,0,0:0:0:0:
264,152,299395,1,0,0:0:0:0:
184,156,299472,5,8,0:0:0:0:
352,152,299626,1,0,0:0:0:0:
184,156,299780,1,0,0:0:0:0:
352,152,299933,1,0,0:0:0:0:
264,152,300010,1,0,0:0:0:0:
352,152,300087,1,8,0:0:0:0:
184,156,300241,1,0,0:0:0:0:
32,160,300395,1,8,0:0:0:0:
184,216,300549,2,8,L|264:216,2,74.9999977111817
344,216,300856,5,0,0:0:0:0:
496,216,301010,1,0,0:0:0:0:
336,216,301164,2,8,L|256:216,2,74.9999977111817
176,216,301472,1,0,0:0:0:0:
16,216,301626,1,0,0:0:0:0:
344,160,301780,1,0,0:0:0:0:
424,160,301856,1,0,0:0:0:0:
344,160,301933,5,8,0:0:0:0:
200,152,302087,1,0,0:0:0:0:
40,152,302241,1,0,0:0:0:0:
432,88,302395,2,8,L|520:88,2,74.9999977111817
216,88,302703,1,0,0:0:0:0:
0,88,302856,1,0,0:0:0:0:
224,112,303010,2,8,L|112:112,2,74.9999977111817
496,96,303318,5,0,0:0:0:0:
284,96,303472,1,0,0:0:0:0:
64,80,303626,2,8,L|-32:80,2,74.9999977111817
336,80,303933,5,0,0:0:0:0:
176,80,304087,1,0,0:0:0:0:
400,80,304241,2,8,L|496:80,2,74.9999977111817
176,80,304549,1,0,0:0:0:0:
336,80,304703,1,0,0:0:0:0:
112,80,304856,2,8,L|16:80,2,74.9999977111817
192,80,305087,1,0,0:0:0:0:
416,80,305241,2,8,L|483:111,1,74.9999977111817
272,80,305395,2,8,L|204:48,1,74.9999977111817
416,32,305549,6,12,L|483:63,1,74.9999977111817
272,160,305780,1,0,0:0:0:0:
112,160,305933,1,0,0:0:0:0:
272,96,306087,1,0,0:0:0:0:
192,96,306164,1,0,0:0:0:0:
112,96,306241,1,8,0:0:0:0:
272,240,306395,1,0,0:0:0:0:
112,240,306549,1,0,0:0:0:0:
384,240,306703,1,0,0:0:0:0:
304,240,306780,1,0,0:0:0:0:
224,240,306856,5,8,0:0:0:0:
384,176,307010,1,0,0:0:0:0:
224,176,307164,1,0,0:0:0:0:
496,176,307318,1,0,0:0:0:0:
416,176,307395,1,0,0:0:0:0:
336,176,307472,1,8,0:0:0:0:
496,112,307626,1,0,0:0:0:0:
336,112,307780,1,0,0:0:0:0:
48,112,307933,1,0,0:0:0:0:
128,112,308010,1,0,0:0:0:0:
208,112,308087,5,8,0:0:0:0:
48,224,308241,1,0,0:0:0:0:
208,224,308395,1,0,0:0:0:0:
368,224,308549,1,0,0:0:0:0:
288,224,308626,1,0,0:0:0:0:
368,224,308703,1,8,0:0:0:0:
208,224,308856,1,0,0:0:0:0:
368,224,309010,1,0,0:0:0:0:
208,224,309164,1,0,0:0:0:0:
288,224,309241,1,0,0:0:0:0:
208,224,309318,5,8,0:0:0:0:
48,224,309472,1,0,0:0:0:0:
288,224,309626,1,0,0:0:0:0:
128,224,309780,1,0,0:0:0:0:
208,224,309856,1,0,0:0:0:0:
288,224,309933,1,8,0:0:0:0:
448,224,310087,1,0,0:0:0:0:
208,224,310241,1,8,0:0:0:0:
368,224,310395,1,8,0:0:0:0:
288,224,310472,1,0,0:0:0:0:
208,224,310549,5,12,0:0:0:0:
304,224,310703,1,0,0:0:0:0:
176,224,310856,1,0,0:0:0:0:
336,224,311010,1,0,0:0:0:0:
144,224,311164,1,8,0:0:0:0:
368,224,311318,1,0,0:0:0:0:
144,160,311472,1,0,0:0:0:0:
368,160,311626,1,0,0:0:0:0:
32,80,311780,5,8,0:0:0:0:
256,80,311933,1,0,0:0:0:0:
480,80,312087,1,0,0:0:0:0:
32,80,312241,1,0,0:0:0:0:
256,80,312395,1,8,0:0:0:0:
480,80,312549,1,0,0:0:0:0:
256,80,312703,1,0,0:0:0:0:
32,80,312856,1,0,0:0:0:0:
480,80,313010,6,8,L|480:192,1,74.9999977111817
336,80,313164,2,0,L|336:176,1,74.9999977111817
176,80,313318,2,0,L|176:176,1,74.9999977111817
336,80,313472,2,0,L|336:160,1,74.9999977111817
176,80,313626,2,8,L|176:160,1,74.9999977111817
32,80,313780,2,0,L|32:176,1,74.9999977111817
176,80,313933,2,0,L|176:160,1,74.9999977111817
336,80,314087,2,0,L|336:160,1,74.9999977111817
176,80,314241,6,8,L|176:160,1,74.9999977111817
336,80,314395,2,0,L|336:160,1,74.9999977111817
480,80,314549,2,0,L|480:160,1,74.9999977111817
64,80,314703,2,0,L|32:192,1,74.9999977111817
480,80,314856,2,8,L|448:192,1,74.9999977111817
48,80,315010,2,0,L|16:192,1,74.9999977111817
496,80,315164,2,0,L|464:192,1,74.9999977111817
32,80,315318,2,0,L|0:192,1,74.9999977111817
256,192,315472,5,12,0:0:0:0:
256,192,315626,12,0,320395,0:0:0:0:
