osu file format v14

[General]
AudioFilename: audio.mp3
AudioLeadIn: 0
PreviewTime: 111680
Countdown: 0
SampleSet: Normal
StackLeniency: 0.7
Mode: 3
LetterboxInBreaks: 0
SpecialStyle: 1
WidescreenStoryboard: 1

[Editor]
Bookmarks: 251200
DistanceSpacing: 1
BeatDivisor: 2
GridSize: 8
TimelineZoom: 1.2

[Metadata]
Title:KLASSIKER EINHEIT
TitleUnicode:KLASSIKER EINHEIT
Artist:DJ Sharpnel
ArtistUnicode:DJ Sharpnel
Creator:FrenzyLi
Version:BMS Hard
Source:
Tags:welcome ottack universe stepmania icyworld bms
BeatmapID:940240
BeatmapSetID:434884

[Difficulty]
HPDrainRate:8
CircleSize:8
OverallDifficulty:8
ApproachRate:5
SliderMultiplier:1.4
SliderTickRate:1

[Events]
//Background and Video events
0,0,"klassiker-bg.jpg",0,0
//Break Periods
//Storyboard Layer 0 (Background)
//Storyboard Layer 1 (Fail)
//Storyboard Layer 2 (Pass)
//Storyboard Layer 3 (Foreground)
//Storyboard Sound Samples

[TimingPoints]
0,320,4,1,0,0,1,0
112640,-100,4,1,0,0,0,1
157440,-100,4,1,0,0,0,0
209920,-100,4,1,0,0,0,1
241920,-100,4,1,0,0,0,0

[HitObjects]
32,192,0,5,0,0:0:0:0:
416,192,0,1,0,0:0:0:0:
160,192,0,1,0,0:0:0:0:
96,192,320,1,0,0:0:0:0:
224,192,320,1,0,0:0:0:0:
480,192,320,1,0,0:0:0:0:
288,192,480,1,0,0:0:0:0:
352,192,640,1,0,0:0:0:0:
160,192,640,1,0,0:0:0:0:
416,192,800,1,0,0:0:0:0:
480,192,960,1,0,0:0:0:0:
96,192,960,1,0,0:0:0:0:
224,192,960,1,0,0:0:0:0:
288,192,1120,1,0,0:0:0:0:
160,192,1280,1,0,0:0:0:0:
352,192,1280,1,0,0:0:0:0:
96,192,1600,1,0,0:0:0:0:
224,192,1600,1,0,0:0:0:0:
480,192,1600,1,0,0:0:0:0:
352,192,1760,1,0,0:0:0:0:
160,192,1920,1,0,0:0:0:0:
288,192,1920,1,0,0:0:0:0:
352,192,2080,1,0,0:0:0:0:
96,192,2240,1,0,0:0:0:0:
224,192,2240,1,0,0:0:0:0:
416,192,2240,1,0,0:0:0:0:
480,192,2400,1,0,0:0:0:0:
160,192,2560,1,0,0:0:0:0:
352,192,2560,1,0,0:0:0:0:
96,192,2880,1,0,0:0:0:0:
224,192,2880,1,0,0:0:0:0:
480,192,2880,1,0,0:0:0:0:
416,192,3040,1,0,0:0:0:0:
160,192,3200,1,0,0:0:0:0:
288,192,3200,1,0,0:0:0:0:
352,192,3360,1,0,0:0:0:0:
96,192,3520,1,0,0:0:0:0:
224,192,3520,1,0,0:0:0:0:
480,192,3520,1,0,0:0:0:0:
288,192,3680,1,0,0:0:0:0:
160,192,3840,1,0,0:0:0:0:
352,192,3840,1,0,0:0:0:0:
96,192,4160,1,0,0:0:0:0:
224,192,4160,1,0,0:0:0:0:
480,192,4160,1,0,0:0:0:0:
416,192,4320,1,0,0:0:0:0:
160,192,4480,1,0,0:0:0:0:
288,192,4480,1,0,0:0:0:0:
352,192,4640,1,0,0:0:0:0:
96,192,4800,1,0,0:0:0:0:
480,192,4800,1,0,0:0:0:0:
416,192,4800,1,0,0:0:0:0:
288,192,4960,1,0,0:0:0:0:
224,192,4960,1,0,0:0:0:0:
96,192,5120,1,0,0:0:0:0:
416,192,5120,1,0,0:0:0:0:
288,192,5440,1,0,0:0:0:0:
352,192,5440,1,0,0:0:0:0:
480,192,5440,1,0,0:0:0:0:
96,192,5600,1,0,0:0:0:0:
160,192,5760,1,0,0:0:0:0:
416,192,5760,1,0,0:0:0:0:
224,192,5920,1,0,0:0:0:0:
288,192,6080,1,0,0:0:0:0:
480,192,6080,1,0,0:0:0:0:
352,192,6080,1,0,0:0:0:0:
96,192,6240,1,0,0:0:0:0:
416,192,6400,1,0,0:0:0:0:
224,192,6400,1,0,0:0:0:0:
288,192,6720,1,0,0:0:0:0:
352,192,6720,1,0,0:0:0:0:
480,192,6720,1,0,0:0:0:0:
160,192,6880,1,0,0:0:0:0:
416,192,7040,1,0,0:0:0:0:
224,192,7040,1,0,0:0:0:0:
96,192,7200,1,0,0:0:0:0:
352,192,7360,1,0,0:0:0:0:
480,192,7360,1,0,0:0:0:0:
160,192,7360,1,0,0:0:0:0:
288,192,7520,1,0,0:0:0:0:
416,192,7680,1,0,0:0:0:0:
224,192,7680,1,0,0:0:0:0:
480,192,8000,1,0,0:0:0:0:
352,192,8000,1,0,0:0:0:0:
96,192,8000,1,0,0:0:0:0:
288,192,8160,1,0,0:0:0:0:
416,192,8320,1,0,0:0:0:0:
224,192,8320,1,0,0:0:0:0:
160,192,8480,1,0,0:0:0:0:
480,192,8640,1,0,0:0:0:0:
352,192,8640,1,0,0:0:0:0:
96,192,8640,1,0,0:0:0:0:
224,192,8800,1,0,0:0:0:0:
416,192,8960,1,0,0:0:0:0:
160,192,8960,1,0,0:0:0:0:
480,192,9280,1,0,0:0:0:0:
352,192,9280,1,0,0:0:0:0:
288,192,9280,1,0,0:0:0:0:
96,192,9440,1,0,0:0:0:0:
416,192,9600,1,0,0:0:0:0:
160,192,9600,1,0,0:0:0:0:
224,192,9760,1,0,0:0:0:0:
480,192,9920,1,0,0:0:0:0:
288,192,9920,1,0,0:0:0:0:
96,192,9920,1,0,0:0:0:0:
416,192,10080,1,0,0:0:0:0:
160,192,10080,1,0,0:0:0:0:
352,192,10240,1,0,0:0:0:0:
224,192,10240,1,0,0:0:0:0:
32,192,10240,1,0,0:0:0:0:
96,192,10560,1,0,0:0:0:0:
288,192,10560,1,0,0:0:0:0:
480,192,10560,1,0,0:0:0:0:
416,192,10720,1,0,0:0:0:0:
352,192,10880,1,0,0:0:0:0:
160,192,10880,1,0,0:0:0:0:
224,192,11040,1,0,0:0:0:0:
288,192,11200,1,0,0:0:0:0:
96,192,11200,1,0,0:0:0:0:
480,192,11200,1,0,0:0:0:0:
160,192,11360,1,0,0:0:0:0:
352,192,11520,1,0,0:0:0:0:
224,192,11520,1,0,0:0:0:0:
480,192,11840,1,0,0:0:0:0:
96,192,11840,1,0,0:0:0:0:
160,192,12000,1,0,0:0:0:0:
224,192,12160,1,0,0:0:0:0:
416,192,12160,1,0,0:0:0:0:
352,192,12320,1,0,0:0:0:0:
288,192,12480,1,0,0:0:0:0:
480,192,12480,1,0,0:0:0:0:
96,192,12480,1,0,0:0:0:0:
160,192,12640,1,0,0:0:0:0:
352,192,12800,1,0,0:0:0:0:
224,192,12800,1,0,0:0:0:0:
96,192,13120,1,0,0:0:0:0:
288,192,13120,1,0,0:0:0:0:
480,192,13120,1,0,0:0:0:0:
416,192,13280,1,0,0:0:0:0:
352,192,13440,1,0,0:0:0:0:
160,192,13440,1,0,0:0:0:0:
224,192,13600,1,0,0:0:0:0:
288,192,13760,1,0,0:0:0:0:
96,192,13760,1,0,0:0:0:0:
480,192,13760,1,0,0:0:0:0:
416,192,13920,1,0,0:0:0:0:
352,192,14080,1,0,0:0:0:0:
224,192,14080,1,0,0:0:0:0:
96,192,14400,1,0,0:0:0:0:
480,192,14400,1,0,0:0:0:0:
288,192,14400,1,0,0:0:0:0:
416,192,14560,1,0,0:0:0:0:
352,192,14720,1,0,0:0:0:0:
160,192,14720,1,0,0:0:0:0:
224,192,14880,1,0,0:0:0:0:
288,192,15040,1,0,0:0:0:0:
96,192,15040,1,0,0:0:0:0:
480,192,15040,1,0,0:0:0:0:
160,192,15200,1,0,0:0:0:0:
416,192,15200,1,0,0:0:0:0:
224,192,15360,1,0,0:0:0:0:
352,192,15360,1,0,0:0:0:0:
480,192,15680,1,0,0:0:0:0:
288,192,15680,1,0,0:0:0:0:
96,192,15680,1,0,0:0:0:0:
416,192,15840,1,0,0:0:0:0:
352,192,16000,1,0,0:0:0:0:
160,192,16000,1,0,0:0:0:0:
416,192,16160,1,0,0:0:0:0:
480,192,16320,1,0,0:0:0:0:
96,192,16320,1,0,0:0:0:0:
288,192,16320,1,0,0:0:0:0:
160,192,16480,1,0,0:0:0:0:
224,192,16640,1,0,0:0:0:0:
352,192,16640,1,0,0:0:0:0:
480,192,16960,1,0,0:0:0:0:
288,192,16960,1,0,0:0:0:0:
96,192,16960,1,0,0:0:0:0:
160,192,17120,1,0,0:0:0:0:
224,192,17280,1,0,0:0:0:0:
352,192,17280,1,0,0:0:0:0:
160,192,17440,1,0,0:0:0:0:
96,192,17600,1,0,0:0:0:0:
480,192,17600,1,0,0:0:0:0:
416,192,17600,1,0,0:0:0:0:
288,192,17760,1,0,0:0:0:0:
352,192,17920,1,0,0:0:0:0:
224,192,17920,1,0,0:0:0:0:
416,192,18080,1,0,0:0:0:0:
160,192,18080,1,0,0:0:0:0:
288,192,18240,1,0,0:0:0:0:
480,192,18240,1,0,0:0:0:0:
96,192,18240,1,0,0:0:0:0:
402,192,18400,1,0,0:0:0:0:
224,192,18400,1,0,0:0:0:0:
352,192,18560,1,0,0:0:0:0:
160,192,18560,1,0,0:0:0:0:
416,192,18720,1,0,0:0:0:0:
224,192,18720,1,0,0:0:0:0:
288,192,18880,1,0,0:0:0:0:
96,192,18880,1,0,0:0:0:0:
480,192,18880,1,0,0:0:0:0:
416,192,19040,1,0,0:0:0:0:
160,192,19040,1,0,0:0:0:0:
352,192,19200,1,0,0:0:0:0:
224,192,19200,1,0,0:0:0:0:
160,192,19360,1,0,0:0:0:0:
416,192,19360,1,0,0:0:0:0:
96,192,19520,1,0,0:0:0:0:
480,192,19520,1,0,0:0:0:0:
224,192,19680,1,0,0:0:0:0:
416,192,19680,1,0,0:0:0:0:
96,192,19840,1,0,0:0:0:0:
352,192,19840,1,0,0:0:0:0:
160,192,20000,1,0,0:0:0:0:
475,192,20000,1,0,0:0:0:0:
224,192,20160,1,0,0:0:0:0:
352,192,20160,1,0,0:0:0:0:
160,192,20320,1,0,0:0:0:0:
416,192,20320,1,0,0:0:0:0:
96,192,20480,1,0,0:0:0:0:
288,192,20480,1,0,0:0:0:0:
32,192,20480,1,0,0:0:0:0:
480,192,20480,1,0,0:0:0:0:
96,192,20800,1,0,0:0:0:0:
224,192,20800,1,0,0:0:0:0:
480,192,20800,1,0,0:0:0:0:
416,192,20960,1,0,0:0:0:0:
160,192,21120,1,0,0:0:0:0:
352,192,21120,1,0,0:0:0:0:
224,192,21280,1,0,0:0:0:0:
288,192,21440,1,0,0:0:0:0:
416,192,21440,1,0,0:0:0:0:
96,192,21440,1,0,0:0:0:0:
224,192,21600,1,0,0:0:0:0:
480,192,21760,1,0,0:0:0:0:
160,192,21760,1,0,0:0:0:0:
352,192,22080,1,0,0:0:0:0:
480,192,22080,1,0,0:0:0:0:
96,192,22080,1,0,0:0:0:0:
160,192,22240,1,0,0:0:0:0:
224,192,22400,1,0,0:0:0:0:
352,192,22400,1,0,0:0:0:0:
416,192,22560,1,0,0:0:0:0:
480,192,22720,1,0,0:0:0:0:
288,192,22720,1,0,0:0:0:0:
160,192,22720,1,0,0:0:0:0:
352,192,22880,1,0,0:0:0:0:
416,192,23040,1,0,0:0:0:0:
96,192,23040,1,0,0:0:0:0:
160,192,23360,1,0,0:0:0:0:
352,192,23360,1,0,0:0:0:0:
480,192,23360,1,0,0:0:0:0:
96,192,23520,1,0,0:0:0:0:
224,192,23680,1,0,0:0:0:0:
416,192,23680,1,0,0:0:0:0:
352,192,23840,1,0,0:0:0:0:
160,192,24000,1,0,0:0:0:0:
288,192,24000,1,0,0:0:0:0:
480,192,24000,1,0,0:0:0:0:
224,192,24160,1,0,0:0:0:0:
416,192,24320,1,0,0:0:0:0:
96,192,24320,1,0,0:0:0:0:
160,192,24640,1,0,0:0:0:0:
480,192,24640,1,0,0:0:0:0:
352,192,24640,1,0,0:0:0:0:
288,192,24800,1,0,0:0:0:0:
224,192,24960,1,0,0:0:0:0:
416,192,24960,1,0,0:0:0:0:
96,192,25120,1,0,0:0:0:0:
160,192,25280,1,0,0:0:0:0:
288,192,25280,1,0,0:0:0:0:
480,192,25280,1,0,0:0:0:0:
352,192,25440,1,0,0:0:0:0:
224,192,25440,1,0,0:0:0:0:
416,192,25600,1,0,0:0:0:0:
480,192,25600,1,0,0:0:0:0:
224,192,25920,1,0,0:0:0:0:
96,192,25920,1,0,0:0:0:0:
352,192,25920,1,0,0:0:0:0:
416,192,26080,1,0,0:0:0:0:
480,192,26240,1,0,0:0:0:0:
160,192,26240,1,0,0:0:0:0:
352,192,26400,1,0,0:0:0:0:
416,192,26560,1,0,0:0:0:0:
224,192,26560,1,0,0:0:0:0:
96,192,26560,1,0,0:0:0:0:
288,192,26720,1,0,0:0:0:0:
352,192,26880,1,0,0:0:0:0:
480,192,26880,1,0,0:0:0:0:
288,192,27200,1,0,0:0:0:0:
416,192,27200,1,0,0:0:0:0:
96,192,27200,1,0,0:0:0:0:
160,192,27360,1,0,0:0:0:0:
224,192,27520,1,0,0:0:0:0:
352,192,27520,1,0,0:0:0:0:
416,192,27680,1,0,0:0:0:0:
480,192,27840,1,0,0:0:0:0:
288,192,27840,1,0,0:0:0:0:
160,192,27840,1,0,0:0:0:0:
352,192,28000,1,0,0:0:0:0:
224,192,28160,1,0,0:0:0:0:
96,192,28160,1,0,0:0:0:0:
160,192,28480,1,0,0:0:0:0:
288,192,28480,1,0,0:0:0:0:
416,192,28480,1,0,0:0:0:0:
480,192,28640,1,0,0:0:0:0:
352,192,28800,1,0,0:0:0:0:
224,192,28800,1,0,0:0:0:0:
96,192,28960,1,0,0:0:0:0:
160,192,29120,1,0,0:0:0:0:
288,192,29120,1,0,0:0:0:0:
416,192,29120,1,0,0:0:0:0:
224,192,29280,1,0,0:0:0:0:
352,192,29440,1,0,0:0:0:0:
480,192,29440,1,0,0:0:0:0:
224,192,29760,1,0,0:0:0:0:
96,192,29760,1,0,0:0:0:0:
480,192,29760,1,0,0:0:0:0:
416,192,29920,1,0,0:0:0:0:
352,192,30080,1,0,0:0:0:0:
160,192,30080,1,0,0:0:0:0:
416,192,30240,1,0,0:0:0:0:
480,192,30400,1,0,0:0:0:0:
96,192,30400,1,0,0:0:0:0:
288,192,30400,1,0,0:0:0:0:
160,192,30560,1,0,0:0:0:0:
352,192,30560,1,0,0:0:0:0:
224,192,30720,1,0,0:0:0:0:
32,192,30720,1,0,0:0:0:0:
416,192,30720,1,0,0:0:0:0:
480,192,31040,1,0,0:0:0:0:
352,192,31040,1,0,0:0:0:0:
224,192,31040,1,0,0:0:0:0:
160,192,31200,1,0,0:0:0:0:
96,192,31360,1,0,0:0:0:0:
416,192,31360,1,0,0:0:0:0:
160,192,31520,1,0,0:0:0:0:
352,192,31680,1,0,0:0:0:0:
224,192,31680,1,0,0:0:0:0:
480,192,31680,1,0,0:0:0:0:
160,192,31840,1,0,0:0:0:0:
416,192,32000,1,0,0:0:0:0:
288,192,32000,1,0,0:0:0:0:
224,192,32320,1,0,0:0:0:0:
352,192,32320,1,0,0:0:0:0:
480,192,32320,1,0,0:0:0:0:
160,192,32480,1,0,0:0:0:0:
288,192,32640,1,0,0:0:0:0:
96,192,32640,1,0,0:0:0:0:
160,192,32800,1,0,0:0:0:0:
480,192,32960,1,0,0:0:0:0:
224,192,32960,1,0,0:0:0:0:
416,192,32960,1,0,0:0:0:0:
160,192,33120,1,0,0:0:0:0:
352,192,33280,1,0,0:0:0:0:
288,192,33280,1,0,0:0:0:0:
480,192,33600,1,0,0:0:0:0:
416,192,33600,1,0,0:0:0:0:
224,192,33600,1,0,0:0:0:0:
160,192,33760,1,0,0:0:0:0:
288,192,33920,1,0,0:0:0:0:
96,192,33920,1,0,0:0:0:0:
160,192,34080,1,0,0:0:0:0:
352,192,34240,1,0,0:0:0:0:
416,192,34240,1,0,0:0:0:0:
224,192,34240,1,0,0:0:0:0:
160,192,34400,1,0,0:0:0:0:
480,192,34560,1,0,0:0:0:0:
288,192,34560,1,0,0:0:0:0:
224,192,34880,1,0,0:0:0:0:
416,192,34880,1,0,0:0:0:0:
352,192,34880,1,0,0:0:0:0:
160,192,35040,1,0,0:0:0:0:
96,192,35200,1,0,0:0:0:0:
288,192,35200,1,0,0:0:0:0:
160,192,35360,1,0,0:0:0:0:
480,192,35520,1,0,0:0:0:0:
224,192,35520,1,0,0:0:0:0:
416,192,35520,1,0,0:0:0:0:
352,192,35680,1,0,0:0:0:0:
160,192,35680,1,0,0:0:0:0:
96,192,35840,1,0,0:0:0:0:
288,192,35840,1,0,0:0:0:0:
160,192,36160,1,0,0:0:0:0:
480,192,36160,1,0,0:0:0:0:
224,192,36160,1,0,0:0:0:0:
416,192,36320,1,0,0:0:0:0:
352,192,36480,1,0,0:0:0:0:
96,192,36480,1,0,0:0:0:0:
416,192,36640,1,0,0:0:0:0:
288,192,36800,1,0,0:0:0:0:
160,192,36800,1,0,0:0:0:0:
480,192,36800,1,0,0:0:0:0:
416,192,36960,1,0,0:0:0:0:
96,192,37120,1,0,0:0:0:0:
224,192,37120,1,0,0:0:0:0:
160,192,37440,1,0,0:0:0:0:
480,192,37440,1,0,0:0:0:0:
288,192,37440,1,0,0:0:0:0:
416,192,37600,1,0,0:0:0:0:
352,192,37760,1,0,0:0:0:0:
96,192,37760,1,0,0:0:0:0:
416,192,37920,1,0,0:0:0:0:
480,192,38080,1,0,0:0:0:0:
288,192,38080,1,0,0:0:0:0:
160,192,38080,1,0,0:0:0:0:
416,192,38240,1,0,0:0:0:0:
224,192,38400,1,0,0:0:0:0:
96,192,38400,1,0,0:0:0:0:
480,192,38720,1,0,0:0:0:0:
288,192,38720,1,0,0:0:0:0:
160,192,38720,1,0,0:0:0:0:
416,192,38880,1,0,0:0:0:0:
352,192,39040,1,0,0:0:0:0:
96,192,39040,1,0,0:0:0:0:
416,192,39200,1,0,0:0:0:0:
480,192,39360,1,0,0:0:0:0:
288,192,39360,1,0,0:0:0:0:
224,192,39360,1,0,0:0:0:0:
416,192,39520,1,0,0:0:0:0:
160,192,39680,1,0,0:0:0:0:
96,192,39680,1,0,0:0:0:0:
288,192,40000,1,0,0:0:0:0:
480,192,40000,1,0,0:0:0:0:
224,192,40000,1,0,0:0:0:0:
416,192,40160,1,0,0:0:0:0:
352,192,40320,1,0,0:0:0:0:
160,192,40320,1,0,0:0:0:0:
416,192,40480,1,0,0:0:0:0:
224,192,40480,1,0,0:0:0:0:
288,192,40640,1,0,0:0:0:0:
96,192,40640,1,0,0:0:0:0:
480,192,40640,1,0,0:0:0:0:
224,192,40800,1,0,0:0:0:0:
416,192,40800,1,0,0:0:0:0:
160,192,40960,1,0,0:0:0:0:
352,192,40960,1,0,0:0:0:0:
32,192,40960,1,0,0:0:0:0:
96,192,41280,1,0,0:0:0:0:
224,192,41280,1,0,0:0:0:0:
480,192,41280,1,0,0:0:0:0:
416,192,41440,1,0,0:0:0:0:
160,192,41600,1,0,0:0:0:0:
352,192,41600,1,0,0:0:0:0:
288,192,41760,1,0,0:0:0:0:
224,192,41920,1,0,0:0:0:0:
416,192,41920,1,0,0:0:0:0:
480,192,41920,1,0,0:0:0:0:
96,192,42080,1,0,0:0:0:0:
352,192,42240,1,0,0:0:0:0:
160,192,42240,1,0,0:0:0:0:
96,192,42560,1,0,0:0:0:0:
224,192,42560,1,0,0:0:0:0:
416,192,42560,1,0,0:0:0:0:
288,192,42720,1,0,0:0:0:0:
160,192,42880,1,0,0:0:0:0:
352,192,42880,1,0,0:0:0:0:
288,192,43040,1,0,0:0:0:0:
416,192,43200,1,0,0:0:0:0:
480,192,43200,1,0,0:0:0:0:
224,192,43200,1,0,0:0:0:0:
96,192,43360,1,0,0:0:0:0:
352,192,43520,1,0,0:0:0:0:
160,192,43520,1,0,0:0:0:0:
96,192,43840,1,0,0:0:0:0:
288,192,43840,1,0,0:0:0:0:
480,192,43840,1,0,0:0:0:0:
352,192,44000,1,0,0:0:0:0:
416,192,44160,1,0,0:0:0:0:
224,192,44160,1,0,0:0:0:0:
288,192,44320,1,0,0:0:0:0:
352,192,44480,1,0,0:0:0:0:
480,192,44480,1,0,0:0:0:0:
160,192,44480,1,0,0:0:0:0:
224,192,44640,1,0,0:0:0:0:
96,192,44800,1,0,0:0:0:0:
288,192,44800,1,0,0:0:0:0:
480,192,45120,1,0,0:0:0:0:
224,192,45120,1,0,0:0:0:0:
352,192,45120,1,0,0:0:0:0:
160,192,45280,1,0,0:0:0:0:
96,192,45440,1,0,0:0:0:0:
416,192,45440,1,0,0:0:0:0:
352,192,45600,1,0,0:0:0:0:
480,192,45760,1,0,0:0:0:0:
96,192,45760,1,0,0:0:0:0:
288,192,45760,1,0,0:0:0:0:
160,192,45920,1,0,0:0:0:0:
416,192,45920,1,0,0:0:0:0:
224,192,46080,1,0,0:0:0:0:
352,192,46080,1,0,0:0:0:0:
480,192,46400,1,0,0:0:0:0:
96,192,46400,1,0,0:0:0:0:
288,192,46400,1,0,0:0:0:0:
352,192,46560,1,0,0:0:0:0:
416,192,46720,1,0,0:0:0:0:
224,192,46720,1,0,0:0:0:0:
160,192,46880,1,0,0:0:0:0:
96,192,47040,1,0,0:0:0:0:
288,192,47040,1,0,0:0:0:0:
480,192,47040,1,0,0:0:0:0:
224,192,47200,1,0,0:0:0:0:
160,192,47360,1,0,0:0:0:0:
352,192,47360,1,0,0:0:0:0:
480,192,47680,1,0,0:0:0:0:
288,192,47680,1,0,0:0:0:0:
96,192,47680,1,0,0:0:0:0:
352,192,47840,1,0,0:0:0:0:
416,192,48000,1,0,0:0:0:0:
224,192,48000,1,0,0:0:0:0:
160,192,48160,1,0,0:0:0:0:
96,192,48320,1,0,0:0:0:0:
480,192,48320,1,0,0:0:0:0:
288,192,48320,1,0,0:0:0:0:
416,192,48480,1,0,0:0:0:0:
224,192,48640,1,0,0:0:0:0:
352,192,48640,1,0,0:0:0:0:
96,192,48960,1,0,0:0:0:0:
288,192,48960,1,0,0:0:0:0:
480,192,48960,1,0,0:0:0:0:
224,192,49120,1,0,0:0:0:0:
160,192,49280,1,0,0:0:0:0:
352,192,49280,1,0,0:0:0:0:
416,192,49440,1,0,0:0:0:0:
480,192,49600,1,0,0:0:0:0:
288,192,49600,1,0,0:0:0:0:
96,192,49600,1,0,0:0:0:0:
224,192,49760,1,0,0:0:0:0:
160,192,49920,1,0,0:0:0:0:
416,192,49920,1,0,0:0:0:0:
288,192,50240,1,0,0:0:0:0:
224,192,50240,1,0,0:0:0:0:
480,192,50240,1,0,0:0:0:0:
416,192,50400,1,0,0:0:0:0:
352,192,50560,1,0,0:0:0:0:
160,192,50560,1,0,0:0:0:0:
224,192,50720,1,0,0:0:0:0:
288,192,50880,1,0,0:0:0:0:
96,192,50880,1,0,0:0:0:0:
480,192,50880,1,0,0:0:0:0:
160,192,51040,1,0,0:0:0:0:
352,192,51040,1,0,0:0:0:0:
32,192,51200,1,0,0:0:0:0:
224,192,51200,1,0,0:0:0:0:
416,192,51200,1,0,0:0:0:0:
288,192,51520,1,0,0:0:0:0:
416,192,51520,1,0,0:0:0:0:
480,192,51520,1,0,0:0:0:0:
160,192,51680,1,0,0:0:0:0:
96,192,51840,1,0,0:0:0:0:
352,192,51840,1,0,0:0:0:0:
480,192,51840,1,0,0:0:0:0:
160,192,52000,1,0,0:0:0:0:
288,192,52160,1,0,0:0:0:0:
416,192,52160,1,0,0:0:0:0:
480,192,52160,1,0,0:0:0:0:
160,192,52320,1,0,0:0:0:0:
224,192,52480,1,0,0:0:0:0:
352,192,52480,1,0,0:0:0:0:
480,192,52800,1,0,0:0:0:0:
160,192,52800,1,0,0:0:0:0:
288,192,52800,1,0,0:0:0:0:
416,192,52960,1,0,0:0:0:0:
224,192,53120,1,0,0:0:0:0:
96,192,53120,1,0,0:0:0:0:
416,192,53280,1,0,0:0:0:0:
480,192,53440,1,0,0:0:0:0:
288,192,53440,1,0,0:0:0:0:
160,192,53440,1,0,0:0:0:0:
416,192,53600,1,0,0:0:0:0:
352,192,53760,1,0,0:0:0:0:
224,192,53760,1,0,0:0:0:0:
288,192,54080,1,0,0:0:0:0:
416,192,54080,1,0,0:0:0:0:
480,192,54080,1,0,0:0:0:0:
160,192,54240,1,0,0:0:0:0:
96,192,54400,1,0,0:0:0:0:
352,192,54400,1,0,0:0:0:0:
160,192,54560,1,0,0:0:0:0:
288,192,54720,1,0,0:0:0:0:
416,192,54720,1,0,0:0:0:0:
480,192,54720,1,0,0:0:0:0:
160,192,54880,1,0,0:0:0:0:
224,192,55040,1,0,0:0:0:0:
352,192,55040,1,0,0:0:0:0:
96,192,55360,1,0,0:0:0:0:
480,192,55360,1,0,0:0:0:0:
416,192,55520,1,0,0:0:0:0:
224,192,55680,1,0,0:0:0:0:
160,192,55680,1,0,0:0:0:0:
416,192,55840,1,0,0:0:0:0:
96,192,56000,1,0,0:0:0:0:
288,192,56000,1,0,0:0:0:0:
480,192,56000,1,0,0:0:0:0:
416,192,56160,1,0,0:0:0:0:
160,192,56160,1,0,0:0:0:0:
352,192,56320,1,0,0:0:0:0:
224,192,56320,1,0,0:0:0:0:
288,192,56640,1,0,0:0:0:0:
416,192,56640,1,0,0:0:0:0:
480,192,56640,1,0,0:0:0:0:
160,192,56800,1,0,0:0:0:0:
96,192,56960,1,0,0:0:0:0:
352,192,56960,1,0,0:0:0:0:
160,192,57120,1,0,0:0:0:0:
288,192,57280,1,0,0:0:0:0:
416,192,57280,1,0,0:0:0:0:
480,192,57280,1,0,0:0:0:0:
160,192,57440,1,0,0:0:0:0:
224,192,57600,1,0,0:0:0:0:
352,192,57600,1,0,0:0:0:0:
480,192,57920,1,0,0:0:0:0:
160,192,57920,1,0,0:0:0:0:
96,192,57920,1,0,0:0:0:0:
416,192,58080,1,0,0:0:0:0:
160,192,58240,1,0,0:0:0:0:
224,192,58240,1,0,0:0:0:0:
416,192,58400,1,0,0:0:0:0:
224,192,58560,1,0,0:0:0:0:
288,192,58560,1,0,0:0:0:0:
480,192,58560,1,0,0:0:0:0:
416,192,58720,1,0,0:0:0:0:
352,192,58880,1,0,0:0:0:0:
288,192,58880,1,0,0:0:0:0:
480,192,59040,1,0,0:0:0:0:
224,192,59040,1,0,0:0:0:0:
96,192,59200,1,0,0:0:0:0:
160,192,59200,1,0,0:0:0:0:
416,192,59200,1,0,0:0:0:0:
480,192,59360,1,0,0:0:0:0:
352,192,59360,1,0,0:0:0:0:
288,192,59520,1,0,0:0:0:0:
224,192,59520,1,0,0:0:0:0:
96,192,59680,1,0,0:0:0:0:
352,192,59680,1,0,0:0:0:0:
160,192,59840,1,0,0:0:0:0:
416,192,59840,1,0,0:0:0:0:
480,192,59840,1,0,0:0:0:0:
224,192,60000,1,0,0:0:0:0:
96,192,60000,1,0,0:0:0:0:
480,192,60160,1,0,0:0:0:0:
288,192,60160,1,0,0:0:0:0:
416,192,60320,1,0,0:0:0:0:
224,192,60320,1,0,0:0:0:0:
96,192,60480,1,0,0:0:0:0:
160,192,60480,1,0,0:0:0:0:
352,192,60480,1,0,0:0:0:0:
480,192,60640,1,0,0:0:0:0:
224,192,60640,1,0,0:0:0:0:
416,192,60800,1,0,0:0:0:0:
160,192,60800,1,0,0:0:0:0:
352,192,60960,1,0,0:0:0:0:
96,192,60960,1,0,0:0:0:0:
480,192,61120,1,0,0:0:0:0:
224,192,61120,1,0,0:0:0:0:
288,192,61120,1,0,0:0:0:0:
352,192,61280,1,0,0:0:0:0:
160,192,61280,1,0,0:0:0:0:
32,192,61440,1,0,0:0:0:0:
416,192,61440,1,0,0:0:0:0:
480,192,61440,1,0,0:0:0:0:
96,192,61440,1,0,0:0:0:0:
416,192,61920,1,0,0:0:0:0:
288,192,62720,1,0,0:0:0:0:
288,192,63200,1,0,0:0:0:0:
160,192,64000,1,0,0:0:0:0:
160,192,64480,1,0,0:0:0:0:
160,192,65280,1,0,0:0:0:0:
160,192,65760,1,0,0:0:0:0:
288,192,66240,1,0,0:0:0:0:
416,192,66560,1,0,0:0:0:0:
416,192,67040,1,0,0:0:0:0:
288,192,67840,1,0,0:0:0:0:
288,192,68320,1,0,0:0:0:0:
160,192,69120,1,0,0:0:0:0:
160,192,69600,1,0,0:0:0:0:
160,192,70400,1,0,0:0:0:0:
160,192,70880,1,0,0:0:0:0:
288,192,71360,1,0,0:0:0:0:
96,192,71360,1,0,0:0:0:0:
480,192,71360,1,0,0:0:0:0:
160,192,71520,1,0,0:0:0:0:
352,192,71520,1,0,0:0:0:0:
224,192,71680,1,0,0:0:0:0:
32,192,71680,1,0,0:0:0:0:
416,192,71680,1,0,0:0:0:0:
352,192,71840,1,0,0:0:0:0:
288,192,72000,1,0,0:0:0:0:
160,192,72000,1,0,0:0:0:0:
480,192,72000,1,0,0:0:0:0:
416,192,72160,1,0,0:0:0:0:
224,192,72320,1,0,0:0:0:0:
352,192,72320,1,0,0:0:0:0:
480,192,72480,1,0,0:0:0:0:
416,192,72640,1,0,0:0:0:0:
288,192,72640,1,0,0:0:0:0:
96,192,72640,1,0,0:0:0:0:
288,192,72960,1,0,0:0:0:0:
160,192,72960,1,0,0:0:0:0:
352,192,73120,1,0,0:0:0:0:
416,192,73280,1,0,0:0:0:0:
224,192,73280,1,0,0:0:0:0:
96,192,73280,1,0,0:0:0:0:
288,192,73440,1,0,0:0:0:0:
352,192,73600,1,0,0:0:0:0:
480,192,73600,1,0,0:0:0:0:
224,192,73760,1,0,0:0:0:0:
288,192,73920,1,0,0:0:0:0:
416,192,73920,1,0,0:0:0:0:
96,192,73920,1,0,0:0:0:0:
160,192,74240,1,0,0:0:0:0:
352,192,74240,1,0,0:0:0:0:
480,192,74400,1,0,0:0:0:0:
416,192,74560,1,0,0:0:0:0:
224,192,74560,1,0,0:0:0:0:
96,192,74560,1,0,0:0:0:0:
160,192,74720,1,0,0:0:0:0:
352,192,74880,1,0,0:0:0:0:
480,192,74880,1,0,0:0:0:0:
288,192,75040,1,0,0:0:0:0:
96,192,75200,1,0,0:0:0:0:
224,192,75200,1,0,0:0:0:0:
416,192,75200,1,0,0:0:0:0:
160,192,75520,1,0,0:0:0:0:
288,192,75520,1,0,0:0:0:0:
96,192,75680,1,0,0:0:0:0:
480,192,75840,1,0,0:0:0:0:
352,192,75840,1,0,0:0:0:0:
224,192,75840,1,0,0:0:0:0:
160,192,76000,1,0,0:0:0:0:
96,192,76160,1,0,0:0:0:0:
416,192,76160,1,0,0:0:0:0:
224,192,76320,1,0,0:0:0:0:
288,192,76480,1,0,0:0:0:0:
96,192,76480,1,0,0:0:0:0:
480,192,76480,1,0,0:0:0:0:
352,192,76640,1,0,0:0:0:0:
160,192,76640,1,0,0:0:0:0:
416,192,76800,1,0,0:0:0:0:
224,192,76800,1,0,0:0:0:0:
352,192,76960,1,0,0:0:0:0:
480,192,77120,1,0,0:0:0:0:
160,192,77120,1,0,0:0:0:0:
96,192,77120,1,0,0:0:0:0:
416,192,77280,1,0,0:0:0:0:
224,192,77440,1,0,0:0:0:0:
352,192,77440,1,0,0:0:0:0:
480,192,77600,1,0,0:0:0:0:
416,192,77760,1,0,0:0:0:0:
160,192,77760,1,0,0:0:0:0:
96,192,77760,1,0,0:0:0:0:
288,192,78080,1,0,0:0:0:0:
480,192,78080,1,0,0:0:0:0:
352,192,78240,1,0,0:0:0:0:
416,192,78400,1,0,0:0:0:0:
224,192,78400,1,0,0:0:0:0:
96,192,78400,1,0,0:0:0:0:
288,192,78560,1,0,0:0:0:0:
352,192,78720,1,0,0:0:0:0:
416,192,78720,1,0,0:0:0:0:
224,192,78880,1,0,0:0:0:0:
288,192,79040,1,0,0:0:0:0:
416,192,79040,1,0,0:0:0:0:
96,192,79040,1,0,0:0:0:0:
160,192,79360,1,0,0:0:0:0:
416,192,79360,1,0,0:0:0:0:
224,192,79520,1,0,0:0:0:0:
352,192,79680,1,0,0:0:0:0:
480,192,79680,1,0,0:0:0:0:
96,192,79680,1,0,0:0:0:0:
160,192,79840,1,0,0:0:0:0:
224,192,80000,1,0,0:0:0:0:
416,192,80000,1,0,0:0:0:0:
352,192,80160,1,0,0:0:0:0:
160,192,80320,1,0,0:0:0:0:
288,192,80320,1,0,0:0:0:0:
416,192,80320,1,0,0:0:0:0:
160,192,80640,1,0,0:0:0:0:
480,192,80640,1,0,0:0:0:0:
224,192,80800,1,0,0:0:0:0:
352,192,80960,1,0,0:0:0:0:
416,192,80960,1,0,0:0:0:0:
480,192,80960,1,0,0:0:0:0:
160,192,81120,1,0,0:0:0:0:
224,192,81280,1,0,0:0:0:0:
288,192,81280,1,0,0:0:0:0:
352,192,81440,1,0,0:0:0:0:
480,192,81440,1,0,0:0:0:0:
288,192,81600,1,0,0:0:0:0:
160,192,81600,1,0,0:0:0:0:
352,192,81760,1,0,0:0:0:0:
480,192,81760,1,0,0:0:0:0:
96,192,81920,1,0,0:0:0:0:
32,192,81920,1,0,0:0:0:0:
416,192,81920,1,0,0:0:0:0:
224,192,82080,1,0,0:0:0:0:
160,192,82240,1,0,0:0:0:0:
288,192,82240,1,0,0:0:0:0:
480,192,82240,1,0,0:0:0:0:
416,192,82400,1,0,0:0:0:0:
352,192,82400,1,0,0:0:0:0:
224,192,82560,1,0,0:0:0:0:
96,192,82560,1,0,0:0:0:0:
352,192,82720,1,0,0:0:0:0:
160,192,82880,1,0,0:0:0:0:
416,192,82880,1,0,0:0:0:0:
480,192,82880,1,0,0:0:0:0:
288,192,83200,1,0,0:0:0:0:
96,192,83200,1,0,0:0:0:0:
224,192,83360,1,0,0:0:0:0:
160,192,83520,1,0,0:0:0:0:
352,192,83520,1,0,0:0:0:0:
480,192,83520,1,0,0:0:0:0:
288,192,83680,1,0,0:0:0:0:
224,192,83840,1,0,0:0:0:0:
480,192,83840,1,0,0:0:0:0:
416,192,84000,1,0,0:0:0:0:
352,192,84160,1,0,0:0:0:0:
288,192,84160,1,0,0:0:0:0:
96,192,84160,1,0,0:0:0:0:
160,192,84480,1,0,0:0:0:0:
416,192,84480,1,0,0:0:0:0:
352,192,84640,1,0,0:0:0:0:
288,192,84800,1,0,0:0:0:0:
96,192,84800,1,0,0:0:0:0:
480,192,84800,1,0,0:0:0:0:
160,192,84960,1,0,0:0:0:0:
352,192,85120,1,0,0:0:0:0:
480,192,85120,1,0,0:0:0:0:
288,192,85280,1,0,0:0:0:0:
96,192,85440,1,0,0:0:0:0:
224,192,85440,1,0,0:0:0:0:
352,192,85760,1,0,0:0:0:0:
160,192,85760,1,0,0:0:0:0:
224,192,85920,1,0,0:0:0:0:
288,192,86080,1,0,0:0:0:0:
416,192,86080,1,0,0:0:0:0:
96,192,86080,1,0,0:0:0:0:
160,192,86240,1,0,0:0:0:0:
416,192,86400,1,0,0:0:0:0:
224,192,86400,1,0,0:0:0:0:
352,192,86560,1,0,0:0:0:0:
288,192,86720,1,0,0:0:0:0:
480,192,86720,1,0,0:0:0:0:
96,192,86720,1,0,0:0:0:0:
352,192,86880,1,0,0:0:0:0:
224,192,86880,1,0,0:0:0:0:
416,192,87040,1,0,0:0:0:0:
160,192,87040,1,0,0:0:0:0:
480,192,87200,1,0,0:0:0:0:
96,192,87360,1,0,0:0:0:0:
224,192,87360,1,0,0:0:0:0:
352,192,87360,1,0,0:0:0:0:
416,192,87520,1,0,0:0:0:0:
288,192,87680,1,0,0:0:0:0:
96,192,87680,1,0,0:0:0:0:
160,192,87840,1,0,0:0:0:0:
224,192,88000,1,0,0:0:0:0:
416,192,88000,1,0,0:0:0:0:
480,192,88000,1,0,0:0:0:0:
288,192,88320,1,0,0:0:0:0:
224,192,88320,1,0,0:0:0:0:
160,192,88480,1,0,0:0:0:0:
96,192,88640,1,0,0:0:0:0:
416,192,88640,1,0,0:0:0:0:
480,192,88640,1,0,0:0:0:0:
288,192,88800,1,0,0:0:0:0:
160,192,88960,1,0,0:0:0:0:
416,192,88960,1,0,0:0:0:0:
352,192,89120,1,0,0:0:0:0:
288,192,89280,1,0,0:0:0:0:
96,192,89280,1,0,0:0:0:0:
480,192,89280,1,0,0:0:0:0:
352,192,89600,1,0,0:0:0:0:
224,192,89600,1,0,0:0:0:0:
480,192,89760,1,0,0:0:0:0:
288,192,89920,1,0,0:0:0:0:
416,192,89920,1,0,0:0:0:0:
96,192,89920,1,0,0:0:0:0:
160,192,90080,1,0,0:0:0:0:
224,192,90240,1,0,0:0:0:0:
416,192,90240,1,0,0:0:0:0:
288,192,90400,1,0,0:0:0:0:
352,192,90560,1,0,0:0:0:0:
480,192,90560,1,0,0:0:0:0:
160,192,90560,1,0,0:0:0:0:
32,192,90880,1,0,0:0:0:0:
288,192,90880,1,0,0:0:0:0:
32,192,91200,1,0,0:0:0:0:
32,192,91520,1,0,0:0:0:0:
32,192,91840,1,0,0:0:0:0:
288,192,91840,1,0,0:0:0:0:
32,192,92160,1,0,0:0:0:0:
224,192,92160,1,0,0:0:0:0:
480,192,92160,1,0,0:0:0:0:
329,192,92320,1,0,0:0:0:0:
475,192,92480,1,0,0:0:0:0:
96,192,92480,1,0,0:0:0:0:
256,192,92480,1,0,0:0:0:0:
329,192,92640,1,0,0:0:0:0:
224,192,92800,1,0,0:0:0:0:
475,192,92800,1,0,0:0:0:0:
329,192,93120,1,0,0:0:0:0:
96,192,93120,1,0,0:0:0:0:
256,192,93120,1,0,0:0:0:0:
475,192,93280,1,0,0:0:0:0:
224,192,93440,1,0,0:0:0:0:
475,192,93600,1,0,0:0:0:0:
256,192,93760,1,0,0:0:0:0:
329,192,93760,1,0,0:0:0:0:
96,192,93760,1,0,0:0:0:0:
475,192,94080,1,0,0:0:0:0:
224,192,94080,1,0,0:0:0:0:
402,192,94240,1,0,0:0:0:0:
329,192,94400,1,0,0:0:0:0:
475,192,94400,1,0,0:0:0:0:
96,192,94400,1,0,0:0:0:0:
224,192,94560,1,0,0:0:0:0:
329,192,94720,1,0,0:0:0:0:
96,192,94720,1,0,0:0:0:0:
256,192,94880,1,0,0:0:0:0:
224,192,95040,1,0,0:0:0:0:
160,192,95040,1,0,0:0:0:0:
475,192,95040,1,0,0:0:0:0:
329,192,95200,1,0,0:0:0:0:
224,192,95360,1,0,0:0:0:0:
96,192,95360,1,0,0:0:0:0:
224,192,95680,1,0,0:0:0:0:
402,192,95680,1,0,0:0:0:0:
256,192,95680,1,0,0:0:0:0:
96,192,95840,1,0,0:0:0:0:
329,192,96000,1,0,0:0:0:0:
475,192,96000,1,0,0:0:0:0:
256,192,96320,1,0,0:0:0:0:
402,192,96320,1,0,0:0:0:0:
96,192,96320,1,0,0:0:0:0:
160,192,96480,1,0,0:0:0:0:
224,192,96640,1,0,0:0:0:0:
329,192,96640,1,0,0:0:0:0:
160,192,96960,1,0,0:0:0:0:
475,192,96960,1,0,0:0:0:0:
256,192,96960,1,0,0:0:0:0:
402,192,97120,1,0,0:0:0:0:
224,192,97120,1,0,0:0:0:0:
96,192,97280,1,0,0:0:0:0:
329,192,97280,1,0,0:0:0:0:
224,192,97440,1,0,0:0:0:0:
256,192,97600,1,0,0:0:0:0:
475,192,97600,1,0,0:0:0:0:
96,192,97600,1,0,0:0:0:0:
224,192,97760,1,0,0:0:0:0:
329,192,97920,1,0,0:0:0:0:
96,192,97920,1,0,0:0:0:0:
475,192,98240,1,0,0:0:0:0:
224,192,98240,1,0,0:0:0:0:
96,192,98400,1,0,0:0:0:0:
329,192,98560,1,0,0:0:0:0:
96,192,98720,1,0,0:0:0:0:
160,192,98880,1,0,0:0:0:0:
402,192,98880,1,0,0:0:0:0:
224,192,98880,1,0,0:0:0:0:
475,192,99200,1,0,0:0:0:0:
329,192,99200,1,0,0:0:0:0:
224,192,99360,1,0,0:0:0:0:
256,192,99520,1,0,0:0:0:0:
402,192,99520,1,0,0:0:0:0:
96,192,99520,1,0,0:0:0:0:
224,192,99680,1,0,0:0:0:0:
329,192,99840,1,0,0:0:0:0:
475,192,99840,1,0,0:0:0:0:
224,192,100000,1,0,0:0:0:0:
402,192,100160,1,0,0:0:0:0:
256,192,100160,1,0,0:0:0:0:
160,192,100160,1,0,0:0:0:0:
224,192,100480,1,0,0:0:0:0:
329,192,100480,1,0,0:0:0:0:
402,192,100640,1,0,0:0:0:0:
256,192,100800,1,0,0:0:0:0:
475,192,100800,1,0,0:0:0:0:
160,192,100800,1,0,0:0:0:0:
329,192,100960,1,0,0:0:0:0:
96,192,101120,1,0,0:0:0:0:
224,192,101120,1,0,0:0:0:0:
160,192,101440,1,0,0:0:0:0:
329,192,101440,1,0,0:0:0:0:
256,192,101440,1,0,0:0:0:0:
480,192,101600,1,0,0:0:0:0:
329,192,101760,1,0,0:0:0:0:
224,192,101760,1,0,0:0:0:0:
160,192,101920,1,0,0:0:0:0:
96,192,102080,1,0,0:0:0:0:
416,192,102080,1,0,0:0:0:0:
352,192,102400,1,0,0:0:0:0:
32,192,102400,1,0,0:0:0:0:
480,192,102400,1,0,0:0:0:0:
224,192,102560,1,0,0:0:0:0:
256,192,102720,1,0,0:0:0:0:
160,192,102720,1,0,0:0:0:0:
402,192,102720,1,0,0:0:0:0:
96,192,102880,1,0,0:0:0:0:
329,192,103040,1,0,0:0:0:0:
224,192,103040,1,0,0:0:0:0:
160,192,103360,1,0,0:0:0:0:
475,192,103360,1,0,0:0:0:0:
256,192,103360,1,0,0:0:0:0:
329,192,103520,1,0,0:0:0:0:
402,192,103680,1,0,0:0:0:0:
224,192,103680,1,0,0:0:0:0:
256,192,103840,1,0,0:0:0:0:
329,192,104000,1,0,0:0:0:0:
475,192,104000,1,0,0:0:0:0:
160,192,104000,1,0,0:0:0:0:
256,192,104320,1,0,0:0:0:0:
402,192,104320,1,0,0:0:0:0:
329,192,104640,1,0,0:0:0:0:
160,192,104640,1,0,0:0:0:0:
475,192,104640,1,0,0:0:0:0:
402,192,104800,1,0,0:0:0:0:
475,192,104960,1,0,0:0:0:0:
96,192,104960,1,0,0:0:0:0:
224,192,104960,1,0,0:0:0:0:
402,192,105280,1,0,0:0:0:0:
160,192,105280,1,0,0:0:0:0:
256,192,105280,1,0,0:0:0:0:
96,192,105440,1,0,0:0:0:0:
402,192,105600,1,0,0:0:0:0:
224,192,105600,1,0,0:0:0:0:
224,192,105920,1,0,0:0:0:0:
256,192,105920,1,0,0:0:0:0:
475,192,105920,1,0,0:0:0:0:
160,192,106080,1,0,0:0:0:0:
402,192,106240,1,0,0:0:0:0:
96,192,106240,1,0,0:0:0:0:
329,192,106560,1,0,0:0:0:0:
160,192,106560,1,0,0:0:0:0:
475,192,106560,1,0,0:0:0:0:
402,192,106880,1,0,0:0:0:0:
224,192,106880,1,0,0:0:0:0:
475,192,107200,1,0,0:0:0:0:
96,192,107200,1,0,0:0:0:0:
329,192,107200,1,0,0:0:0:0:
160,192,107360,1,0,0:0:0:0:
256,192,107360,1,0,0:0:0:0:
224,192,107520,1,0,0:0:0:0:
475,192,107520,1,0,0:0:0:0:
329,192,107680,1,0,0:0:0:0:
224,192,107840,1,0,0:0:0:0:
96,192,107840,1,0,0:0:0:0:
402,192,107840,1,0,0:0:0:0:
329,192,108000,1,0,0:0:0:0:
475,192,108160,1,0,0:0:0:0:
160,192,108160,1,0,0:0:0:0:
256,192,108320,1,0,0:0:0:0:
224,192,108480,1,0,0:0:0:0:
329,192,108480,1,0,0:0:0:0:
96,192,108480,1,0,0:0:0:0:
402,192,108640,1,0,0:0:0:0:
475,192,108800,1,0,0:0:0:0:
329,192,108800,1,0,0:0:0:0:
224,192,108960,1,0,0:0:0:0:
402,192,109120,1,0,0:0:0:0:
256,192,109120,1,0,0:0:0:0:
96,192,109120,1,0,0:0:0:0:
224,192,109440,1,0,0:0:0:0:
329,192,109440,1,0,0:0:0:0:
256,192,109760,1,0,0:0:0:0:
402,192,109760,1,0,0:0:0:0:
160,192,109760,1,0,0:0:0:0:
329,192,109920,1,0,0:0:0:0:
224,192,110080,1,0,0:0:0:0:
475,192,110080,1,0,0:0:0:0:
96,192,110240,1,0,0:0:0:0:
256,192,110400,1,0,0:0:0:0:
402,192,110400,1,0,0:0:0:0:
160,192,110400,1,0,0:0:0:0:
224,192,110560,1,0,0:0:0:0:
475,192,110720,1,0,0:0:0:0:
329,192,110720,1,0,0:0:0:0:
256,192,111040,1,0,0:0:0:0:
160,192,111040,1,0,0:0:0:0:
402,192,111040,1,0,0:0:0:0:
96,192,111200,1,0,0:0:0:0:
416,192,111360,1,0,0:0:0:0:
256,192,111520,1,0,0:0:0:0:
160,192,111680,1,0,0:0:0:0:
256,192,111840,1,0,0:0:0:0:
402,192,112000,1,0,0:0:0:0:
256,192,112160,1,0,0:0:0:0:
160,192,112320,1,0,0:0:0:0:
256,192,112480,1,0,0:0:0:0:
475,192,112640,1,0,0:0:0:0:
224,192,112640,1,0,0:0:0:0:
329,192,112640,1,0,0:0:0:0:
32,192,112640,1,0,0:0:0:0:
402,192,112960,1,0,0:0:0:0:
96,192,112960,1,0,0:0:0:0:
224,192,112960,1,0,0:0:0:0:
256,192,113120,1,0,0:0:0:0:
329,192,113280,1,0,0:0:0:0:
160,192,113280,1,0,0:0:0:0:
402,192,113440,1,0,0:0:0:0:
329,192,113600,1,0,0:0:0:0:
96,192,113600,1,0,0:0:0:0:
256,192,113600,1,0,0:0:0:0:
160,192,113760,1,0,0:0:0:0:
475,192,113920,1,0,0:0:0:0:
224,192,113920,1,0,0:0:0:0:
256,192,114080,1,0,0:0:0:0:
329,192,114240,1,0,0:0:0:0:
224,192,114240,1,0,0:0:0:0:
96,192,114240,1,0,0:0:0:0:
402,192,114400,1,0,0:0:0:0:
475,192,114560,1,0,0:0:0:0:
224,192,114560,1,0,0:0:0:0:
256,192,114720,1,0,0:0:0:0:
329,192,114880,1,0,0:0:0:0:
160,192,114880,1,0,0:0:0:0:
475,192,114880,1,0,0:0:0:0:
402,192,115040,1,0,0:0:0:0:
329,192,115200,1,0,0:0:0:0:
224,192,115200,1,0,0:0:0:0:
160,192,115360,1,0,0:0:0:0:
475,192,115520,1,0,0:0:0:0:
402,192,115520,1,0,0:0:0:0:
96,192,115520,1,0,0:0:0:0:
256,192,115680,1,0,0:0:0:0:
160,192,115840,1,0,0:0:0:0:
329,192,115840,1,0,0:0:0:0:
402,192,116000,1,0,0:0:0:0:
96,192,116160,1,0,0:0:0:0:
224,192,116160,1,0,0:0:0:0:
329,192,116160,1,0,0:0:0:0:
160,192,116320,1,0,0:0:0:0:
224,192,116480,1,0,0:0:0:0:
475,192,116480,1,0,0:0:0:0:
96,192,116800,1,0,0:0:0:0:
329,192,116800,1,0,0:0:0:0:
475,192,116800,1,0,0:0:0:0:
160,192,116960,1,0,0:0:0:0:
402,192,117120,1,0,0:0:0:0:
224,192,117120,1,0,0:0:0:0:
256,192,117280,1,0,0:0:0:0:
160,192,117440,1,0,0:0:0:0:
96,192,117440,1,0,0:0:0:0:
475,192,117440,1,0,0:0:0:0:
402,192,117600,1,0,0:0:0:0:
224,192,117600,1,0,0:0:0:0:
256,192,117760,1,0,0:0:0:0:
329,192,117760,1,0,0:0:0:0:
475,192,118080,1,0,0:0:0:0:
402,192,118080,1,0,0:0:0:0:
96,192,118080,1,0,0:0:0:0:
160,192,118240,1,0,0:0:0:0:
329,192,118400,1,0,0:0:0:0:
224,192,118400,1,0,0:0:0:0:
256,192,118720,1,0,0:0:0:0:
475,192,118720,1,0,0:0:0:0:
160,192,118720,1,0,0:0:0:0:
402,192,118880,1,0,0:0:0:0:
224,192,119040,1,0,0:0:0:0:
329,192,119040,1,0,0:0:0:0:
96,192,119360,1,0,0:0:0:0:
256,192,119360,1,0,0:0:0:0:
402,192,119360,1,0,0:0:0:0:
160,192,119520,1,0,0:0:0:0:
256,192,119680,1,0,0:0:0:0:
475,192,119680,1,0,0:0:0:0:
402,192,119840,1,0,0:0:0:0:
329,192,120000,1,0,0:0:0:0:
160,192,120000,1,0,0:0:0:0:
96,192,120000,1,0,0:0:0:0:
402,192,120160,1,0,0:0:0:0:
256,192,120320,1,0,0:0:0:0:
224,192,120320,1,0,0:0:0:0:
402,192,120640,1,0,0:0:0:0:
329,192,120640,1,0,0:0:0:0:
96,192,120640,1,0,0:0:0:0:
160,192,120800,1,0,0:0:0:0:
329,192,120960,1,0,0:0:0:0:
224,192,120960,1,0,0:0:0:0:
160,192,121120,1,0,0:0:0:0:
475,192,121280,1,0,0:0:0:0:
256,192,121280,1,0,0:0:0:0:
224,192,121280,1,0,0:0:0:0:
402,192,121440,1,0,0:0:0:0:
96,192,121600,1,0,0:0:0:0:
224,192,121600,1,0,0:0:0:0:
256,192,121760,1,0,0:0:0:0:
475,192,121920,1,0,0:0:0:0:
329,192,121920,1,0,0:0:0:0:
96,192,121920,1,0,0:0:0:0:
402,192,122080,1,0,0:0:0:0:
329,192,122240,1,0,0:0:0:0:
160,192,122240,1,0,0:0:0:0:
96,192,122400,1,0,0:0:0:0:
475,192,122560,1,0,0:0:0:0:
256,192,122560,1,0,0:0:0:0:
224,192,122560,1,0,0:0:0:0:
160,192,122720,1,0,0:0:0:0:
329,192,122720,1,0,0:0:0:0:
32,192,122880,1,0,0:0:0:0:
96,192,122880,1,0,0:0:0:0:
402,192,122880,1,0,0:0:0:0:
160,192,123200,1,0,0:0:0:0:
224,192,123200,1,0,0:0:0:0:
475,192,123200,1,0,0:0:0:0:
256,192,123360,1,0,0:0:0:0:
329,192,123520,1,0,0:0:0:0:
96,192,123520,1,0,0:0:0:0:
402,192,123680,1,0,0:0:0:0:
256,192,123840,1,0,0:0:0:0:
475,192,123840,1,0,0:0:0:0:
224,192,123840,1,0,0:0:0:0:
160,192,124000,1,0,0:0:0:0:
96,192,124160,1,0,0:0:0:0:
329,192,124160,1,0,0:0:0:0:
256,192,124320,1,0,0:0:0:0:
160,192,124480,1,0,0:0:0:0:
224,192,124480,1,0,0:0:0:0:
475,192,124480,1,0,0:0:0:0:
402,192,124640,1,0,0:0:0:0:
96,192,124800,1,0,0:0:0:0:
329,192,124800,1,0,0:0:0:0:
160,192,124960,1,0,0:0:0:0:
224,192,125120,1,0,0:0:0:0:
475,192,125120,1,0,0:0:0:0:
256,192,125120,1,0,0:0:0:0:
402,192,125280,1,0,0:0:0:0:
224,192,125440,1,0,0:0:0:0:
329,192,125440,1,0,0:0:0:0:
160,192,125600,1,0,0:0:0:0:
329,192,125760,1,0,0:0:0:0:
96,192,125760,1,0,0:0:0:0:
475,192,125760,1,0,0:0:0:0:
256,192,125920,1,0,0:0:0:0:
475,192,126080,1,0,0:0:0:0:
224,192,126080,1,0,0:0:0:0:
402,192,126240,1,0,0:0:0:0:
329,192,126240,1,0,0:0:0:0:
96,192,126400,1,0,0:0:0:0:
224,192,126400,1,0,0:0:0:0:
160,192,126560,1,0,0:0:0:0:
329,192,126720,1,0,0:0:0:0:
224,192,126720,1,0,0:0:0:0:
475,192,126880,1,0,0:0:0:0:
402,192,127040,1,0,0:0:0:0:
96,192,127040,1,0,0:0:0:0:
224,192,127040,1,0,0:0:0:0:
256,192,127200,1,0,0:0:0:0:
475,192,127360,1,0,0:0:0:0:
402,192,127360,1,0,0:0:0:0:
256,192,127520,1,0,0:0:0:0:
224,192,127680,1,0,0:0:0:0:
160,192,127680,1,0,0:0:0:0:
329,192,127680,1,0,0:0:0:0:
256,192,127840,1,0,0:0:0:0:
402,192,127840,1,0,0:0:0:0:
475,192,128000,1,0,0:0:0:0:
96,192,128000,1,0,0:0:0:0:
96,192,128320,1,0,0:0:0:0:
402,192,128320,1,0,0:0:0:0:
224,192,128320,1,0,0:0:0:0:
256,192,128480,1,0,0:0:0:0:
475,192,128640,1,0,0:0:0:0:
160,192,128640,1,0,0:0:0:0:
256,192,128960,1,0,0:0:0:0:
402,192,128960,1,0,0:0:0:0:
160,192,128960,1,0,0:0:0:0:
96,192,129120,1,0,0:0:0:0:
475,192,129280,1,0,0:0:0:0:
329,192,129280,1,0,0:0:0:0:
96,192,129600,1,0,0:0:0:0:
256,192,129600,1,0,0:0:0:0:
475,192,129600,1,0,0:0:0:0:
224,192,129760,1,0,0:0:0:0:
329,192,129920,1,0,0:0:0:0:
160,192,129920,1,0,0:0:0:0:
288,192,130080,1,0,0:0:0:0:
402,192,130240,1,0,0:0:0:0:
475,192,130240,1,0,0:0:0:0:
224,192,130240,1,0,0:0:0:0:
352,192,130400,1,0,0:0:0:0:
288,192,130560,1,0,0:0:0:0:
96,192,130560,1,0,0:0:0:0:
224,192,130880,1,0,0:0:0:0:
329,192,130880,1,0,0:0:0:0:
475,192,130880,1,0,0:0:0:0:
416,192,131040,1,0,0:0:0:0:
96,192,131200,1,0,0:0:0:0:
256,192,131200,1,0,0:0:0:0:
402,192,131360,1,0,0:0:0:0:
256,192,131520,1,0,0:0:0:0:
224,192,131520,1,0,0:0:0:0:
475,192,131520,1,0,0:0:0:0:
160,192,131680,1,0,0:0:0:0:
475,192,131840,1,0,0:0:0:0:
402,192,131840,1,0,0:0:0:0:
224,192,132000,1,0,0:0:0:0:
256,192,132160,1,0,0:0:0:0:
96,192,132160,1,0,0:0:0:0:
329,192,132160,1,0,0:0:0:0:
160,192,132320,1,0,0:0:0:0:
475,192,132480,1,0,0:0:0:0:
402,192,132480,1,0,0:0:0:0:
288,192,132640,1,0,0:0:0:0:
96,192,132800,1,0,0:0:0:0:
160,192,132800,1,0,0:0:0:0:
329,192,132800,1,0,0:0:0:0:
475,192,132960,1,0,0:0:0:0:
256,192,132960,1,0,0:0:0:0:
32,192,133120,1,0,0:0:0:0:
224,192,133120,1,0,0:0:0:0:
402,192,133120,1,0,0:0:0:0:
96,192,133280,1,0,0:0:0:0:
329,192,133440,1,0,0:0:0:0:
160,192,133440,1,0,0:0:0:0:
475,192,133440,1,0,0:0:0:0:
256,192,133600,1,0,0:0:0:0:
329,192,133760,1,0,0:0:0:0:
96,192,133760,1,0,0:0:0:0:
224,192,133920,1,0,0:0:0:0:
402,192,134080,1,0,0:0:0:0:
329,192,134080,1,0,0:0:0:0:
475,192,134080,1,0,0:0:0:0:
96,192,134080,1,0,0:0:0:0:
160,192,134240,1,0,0:0:0:0:
224,192,134400,1,0,0:0:0:0:
352,192,134560,1,0,0:0:0:0:
96,192,134720,1,0,0:0:0:0:
402,192,134720,1,0,0:0:0:0:
475,192,134720,1,0,0:0:0:0:
224,192,134880,1,0,0:0:0:0:
256,192,135040,1,0,0:0:0:0:
402,192,135040,1,0,0:0:0:0:
352,192,135200,1,0,0:0:0:0:
160,192,135360,1,0,0:0:0:0:
96,192,135360,1,0,0:0:0:0:
475,192,135360,1,0,0:0:0:0:
402,192,135520,1,0,0:0:0:0:
224,192,135680,1,4,0:0:0:0:
32,192,135680,1,0,0:0:0:0:
329,192,135680,1,0,0:0:0:0:
416,192,135840,1,0,0:0:0:0:
475,192,136000,1,0,0:0:0:0:
160,192,136000,1,0,0:0:0:0:
256,192,136000,1,0,0:0:0:0:
329,192,136160,1,0,0:0:0:0:
402,192,136320,1,0,0:0:0:0:
224,192,136320,1,0,0:0:0:0:
256,192,136480,1,0,0:0:0:0:
160,192,136640,1,0,0:0:0:0:
475,192,136640,1,0,0:0:0:0:
329,192,136640,1,0,0:0:0:0:
224,192,136800,1,0,0:0:0:0:
256,192,136960,1,0,0:0:0:0:
96,192,136960,1,0,0:0:0:0:
224,192,137120,1,0,0:0:0:0:
475,192,137280,1,0,0:0:0:0:
329,192,137280,1,0,0:0:0:0:
160,192,137280,1,0,0:0:0:0:
256,192,137440,1,0,0:0:0:0:
402,192,137600,1,0,0:0:0:0:
224,192,137600,1,0,0:0:0:0:
329,192,137760,1,0,0:0:0:0:
256,192,137920,1,0,0:0:0:0:
475,192,137920,1,0,0:0:0:0:
160,192,137920,1,0,0:0:0:0:
402,192,138080,1,0,0:0:0:0:
329,192,138240,1,0,0:0:0:0:
224,192,138240,1,0,0:0:0:0:
160,192,138400,1,0,0:0:0:0:
256,192,138560,1,0,0:0:0:0:
96,192,138560,1,0,0:0:0:0:
402,192,138560,1,0,0:0:0:0:
224,192,138720,1,0,0:0:0:0:
160,192,138880,1,0,0:0:0:0:
329,192,138880,1,0,0:0:0:0:
256,192,139040,1,0,0:0:0:0:
96,192,139200,1,0,0:0:0:0:
475,192,139200,1,0,0:0:0:0:
224,192,139200,1,0,0:0:0:0:
402,192,139360,1,0,0:0:0:0:
160,192,139520,1,0,0:0:0:0:
329,192,139520,1,0,0:0:0:0:
402,192,139680,1,0,0:0:0:0:
475,192,139840,1,0,0:0:0:0:
256,192,139840,1,0,0:0:0:0:
96,192,139840,1,0,0:0:0:0:
329,192,140000,1,0,0:0:0:0:
402,192,140160,1,0,0:0:0:0:
224,192,140160,1,0,0:0:0:0:
256,192,140320,1,0,0:0:0:0:
96,192,140480,1,0,0:0:0:0:
475,192,140480,1,0,0:0:0:0:
329,192,140480,1,0,0:0:0:0:
160,192,140640,1,0,0:0:0:0:
256,192,140640,1,0,0:0:0:0:
224,192,140800,1,0,0:0:0:0:
402,192,140800,1,0,0:0:0:0:
329,192,140960,1,0,0:0:0:0:
256,192,141120,1,0,0:0:0:0:
96,192,141120,1,0,0:0:0:0:
475,192,141120,1,0,0:0:0:0:
402,192,141280,1,0,0:0:0:0:
329,192,141440,1,0,0:0:0:0:
224,192,141440,1,0,0:0:0:0:
160,192,141600,1,0,0:0:0:0:
329,192,141760,1,0,0:0:0:0:
475,192,141760,1,0,0:0:0:0:
96,192,141760,1,0,0:0:0:0:
256,192,141920,1,0,0:0:0:0:
160,192,142080,1,0,0:0:0:0:
224,192,142080,1,0,0:0:0:0:
402,192,142240,1,0,0:0:0:0:
329,192,142400,1,0,0:0:0:0:
96,192,142400,1,0,0:0:0:0:
224,192,142400,1,0,0:0:0:0:
402,192,142560,1,0,0:0:0:0:
475,192,142720,1,0,0:0:0:0:
224,192,142720,1,0,0:0:0:0:
256,192,142880,1,0,0:0:0:0:
329,192,143040,1,0,0:0:0:0:
475,192,143040,1,0,0:0:0:0:
160,192,143040,1,0,0:0:0:0:
256,192,143200,1,0,0:0:0:0:
224,192,143360,1,0,0:0:0:0:
96,192,143360,1,0,0:0:0:0:
329,192,143520,1,0,0:0:0:0:
160,192,143680,1,0,0:0:0:0:
402,192,143680,1,0,0:0:0:0:
256,192,143680,1,0,0:0:0:0:
224,192,143840,1,0,0:0:0:0:
329,192,144000,1,0,0:0:0:0:
475,192,144000,1,0,0:0:0:0:
224,192,144160,1,0,0:0:0:0:
96,192,144320,1,0,0:0:0:0:
256,192,144320,1,0,0:0:0:0:
160,192,144320,1,0,0:0:0:0:
329,192,144480,1,0,0:0:0:0:
475,192,144640,1,0,0:0:0:0:
224,192,144640,1,0,0:0:0:0:
402,192,144800,1,0,0:0:0:0:
329,192,144960,1,0,0:0:0:0:
256,192,144960,1,0,0:0:0:0:
96,192,144960,1,0,0:0:0:0:
402,192,145120,1,0,0:0:0:0:
256,192,145280,1,0,0:0:0:0:
224,192,145440,1,0,0:0:0:0:
475,192,145600,1,0,0:0:0:0:
96,192,145600,1,0,0:0:0:0:
160,192,145600,1,0,0:0:0:0:
402,192,145760,1,0,0:0:0:0:
224,192,145760,1,0,0:0:0:0:
256,192,145920,1,0,0:0:0:0:
329,192,145920,1,0,0:0:0:0:
32,192,145920,1,0,0:0:0:0:
475,192,146080,1,0,0:0:0:0:
224,192,146240,1,0,0:0:0:0:
160,192,146240,1,0,0:0:0:0:
402,192,146400,1,0,0:0:0:0:
256,192,146560,1,0,0:0:0:0:
96,192,146560,1,0,0:0:0:0:
329,192,146720,1,0,0:0:0:0:
402,192,146880,1,0,0:0:0:0:
475,192,146880,1,0,0:0:0:0:
224,192,146880,1,0,0:0:0:0:
256,192,147040,1,0,0:0:0:0:
329,192,147200,1,0,0:0:0:0:
160,192,147200,1,0,0:0:0:0:
402,192,147360,1,0,0:0:0:0:
329,192,147520,1,0,0:0:0:0:
96,192,147520,1,0,0:0:0:0:
224,192,147520,1,0,0:0:0:0:
256,192,147680,1,0,0:0:0:0:
160,192,147840,1,0,0:0:0:0:
402,192,147840,1,0,0:0:0:0:
475,192,148000,1,0,0:0:0:0:
96,192,148160,1,0,0:0:0:0:
329,192,148160,1,0,0:0:0:0:
224,192,148160,1,0,0:0:0:0:
402,192,148320,1,0,0:0:0:0:
256,192,148480,1,0,0:0:0:0:
160,192,148480,1,0,0:0:0:0:
329,192,148640,1,0,0:0:0:0:
96,192,148800,1,0,0:0:0:0:
475,192,148800,1,0,0:0:0:0:
402,192,148800,1,0,0:0:0:0:
224,192,148960,1,0,0:0:0:0:
160,192,149120,1,0,0:0:0:0:
329,192,149120,1,0,0:0:0:0:
402,192,149280,1,0,0:0:0:0:
329,192,149440,1,0,0:0:0:0:
96,192,149440,1,0,0:0:0:0:
475,192,149440,1,0,0:0:0:0:
224,192,149600,1,0,0:0:0:0:
160,192,149760,1,0,0:0:0:0:
96,192,149760,1,0,0:0:0:0:
475,192,149920,1,0,0:0:0:0:
224,192,150080,1,0,0:0:0:0:
329,192,150080,1,0,0:0:0:0:
160,192,150080,1,0,0:0:0:0:
475,192,150240,1,0,0:0:0:0:
224,192,150400,1,0,0:0:0:0:
256,192,150400,1,0,0:0:0:0:
402,192,150560,1,0,0:0:0:0:
96,192,150720,1,0,0:0:0:0:
329,192,150720,1,0,0:0:0:0:
256,192,150720,1,0,0:0:0:0:
160,192,150880,1,0,0:0:0:0:
402,192,150880,1,0,0:0:0:0:
224,192,151040,1,0,0:0:0:0:
475,192,151040,1,0,0:0:0:0:
96,192,151200,1,0,0:0:0:0:
329,192,151360,1,0,0:0:0:0:
160,192,151360,1,0,0:0:0:0:
475,192,151360,1,0,0:0:0:0:
402,192,151520,1,0,0:0:0:0:
329,192,151680,1,0,0:0:0:0:
224,192,151680,1,0,0:0:0:0:
402,192,151840,1,0,0:0:0:0:
475,192,152000,1,0,0:0:0:0:
224,192,152000,1,0,0:0:0:0:
96,192,152000,1,0,0:0:0:0:
402,192,152160,1,0,0:0:0:0:
160,192,152320,1,0,0:0:0:0:
329,192,152320,1,0,0:0:0:0:
475,192,152480,1,0,0:0:0:0:
224,192,152640,1,0,0:0:0:0:
402,192,152640,1,0,0:0:0:0:
256,192,152640,1,0,0:0:0:0:
160,192,152800,1,0,0:0:0:0:
96,192,152960,1,0,0:0:0:0:
329,192,152960,1,0,0:0:0:0:
256,192,153120,1,0,0:0:0:0:
160,192,153280,1,0,0:0:0:0:
224,192,153280,1,0,0:0:0:0:
475,192,153280,1,0,0:0:0:0:
402,192,153440,1,0,0:0:0:0:
475,192,153600,1,0,0:0:0:0:
329,192,153600,1,0,0:0:0:0:
256,192,153760,1,0,0:0:0:0:
402,192,153920,1,0,0:0:0:0:
96,192,153920,1,0,0:0:0:0:
224,192,153920,1,0,0:0:0:0:
160,192,154080,1,0,0:0:0:0:
329,192,154240,1,0,0:0:0:0:
96,192,154240,1,0,0:0:0:0:
160,192,154400,1,0,0:0:0:0:
475,192,154560,1,0,0:0:0:0:
224,192,154560,1,0,0:0:0:0:
256,192,154560,1,0,0:0:0:0:
329,192,154720,1,0,0:0:0:0:
475,192,154880,1,0,0:0:0:0:
96,192,154880,1,0,0:0:0:0:
160,192,155040,1,0,0:0:0:0:
329,192,155200,1,0,0:0:0:0:
224,192,155200,1,0,0:0:0:0:
402,192,155200,1,0,0:0:0:0:
475,192,155360,1,0,0:0:0:0:
256,192,155520,1,0,0:0:0:0:
160,192,155520,1,0,0:0:0:0:
475,192,155680,1,0,0:0:0:0:
402,192,155840,1,0,0:0:0:0:
329,192,155840,1,0,0:0:0:0:
96,192,155840,1,0,0:0:0:0:
160,192,156000,1,0,0:0:0:0:
256,192,156000,1,0,0:0:0:0:
480,192,156160,1,0,0:0:0:0:
352,192,156160,1,0,0:0:0:0:
32,192,156160,1,0,0:0:0:0:
224,192,156160,1,0,0:0:0:0:
352,192,156480,1,0,0:0:0:0:
480,192,156480,1,0,0:0:0:0:
160,192,156480,1,0,0:0:0:0:
416,192,156640,1,0,0:0:0:0:
96,192,156800,1,0,0:0:0:0:
288,192,156800,1,0,0:0:0:0:
352,192,156960,1,0,0:0:0:0:
416,192,157120,1,0,0:0:0:0:
224,192,157120,1,0,0:0:0:0:
96,192,157120,1,0,0:0:0:0:
224,192,157440,1,0,0:0:0:0:
288,192,157440,1,0,0:0:0:0:
416,192,157760,1,0,0:0:0:0:
96,192,157760,1,0,0:0:0:0:
224,192,157760,1,0,0:0:0:0:
288,192,157920,1,0,0:0:0:0:
160,192,158080,1,0,0:0:0:0:
480,192,158080,1,0,0:0:0:0:
416,192,158240,1,0,0:0:0:0:
96,192,158400,1,0,0:0:0:0:
288,192,158400,1,0,0:0:0:0:
352,192,158400,1,0,0:0:0:0:
416,192,158720,1,0,0:0:0:0:
160,192,158720,1,0,0:0:0:0:
224,192,159040,1,0,0:0:0:0:
288,192,159040,1,0,0:0:0:0:
480,192,159040,1,0,0:0:0:0:
160,192,159200,1,0,0:0:0:0:
352,192,159360,1,0,0:0:0:0:
416,192,159360,1,0,0:0:0:0:
224,192,159520,1,0,0:0:0:0:
96,192,159680,1,0,0:0:0:0:
160,192,159680,1,0,0:0:0:0:
288,192,159680,1,0,0:0:0:0:
416,192,160000,1,0,0:0:0:0:
160,192,160000,1,0,0:0:0:0:
96,192,160320,1,0,0:0:0:0:
224,192,160320,1,0,0:0:0:0:
480,192,160320,1,0,0:0:0:0:
160,192,160480,1,0,0:0:0:0:
224,192,160640,1,0,0:0:0:0:
416,192,160640,1,0,0:0:0:0:
352,192,160800,1,0,0:0:0:0:
288,192,160960,1,0,0:0:0:0:
160,192,160960,1,0,0:0:0:0:
480,192,160960,1,0,0:0:0:0:
96,192,161120,1,0,0:0:0:0:
224,192,161120,1,0,0:0:0:0:
416,192,161280,1,0,0:0:0:0:
352,192,161280,1,0,0:0:0:0:
224,192,161600,1,0,0:0:0:0:
96,192,161600,1,0,0:0:0:0:
480,192,161600,1,0,0:0:0:0:
416,192,161760,1,0,0:0:0:0:
288,192,161920,1,0,0:0:0:0:
160,192,161920,1,0,0:0:0:0:
480,192,162080,1,0,0:0:0:0:
224,192,162240,1,0,0:0:0:0:
352,192,162240,1,0,0:0:0:0:
416,192,162240,1,0,0:0:0:0:
288,192,162560,1,0,0:0:0:0:
160,192,162560,1,0,0:0:0:0:
224,192,162880,1,0,0:0:0:0:
96,192,162880,1,0,0:0:0:0:
416,192,162880,1,0,0:0:0:0:
288,192,163040,1,0,0:0:0:0:
352,192,163200,1,0,0:0:0:0:
480,192,163200,1,0,0:0:0:0:
224,192,163360,1,0,0:0:0:0:
288,192,163520,1,0,0:0:0:0:
480,192,163520,1,0,0:0:0:0:
96,192,163520,1,0,0:0:0:0:
160,192,163840,1,0,0:0:0:0:
288,192,163840,1,0,0:0:0:0:
480,192,164160,1,0,0:0:0:0:
352,192,164160,1,0,0:0:0:0:
224,192,164160,1,0,0:0:0:0:
160,192,164320,1,0,0:0:0:0:
96,192,164480,1,0,0:0:0:0:
416,192,164480,1,0,0:0:0:0:
224,192,164640,1,0,0:0:0:0:
160,192,164800,1,0,0:0:0:0:
288,192,164800,1,0,0:0:0:0:
480,192,164800,1,0,0:0:0:0:
160,192,165120,1,0,0:0:0:0:
96,192,165120,1,0,0:0:0:0:
480,192,165440,1,0,0:0:0:0:
352,192,165440,1,0,0:0:0:0:
224,192,165440,1,0,0:0:0:0:
160,192,165600,1,0,0:0:0:0:
416,192,165760,1,0,0:0:0:0:
160,192,165920,1,0,0:0:0:0:
352,192,165920,1,0,0:0:0:0:
288,192,166080,1,0,0:0:0:0:
96,192,166080,1,0,0:0:0:0:
480,192,166080,1,0,0:0:0:0:
224,192,166240,1,0,0:0:0:0:
352,192,166240,1,0,0:0:0:0:
160,192,166400,1,0,0:0:0:0:
32,192,166400,1,0,0:0:0:0:
416,192,166400,1,0,0:0:0:0:
288,192,166560,1,0,0:0:0:0:
480,192,166720,1,0,0:0:0:0:
224,192,166720,1,0,0:0:0:0:
96,192,166720,1,0,0:0:0:0:
416,192,166880,1,0,0:0:0:0:
288,192,167040,1,0,0:0:0:0:
160,192,167040,1,0,0:0:0:0:
480,192,167200,1,0,0:0:0:0:
416,192,167360,1,0,0:0:0:0:
352,192,167360,1,0,0:0:0:0:
224,192,167360,1,0,0:0:0:0:
480,192,167680,1,0,0:0:0:0:
288,192,167680,1,0,0:0:0:0:
352,192,167840,1,0,0:0:0:0:
416,192,168000,1,0,0:0:0:0:
480,192,168000,1,0,0:0:0:0:
160,192,168000,1,0,0:0:0:0:
288,192,168160,1,0,0:0:0:0:
96,192,168320,1,0,0:0:0:0:
352,192,168320,1,0,0:0:0:0:
160,192,168480,1,0,0:0:0:0:
224,192,168640,1,0,0:0:0:0:
288,192,168640,1,0,0:0:0:0:
416,192,168640,1,0,0:0:0:0:
480,192,168960,1,0,0:0:0:0:
160,192,168960,1,0,0:0:0:0:
288,192,169120,1,0,0:0:0:0:
224,192,169280,1,0,0:0:0:0:
352,192,169280,1,0,0:0:0:0:
480,192,169280,1,0,0:0:0:0:
160,192,169440,1,0,0:0:0:0:
416,192,169600,1,0,0:0:0:0:
288,192,169600,1,0,0:0:0:0:
224,192,169760,1,0,0:0:0:0:
160,192,169920,1,0,0:0:0:0:
352,192,169920,1,0,0:0:0:0:
480,192,169920,1,0,0:0:0:0:
160,192,170240,1,0,0:0:0:0:
288,192,170240,1,0,0:0:0:0:
352,192,170400,1,0,0:0:0:0:
416,192,170560,1,0,0:0:0:0:
480,192,170560,1,0,0:0:0:0:
224,192,170560,1,0,0:0:0:0:
160,192,170720,1,0,0:0:0:0:
96,192,170880,1,0,0:0:0:0:
416,192,170880,1,0,0:0:0:0:
352,192,171040,1,0,0:0:0:0:
96,192,171200,1,0,0:0:0:0:
288,192,171200,1,0,0:0:0:0:
480,192,171200,1,0,0:0:0:0:
160,192,171360,1,0,0:0:0:0:
352,192,171360,1,0,0:0:0:0:
224,192,171520,1,0,0:0:0:0:
416,192,171520,1,0,0:0:0:0:
288,192,171680,1,0,0:0:0:0:
160,192,171840,1,0,0:0:0:0:
352,192,171840,1,0,0:0:0:0:
480,192,171840,1,0,0:0:0:0:
416,192,172000,1,0,0:0:0:0:
96,192,172160,1,0,0:0:0:0:
352,192,172160,1,0,0:0:0:0:
160,192,172320,1,0,0:0:0:0:
224,192,172480,1,0,0:0:0:0:
416,192,172480,1,0,0:0:0:0:
480,192,172480,1,0,0:0:0:0:
352,192,172640,1,0,0:0:0:0:
288,192,172800,1,0,0:0:0:0:
160,192,172800,1,0,0:0:0:0:
224,192,172960,1,0,0:0:0:0:
480,192,173120,1,0,0:0:0:0:
352,192,173120,1,0,0:0:0:0:
96,192,173120,1,0,0:0:0:0:
288,192,173280,1,0,0:0:0:0:
160,192,173440,1,0,0:0:0:0:
224,192,173440,1,0,0:0:0:0:
416,192,173600,1,0,0:0:0:0:
96,192,173760,1,0,0:0:0:0:
288,192,173760,1,0,0:0:0:0:
352,192,173760,1,0,0:0:0:0:
224,192,173920,1,0,0:0:0:0:
480,192,174080,1,0,0:0:0:0:
160,192,174080,1,0,0:0:0:0:
352,192,174240,1,0,0:0:0:0:
288,192,174400,1,0,0:0:0:0:
416,192,174400,1,0,0:0:0:0:
96,192,174400,1,0,0:0:0:0:
160,192,174560,1,0,0:0:0:0:
480,192,174560,1,0,0:0:0:0:
352,192,174720,1,0,0:0:0:0:
96,192,174880,1,0,0:0:0:0:
416,192,175040,1,0,0:0:0:0:
288,192,175040,1,0,0:0:0:0:
160,192,175040,1,0,0:0:0:0:
224,192,175200,1,0,0:0:0:0:
32,192,175360,1,0,0:0:0:0:
352,192,175360,1,0,0:0:0:0:
480,192,175360,1,0,0:0:0:0:
224,192,175520,1,0,0:0:0:0:
480,192,175680,1,0,0:0:0:0:
32,192,175680,1,0,0:0:0:0:
288,192,175680,1,0,0:0:0:0:
352,192,175680,1,0,0:0:0:0:
224,192,175840,1,0,0:0:0:0:
32,192,176000,1,0,0:0:0:0:
352,192,176000,1,0,0:0:0:0:
480,192,176000,1,0,0:0:0:0:
224,192,176160,1,0,0:0:0:0:
32,192,176320,1,0,0:0:0:0:
480,192,176320,1,0,0:0:0:0:
288,192,176320,1,0,0:0:0:0:
352,192,176320,1,0,0:0:0:0:
224,192,176480,1,0,0:0:0:0:
32,192,176640,1,0,0:0:0:0:
480,192,176640,1,0,0:0:0:0:
416,192,176640,1,0,0:0:0:0:
288,192,176640,1,0,0:0:0:0:
416,192,176960,1,0,0:0:0:0:
416,192,177280,1,0,0:0:0:0:
416,192,177600,1,0,0:0:0:0:
288,192,177920,1,0,0:0:0:0:
288,192,178240,1,0,0:0:0:0:
288,192,178560,1,0,0:0:0:0:
288,192,178880,1,0,0:0:0:0:
160,192,179200,1,0,0:0:0:0:
160,192,179520,1,0,0:0:0:0:
160,192,179840,1,0,0:0:0:0:
160,192,180160,1,0,0:0:0:0:
288,192,180480,1,0,0:0:0:0:
288,192,180800,1,0,0:0:0:0:
288,192,181120,1,0,0:0:0:0:
288,192,181440,1,0,0:0:0:0:
480,192,181760,1,0,0:0:0:0:
480,192,182080,1,0,0:0:0:0:
480,192,182400,1,0,0:0:0:0:
480,192,182720,1,0,0:0:0:0:
352,192,183040,1,0,0:0:0:0:
352,192,183360,1,0,0:0:0:0:
352,192,183680,1,0,0:0:0:0:
352,192,184000,1,0,0:0:0:0:
96,192,184320,1,0,0:0:0:0:
96,192,184640,1,0,0:0:0:0:
96,192,184960,1,0,0:0:0:0:
96,192,185280,1,0,0:0:0:0:
224,192,185600,1,0,0:0:0:0:
224,192,185920,1,0,0:0:0:0:
224,192,186240,1,0,0:0:0:0:
224,192,186560,1,0,0:0:0:0:
352,192,186880,1,0,0:0:0:0:
32,192,186880,1,0,0:0:0:0:
352,192,187200,1,0,0:0:0:0:
480,192,187200,1,0,0:0:0:0:
96,192,187520,1,0,0:0:0:0:
352,192,187840,1,0,0:0:0:0:
480,192,187840,1,0,0:0:0:0:
224,192,188160,1,0,0:0:0:0:
224,192,188480,1,0,0:0:0:0:
96,192,188480,1,0,0:0:0:0:
480,192,188800,1,0,0:0:0:0:
224,192,189120,1,0,0:0:0:0:
96,192,189120,1,0,0:0:0:0:
480,192,189440,1,0,0:0:0:0:
480,192,189760,1,0,0:0:0:0:
224,192,189760,1,0,0:0:0:0:
352,192,190080,1,0,0:0:0:0:
352,192,190400,1,0,0:0:0:0:
224,192,190400,1,0,0:0:0:0:
96,192,190720,1,0,0:0:0:0:
96,192,191040,1,0,0:0:0:0:
352,192,191040,1,0,0:0:0:0:
224,192,191360,1,0,0:0:0:0:
224,192,191680,1,0,0:0:0:0:
352,192,191680,1,0,0:0:0:0:
96,192,192000,1,0,0:0:0:0:
480,192,192000,1,0,0:0:0:0:
480,192,192320,1,0,0:0:0:0:
352,192,192320,1,0,0:0:0:0:
224,192,192640,1,0,0:0:0:0:
224,192,192960,1,0,0:0:0:0:
96,192,192960,1,0,0:0:0:0:
480,192,193280,1,0,0:0:0:0:
480,192,193600,1,0,0:0:0:0:
224,192,193600,1,0,0:0:0:0:
96,192,193920,1,0,0:0:0:0:
96,192,194240,1,0,0:0:0:0:
352,192,194240,1,0,0:0:0:0:
224,192,194560,1,0,0:0:0:0:
224,192,194880,1,0,0:0:0:0:
480,192,194880,1,0,0:0:0:0:
352,192,195200,1,0,0:0:0:0:
352,192,195520,1,0,0:0:0:0:
96,192,195520,1,0,0:0:0:0:
480,192,195840,1,0,0:0:0:0:
96,192,196160,1,0,0:0:0:0:
352,192,196160,1,0,0:0:0:0:
224,192,196480,1,0,0:0:0:0:
480,192,196800,1,0,0:0:0:0:
352,192,197120,1,0,0:0:0:0:
224,192,197120,1,0,0:0:0:0:
224,192,197760,1,0,0:0:0:0:
96,192,197760,1,0,0:0:0:0:
352,192,197920,1,0,0:0:0:0:
480,192,197920,1,0,0:0:0:0:
160,192,198080,1,0,0:0:0:0:
416,192,198080,1,0,0:0:0:0:
96,192,198400,1,0,0:0:0:0:
480,192,198400,1,0,0:0:0:0:
352,192,199040,1,0,0:0:0:0:
480,192,199040,1,0,0:0:0:0:
224,192,199200,1,0,0:0:0:0:
96,192,199200,1,0,0:0:0:0:
160,192,199360,1,0,0:0:0:0:
416,192,199360,1,0,0:0:0:0:
224,192,199680,1,0,0:0:0:0:
352,192,199680,1,0,0:0:0:0:
224,192,200320,1,0,0:0:0:0:
160,192,200320,1,0,0:0:0:0:
352,192,200480,1,0,0:0:0:0:
416,192,200480,1,0,0:0:0:0:
480,192,200640,1,0,0:0:0:0:
96,192,200640,1,0,0:0:0:0:
160,192,200960,1,0,0:0:0:0:
416,192,200960,1,0,0:0:0:0:
416,192,201600,1,0,0:0:0:0:
352,192,201600,1,0,0:0:0:0:
224,192,201760,1,0,0:0:0:0:
160,192,201760,1,0,0:0:0:0:
96,192,201920,1,0,0:0:0:0:
480,192,201920,1,0,0:0:0:0:
352,192,202240,1,0,0:0:0:0:
224,192,202240,1,0,0:0:0:0:
96,192,202880,1,0,0:0:0:0:
160,192,202880,1,0,0:0:0:0:
416,192,203040,1,0,0:0:0:0:
480,192,203040,1,0,0:0:0:0:
224,192,203200,1,0,0:0:0:0:
352,192,203200,1,0,0:0:0:0:
416,192,203520,1,0,0:0:0:0:
160,192,203520,1,0,0:0:0:0:
416,192,204160,1,0,0:0:0:0:
480,192,204160,1,0,0:0:0:0:
96,192,204320,1,0,0:0:0:0:
160,192,204320,1,0,0:0:0:0:
224,192,204480,1,0,0:0:0:0:
352,192,204480,1,0,0:0:0:0:
480,192,204800,1,0,0:0:0:0:
96,192,204800,1,0,0:0:0:0:
96,192,205440,1,0,0:0:0:0:
352,192,205440,1,0,0:0:0:0:
160,192,205600,1,0,0:0:0:0:
416,192,205600,1,0,0:0:0:0:
224,192,205760,1,0,0:0:0:0:
480,192,205760,1,0,0:0:0:0:
96,192,206080,1,0,0:0:0:0:
352,192,206080,1,0,0:0:0:0:
480,192,206720,1,0,0:0:0:0:
224,192,206720,1,0,0:0:0:0:
416,192,206880,1,0,0:0:0:0:
160,192,206880,1,0,0:0:0:0:
352,192,207040,1,0,0:0:0:0:
96,192,207040,1,0,0:0:0:0:
224,192,207360,1,0,0:0:0:0:
480,192,207360,1,0,0:0:0:0:
32,192,207360,1,0,0:0:0:0:
96,192,208000,1,0,0:0:0:0:
480,192,208000,1,0,0:0:0:0:
160,192,208160,1,0,0:0:0:0:
416,192,208160,1,0,0:0:0:0:
224,192,208320,1,0,0:0:0:0:
352,192,208320,1,0,0:0:0:0:
96,192,208640,1,0,0:0:0:0:
480,192,208640,1,0,0:0:0:0:
160,192,208800,1,0,0:0:0:0:
224,192,208960,1,0,0:0:0:0:
352,192,208960,1,0,0:0:0:0:
416,192,209120,1,0,0:0:0:0:
480,192,209280,1,0,0:0:0:0:
96,192,209280,1,0,0:0:0:0:
160,192,209440,1,0,0:0:0:0:
416,192,209440,1,0,0:0:0:0:
224,192,209600,1,0,0:0:0:0:
352,192,209600,1,0,0:0:0:0:
160,192,209760,1,0,0:0:0:0:
416,192,209760,1,0,0:0:0:0:
96,192,209920,1,0,0:0:0:0:
32,192,209920,1,0,0:0:0:0:
480,192,209920,1,0,0:0:0:0:
288,192,209920,1,0,0:0:0:0:
224,192,210080,1,0,0:0:0:0:
160,192,210240,1,0,0:0:0:0:
352,192,210240,1,0,0:0:0:0:
416,192,210240,1,0,0:0:0:0:
475,192,210400,1,0,0:0:0:0:
256,192,210560,1,0,0:0:0:0:
402,192,210560,1,0,0:0:0:0:
329,192,210720,1,0,0:0:0:0:
160,192,210880,1,0,0:0:0:0:
96,192,210880,1,0,0:0:0:0:
475,192,210880,1,0,0:0:0:0:
402,192,211040,1,0,0:0:0:0:
256,192,211200,1,0,0:0:0:0:
329,192,211200,1,0,0:0:0:0:
224,192,211360,1,0,0:0:0:0:
160,192,211520,1,0,0:0:0:0:
475,192,211520,1,0,0:0:0:0:
329,192,211520,1,0,0:0:0:0:
96,192,211680,1,0,0:0:0:0:
224,192,211840,1,0,0:0:0:0:
402,192,211840,1,0,0:0:0:0:
329,192,212000,1,0,0:0:0:0:
96,192,212160,1,0,0:0:0:0:
256,192,212160,1,0,0:0:0:0:
475,192,212160,1,0,0:0:0:0:
329,192,212320,1,0,0:0:0:0:
256,192,212480,1,0,0:0:0:0:
160,192,212480,1,0,0:0:0:0:
224,192,212640,1,0,0:0:0:0:
256,192,212800,1,0,0:0:0:0:
475,192,212800,1,0,0:0:0:0:
402,192,212800,1,0,0:0:0:0:
96,192,212960,1,0,0:0:0:0:
329,192,213120,1,0,0:0:0:0:
160,192,213120,1,0,0:0:0:0:
224,192,213280,1,0,0:0:0:0:
402,192,213440,1,0,0:0:0:0:
256,192,213440,1,0,0:0:0:0:
475,192,213440,1,0,0:0:0:0:
96,192,213600,1,0,0:0:0:0:
402,192,213760,1,0,0:0:0:0:
224,192,213760,1,0,0:0:0:0:
256,192,213920,1,0,0:0:0:0:
96,192,214080,1,0,0:0:0:0:
329,192,214080,1,0,0:0:0:0:
475,192,214080,1,0,0:0:0:0:
256,192,214240,1,0,0:0:0:0:
160,192,214400,1,0,0:0:0:0:
224,192,214400,1,0,0:0:0:0:
329,192,214560,1,0,0:0:0:0:
402,192,214720,1,0,0:0:0:0:
96,192,214720,1,0,0:0:0:0:
475,192,214720,1,0,0:0:0:0:
160,192,214880,1,0,0:0:0:0:
329,192,214880,1,0,0:0:0:0:
224,192,215040,1,0,0:0:0:0:
256,192,215040,1,0,0:0:0:0:
402,192,215200,1,0,0:0:0:0:
160,192,215360,1,0,0:0:0:0:
224,192,215360,1,0,0:0:0:0:
329,192,215360,1,0,0:0:0:0:
475,192,215520,1,0,0:0:0:0:
256,192,215680,1,0,0:0:0:0:
96,192,215680,1,0,0:0:0:0:
224,192,215840,1,0,0:0:0:0:
160,192,216000,1,0,0:0:0:0:
402,192,216000,1,0,0:0:0:0:
329,192,216000,1,0,0:0:0:0:
475,192,216160,1,0,0:0:0:0:
256,192,216320,1,0,0:0:0:0:
96,192,216320,1,0,0:0:0:0:
224,192,216480,1,0,0:0:0:0:
475,192,216640,1,0,0:0:0:0:
160,192,216640,1,0,0:0:0:0:
329,192,216640,1,0,0:0:0:0:
402,192,216800,1,0,0:0:0:0:
224,192,216960,1,0,0:0:0:0:
256,192,216960,1,0,0:0:0:0:
96,192,217120,1,0,0:0:0:0:
160,192,217280,1,0,0:0:0:0:
402,192,217280,1,0,0:0:0:0:
256,192,217280,1,0,0:0:0:0:
475,192,217440,1,0,0:0:0:0:
329,192,217600,1,0,0:0:0:0:
224,192,217600,1,0,0:0:0:0:
96,192,217760,1,0,0:0:0:0:
402,192,217920,1,0,0:0:0:0:
160,192,217920,1,0,0:0:0:0:
256,192,217920,1,0,0:0:0:0:
475,192,218080,1,0,0:0:0:0:
224,192,218240,1,0,0:0:0:0:
402,192,218240,1,0,0:0:0:0:
256,192,218400,1,0,0:0:0:0:
96,192,218560,1,0,0:0:0:0:
329,192,218560,1,0,0:0:0:0:
224,192,218560,1,0,0:0:0:0:
475,192,218720,1,0,0:0:0:0:
256,192,218880,1,0,0:0:0:0:
160,192,218880,1,0,0:0:0:0:
402,192,219040,1,0,0:0:0:0:
160,192,219200,1,0,0:0:0:0:
475,192,219200,1,0,0:0:0:0:
329,192,219200,1,0,0:0:0:0:
96,192,219360,1,0,0:0:0:0:
224,192,219520,1,0,0:0:0:0:
402,192,219520,1,0,0:0:0:0:
329,192,219680,1,0,0:0:0:0:
256,192,219840,1,0,0:0:0:0:
96,192,219840,1,0,0:0:0:0:
475,192,219840,1,0,0:0:0:0:
224,192,220000,1,0,0:0:0:0:
402,192,220000,1,0,0:0:0:0:
160,192,220160,1,0,0:0:0:0:
329,192,220160,1,0,0:0:0:0:
32,192,220160,1,0,0:0:0:0:
256,192,220320,1,0,0:0:0:0:
224,192,220480,1,0,0:0:0:0:
96,192,220480,1,0,0:0:0:0:
402,192,220640,1,0,0:0:0:0:
475,192,220800,1,0,0:0:0:0:
329,192,220800,1,0,0:0:0:0:
256,192,220960,1,0,0:0:0:0:
402,192,221120,1,0,0:0:0:0:
224,192,221120,1,0,0:0:0:0:
96,192,221120,1,0,0:0:0:0:
329,192,221280,1,0,0:0:0:0:
160,192,221440,1,0,0:0:0:0:
256,192,221440,1,0,0:0:0:0:
224,192,221600,1,0,0:0:0:0:
96,192,221760,1,0,0:0:0:0:
329,192,221760,1,0,0:0:0:0:
475,192,221760,1,0,0:0:0:0:
402,192,221920,1,0,0:0:0:0:
160,192,222080,1,0,0:0:0:0:
256,192,222080,1,0,0:0:0:0:
224,192,222240,1,0,0:0:0:0:
96,192,222400,1,0,0:0:0:0:
329,192,222400,1,0,0:0:0:0:
402,192,222400,1,0,0:0:0:0:
475,192,222560,1,0,0:0:0:0:
329,192,222720,1,0,0:0:0:0:
160,192,222720,1,0,0:0:0:0:
256,192,222880,1,0,0:0:0:0:
402,192,223040,1,0,0:0:0:0:
224,192,223040,1,0,0:0:0:0:
475,192,223040,1,0,0:0:0:0:
96,192,223200,1,0,0:0:0:0:
224,192,223360,1,0,0:0:0:0:
402,192,223360,1,0,0:0:0:0:
329,192,223520,1,0,0:0:0:0:
160,192,223680,1,0,0:0:0:0:
475,192,223680,1,0,0:0:0:0:
256,192,223680,1,0,0:0:0:0:
402,192,223840,1,0,0:0:0:0:
475,192,224000,1,0,0:0:0:0:
329,192,224000,1,0,0:0:0:0:
256,192,224160,1,0,0:0:0:0:
224,192,224320,1,0,0:0:0:0:
96,192,224320,1,0,0:0:0:0:
480,192,224320,1,0,0:0:0:0:
402,192,224480,1,0,0:0:0:0:
329,192,224640,1,0,0:0:0:0:
256,192,224640,1,0,0:0:0:0:
96,192,224800,1,0,0:0:0:0:
475,192,224960,1,0,0:0:0:0:
329,192,224960,1,0,0:0:0:0:
224,192,224960,1,0,0:0:0:0:
160,192,225120,1,0,0:0:0:0:
402,192,225120,1,0,0:0:0:0:
475,192,225280,1,0,0:0:0:0:
96,192,225280,1,0,0:0:0:0:
402,192,225440,1,0,0:0:0:0:
224,192,225600,1,0,0:0:0:0:
96,192,225600,1,0,0:0:0:0:
329,192,225600,1,0,0:0:0:0:
475,192,225760,1,0,0:0:0:0:
402,192,225920,1,0,0:0:0:0:
256,192,225920,1,0,0:0:0:0:
224,192,226080,1,0,0:0:0:0:
160,192,226240,1,0,0:0:0:0:
475,192,226240,1,0,0:0:0:0:
329,192,226240,1,0,0:0:0:0:
96,192,226400,1,0,0:0:0:0:
329,192,226560,1,0,0:0:0:0:
402,192,226560,1,0,0:0:0:0:
224,192,226720,1,0,0:0:0:0:
160,192,226880,1,0,0:0:0:0:
256,192,226880,1,0,0:0:0:0:
475,192,226880,1,0,0:0:0:0:
402,192,227040,1,0,0:0:0:0:
256,192,227200,1,0,0:0:0:0:
224,192,227200,1,0,0:0:0:0:
402,192,227360,1,0,0:0:0:0:
96,192,227520,1,0,0:0:0:0:
475,192,227520,1,0,0:0:0:0:
329,192,227520,1,0,0:0:0:0:
160,192,227680,1,0,0:0:0:0:
224,192,227840,1,0,0:0:0:0:
402,192,227840,1,0,0:0:0:0:
96,192,228000,1,0,0:0:0:0:
224,192,228160,1,0,0:0:0:0:
329,192,228160,1,0,0:0:0:0:
475,192,228160,1,0,0:0:0:0:
402,192,228320,1,0,0:0:0:0:
256,192,228480,1,0,0:0:0:0:
160,192,228480,1,0,0:0:0:0:
224,192,228640,1,0,0:0:0:0:
475,192,228800,1,0,0:0:0:0:
96,192,228800,1,0,0:0:0:0:
329,192,228800,1,0,0:0:0:0:
402,192,228960,1,0,0:0:0:0:
160,192,229120,1,0,0:0:0:0:
329,192,229120,1,0,0:0:0:0:
475,192,229280,1,0,0:0:0:0:
402,192,229440,1,0,0:0:0:0:
224,192,229440,1,0,0:0:0:0:
256,192,229440,1,0,0:0:0:0:
475,192,229600,1,0,0:0:0:0:
329,192,229760,1,0,0:0:0:0:
160,192,229760,1,0,0:0:0:0:
224,192,229920,1,0,0:0:0:0:
402,192,230080,1,0,0:0:0:0:
475,192,230080,1,0,0:0:0:0:
96,192,230080,1,0,0:0:0:0:
160,192,230240,1,0,0:0:0:0:
329,192,230240,1,0,0:0:0:0:
256,192,230400,1,0,0:0:0:0:
32,192,230400,1,0,0:0:0:0:
224,192,230400,1,0,0:0:0:0:
416,192,230560,1,0,0:0:0:0:
224,192,230720,1,0,0:0:0:0:
96,192,230720,1,0,0:0:0:0:
352,192,230720,1,0,0:0:0:0:
256,192,230880,1,0,0:0:0:0:
224,192,231040,1,0,0:0:0:0:
480,192,231040,1,0,0:0:0:0:
160,192,231200,1,0,0:0:0:0:
96,192,231360,1,0,0:0:0:0:
416,192,231360,1,0,0:0:0:0:
256,192,231360,1,0,0:0:0:0:
224,192,231520,1,0,0:0:0:0:
329,192,231680,1,0,0:0:0:0:
160,192,231680,1,0,0:0:0:0:
402,192,231840,1,0,0:0:0:0:
96,192,232000,1,0,0:0:0:0:
475,192,232000,1,0,0:0:0:0:
224,192,232000,1,0,0:0:0:0:
256,192,232160,1,0,0:0:0:0:
329,192,232320,1,0,0:0:0:0:
96,192,232320,1,0,0:0:0:0:
160,192,232480,1,0,0:0:0:0:
329,192,232640,1,0,0:0:0:0:
224,192,232640,1,0,0:0:0:0:
475,192,232640,1,0,0:0:0:0:
402,192,232800,1,0,0:0:0:0:
160,192,232960,1,0,0:0:0:0:
329,192,232960,1,0,0:0:0:0:
475,192,233120,1,0,0:0:0:0:
402,192,233280,1,0,0:0:0:0:
224,192,233280,1,0,0:0:0:0:
256,192,233280,1,0,0:0:0:0:
96,192,233440,1,0,0:0:0:0:
256,192,233600,1,0,0:0:0:0:
475,192,233600,1,0,0:0:0:0:
402,192,233760,1,0,0:0:0:0:
224,192,233920,1,0,0:0:0:0:
329,192,233920,1,0,0:0:0:0:
96,192,234080,1,0,0:0:0:0:
256,192,234240,1,0,0:0:0:0:
402,192,234240,1,0,0:0:0:0:
224,192,234240,1,0,0:0:0:0:
160,192,234400,1,0,0:0:0:0:
96,192,234560,1,0,0:0:0:0:
329,192,234560,1,0,0:0:0:0:
402,192,234720,1,0,0:0:0:0:
160,192,234880,1,0,0:0:0:0:
256,192,234880,1,0,0:0:0:0:
329,192,235040,1,0,0:0:0:0:
475,192,235200,1,0,0:0:0:0:
224,192,235200,1,0,0:0:0:0:
96,192,235200,1,0,0:0:0:0:
256,192,235360,1,0,0:0:0:0:
402,192,235360,1,0,0:0:0:0:
329,192,235520,1,0,0:0:0:0:
160,192,235520,1,0,0:0:0:0:
475,192,235680,1,0,0:0:0:0:
224,192,235840,1,0,0:0:0:0:
96,192,235840,1,0,0:0:0:0:
256,192,235840,1,0,0:0:0:0:
402,192,236000,1,0,0:0:0:0:
160,192,236160,1,0,0:0:0:0:
329,192,236160,1,0,0:0:0:0:
256,192,236320,1,0,0:0:0:0:
96,192,236480,1,0,0:0:0:0:
402,192,236480,1,0,0:0:0:0:
475,192,236480,1,0,0:0:0:0:
224,192,236640,1,0,0:0:0:0:
329,192,236800,1,0,0:0:0:0:
475,192,236800,1,0,0:0:0:0:
160,192,236960,1,0,0:0:0:0:
224,192,237120,1,0,0:0:0:0:
256,192,237120,1,0,0:0:0:0:
402,192,237120,1,0,0:0:0:0:
329,192,237280,1,0,0:0:0:0:
96,192,237440,1,0,0:0:0:0:
160,192,237440,1,0,0:0:0:0:
224,192,237600,1,0,0:0:0:0:
475,192,237760,1,0,0:0:0:0:
256,192,237760,1,0,0:0:0:0:
329,192,237760,1,0,0:0:0:0:
402,192,237920,1,0,0:0:0:0:
475,192,238080,1,0,0:0:0:0:
160,192,238080,1,0,0:0:0:0:
402,192,238240,1,0,0:0:0:0:
224,192,238400,1,0,0:0:0:0:
96,192,238400,1,0,0:0:0:0:
329,192,238400,1,0,0:0:0:0:
475,192,238560,1,0,0:0:0:0:
160,192,238720,1,0,0:0:0:0:
256,192,238720,1,0,0:0:0:0:
329,192,238880,1,0,0:0:0:0:
402,192,239040,1,0,0:0:0:0:
96,192,239040,1,0,0:0:0:0:
224,192,239040,1,0,0:0:0:0:
256,192,239200,1,0,0:0:0:0:
329,192,239360,1,0,0:0:0:0:
475,192,239360,1,0,0:0:0:0:
160,192,239520,1,0,0:0:0:0:
256,192,239680,1,0,0:0:0:0:
224,192,239680,1,0,0:0:0:0:
402,192,239680,1,0,0:0:0:0:
329,192,239840,1,0,0:0:0:0:
256,192,240000,1,0,0:0:0:0:
160,192,240000,1,0,0:0:0:0:
416,192,240160,1,0,0:0:0:0:
480,192,240320,1,0,0:0:0:0:
96,192,240320,1,0,0:0:0:0:
288,192,240320,1,0,0:0:0:0:
352,192,240480,1,0,0:0:0:0:
160,192,240480,1,0,0:0:0:0:
32,192,240640,1,0,0:0:0:0:
416,192,240640,1,0,0:0:0:0:
224,192,240640,1,0,0:0:0:0:
402,192,240960,1,0,0:0:0:0:
256,192,240960,1,0,0:0:0:0:
224,192,240960,1,0,0:0:0:0:
96,192,241120,1,0,0:0:0:0:
475,192,241280,1,0,0:0:0:0:
224,192,241280,1,0,0:0:0:0:
329,192,241440,1,0,0:0:0:0:
256,192,241600,1,0,0:0:0:0:
96,192,241600,1,0,0:0:0:0:
402,192,241600,1,0,0:0:0:0:
224,192,241760,1,0,0:0:0:0:
352,192,241920,1,0,0:0:0:0:
480,192,241920,1,0,0:0:0:0:
224,192,242080,1,0,0:0:0:0:
475,192,242240,1,0,0:0:0:0:
96,192,242240,1,0,0:0:0:0:
256,192,242240,1,0,0:0:0:0:
160,192,242400,1,0,0:0:0:0:
402,192,242560,1,0,0:0:0:0:
224,192,242560,1,0,0:0:0:0:
256,192,242720,1,0,0:0:0:0:
475,192,242880,1,0,0:0:0:0:
329,192,242880,1,0,0:0:0:0:
160,192,242880,1,0,0:0:0:0:
96,192,243040,1,0,0:0:0:0:
402,192,243200,1,0,0:0:0:0:
224,192,243200,1,0,0:0:0:0:
256,192,243520,1,0,0:0:0:0:
96,192,243520,1,0,0:0:0:0:
475,192,243520,1,0,0:0:0:0:
224,192,243680,1,0,0:0:0:0:
402,192,243840,1,0,0:0:0:0:
352,192,243840,1,0,0:0:0:0:
224,192,244160,1,0,0:0:0:0:
329,192,244160,1,0,0:0:0:0:
480,192,244160,1,0,0:0:0:0:
96,192,244320,1,0,0:0:0:0:
475,192,244480,1,0,0:0:0:0:
256,192,244480,1,0,0:0:0:0:
224,192,244640,1,0,0:0:0:0:
329,192,244800,1,0,0:0:0:0:
96,192,244800,1,0,0:0:0:0:
160,192,244800,1,0,0:0:0:0:
475,192,244960,1,0,0:0:0:0:
402,192,245120,1,0,0:0:0:0:
224,192,245120,1,0,0:0:0:0:
160,192,245280,1,0,0:0:0:0:
96,192,245440,1,0,0:0:0:0:
256,192,245440,1,0,0:0:0:0:
475,192,245440,1,0,0:0:0:0:
329,192,245600,1,0,0:0:0:0:
160,192,245600,1,0,0:0:0:0:
402,192,245760,1,0,0:0:0:0:
224,192,245760,1,0,0:0:0:0:
96,192,246080,1,0,0:0:0:0:
475,192,246080,1,0,0:0:0:0:
329,192,246080,1,0,0:0:0:0:
224,192,246240,1,0,0:0:0:0:
329,192,246400,1,0,0:0:0:0:
402,192,246400,1,0,0:0:0:0:
475,192,246560,1,0,0:0:0:0:
329,192,246720,1,0,0:0:0:0:
224,192,246720,1,0,0:0:0:0:
256,192,246720,1,0,0:0:0:0:
96,192,246880,1,0,0:0:0:0:
475,192,247040,1,0,0:0:0:0:
224,192,247040,1,0,0:0:0:0:
475,192,247360,1,0,0:0:0:0:
96,192,247360,1,0,0:0:0:0:
256,192,247360,1,0,0:0:0:0:
329,192,247520,1,0,0:0:0:0:
160,192,247680,1,0,0:0:0:0:
256,192,247680,1,0,0:0:0:0:
402,192,247840,1,0,0:0:0:0:
329,192,248000,1,0,0:0:0:0:
224,192,248000,1,0,0:0:0:0:
96,192,248000,1,0,0:0:0:0:
480,192,248160,1,0,0:0:0:0:
160,192,248320,1,0,0:0:0:0:
352,192,248320,1,0,0:0:0:0:
256,192,248640,1,0,0:0:0:0:
224,192,248640,1,0,0:0:0:0:
475,192,248640,1,0,0:0:0:0:
96,192,248800,1,0,0:0:0:0:
329,192,248960,1,0,0:0:0:0:
160,192,248960,1,0,0:0:0:0:
256,192,249120,1,0,0:0:0:0:
402,192,249280,1,0,0:0:0:0:
475,192,249280,1,0,0:0:0:0:
224,192,249280,1,0,0:0:0:0:
329,192,249600,1,0,0:0:0:0:
160,192,249600,1,0,0:0:0:0:
96,192,249760,1,0,0:0:0:0:
329,192,249920,1,0,0:0:0:0:
224,192,249920,1,0,0:0:0:0:
475,192,249920,1,0,0:0:0:0:
160,192,250080,1,0,0:0:0:0:
96,192,250240,1,0,0:0:0:0:
329,192,250240,1,0,0:0:0:0:
402,192,250400,1,0,0:0:0:0:
224,192,250560,1,0,0:0:0:0:
475,192,250560,1,0,0:0:0:0:
352,192,250560,1,0,0:0:0:0:
160,192,250720,1,0,0:0:0:0:
416,192,250720,1,0,0:0:0:0:
480,192,250880,1,0,0:0:0:0:
32,192,250880,1,0,0:0:0:0:
96,192,250880,1,0,0:0:0:0:
352,192,251040,1,0,0:0:0:0:
256,192,251200,1,0,0:0:0:0:
475,192,251200,1,0,0:0:0:0:
160,192,251200,1,0,0:0:0:0:
352,192,251360,1,0,0:0:0:0:
224,192,251520,1,0,0:0:0:0:
480,192,251520,1,0,0:0:0:0:
416,192,251680,1,0,0:0:0:0:
329,192,251840,1,0,0:0:0:0:
96,192,251840,1,0,0:0:0:0:
256,192,251840,1,0,0:0:0:0:
475,192,252000,1,0,0:0:0:0:
224,192,252160,1,0,0:0:0:0:
160,192,252160,1,0,0:0:0:0:
475,192,252320,1,0,0:0:0:0:
329,192,252480,1,0,0:0:0:0:
256,192,252480,1,0,0:0:0:0:
96,192,252480,1,0,0:0:0:0:
160,192,252640,1,0,0:0:0:0:
224,192,252800,1,0,0:0:0:0:
402,192,252800,1,0,0:0:0:0:
352,192,252960,1,0,0:0:0:0:
256,192,253120,1,0,0:0:0:0:
160,192,253120,1,0,0:0:0:0:
475,192,253120,1,0,0:0:0:0:
402,192,253280,1,0,0:0:0:0:
96,192,253440,1,0,0:0:0:0:
329,192,253440,1,0,0:0:0:0:
224,192,253760,1,0,0:0:0:0:
475,192,253760,1,0,0:0:0:0:
256,192,253760,1,0,0:0:0:0:
329,192,253920,1,0,0:0:0:0:
256,192,254080,1,0,0:0:0:0:
160,192,254080,1,0,0:0:0:0:
96,192,254400,1,0,0:0:0:0:
329,192,254400,1,0,0:0:0:0:
256,192,254400,1,0,0:0:0:0:
475,192,254560,1,0,0:0:0:0:
160,192,254720,1,0,0:0:0:0:
224,192,254720,1,0,0:0:0:0:
329,192,254880,1,0,0:0:0:0:
402,192,255040,1,0,0:0:0:0:
256,192,255040,1,0,0:0:0:0:
96,192,255040,1,0,0:0:0:0:
224,192,255200,1,0,0:0:0:0:
256,192,255360,1,0,0:0:0:0:
475,192,255360,1,0,0:0:0:0:
416,192,255520,1,0,0:0:0:0:
160,192,255680,1,0,0:0:0:0:
329,192,255680,1,0,0:0:0:0:
96,192,255680,1,0,0:0:0:0:
224,192,255840,1,0,0:0:0:0:
402,192,255840,1,0,0:0:0:0:
475,192,256000,1,0,0:0:0:0:
256,192,256000,1,0,0:0:0:0:
160,192,256320,1,0,0:0:0:0:
402,192,256320,1,0,0:0:0:0:
329,192,256320,1,0,0:0:0:0:
256,192,256480,1,0,0:0:0:0:
224,192,256640,1,0,0:0:0:0:
96,192,256640,1,0,0:0:0:0:
288,192,256800,1,0,0:0:0:0:
475,192,256960,1,0,0:0:0:0:
160,192,256960,1,0,0:0:0:0:
329,192,256960,1,0,0:0:0:0:
256,192,257120,1,0,0:0:0:0:
224,192,257280,1,0,0:0:0:0:
402,192,257280,1,0,0:0:0:0:
256,192,257600,1,0,0:0:0:0:
329,192,257600,1,0,0:0:0:0:
96,192,257600,1,0,0:0:0:0:
475,192,257760,1,0,0:0:0:0:
402,192,257920,1,0,0:0:0:0:
160,192,257920,1,0,0:0:0:0:
288,192,258080,1,0,0:0:0:0:
329,192,258240,1,0,0:0:0:0:
224,192,258240,1,0,0:0:0:0:
475,192,258240,1,0,0:0:0:0:
96,192,258400,1,0,0:0:0:0:
160,192,258560,1,0,0:0:0:0:
402,192,258560,1,0,0:0:0:0:
475,192,258880,1,0,0:0:0:0:
329,192,258880,1,0,0:0:0:0:
256,192,258880,1,0,0:0:0:0:
224,192,259040,1,0,0:0:0:0:
402,192,259200,1,0,0:0:0:0:
160,192,259200,1,0,0:0:0:0:
96,192,259360,1,0,0:0:0:0:
475,192,259520,1,0,0:0:0:0:
256,192,259520,1,0,0:0:0:0:
224,192,259520,1,0,0:0:0:0:
96,192,259680,1,0,0:0:0:0:
402,192,259840,1,0,0:0:0:0:
224,192,259840,1,0,0:0:0:0:
160,192,260000,1,0,0:0:0:0:
329,192,260000,1,0,0:0:0:0:
256,192,260160,1,0,0:0:0:0:
475,192,260160,1,0,0:0:0:0:
96,192,260160,1,0,0:0:0:0:
329,192,260320,1,0,0:0:0:0:
160,192,260320,1,0,0:0:0:0:
224,192,260480,1,0,0:0:0:0:
402,192,260480,1,0,0:0:0:0:
329,192,260640,1,0,0:0:0:0:
160,192,260640,1,0,0:0:0:0:
96,192,260800,1,0,0:0:0:0:
475,192,260800,1,0,0:0:0:0:
256,192,260800,1,0,0:0:0:0:
329,192,260960,1,0,0:0:0:0:
160,192,260960,1,0,0:0:0:0:
402,192,261120,1,0,0:0:0:0:
32,192,261120,1,0,0:0:0:0:
224,192,261120,1,0,0:0:0:0:
329,192,261440,1,0,0:0:0:0:
96,192,261440,1,0,0:0:0:0:
224,192,261440,1,0,0:0:0:0:
402,192,261600,1,0,0:0:0:0:
256,192,261760,1,0,0:0:0:0:
475,192,261760,1,0,0:0:0:0:
402,192,261920,1,0,0:0:0:0:
96,192,262080,1,0,0:0:0:0:
329,192,262080,1,0,0:0:0:0:
224,192,262080,1,0,0:0:0:0:
224,192,262400,1,0,0:0:0:0:
402,192,262400,1,0,0:0:0:0:
224,192,262720,1,0,0:0:0:0:
475,192,262720,1,0,0:0:0:0:
329,192,262720,1,0,0:0:0:0:
160,192,262880,1,0,0:0:0:0:
96,192,263040,1,0,0:0:0:0:
402,192,263040,1,0,0:0:0:0:
160,192,263200,1,0,0:0:0:0:
224,192,263360,1,0,0:0:0:0:
329,192,263360,1,0,0:0:0:0:
475,192,263360,1,0,0:0:0:0:
329,192,263680,1,0,0:0:0:0:
160,192,263680,1,0,0:0:0:0:
224,192,264000,1,0,0:0:0:0:
96,192,264000,1,0,0:0:0:0:
329,192,264000,1,0,0:0:0:0:
256,192,264160,1,0,0:0:0:0:
329,192,264320,1,0,0:0:0:0:
160,192,264320,1,0,0:0:0:0:
402,192,264480,1,0,0:0:0:0:
224,192,264640,1,0,0:0:0:0:
475,192,264640,1,0,0:0:0:0:
96,192,264640,1,0,0:0:0:0:
402,192,264960,1,0,0:0:0:0:
224,192,264960,1,0,0:0:0:0:
475,192,265280,1,0,0:0:0:0:
96,192,265280,1,0,0:0:0:0:
329,192,265280,1,0,0:0:0:0:
402,192,265440,1,0,0:0:0:0:
160,192,265600,1,0,0:0:0:0:
329,192,265600,1,0,0:0:0:0:
256,192,265760,1,0,0:0:0:0:
329,192,265920,1,0,0:0:0:0:
224,192,265920,1,0,0:0:0:0:
475,192,265920,1,0,0:0:0:0:
256,192,266080,1,0,0:0:0:0:
160,192,266080,1,0,0:0:0:0:
96,192,266240,1,0,0:0:0:0:
329,192,266240,1,0,0:0:0:0:
329,192,266560,1,0,0:0:0:0:
475,192,266560,1,0,0:0:0:0:
224,192,266560,1,0,0:0:0:0:
160,192,266720,1,0,0:0:0:0:
402,192,266880,1,0,0:0:0:0:
96,192,266880,1,0,0:0:0:0:
160,192,267040,1,0,0:0:0:0:
329,192,267200,1,0,0:0:0:0:
475,192,267200,1,0,0:0:0:0:
224,192,267200,1,0,0:0:0:0:
160,192,267520,1,0,0:0:0:0:
402,192,267520,1,0,0:0:0:0:
329,192,267840,1,0,0:0:0:0:
224,192,267840,1,0,0:0:0:0:
96,192,267840,1,0,0:0:0:0:
402,192,268000,1,0,0:0:0:0:
475,192,268160,1,0,0:0:0:0:
160,192,268160,1,0,0:0:0:0:
402,192,268320,1,0,0:0:0:0:
329,192,268480,1,0,0:0:0:0:
224,192,268480,1,0,0:0:0:0:
96,192,268480,1,0,0:0:0:0:
402,192,268800,1,0,0:0:0:0:
224,192,268800,1,0,0:0:0:0:
329,192,269120,1,0,0:0:0:0:
224,192,269120,1,0,0:0:0:0:
475,192,269120,1,0,0:0:0:0:
160,192,269280,1,0,0:0:0:0:
402,192,269440,1,0,0:0:0:0:
96,192,269440,1,0,0:0:0:0:
160,192,269600,1,0,0:0:0:0:
224,192,269760,1,0,0:0:0:0:
475,192,269760,1,0,0:0:0:0:
329,192,269760,1,0,0:0:0:0:
160,192,270080,1,0,0:0:0:0:
329,192,270080,1,0,0:0:0:0:
96,192,270400,1,0,0:0:0:0:
329,192,270400,1,0,0:0:0:0:
224,192,270400,1,0,0:0:0:0:
402,192,270560,1,0,0:0:0:0:
160,192,270720,1,0,0:0:0:0:
475,192,270720,1,0,0:0:0:0:
402,192,270880,1,0,0:0:0:0:
224,192,271040,1,0,0:0:0:0:
329,192,271040,1,0,0:0:0:0:
96,192,271040,1,0,0:0:0:0:
160,192,271200,1,0,0:0:0:0:
402,192,271200,1,0,0:0:0:0:
224,192,271360,1,0,0:0:0:0:
32,192,271360,1,0,0:0:0:0:
475,192,271360,1,0,0:0:0:0:
96,192,271680,1,0,0:0:0:0:
329,192,271680,1,0,0:0:0:0:
475,192,271680,1,0,0:0:0:0:
256,192,272000,1,0,0:0:0:0:
402,192,272000,1,0,0:0:0:0:
224,192,272320,1,0,0:0:0:0:
475,192,272320,1,0,0:0:0:0:
96,192,272320,1,0,0:0:0:0:
160,192,272640,1,0,0:0:0:0:
256,192,272640,1,0,0:0:0:0:
224,192,272960,1,0,0:0:0:0:
475,192,272960,1,0,0:0:0:0:
329,192,272960,1,0,0:0:0:0:
160,192,273280,1,0,0:0:0:0:
402,192,273280,1,0,0:0:0:0:
329,192,273600,1,0,0:0:0:0:
96,192,273600,1,0,0:0:0:0:
224,192,273600,1,0,0:0:0:0:
256,192,273920,1,0,0:0:0:0:
402,192,273920,1,0,0:0:0:0:
96,192,274240,1,0,0:0:0:0:
475,192,274240,1,0,0:0:0:0:
329,192,274240,1,0,0:0:0:0:
402,192,274560,1,0,0:0:0:0:
160,192,274560,1,0,0:0:0:0:
475,192,274880,1,0,0:0:0:0:
96,192,274880,1,0,0:0:0:0:
224,192,274880,1,0,0:0:0:0:
402,192,275200,1,0,0:0:0:0:
256,192,275200,1,0,0:0:0:0:
329,192,275520,1,0,0:0:0:0:
96,192,275520,1,0,0:0:0:0:
224,192,275520,1,0,0:0:0:0:
256,192,275840,1,0,0:0:0:0:
160,192,275840,1,0,0:0:0:0:
475,192,276160,1,0,0:0:0:0:
329,192,276160,1,0,0:0:0:0:
96,192,276160,1,0,0:0:0:0:
256,192,276320,1,0,0:0:0:0:
160,192,276320,1,0,0:0:0:0:
475,192,276480,1,0,0:0:0:0:
224,192,276480,1,0,0:0:0:0:
329,192,276800,1,0,0:0:0:0:
475,192,276800,1,0,0:0:0:0:
96,192,276800,1,0,0:0:0:0:
160,192,277120,1,0,0:0:0:0:
256,192,277120,1,0,0:0:0:0:
224,192,277440,1,0,0:0:0:0:
329,192,277440,1,0,0:0:0:0:
475,192,277440,1,0,0:0:0:0:
256,192,277760,1,0,0:0:0:0:
402,192,277760,1,0,0:0:0:0:
224,192,278080,1,0,0:0:0:0:
96,192,278080,1,0,0:0:0:0:
329,192,278080,1,0,0:0:0:0:
402,192,278400,1,0,0:0:0:0:
256,192,278400,1,0,0:0:0:0:
329,192,278720,1,0,0:0:0:0:
475,192,278720,1,0,0:0:0:0:
96,192,278720,1,0,0:0:0:0:
256,192,279040,1,0,0:0:0:0:
160,192,279040,1,0,0:0:0:0:
329,192,279360,1,0,0:0:0:0:
96,192,279360,1,0,0:0:0:0:
224,192,279360,1,0,0:0:0:0:
256,192,279680,1,0,0:0:0:0:
160,192,279680,1,0,0:0:0:0:
329,192,280000,1,0,0:0:0:0:
96,192,280000,1,0,0:0:0:0:
475,192,280000,1,0,0:0:0:0:
32,192,280320,1,0,0:0:0:0:
32,192,280640,1,0,0:0:0:0:
32,192,280960,1,0,0:0:0:0:
32,192,281280,1,0,0:0:0:0:
32,192,281600,1,0,0:0:0:0:
