osu file format v14

[General]
AudioFilename: audio.mp3
AudioLeadIn: 0
PreviewTime: 112640
Countdown: 0
SampleSet: Normal
StackLeniency: 0.7
Mode: 3
LetterboxInBreaks: 0
SpecialStyle: 0
WidescreenStoryboard: 1

[Editor]
Bookmarks: 10212,61316,81920,92160,102400,112640,135680,156160,176640,209920,240640
DistanceSpacing: 0.8
BeatDivisor: 8
GridSize: 8
TimelineZoom: 3.4

[Metadata]
Title:KLASSIKER EINHEIT
TitleUnicode:KLASSIKER EINHEIT
Artist:DJ Sharpnel
ArtistUnicode:DJ Sharpnel
Creator:Arona
Version:BMS LV.23 [Yasashiku]
Source:氷菓
Tags:Welcome To The Ottack Universe Sharpnelsound Jea Ryuta Nakagami 仲上竜太 Lemmy SRPC-0029 優しさの理由 Yasashisa no Riyuu ちょうちょ ChouCho 氷菓 Hyouka Electronic Japanese J-core J-pop c82 comiket82 comic market 82 コミックマーケッ 82 コミケ82
BeatmapID:2923825
BeatmapSetID:1419209

[Difficulty]
HPDrainRate:8
CircleSize:7
OverallDifficulty:8.5
ApproachRate:5
SliderMultiplier:1.4
SliderTickRate:1

[Events]
//Background and Video events
0,0,"klassiker-bg.jpg",0,0
//Break Periods
//Storyboard Layer 0 (Background)
//Storyboard Layer 1 (Fail)
//Storyboard Layer 2 (Pass)
//Storyboard Layer 3 (Foreground)
//Storyboard Layer 4 (Overlay)
//Storyboard Sound Samples

[TimingPoints]
0,320,4,1,0,0,1,0

[HitObjects]
475,192,0,5,0,0:0:0:0:
402,192,0,1,0,0:0:0:0:
36,192,0,1,0,0:0:0:0:
109,192,0,1,0,0:0:0:0:
182,192,0,1,0,0:0:0:0:
329,192,80,1,0,0:0:0:0:
402,192,160,1,0,0:0:0:0:
182,192,160,1,0,0:0:0:0:
36,192,240,1,0,0:0:0:0:
475,192,320,1,0,0:0:0:0:
402,192,320,1,0,0:0:0:0:
182,192,320,1,0,0:0:0:0:
109,192,320,1,0,0:0:0:0:
329,192,400,1,0,0:0:0:0:
36,192,480,1,0,0:0:0:0:
182,192,480,1,0,0:0:0:0:
402,192,560,1,0,0:0:0:0:
256,192,560,1,0,0:0:0:0:
36,192,640,1,0,0:0:0:0:
475,192,640,1,0,0:0:0:0:
109,192,640,1,0,0:0:0:0:
329,192,720,1,0,0:0:0:0:
109,192,800,1,0,0:0:0:0:
402,192,800,1,0,0:0:0:0:
329,192,880,1,0,0:0:0:0:
256,192,960,1,0,0:0:0:0:
182,192,960,1,0,0:0:0:0:
109,192,960,1,0,0:0:0:0:
475,192,960,1,0,0:0:0:0:
36,192,1040,1,0,0:0:0:0:
475,192,1120,1,0,0:0:0:0:
329,192,1120,1,0,0:0:0:0:
109,192,1200,1,0,0:0:0:0:
256,192,1200,1,0,0:0:0:0:
36,192,1280,1,0,0:0:0:0:
475,192,1280,1,0,0:0:0:0:
402,192,1280,1,0,0:0:0:0:
182,192,1360,1,0,0:0:0:0:
109,192,1440,1,0,0:0:0:0:
329,192,1440,1,0,0:0:0:0:
475,192,1520,1,0,0:0:0:0:
36,192,1600,1,0,0:0:0:0:
256,192,1600,1,0,0:0:0:0:
182,192,1600,1,0,0:0:0:0:
109,192,1600,1,0,0:0:0:0:
402,192,1600,1,0,0:0:0:0:
329,192,1680,1,0,0:0:0:0:
36,192,1760,1,0,0:0:0:0:
182,192,1760,1,0,0:0:0:0:
402,192,1840,1,0,0:0:0:0:
329,192,1840,1,0,0:0:0:0:
475,192,1920,1,0,0:0:0:0:
182,192,1920,1,0,0:0:0:0:
109,192,1920,1,0,0:0:0:0:
36,192,2000,1,0,0:0:0:0:
182,192,2080,1,0,0:0:0:0:
329,192,2080,1,0,0:0:0:0:
475,192,2160,1,0,0:0:0:0:
402,192,2240,1,0,0:0:0:0:
109,192,2240,1,0,0:0:0:0:
182,192,2240,1,0,0:0:0:0:
36,192,2240,1,0,0:0:0:0:
256,192,2320,1,0,0:0:0:0:
402,192,2400,1,0,0:0:0:0:
475,192,2400,1,0,0:0:0:0:
182,192,2480,1,0,0:0:0:0:
36,192,2480,1,0,0:0:0:0:
475,192,2560,1,0,0:0:0:0:
329,192,2560,1,0,0:0:0:0:
256,192,2560,1,0,0:0:0:0:
109,192,2640,1,0,0:0:0:0:
256,192,2720,1,0,0:0:0:0:
402,192,2720,1,0,0:0:0:0:
36,192,2800,1,0,0:0:0:0:
182,192,2880,1,0,0:0:0:0:
256,192,2880,1,0,0:0:0:0:
109,192,2880,1,0,0:0:0:0:
475,192,2880,1,0,0:0:0:0:
402,192,2960,1,0,0:0:0:0:
36,192,3040,1,0,0:0:0:0:
109,192,3040,1,0,0:0:0:0:
402,192,3120,1,0,0:0:0:0:
475,192,3120,1,0,0:0:0:0:
36,192,3200,1,0,0:0:0:0:
109,192,3200,1,0,0:0:0:0:
329,192,3200,1,0,0:0:0:0:
256,192,3200,1,0,0:0:0:0:
402,192,3280,1,0,0:0:0:0:
256,192,3360,1,0,0:0:0:0:
109,192,3360,1,0,0:0:0:0:
475,192,3440,1,0,0:0:0:0:
402,192,3520,1,0,0:0:0:0:
329,192,3520,1,0,0:0:0:0:
182,192,3520,1,0,0:0:0:0:
36,192,3520,1,0,0:0:0:0:
109,192,3600,1,0,0:0:0:0:
329,192,3680,1,0,0:0:0:0:
256,192,3680,1,0,0:0:0:0:
402,192,3760,1,0,0:0:0:0:
182,192,3760,1,0,0:0:0:0:
36,192,3840,1,0,0:0:0:0:
109,192,3840,1,0,0:0:0:0:
475,192,3840,1,0,0:0:0:0:
256,192,3920,1,0,0:0:0:0:
36,192,4000,1,0,0:0:0:0:
182,192,4000,1,0,0:0:0:0:
329,192,4080,1,0,0:0:0:0:
475,192,4160,1,0,0:0:0:0:
256,192,4160,1,0,0:0:0:0:
109,192,4160,1,0,0:0:0:0:
36,192,4160,1,0,0:0:0:0:
329,192,4240,1,0,0:0:0:0:
182,192,4320,1,0,0:0:0:0:
256,192,4320,1,0,0:0:0:0:
329,192,4400,1,0,0:0:0:0:
109,192,4400,1,0,0:0:0:0:
475,192,4480,1,0,0:0:0:0:
402,192,4480,1,0,0:0:0:0:
36,192,4480,1,0,0:0:0:0:
256,192,4560,1,0,0:0:0:0:
475,192,4640,1,0,0:0:0:0:
329,192,4640,1,0,0:0:0:0:
182,192,4720,1,0,0:0:0:0:
36,192,4800,1,0,0:0:0:0:
109,192,4800,1,0,0:0:0:0:
475,192,4800,1,0,0:0:0:0:
402,192,4800,1,0,0:0:0:0:
329,192,4880,1,0,0:0:0:0:
36,192,4960,1,0,0:0:0:0:
475,192,4960,1,0,0:0:0:0:
109,192,4960,1,0,0:0:0:0:
402,192,4960,1,0,0:0:0:0:
182,192,5040,1,0,0:0:0:0:
36,192,5120,1,0,0:0:0:0:
109,192,5120,1,0,0:0:0:0:
256,192,5120,1,0,0:0:0:0:
475,192,5120,1,0,0:0:0:0:
402,192,5120,1,0,0:0:0:0:
329,192,5200,1,0,0:0:0:0:
402,192,5280,1,0,0:0:0:0:
182,192,5280,1,0,0:0:0:0:
329,192,5360,1,0,0:0:0:0:
36,192,5440,1,0,0:0:0:0:
256,192,5440,1,0,0:0:0:0:
475,192,5440,1,0,0:0:0:0:
109,192,5440,1,0,0:0:0:0:
402,192,5520,1,0,0:0:0:0:
182,192,5600,1,0,0:0:0:0:
256,192,5680,1,0,0:0:0:0:
402,192,5680,1,0,0:0:0:0:
475,192,5760,1,0,0:0:0:0:
36,192,5760,1,0,0:0:0:0:
329,192,5760,1,0,0:0:0:0:
182,192,5840,1,0,0:0:0:0:
109,192,5920,1,0,0:0:0:0:
329,192,5920,1,0,0:0:0:0:
182,192,6000,1,0,0:0:0:0:
36,192,6080,1,0,0:0:0:0:
256,192,6080,1,0,0:0:0:0:
475,192,6080,1,0,0:0:0:0:
402,192,6080,1,0,0:0:0:0:
109,192,6160,1,0,0:0:0:0:
329,192,6240,1,0,0:0:0:0:
109,192,6320,1,0,0:0:0:0:
256,192,6320,1,0,0:0:0:0:
475,192,6400,1,0,0:0:0:0:
182,192,6400,1,0,0:0:0:0:
36,192,6400,1,0,0:0:0:0:
329,192,6480,1,0,0:0:0:0:
182,192,6560,1,0,0:0:0:0:
402,192,6560,1,0,0:0:0:0:
329,192,6640,1,0,0:0:0:0:
256,192,6720,1,0,0:0:0:0:
475,192,6720,1,0,0:0:0:0:
36,192,6720,1,0,0:0:0:0:
109,192,6720,1,0,0:0:0:0:
402,192,6800,1,0,0:0:0:0:
182,192,6880,1,0,0:0:0:0:
402,192,6960,1,0,0:0:0:0:
256,192,6960,1,0,0:0:0:0:
475,192,7040,1,0,0:0:0:0:
329,192,7040,1,0,0:0:0:0:
36,192,7040,1,0,0:0:0:0:
182,192,7120,1,0,0:0:0:0:
109,192,7200,1,0,0:0:0:0:
329,192,7200,1,0,0:0:0:0:
182,192,7280,1,0,0:0:0:0:
109,192,7360,1,0,0:0:0:0:
36,192,7360,1,0,0:0:0:0:
256,192,7360,1,0,0:0:0:0:
475,192,7360,1,0,0:0:0:0:
402,192,7440,1,0,0:0:0:0:
329,192,7520,1,0,0:0:0:0:
182,192,7520,1,0,0:0:0:0:
36,192,7600,1,0,0:0:0:0:
475,192,7680,1,0,0:0:0:0:
256,192,7680,1,0,0:0:0:0:
329,192,7680,1,0,0:0:0:0:
109,192,7680,1,0,0:0:0:0:
182,192,7760,1,0,0:0:0:0:
402,192,7840,1,0,0:0:0:0:
256,192,7840,1,0,0:0:0:0:
182,192,7920,1,0,0:0:0:0:
256,192,8000,1,0,0:0:0:0:
36,192,8000,1,0,0:0:0:0:
109,192,8000,1,0,0:0:0:0:
329,192,8000,1,0,0:0:0:0:
402,192,8080,1,0,0:0:0:0:
329,192,8160,1,0,0:0:0:0:
109,192,8160,1,0,0:0:0:0:
475,192,8240,1,0,0:0:0:0:
182,192,8240,1,0,0:0:0:0:
256,192,8320,1,0,0:0:0:0:
402,192,8320,1,0,0:0:0:0:
36,192,8320,1,0,0:0:0:0:
329,192,8400,1,0,0:0:0:0:
256,192,8480,1,0,0:0:0:0:
109,192,8480,1,0,0:0:0:0:
329,192,8560,1,0,0:0:0:0:
256,192,8640,1,0,0:0:0:0:
475,192,8640,1,0,0:0:0:0:
402,192,8640,1,0,0:0:0:0:
182,192,8640,1,0,0:0:0:0:
109,192,8720,1,0,0:0:0:0:
182,192,8800,1,0,0:0:0:0:
402,192,8800,1,0,0:0:0:0:
36,192,8880,1,0,0:0:0:0:
329,192,8880,1,0,0:0:0:0:
109,192,8960,1,0,0:0:0:0:
256,192,8960,1,0,0:0:0:0:
402,192,8960,1,0,0:0:0:0:
182,192,9040,1,0,0:0:0:0:
36,192,9120,1,0,0:0:0:0:
256,192,9120,1,0,0:0:0:0:
182,192,9200,1,0,0:0:0:0:
36,192,9280,1,0,0:0:0:0:
109,192,9280,1,0,0:0:0:0:
329,192,9280,1,0,0:0:0:0:
475,192,9280,1,0,0:0:0:0:
256,192,9360,1,0,0:0:0:0:
402,192,9440,1,0,0:0:0:0:
109,192,9440,1,0,0:0:0:0:
475,192,9520,1,0,0:0:0:0:
256,192,9520,1,0,0:0:0:0:
402,192,9600,1,0,0:0:0:0:
36,192,9600,1,0,0:0:0:0:
182,192,9600,1,0,0:0:0:0:
329,192,9680,1,0,0:0:0:0:
475,192,9760,1,0,0:0:0:0:
256,192,9760,1,0,0:0:0:0:
329,192,9840,1,0,0:0:0:0:
402,192,9920,1,0,0:0:0:0:
475,192,9920,1,0,0:0:0:0:
182,192,9920,1,0,0:0:0:0:
36,192,9920,1,0,0:0:0:0:
256,192,10000,1,0,0:0:0:0:
36,192,10080,1,0,0:0:0:0:
109,192,10080,1,0,0:0:0:0:
329,192,10080,1,0,0:0:0:0:
475,192,10080,1,0,0:0:0:0:
182,192,10160,1,0,0:0:0:0:
36,192,10240,1,0,0:0:0:0:
402,192,10240,1,0,0:0:0:0:
475,192,10240,1,0,0:0:0:0:
256,192,10240,1,0,0:0:0:0:
109,192,10240,1,0,0:0:0:0:
182,192,10320,1,0,0:0:0:0:
329,192,10400,1,0,0:0:0:0:
109,192,10400,1,0,0:0:0:0:
256,192,10480,1,0,0:0:0:0:
36,192,10560,1,0,0:0:0:0:
475,192,10560,1,0,0:0:0:0:
402,192,10560,1,0,0:0:0:0:
182,192,10560,1,0,0:0:0:0:
329,192,10640,1,0,0:0:0:0:
256,192,10720,1,0,0:0:0:0:
109,192,10720,1,0,0:0:0:0:
475,192,10800,1,0,0:0:0:0:
36,192,10880,1,0,0:0:0:0:
182,192,10880,1,0,0:0:0:0:
402,192,10880,1,0,0:0:0:0:
256,192,10960,1,0,0:0:0:0:
109,192,11040,1,0,0:0:0:0:
329,192,11040,1,0,0:0:0:0:
182,192,11120,1,0,0:0:0:0:
475,192,11200,1,0,0:0:0:0:
402,192,11200,1,0,0:0:0:0:
36,192,11200,1,0,0:0:0:0:
256,192,11200,1,0,0:0:0:0:
109,192,11280,1,0,0:0:0:0:
329,192,11360,1,0,0:0:0:0:
182,192,11360,1,0,0:0:0:0:
36,192,11440,1,0,0:0:0:0:
475,192,11520,1,0,0:0:0:0:
256,192,11520,1,0,0:0:0:0:
109,192,11520,1,0,0:0:0:0:
329,192,11600,1,0,0:0:0:0:
182,192,11680,1,0,0:0:0:0:
475,192,11680,1,0,0:0:0:0:
402,192,11760,1,0,0:0:0:0:
36,192,11840,1,0,0:0:0:0:
475,192,11840,1,0,0:0:0:0:
329,192,11840,1,0,0:0:0:0:
256,192,11840,1,0,0:0:0:0:
182,192,11920,1,0,0:0:0:0:
329,192,12000,1,0,0:0:0:0:
109,192,12000,1,0,0:0:0:0:
402,192,12080,1,0,0:0:0:0:
475,192,12160,1,0,0:0:0:0:
182,192,12160,1,0,0:0:0:0:
256,192,12160,1,0,0:0:0:0:
36,192,12240,1,0,0:0:0:0:
475,192,12320,1,0,0:0:0:0:
329,192,12320,1,0,0:0:0:0:
109,192,12320,1,0,0:0:0:0:
402,192,12400,1,0,0:0:0:0:
36,192,12480,1,0,0:0:0:0:
182,192,12480,1,0,0:0:0:0:
256,192,12480,1,0,0:0:0:0:
475,192,12480,1,0,0:0:0:0:
329,192,12560,1,0,0:0:0:0:
109,192,12640,1,0,0:0:0:0:
256,192,12640,1,0,0:0:0:0:
402,192,12720,1,0,0:0:0:0:
36,192,12800,1,0,0:0:0:0:
475,192,12800,1,0,0:0:0:0:
329,192,12800,1,0,0:0:0:0:
256,192,12880,1,0,0:0:0:0:
402,192,12960,1,0,0:0:0:0:
182,192,12960,1,0,0:0:0:0:
36,192,13040,1,0,0:0:0:0:
329,192,13120,1,0,0:0:0:0:
256,192,13120,1,0,0:0:0:0:
182,192,13120,1,0,0:0:0:0:
109,192,13120,1,0,0:0:0:0:
402,192,13200,1,0,0:0:0:0:
475,192,13280,1,0,0:0:0:0:
182,192,13280,1,0,0:0:0:0:
329,192,13360,1,0,0:0:0:0:
475,192,13440,1,0,0:0:0:0:
402,192,13440,1,0,0:0:0:0:
109,192,13440,1,0,0:0:0:0:
256,192,13520,1,0,0:0:0:0:
36,192,13600,1,0,0:0:0:0:
329,192,13600,1,0,0:0:0:0:
475,192,13680,1,0,0:0:0:0:
329,192,13760,1,0,0:0:0:0:
182,192,13760,1,0,0:0:0:0:
109,192,13760,1,0,0:0:0:0:
36,192,13760,1,0,0:0:0:0:
256,192,13840,1,0,0:0:0:0:
109,192,13920,1,0,0:0:0:0:
402,192,13920,1,0,0:0:0:0:
329,192,14000,1,0,0:0:0:0:
36,192,14080,1,0,0:0:0:0:
182,192,14080,1,0,0:0:0:0:
475,192,14080,1,0,0:0:0:0:
256,192,14160,1,0,0:0:0:0:
402,192,14240,1,0,0:0:0:0:
182,192,14240,1,0,0:0:0:0:
329,192,14320,1,0,0:0:0:0:
475,192,14400,1,0,0:0:0:0:
36,192,14400,1,0,0:0:0:0:
109,192,14400,1,0,0:0:0:0:
256,192,14400,1,0,0:0:0:0:
182,192,14480,1,0,0:0:0:0:
36,192,14560,1,0,0:0:0:0:
329,192,14560,1,0,0:0:0:0:
109,192,14640,1,0,0:0:0:0:
475,192,14720,1,0,0:0:0:0:
256,192,14720,1,0,0:0:0:0:
182,192,14720,1,0,0:0:0:0:
402,192,14800,1,0,0:0:0:0:
36,192,14880,1,0,0:0:0:0:
256,192,14880,1,0,0:0:0:0:
475,192,14960,1,0,0:0:0:0:
402,192,15040,1,0,0:0:0:0:
329,192,15040,1,0,0:0:0:0:
182,192,15040,1,0,0:0:0:0:
109,192,15040,1,0,0:0:0:0:
36,192,15120,1,0,0:0:0:0:
402,192,15200,1,0,0:0:0:0:
329,192,15200,1,0,0:0:0:0:
182,192,15200,1,0,0:0:0:0:
109,192,15200,1,0,0:0:0:0:
475,192,15280,1,0,0:0:0:0:
109,192,15360,1,0,0:0:0:0:
182,192,15360,1,0,0:0:0:0:
329,192,15360,1,0,0:0:0:0:
402,192,15360,1,0,0:0:0:0:
256,192,15440,1,0,0:0:0:0:
36,192,15440,1,0,0:0:0:0:
475,192,15520,1,0,0:0:0:0:
182,192,15520,1,0,0:0:0:0:
329,192,15600,1,0,0:0:0:0:
36,192,15680,1,0,0:0:0:0:
109,192,15680,1,0,0:0:0:0:
182,192,15680,1,0,0:0:0:0:
402,192,15680,1,0,0:0:0:0:
475,192,15760,1,0,0:0:0:0:
256,192,15840,1,0,0:0:0:0:
402,192,15840,1,0,0:0:0:0:
109,192,15920,1,0,0:0:0:0:
36,192,16000,1,0,0:0:0:0:
475,192,16000,1,0,0:0:0:0:
329,192,16000,1,0,0:0:0:0:
256,192,16080,1,0,0:0:0:0:
36,192,16160,1,0,0:0:0:0:
182,192,16160,1,0,0:0:0:0:
329,192,16240,1,0,0:0:0:0:
109,192,16240,1,0,0:0:0:0:
475,192,16320,1,0,0:0:0:0:
402,192,16320,1,0,0:0:0:0:
256,192,16320,1,0,0:0:0:0:
182,192,16320,1,0,0:0:0:0:
36,192,16400,1,0,0:0:0:0:
256,192,16480,1,0,0:0:0:0:
109,192,16480,1,0,0:0:0:0:
329,192,16560,1,0,0:0:0:0:
36,192,16640,1,0,0:0:0:0:
182,192,16640,1,0,0:0:0:0:
402,192,16640,1,0,0:0:0:0:
256,192,16720,1,0,0:0:0:0:
475,192,16800,1,0,0:0:0:0:
329,192,16800,1,0,0:0:0:0:
402,192,16880,1,0,0:0:0:0:
182,192,16880,1,0,0:0:0:0:
256,192,16960,1,0,0:0:0:0:
109,192,16960,1,0,0:0:0:0:
36,192,16960,1,0,0:0:0:0:
329,192,16960,1,0,0:0:0:0:
475,192,17040,1,0,0:0:0:0:
402,192,17120,1,0,0:0:0:0:
256,192,17120,1,0,0:0:0:0:
182,192,17200,1,0,0:0:0:0:
475,192,17280,1,0,0:0:0:0:
329,192,17280,1,0,0:0:0:0:
36,192,17280,1,0,0:0:0:0:
182,192,17360,1,0,0:0:0:0:
402,192,17360,1,0,0:0:0:0:
109,192,17440,1,0,0:0:0:0:
329,192,17440,1,0,0:0:0:0:
256,192,17520,1,0,0:0:0:0:
182,192,17600,1,0,0:0:0:0:
36,192,17600,1,0,0:0:0:0:
475,192,17600,1,0,0:0:0:0:
329,192,17680,1,0,0:0:0:0:
182,192,17760,1,0,0:0:0:0:
402,192,17760,1,0,0:0:0:0:
109,192,17840,1,0,0:0:0:0:
475,192,17840,1,0,0:0:0:0:
36,192,17920,1,0,0:0:0:0:
256,192,17920,1,0,0:0:0:0:
329,192,17920,1,0,0:0:0:0:
475,192,18000,1,0,0:0:0:0:
402,192,18000,1,0,0:0:0:0:
256,192,18080,1,0,0:0:0:0:
182,192,18080,1,0,0:0:0:0:
402,192,18160,1,0,0:0:0:0:
329,192,18160,1,0,0:0:0:0:
36,192,18240,1,0,0:0:0:0:
109,192,18240,1,0,0:0:0:0:
182,192,18240,1,0,0:0:0:0:
475,192,18320,1,0,0:0:0:0:
329,192,18320,1,0,0:0:0:0:
36,192,18400,1,0,0:0:0:0:
182,192,18400,1,0,0:0:0:0:
475,192,18480,1,0,0:0:0:0:
402,192,18480,1,0,0:0:0:0:
36,192,18560,1,0,0:0:0:0:
109,192,18560,1,0,0:0:0:0:
256,192,18560,1,0,0:0:0:0:
475,192,18640,1,0,0:0:0:0:
402,192,18640,1,0,0:0:0:0:
36,192,18720,1,0,0:0:0:0:
109,192,18720,1,0,0:0:0:0:
402,192,18800,1,0,0:0:0:0:
329,192,18800,1,0,0:0:0:0:
109,192,18880,1,0,0:0:0:0:
182,192,18880,1,0,0:0:0:0:
475,192,18960,1,0,0:0:0:0:
329,192,18960,1,0,0:0:0:0:
36,192,19040,1,0,0:0:0:0:
182,192,19040,1,0,0:0:0:0:
475,192,19120,1,0,0:0:0:0:
329,192,19120,1,0,0:0:0:0:
36,192,19200,1,0,0:0:0:0:
182,192,19200,1,0,0:0:0:0:
256,192,19240,1,0,0:0:0:0:
329,192,19280,1,0,0:0:0:0:
402,192,19320,1,0,0:0:0:0:
475,192,19360,1,0,0:0:0:0:
256,192,19400,1,0,0:0:0:0:
182,192,19440,1,0,0:0:0:0:
109,192,19480,1,0,0:0:0:0:
36,192,19520,1,0,0:0:0:0:
256,192,19560,1,0,0:0:0:0:
329,192,19600,1,0,0:0:0:0:
402,192,19640,1,0,0:0:0:0:
475,192,19680,1,0,0:0:0:0:
36,192,19720,1,0,0:0:0:0:
109,192,19760,1,0,0:0:0:0:
182,192,19800,1,0,0:0:0:0:
256,192,19840,1,0,0:0:0:0:
402,192,19866,1,0,0:0:0:0:
329,192,19893,1,0,0:0:0:0:
182,192,19920,1,0,0:0:0:0:
109,192,19973,1,0,0:0:0:0:
256,192,20000,1,0,0:0:0:0:
402,192,20026,1,0,0:0:0:0:
475,192,20080,1,0,0:0:0:0:
329,192,20106,1,0,0:0:0:0:
109,192,20133,1,0,0:0:0:0:
36,192,20186,1,0,0:0:0:0:
182,192,20213,1,0,0:0:0:0:
329,192,20240,1,0,0:0:0:0:
475,192,20293,1,0,0:0:0:0:
256,192,20320,1,0,0:0:0:0:
402,192,20373,1,0,0:0:0:0:
329,192,20400,1,0,0:0:0:0:
109,192,20426,1,0,0:0:0:0:
182,192,20453,1,0,0:0:0:0:
256,192,20480,1,0,0:0:0:0:
36,192,20480,1,0,0:0:0:0:
475,192,20480,1,0,0:0:0:0:
109,192,20560,1,0,0:0:0:0:
402,192,20640,1,0,0:0:0:0:
182,192,20640,1,0,0:0:0:0:
256,192,20720,1,0,0:0:0:0:
36,192,20800,1,0,0:0:0:0:
109,192,20800,1,0,0:0:0:0:
475,192,20800,1,0,0:0:0:0:
182,192,20800,1,0,0:0:0:0:
402,192,20880,1,0,0:0:0:0:
109,192,20960,1,0,0:0:0:0:
329,192,20960,1,0,0:0:0:0:
256,192,21040,1,0,0:0:0:0:
475,192,21120,1,0,0:0:0:0:
36,192,21120,1,0,0:0:0:0:
182,192,21120,1,0,0:0:0:0:
329,192,21200,1,0,0:0:0:0:
256,192,21280,1,0,0:0:0:0:
402,192,21280,1,0,0:0:0:0:
182,192,21360,1,0,0:0:0:0:
475,192,21440,1,0,0:0:0:0:
402,192,21440,1,0,0:0:0:0:
109,192,21440,1,0,0:0:0:0:
36,192,21440,1,0,0:0:0:0:
256,192,21520,1,0,0:0:0:0:
402,192,21600,1,0,0:0:0:0:
182,192,21600,1,0,0:0:0:0:
256,192,21680,1,0,0:0:0:0:
475,192,21760,1,0,0:0:0:0:
402,192,21760,1,0,0:0:0:0:
36,192,21760,1,0,0:0:0:0:
182,192,21760,1,0,0:0:0:0:
109,192,21840,1,0,0:0:0:0:
182,192,21920,1,0,0:0:0:0:
402,192,21920,1,0,0:0:0:0:
256,192,22000,1,0,0:0:0:0:
475,192,22080,1,0,0:0:0:0:
329,192,22080,1,0,0:0:0:0:
402,192,22080,1,0,0:0:0:0:
109,192,22080,1,0,0:0:0:0:
182,192,22160,1,0,0:0:0:0:
256,192,22240,1,0,0:0:0:0:
109,192,22240,1,0,0:0:0:0:
329,192,22320,1,0,0:0:0:0:
475,192,22400,1,0,0:0:0:0:
36,192,22400,1,0,0:0:0:0:
182,192,22400,1,0,0:0:0:0:
256,192,22480,1,0,0:0:0:0:
329,192,22560,1,0,0:0:0:0:
109,192,22560,1,0,0:0:0:0:
402,192,22640,1,0,0:0:0:0:
475,192,22720,1,0,0:0:0:0:
109,192,22720,1,0,0:0:0:0:
182,192,22720,1,0,0:0:0:0:
36,192,22720,1,0,0:0:0:0:
256,192,22800,1,0,0:0:0:0:
109,192,22880,1,0,0:0:0:0:
329,192,22880,1,0,0:0:0:0:
256,192,22960,1,0,0:0:0:0:
36,192,23040,1,0,0:0:0:0:
402,192,23040,1,0,0:0:0:0:
475,192,23040,1,0,0:0:0:0:
109,192,23040,1,0,0:0:0:0:
329,192,23120,1,0,0:0:0:0:
256,192,23200,1,0,0:0:0:0:
109,192,23200,1,0,0:0:0:0:
182,192,23280,1,0,0:0:0:0:
36,192,23360,1,0,0:0:0:0:
109,192,23360,1,0,0:0:0:0:
475,192,23360,1,0,0:0:0:0:
329,192,23360,1,0,0:0:0:0:
182,192,23440,1,0,0:0:0:0:
36,192,23520,1,0,0:0:0:0:
329,192,23520,1,0,0:0:0:0:
182,192,23600,1,0,0:0:0:0:
36,192,23680,1,0,0:0:0:0:
475,192,23680,1,0,0:0:0:0:
329,192,23680,1,0,0:0:0:0:
109,192,23680,1,0,0:0:0:0:
182,192,23760,1,0,0:0:0:0:
256,192,23840,1,0,0:0:0:0:
402,192,23840,1,0,0:0:0:0:
329,192,23920,1,0,0:0:0:0:
36,192,24000,1,0,0:0:0:0:
475,192,24000,1,0,0:0:0:0:
402,192,24000,1,0,0:0:0:0:
182,192,24000,1,0,0:0:0:0:
329,192,24080,1,0,0:0:0:0:
182,192,24160,1,0,0:0:0:0:
475,192,24160,1,0,0:0:0:0:
329,192,24240,1,0,0:0:0:0:
182,192,24320,1,0,0:0:0:0:
36,192,24320,1,0,0:0:0:0:
475,192,24320,1,0,0:0:0:0:
402,192,24320,1,0,0:0:0:0:
109,192,24400,1,0,0:0:0:0:
182,192,24480,1,0,0:0:0:0:
329,192,24480,1,0,0:0:0:0:
402,192,24560,1,0,0:0:0:0:
329,192,24640,1,0,0:0:0:0:
475,192,24640,1,0,0:0:0:0:
109,192,24640,1,0,0:0:0:0:
36,192,24640,1,0,0:0:0:0:
256,192,24720,1,0,0:0:0:0:
109,192,24800,1,0,0:0:0:0:
402,192,24800,1,0,0:0:0:0:
256,192,24880,1,0,0:0:0:0:
182,192,24960,1,0,0:0:0:0:
36,192,24960,1,0,0:0:0:0:
475,192,24960,1,0,0:0:0:0:
329,192,24960,1,0,0:0:0:0:
402,192,25040,1,0,0:0:0:0:
329,192,25120,1,0,0:0:0:0:
182,192,25120,1,0,0:0:0:0:
109,192,25200,1,0,0:0:0:0:
475,192,25280,1,0,0:0:0:0:
36,192,25280,1,0,0:0:0:0:
402,192,25280,1,0,0:0:0:0:
182,192,25280,1,0,0:0:0:0:
329,192,25360,1,0,0:0:0:0:
402,192,25440,1,0,0:0:0:0:
182,192,25440,1,0,0:0:0:0:
475,192,25440,1,0,0:0:0:0:
36,192,25440,1,0,0:0:0:0:
256,192,25520,1,0,0:0:0:0:
36,192,25600,1,0,0:0:0:0:
475,192,25600,1,0,0:0:0:0:
402,192,25600,1,0,0:0:0:0:
182,192,25600,1,0,0:0:0:0:
256,192,25680,1,0,0:0:0:0:
329,192,25760,1,0,0:0:0:0:
109,192,25760,1,0,0:0:0:0:
402,192,25840,1,0,0:0:0:0:
256,192,25920,1,0,0:0:0:0:
36,192,25920,1,0,0:0:0:0:
475,192,25920,1,0,0:0:0:0:
109,192,25920,1,0,0:0:0:0:
329,192,26000,1,0,0:0:0:0:
402,192,26080,1,0,0:0:0:0:
182,192,26080,1,0,0:0:0:0:
475,192,26160,1,0,0:0:0:0:
329,192,26240,1,0,0:0:0:0:
36,192,26240,1,0,0:0:0:0:
109,192,26240,1,0,0:0:0:0:
256,192,26320,1,0,0:0:0:0:
182,192,26400,1,0,0:0:0:0:
402,192,26400,1,0,0:0:0:0:
109,192,26480,1,0,0:0:0:0:
402,192,26560,1,0,0:0:0:0:
475,192,26560,1,0,0:0:0:0:
36,192,26560,1,0,0:0:0:0:
256,192,26560,1,0,0:0:0:0:
182,192,26640,1,0,0:0:0:0:
402,192,26720,1,0,0:0:0:0:
256,192,26800,1,0,0:0:0:0:
182,192,26800,1,0,0:0:0:0:
475,192,26880,1,0,0:0:0:0:
36,192,26880,1,0,0:0:0:0:
109,192,26880,1,0,0:0:0:0:
329,192,26880,1,0,0:0:0:0:
256,192,26960,1,0,0:0:0:0:
182,192,27040,1,0,0:0:0:0:
402,192,27040,1,0,0:0:0:0:
109,192,27120,1,0,0:0:0:0:
256,192,27200,1,0,0:0:0:0:
475,192,27200,1,0,0:0:0:0:
36,192,27200,1,0,0:0:0:0:
402,192,27200,1,0,0:0:0:0:
182,192,27280,1,0,0:0:0:0:
109,192,27360,1,0,0:0:0:0:
329,192,27360,1,0,0:0:0:0:
36,192,27440,1,0,0:0:0:0:
182,192,27520,1,0,0:0:0:0:
475,192,27520,1,0,0:0:0:0:
402,192,27520,1,0,0:0:0:0:
256,192,27600,1,0,0:0:0:0:
329,192,27680,1,0,0:0:0:0:
109,192,27680,1,0,0:0:0:0:
402,192,27760,1,0,0:0:0:0:
109,192,27840,1,0,0:0:0:0:
36,192,27840,1,0,0:0:0:0:
475,192,27840,1,0,0:0:0:0:
256,192,27840,1,0,0:0:0:0:
329,192,27920,1,0,0:0:0:0:
109,192,28000,1,0,0:0:0:0:
256,192,28080,1,0,0:0:0:0:
329,192,28080,1,0,0:0:0:0:
109,192,28160,1,0,0:0:0:0:
36,192,28160,1,0,0:0:0:0:
475,192,28160,1,0,0:0:0:0:
182,192,28160,1,0,0:0:0:0:
402,192,28240,1,0,0:0:0:0:
256,192,28320,1,0,0:0:0:0:
109,192,28320,1,0,0:0:0:0:
329,192,28400,1,0,0:0:0:0:
475,192,28480,1,0,0:0:0:0:
402,192,28480,1,0,0:0:0:0:
36,192,28480,1,0,0:0:0:0:
109,192,28480,1,0,0:0:0:0:
329,192,28560,1,0,0:0:0:0:
182,192,28640,1,0,0:0:0:0:
36,192,28640,1,0,0:0:0:0:
256,192,28720,1,0,0:0:0:0:
402,192,28720,1,0,0:0:0:0:
329,192,28800,1,0,0:0:0:0:
109,192,28800,1,0,0:0:0:0:
475,192,28800,1,0,0:0:0:0:
256,192,28880,1,0,0:0:0:0:
36,192,28960,1,0,0:0:0:0:
402,192,28960,1,0,0:0:0:0:
109,192,29040,1,0,0:0:0:0:
475,192,29120,1,0,0:0:0:0:
36,192,29120,1,0,0:0:0:0:
402,192,29120,1,0,0:0:0:0:
182,192,29120,1,0,0:0:0:0:
329,192,29200,1,0,0:0:0:0:
475,192,29280,1,0,0:0:0:0:
36,192,29280,1,0,0:0:0:0:
256,192,29280,1,0,0:0:0:0:
182,192,29360,1,0,0:0:0:0:
36,192,29440,1,0,0:0:0:0:
475,192,29440,1,0,0:0:0:0:
109,192,29440,1,0,0:0:0:0:
329,192,29440,1,0,0:0:0:0:
402,192,29520,1,0,0:0:0:0:
329,192,29600,1,0,0:0:0:0:
109,192,29600,1,0,0:0:0:0:
256,192,29680,1,0,0:0:0:0:
402,192,29760,1,0,0:0:0:0:
475,192,29760,1,0,0:0:0:0:
36,192,29760,1,0,0:0:0:0:
182,192,29760,1,0,0:0:0:0:
109,192,29840,1,0,0:0:0:0:
182,192,29920,1,0,0:0:0:0:
402,192,29920,1,0,0:0:0:0:
256,192,30000,1,0,0:0:0:0:
329,192,30080,1,0,0:0:0:0:
475,192,30080,1,0,0:0:0:0:
109,192,30080,1,0,0:0:0:0:
36,192,30080,1,0,0:0:0:0:
402,192,30160,1,0,0:0:0:0:
329,192,30240,1,0,0:0:0:0:
109,192,30240,1,0,0:0:0:0:
256,192,30320,1,0,0:0:0:0:
475,192,30400,1,0,0:0:0:0:
329,192,30400,1,0,0:0:0:0:
36,192,30400,1,0,0:0:0:0:
109,192,30400,1,0,0:0:0:0:
182,192,30480,1,0,0:0:0:0:
36,192,30560,1,0,0:0:0:0:
109,192,30560,1,0,0:0:0:0:
475,192,30560,1,0,0:0:0:0:
329,192,30560,1,0,0:0:0:0:
256,192,30640,1,0,0:0:0:0:
475,192,30720,1,0,0:0:0:0:
329,192,30720,1,0,0:0:0:0:
36,192,30720,1,0,0:0:0:0:
109,192,30720,1,0,0:0:0:0:
182,192,30720,1,0,0:0:0:0:
256,192,30800,1,0,0:0:0:0:
402,192,30880,1,0,0:0:0:0:
36,192,30880,1,0,0:0:0:0:
182,192,30960,1,0,0:0:0:0:
329,192,30960,1,0,0:0:0:0:
475,192,31040,1,0,0:0:0:0:
402,192,31040,1,0,0:0:0:0:
36,192,31040,1,0,0:0:0:0:
256,192,31040,1,0,0:0:0:0:
182,192,31120,1,0,0:0:0:0:
329,192,31200,1,0,0:0:0:0:
475,192,31200,1,0,0:0:0:0:
256,192,31280,1,0,0:0:0:0:
109,192,31280,1,0,0:0:0:0:
182,192,31360,1,0,0:0:0:0:
402,192,31360,1,0,0:0:0:0:
475,192,31360,1,0,0:0:0:0:
329,192,31360,1,0,0:0:0:0:
109,192,31440,1,0,0:0:0:0:
256,192,31520,1,0,0:0:0:0:
402,192,31520,1,0,0:0:0:0:
182,192,31600,1,0,0:0:0:0:
36,192,31600,1,0,0:0:0:0:
109,192,31680,1,0,0:0:0:0:
256,192,31680,1,0,0:0:0:0:
329,192,31680,1,0,0:0:0:0:
475,192,31680,1,0,0:0:0:0:
36,192,31760,1,0,0:0:0:0:
182,192,31840,1,0,0:0:0:0:
329,192,31840,1,0,0:0:0:0:
109,192,31920,1,0,0:0:0:0:
475,192,31920,1,0,0:0:0:0:
36,192,32000,1,0,0:0:0:0:
182,192,32000,1,0,0:0:0:0:
256,192,32000,1,0,0:0:0:0:
402,192,32000,1,0,0:0:0:0:
475,192,32080,1,0,0:0:0:0:
109,192,32160,1,0,0:0:0:0:
256,192,32160,1,0,0:0:0:0:
36,192,32240,1,0,0:0:0:0:
402,192,32240,1,0,0:0:0:0:
475,192,32320,1,0,0:0:0:0:
329,192,32320,1,0,0:0:0:0:
182,192,32320,1,0,0:0:0:0:
109,192,32320,1,0,0:0:0:0:
256,192,32400,1,0,0:0:0:0:
109,192,32480,1,0,0:0:0:0:
475,192,32480,1,0,0:0:0:0:
329,192,32560,1,0,0:0:0:0:
182,192,32560,1,0,0:0:0:0:
36,192,32640,1,0,0:0:0:0:
109,192,32640,1,0,0:0:0:0:
475,192,32640,1,0,0:0:0:0:
256,192,32640,1,0,0:0:0:0:
329,192,32720,1,0,0:0:0:0:
182,192,32800,1,0,0:0:0:0:
36,192,32800,1,0,0:0:0:0:
256,192,32880,1,0,0:0:0:0:
402,192,32880,1,0,0:0:0:0:
329,192,32960,1,0,0:0:0:0:
109,192,32960,1,0,0:0:0:0:
36,192,32960,1,0,0:0:0:0:
182,192,32960,1,0,0:0:0:0:
402,192,33040,1,0,0:0:0:0:
256,192,33120,1,0,0:0:0:0:
109,192,33120,1,0,0:0:0:0:
329,192,33200,1,0,0:0:0:0:
475,192,33200,1,0,0:0:0:0:
402,192,33280,1,0,0:0:0:0:
256,192,33280,1,0,0:0:0:0:
182,192,33280,1,0,0:0:0:0:
36,192,33280,1,0,0:0:0:0:
475,192,33360,1,0,0:0:0:0:
329,192,33440,1,0,0:0:0:0:
182,192,33440,1,0,0:0:0:0:
402,192,33520,1,0,0:0:0:0:
36,192,33520,1,0,0:0:0:0:
475,192,33600,1,0,0:0:0:0:
329,192,33600,1,0,0:0:0:0:
256,192,33600,1,0,0:0:0:0:
109,192,33600,1,0,0:0:0:0:
36,192,33680,1,0,0:0:0:0:
402,192,33760,1,0,0:0:0:0:
256,192,33760,1,0,0:0:0:0:
475,192,33840,1,0,0:0:0:0:
109,192,33840,1,0,0:0:0:0:
36,192,33920,1,0,0:0:0:0:
182,192,33920,1,0,0:0:0:0:
329,192,33920,1,0,0:0:0:0:
402,192,33920,1,0,0:0:0:0:
256,192,34000,1,0,0:0:0:0:
109,192,34080,1,0,0:0:0:0:
475,192,34080,1,0,0:0:0:0:
402,192,34160,1,0,0:0:0:0:
256,192,34160,1,0,0:0:0:0:
182,192,34240,1,0,0:0:0:0:
36,192,34240,1,0,0:0:0:0:
475,192,34240,1,0,0:0:0:0:
109,192,34240,1,0,0:0:0:0:
329,192,34320,1,0,0:0:0:0:
182,192,34400,1,0,0:0:0:0:
36,192,34400,1,0,0:0:0:0:
329,192,34480,1,0,0:0:0:0:
475,192,34480,1,0,0:0:0:0:
256,192,34560,1,0,0:0:0:0:
182,192,34560,1,0,0:0:0:0:
109,192,34560,1,0,0:0:0:0:
36,192,34560,1,0,0:0:0:0:
402,192,34640,1,0,0:0:0:0:
109,192,34720,1,0,0:0:0:0:
256,192,34720,1,0,0:0:0:0:
402,192,34800,1,0,0:0:0:0:
36,192,34800,1,0,0:0:0:0:
109,192,34880,1,0,0:0:0:0:
182,192,34880,1,0,0:0:0:0:
256,192,34880,1,0,0:0:0:0:
329,192,34880,1,0,0:0:0:0:
475,192,34960,1,0,0:0:0:0:
182,192,35040,1,0,0:0:0:0:
329,192,35040,1,0,0:0:0:0:
475,192,35120,1,0,0:0:0:0:
109,192,35120,1,0,0:0:0:0:
182,192,35200,1,0,0:0:0:0:
256,192,35200,1,0,0:0:0:0:
329,192,35200,1,0,0:0:0:0:
402,192,35200,1,0,0:0:0:0:
36,192,35280,1,0,0:0:0:0:
256,192,35360,1,0,0:0:0:0:
402,192,35360,1,0,0:0:0:0:
182,192,35440,1,0,0:0:0:0:
109,192,35440,1,0,0:0:0:0:
475,192,35520,1,0,0:0:0:0:
402,192,35520,1,0,0:0:0:0:
329,192,35520,1,0,0:0:0:0:
36,192,35520,1,0,0:0:0:0:
256,192,35600,1,0,0:0:0:0:
109,192,35680,1,0,0:0:0:0:
36,192,35680,1,0,0:0:0:0:
402,192,35680,1,0,0:0:0:0:
475,192,35680,1,0,0:0:0:0:
256,192,35760,1,0,0:0:0:0:
182,192,35840,1,0,0:0:0:0:
109,192,35840,1,0,0:0:0:0:
36,192,35840,1,0,0:0:0:0:
475,192,35840,1,0,0:0:0:0:
329,192,35920,1,0,0:0:0:0:
36,192,36000,1,0,0:0:0:0:
475,192,36000,1,0,0:0:0:0:
182,192,36080,1,0,0:0:0:0:
402,192,36080,1,0,0:0:0:0:
475,192,36160,1,0,0:0:0:0:
109,192,36160,1,0,0:0:0:0:
329,192,36160,1,0,0:0:0:0:
36,192,36160,1,0,0:0:0:0:
256,192,36240,1,0,0:0:0:0:
475,192,36320,1,0,0:0:0:0:
402,192,36320,1,0,0:0:0:0:
329,192,36400,1,0,0:0:0:0:
109,192,36400,1,0,0:0:0:0:
402,192,36480,1,0,0:0:0:0:
256,192,36480,1,0,0:0:0:0:
475,192,36480,1,0,0:0:0:0:
36,192,36480,1,0,0:0:0:0:
182,192,36560,1,0,0:0:0:0:
329,192,36640,1,0,0:0:0:0:
402,192,36640,1,0,0:0:0:0:
256,192,36720,1,0,0:0:0:0:
36,192,36720,1,0,0:0:0:0:
109,192,36800,1,0,0:0:0:0:
329,192,36800,1,0,0:0:0:0:
402,192,36800,1,0,0:0:0:0:
475,192,36800,1,0,0:0:0:0:
256,192,36880,1,0,0:0:0:0:
475,192,36960,1,0,0:0:0:0:
36,192,36960,1,0,0:0:0:0:
329,192,37040,1,0,0:0:0:0:
109,192,37040,1,0,0:0:0:0:
36,192,37120,1,0,0:0:0:0:
402,192,37120,1,0,0:0:0:0:
182,192,37120,1,0,0:0:0:0:
475,192,37120,1,0,0:0:0:0:
329,192,37200,1,0,0:0:0:0:
36,192,37280,1,0,0:0:0:0:
109,192,37280,1,0,0:0:0:0:
182,192,37360,1,0,0:0:0:0:
402,192,37360,1,0,0:0:0:0:
109,192,37440,1,0,0:0:0:0:
256,192,37440,1,0,0:0:0:0:
36,192,37440,1,0,0:0:0:0:
475,192,37440,1,0,0:0:0:0:
402,192,37520,1,0,0:0:0:0:
182,192,37600,1,0,0:0:0:0:
109,192,37600,1,0,0:0:0:0:
256,192,37680,1,0,0:0:0:0:
475,192,37680,1,0,0:0:0:0:
329,192,37760,1,0,0:0:0:0:
182,192,37760,1,0,0:0:0:0:
109,192,37760,1,0,0:0:0:0:
36,192,37760,1,0,0:0:0:0:
475,192,37840,1,0,0:0:0:0:
402,192,37920,1,0,0:0:0:0:
329,192,37920,1,0,0:0:0:0:
256,192,38000,1,0,0:0:0:0:
109,192,38000,1,0,0:0:0:0:
182,192,38080,1,0,0:0:0:0:
36,192,38080,1,0,0:0:0:0:
329,192,38080,1,0,0:0:0:0:
475,192,38080,1,0,0:0:0:0:
402,192,38160,1,0,0:0:0:0:
329,192,38240,1,0,0:0:0:0:
256,192,38240,1,0,0:0:0:0:
182,192,38320,1,0,0:0:0:0:
36,192,38320,1,0,0:0:0:0:
109,192,38400,1,0,0:0:0:0:
475,192,38400,1,0,0:0:0:0:
256,192,38400,1,0,0:0:0:0:
402,192,38400,1,0,0:0:0:0:
329,192,38480,1,0,0:0:0:0:
182,192,38560,1,0,0:0:0:0:
256,192,38560,1,0,0:0:0:0:
109,192,38640,1,0,0:0:0:0:
475,192,38640,1,0,0:0:0:0:
182,192,38720,1,0,0:0:0:0:
36,192,38720,1,0,0:0:0:0:
402,192,38720,1,0,0:0:0:0:
329,192,38720,1,0,0:0:0:0:
256,192,38800,1,0,0:0:0:0:
109,192,38880,1,0,0:0:0:0:
182,192,38880,1,0,0:0:0:0:
256,192,38960,1,0,0:0:0:0:
402,192,38960,1,0,0:0:0:0:
329,192,39040,1,0,0:0:0:0:
475,192,39040,1,0,0:0:0:0:
182,192,39040,1,0,0:0:0:0:
36,192,39040,1,0,0:0:0:0:
109,192,39120,1,0,0:0:0:0:
182,192,39200,1,0,0:0:0:0:
256,192,39200,1,0,0:0:0:0:
329,192,39280,1,0,0:0:0:0:
475,192,39280,1,0,0:0:0:0:
402,192,39360,1,0,0:0:0:0:
36,192,39360,1,0,0:0:0:0:
256,192,39360,1,0,0:0:0:0:
109,192,39360,1,0,0:0:0:0:
182,192,39440,1,0,0:0:0:0:
329,192,39520,1,0,0:0:0:0:
256,192,39520,1,0,0:0:0:0:
402,192,39600,1,0,0:0:0:0:
36,192,39600,1,0,0:0:0:0:
329,192,39680,1,0,0:0:0:0:
475,192,39680,1,0,0:0:0:0:
109,192,39680,1,0,0:0:0:0:
182,192,39680,1,0,0:0:0:0:
256,192,39760,1,0,0:0:0:0:
402,192,39840,1,0,0:0:0:0:
475,192,39840,1,0,0:0:0:0:
329,192,39920,1,0,0:0:0:0:
182,192,39920,1,0,0:0:0:0:
475,192,40000,1,0,0:0:0:0:
109,192,40000,1,0,0:0:0:0:
36,192,40000,1,0,0:0:0:0:
256,192,40000,1,0,0:0:0:0:
329,192,40080,1,0,0:0:0:0:
109,192,40160,1,0,0:0:0:0:
36,192,40160,1,0,0:0:0:0:
182,192,40240,1,0,0:0:0:0:
329,192,40240,1,0,0:0:0:0:
36,192,40320,1,0,0:0:0:0:
402,192,40320,1,0,0:0:0:0:
475,192,40320,1,0,0:0:0:0:
256,192,40320,1,0,0:0:0:0:
182,192,40400,1,0,0:0:0:0:
402,192,40480,1,0,0:0:0:0:
475,192,40480,1,0,0:0:0:0:
109,192,40480,1,0,0:0:0:0:
36,192,40480,1,0,0:0:0:0:
329,192,40560,1,0,0:0:0:0:
182,192,40560,1,0,0:0:0:0:
256,192,40560,1,0,0:0:0:0:
402,192,40640,1,0,0:0:0:0:
475,192,40640,1,0,0:0:0:0:
109,192,40640,1,0,0:0:0:0:
36,192,40640,1,0,0:0:0:0:
182,192,40720,1,0,0:0:0:0:
329,192,40800,1,0,0:0:0:0:
475,192,40800,1,0,0:0:0:0:
256,192,40840,1,0,0:0:0:0:
182,192,40880,1,0,0:0:0:0:
109,192,40920,1,0,0:0:0:0:
402,192,40960,1,0,0:0:0:0:
475,192,40960,1,0,0:0:0:0:
36,192,40960,1,0,0:0:0:0:
329,192,40960,1,0,0:0:0:0:
256,192,41040,1,0,0:0:0:0:
182,192,41120,1,0,0:0:0:0:
475,192,41120,1,0,0:0:0:0:
402,192,41200,1,0,0:0:0:0:
36,192,41280,1,0,0:0:0:0:
182,192,41280,1,0,0:0:0:0:
109,192,41280,1,0,0:0:0:0:
329,192,41280,1,0,0:0:0:0:
475,192,41360,1,0,0:0:0:0:
402,192,41440,1,0,0:0:0:0:
329,192,41440,1,0,0:0:0:0:
256,192,41440,1,0,0:0:0:0:
109,192,41520,1,0,0:0:0:0:
329,192,41600,1,0,0:0:0:0:
402,192,41600,1,0,0:0:0:0:
475,192,41600,1,0,0:0:0:0:
256,192,41600,1,0,0:0:0:0:
36,192,41600,1,0,0:0:0:0:
182,192,41680,1,0,0:0:0:0:
109,192,41760,1,0,0:0:0:0:
329,192,41760,1,0,0:0:0:0:
256,192,41840,1,0,0:0:0:0:
36,192,41920,1,0,0:0:0:0:
475,192,41920,1,0,0:0:0:0:
182,192,41920,1,0,0:0:0:0:
402,192,41920,1,0,0:0:0:0:
329,192,42000,1,0,0:0:0:0:
36,192,42080,1,0,0:0:0:0:
475,192,42080,1,0,0:0:0:0:
109,192,42080,1,0,0:0:0:0:
402,192,42080,1,0,0:0:0:0:
182,192,42080,1,0,0:0:0:0:
256,192,42160,1,0,0:0:0:0:
475,192,42240,1,0,0:0:0:0:
329,192,42240,1,0,0:0:0:0:
36,192,42320,1,0,0:0:0:0:
109,192,42400,1,0,0:0:0:0:
256,192,42400,1,0,0:0:0:0:
182,192,42400,1,0,0:0:0:0:
329,192,42480,1,0,0:0:0:0:
109,192,42560,1,0,0:0:0:0:
182,192,42560,1,0,0:0:0:0:
36,192,42560,1,0,0:0:0:0:
475,192,42560,1,0,0:0:0:0:
256,192,42560,1,0,0:0:0:0:
402,192,42640,1,0,0:0:0:0:
329,192,42720,1,0,0:0:0:0:
182,192,42720,1,0,0:0:0:0:
109,192,42800,1,0,0:0:0:0:
36,192,42880,1,0,0:0:0:0:
256,192,42880,1,0,0:0:0:0:
475,192,42880,1,0,0:0:0:0:
109,192,42960,1,0,0:0:0:0:
182,192,43040,1,0,0:0:0:0:
329,192,43040,1,0,0:0:0:0:
402,192,43120,1,0,0:0:0:0:
475,192,43200,1,0,0:0:0:0:
109,192,43200,1,0,0:0:0:0:
36,192,43200,1,0,0:0:0:0:
256,192,43200,1,0,0:0:0:0:
182,192,43280,1,0,0:0:0:0:
329,192,43360,1,0,0:0:0:0:
402,192,43360,1,0,0:0:0:0:
475,192,43360,1,0,0:0:0:0:
109,192,43440,1,0,0:0:0:0:
475,192,43520,1,0,0:0:0:0:
402,192,43520,1,0,0:0:0:0:
182,192,43520,1,0,0:0:0:0:
256,192,43520,1,0,0:0:0:0:
329,192,43520,1,0,0:0:0:0:
109,192,43600,1,0,0:0:0:0:
36,192,43680,1,0,0:0:0:0:
475,192,43680,1,0,0:0:0:0:
256,192,43680,1,0,0:0:0:0:
402,192,43760,1,0,0:0:0:0:
182,192,43840,1,0,0:0:0:0:
109,192,43840,1,0,0:0:0:0:
36,192,43840,1,0,0:0:0:0:
475,192,43920,1,0,0:0:0:0:
36,192,44000,1,0,0:0:0:0:
109,192,44000,1,0,0:0:0:0:
256,192,44000,1,0,0:0:0:0:
329,192,44000,1,0,0:0:0:0:
182,192,44000,1,0,0:0:0:0:
402,192,44080,1,0,0:0:0:0:
475,192,44160,1,0,0:0:0:0:
182,192,44160,1,0,0:0:0:0:
36,192,44160,1,0,0:0:0:0:
256,192,44240,1,0,0:0:0:0:
402,192,44320,1,0,0:0:0:0:
109,192,44320,1,0,0:0:0:0:
329,192,44400,1,0,0:0:0:0:
36,192,44480,1,0,0:0:0:0:
256,192,44480,1,0,0:0:0:0:
182,192,44480,1,0,0:0:0:0:
475,192,44480,1,0,0:0:0:0:
329,192,44560,1,0,0:0:0:0:
36,192,44640,1,0,0:0:0:0:
109,192,44640,1,0,0:0:0:0:
182,192,44640,1,0,0:0:0:0:
475,192,44640,1,0,0:0:0:0:
402,192,44640,1,0,0:0:0:0:
256,192,44720,1,0,0:0:0:0:
475,192,44800,1,0,0:0:0:0:
36,192,44800,1,0,0:0:0:0:
329,192,44800,1,0,0:0:0:0:
182,192,44880,1,0,0:0:0:0:
256,192,44960,1,0,0:0:0:0:
36,192,44960,1,0,0:0:0:0:
109,192,45040,1,0,0:0:0:0:
475,192,45120,1,0,0:0:0:0:
402,192,45120,1,0,0:0:0:0:
329,192,45120,1,0,0:0:0:0:
182,192,45120,1,0,0:0:0:0:
36,192,45200,1,0,0:0:0:0:
475,192,45280,1,0,0:0:0:0:
402,192,45280,1,0,0:0:0:0:
329,192,45280,1,0,0:0:0:0:
256,192,45280,1,0,0:0:0:0:
182,192,45360,1,0,0:0:0:0:
475,192,45440,1,0,0:0:0:0:
402,192,45440,1,0,0:0:0:0:
109,192,45440,1,0,0:0:0:0:
329,192,45520,1,0,0:0:0:0:
182,192,45600,1,0,0:0:0:0:
36,192,45600,1,0,0:0:0:0:
256,192,45680,1,0,0:0:0:0:
475,192,45760,1,0,0:0:0:0:
402,192,45760,1,0,0:0:0:0:
36,192,45760,1,0,0:0:0:0:
109,192,45760,1,0,0:0:0:0:
182,192,45840,1,0,0:0:0:0:
109,192,45920,1,0,0:0:0:0:
36,192,45920,1,0,0:0:0:0:
402,192,45920,1,0,0:0:0:0:
475,192,45920,1,0,0:0:0:0:
329,192,46000,1,0,0:0:0:0:
402,192,46080,1,0,0:0:0:0:
475,192,46080,1,0,0:0:0:0:
109,192,46080,1,0,0:0:0:0:
36,192,46080,1,0,0:0:0:0:
182,192,46160,1,0,0:0:0:0:
329,192,46240,1,0,0:0:0:0:
475,192,46240,1,0,0:0:0:0:
36,192,46240,1,0,0:0:0:0:
256,192,46320,1,0,0:0:0:0:
182,192,46400,1,0,0:0:0:0:
402,192,46400,1,0,0:0:0:0:
475,192,46400,1,0,0:0:0:0:
329,192,46400,1,0,0:0:0:0:
109,192,46480,1,0,0:0:0:0:
256,192,46560,1,0,0:0:0:0:
36,192,46560,1,0,0:0:0:0:
402,192,46560,1,0,0:0:0:0:
182,192,46640,1,0,0:0:0:0:
109,192,46720,1,0,0:0:0:0:
329,192,46720,1,0,0:0:0:0:
475,192,46720,1,0,0:0:0:0:
36,192,46800,1,0,0:0:0:0:
182,192,46880,1,0,0:0:0:0:
402,192,46880,1,0,0:0:0:0:
256,192,46960,1,0,0:0:0:0:
329,192,47040,1,0,0:0:0:0:
36,192,47040,1,0,0:0:0:0:
109,192,47040,1,0,0:0:0:0:
182,192,47040,1,0,0:0:0:0:
402,192,47120,1,0,0:0:0:0:
256,192,47200,1,0,0:0:0:0:
475,192,47200,1,0,0:0:0:0:
109,192,47200,1,0,0:0:0:0:
329,192,47280,1,0,0:0:0:0:
402,192,47360,1,0,0:0:0:0:
182,192,47360,1,0,0:0:0:0:
36,192,47360,1,0,0:0:0:0:
475,192,47440,1,0,0:0:0:0:
329,192,47520,1,0,0:0:0:0:
109,192,47520,1,0,0:0:0:0:
256,192,47600,1,0,0:0:0:0:
475,192,47680,1,0,0:0:0:0:
402,192,47680,1,0,0:0:0:0:
329,192,47680,1,0,0:0:0:0:
182,192,47680,1,0,0:0:0:0:
109,192,47760,1,0,0:0:0:0:
402,192,47840,1,0,0:0:0:0:
36,192,47840,1,0,0:0:0:0:
329,192,47920,1,0,0:0:0:0:
256,192,48000,1,0,0:0:0:0:
36,192,48000,1,0,0:0:0:0:
475,192,48000,1,0,0:0:0:0:
182,192,48080,1,0,0:0:0:0:
475,192,48160,1,0,0:0:0:0:
109,192,48160,1,0,0:0:0:0:
402,192,48240,1,0,0:0:0:0:
329,192,48320,1,0,0:0:0:0:
182,192,48320,1,0,0:0:0:0:
109,192,48320,1,0,0:0:0:0:
36,192,48320,1,0,0:0:0:0:
256,192,48400,1,0,0:0:0:0:
36,192,48480,1,0,0:0:0:0:
402,192,48480,1,0,0:0:0:0:
109,192,48560,1,0,0:0:0:0:
182,192,48640,1,0,0:0:0:0:
475,192,48640,1,0,0:0:0:0:
402,192,48640,1,0,0:0:0:0:
256,192,48720,1,0,0:0:0:0:
109,192,48800,1,0,0:0:0:0:
329,192,48800,1,0,0:0:0:0:
182,192,48880,1,0,0:0:0:0:
256,192,48960,1,0,0:0:0:0:
109,192,48960,1,0,0:0:0:0:
36,192,48960,1,0,0:0:0:0:
475,192,48960,1,0,0:0:0:0:
329,192,49040,1,0,0:0:0:0:
182,192,49120,1,0,0:0:0:0:
402,192,49120,1,0,0:0:0:0:
256,192,49200,1,0,0:0:0:0:
329,192,49280,1,0,0:0:0:0:
36,192,49280,1,0,0:0:0:0:
109,192,49280,1,0,0:0:0:0:
402,192,49360,1,0,0:0:0:0:
256,192,49440,1,0,0:0:0:0:
475,192,49440,1,0,0:0:0:0:
329,192,49520,1,0,0:0:0:0:
402,192,49600,1,0,0:0:0:0:
36,192,49600,1,0,0:0:0:0:
109,192,49600,1,0,0:0:0:0:
182,192,49600,1,0,0:0:0:0:
475,192,49680,1,0,0:0:0:0:
36,192,49760,1,0,0:0:0:0:
256,192,49760,1,0,0:0:0:0:
109,192,49840,1,0,0:0:0:0:
402,192,49920,1,0,0:0:0:0:
475,192,49920,1,0,0:0:0:0:
329,192,49920,1,0,0:0:0:0:
36,192,49920,1,0,0:0:0:0:
182,192,50000,1,0,0:0:0:0:
109,192,50080,1,0,0:0:0:0:
256,192,50160,1,0,0:0:0:0:
182,192,50240,1,0,0:0:0:0:
402,192,50240,1,0,0:0:0:0:
475,192,50240,1,0,0:0:0:0:
109,192,50320,1,0,0:0:0:0:
182,192,50400,1,0,0:0:0:0:
329,192,50480,1,0,0:0:0:0:
256,192,50560,1,0,0:0:0:0:
36,192,50560,1,0,0:0:0:0:
475,192,50560,1,0,0:0:0:0:
182,192,50640,1,0,0:0:0:0:
329,192,50720,1,0,0:0:0:0:
402,192,50800,1,0,0:0:0:0:
329,192,50880,1,0,0:0:0:0:
109,192,50880,1,0,0:0:0:0:
475,192,50880,1,0,0:0:0:0:
36,192,50880,1,0,0:0:0:0:
256,192,50960,1,0,0:0:0:0:
402,192,51040,1,0,0:0:0:0:
109,192,51040,1,0,0:0:0:0:
36,192,51040,1,0,0:0:0:0:
475,192,51040,1,0,0:0:0:0:
329,192,51120,1,0,0:0:0:0:
475,192,51200,1,0,0:0:0:0:
109,192,51200,1,0,0:0:0:0:
36,192,51200,1,0,0:0:0:0:
182,192,51200,1,0,0:0:0:0:
256,192,51280,1,0,0:0:0:0:
329,192,51360,1,0,0:0:0:0:
402,192,51360,1,0,0:0:0:0:
109,192,51360,1,0,0:0:0:0:
475,192,51440,1,0,0:0:0:0:
182,192,51440,1,0,0:0:0:0:
256,192,51520,1,0,0:0:0:0:
36,192,51520,1,0,0:0:0:0:
402,192,51520,1,0,0:0:0:0:
109,192,51520,1,0,0:0:0:0:
182,192,51600,1,0,0:0:0:0:
329,192,51680,1,0,0:0:0:0:
256,192,51680,1,0,0:0:0:0:
36,192,51680,1,0,0:0:0:0:
402,192,51760,1,0,0:0:0:0:
109,192,51760,1,0,0:0:0:0:
182,192,51840,1,0,0:0:0:0:
475,192,51840,1,0,0:0:0:0:
36,192,51840,1,0,0:0:0:0:
109,192,51920,1,0,0:0:0:0:
182,192,52000,1,0,0:0:0:0:
256,192,52000,1,0,0:0:0:0:
475,192,52000,1,0,0:0:0:0:
329,192,52080,1,0,0:0:0:0:
36,192,52080,1,0,0:0:0:0:
402,192,52160,1,0,0:0:0:0:
475,192,52160,1,0,0:0:0:0:
109,192,52160,1,0,0:0:0:0:
256,192,52160,1,0,0:0:0:0:
36,192,52240,1,0,0:0:0:0:
109,192,52320,1,0,0:0:0:0:
182,192,52320,1,0,0:0:0:0:
329,192,52320,1,0,0:0:0:0:
256,192,52400,1,0,0:0:0:0:
475,192,52400,1,0,0:0:0:0:
402,192,52480,1,0,0:0:0:0:
36,192,52480,1,0,0:0:0:0:
329,192,52480,1,0,0:0:0:0:
475,192,52560,1,0,0:0:0:0:
36,192,52640,1,0,0:0:0:0:
109,192,52640,1,0,0:0:0:0:
256,192,52640,1,0,0:0:0:0:
182,192,52720,1,0,0:0:0:0:
402,192,52720,1,0,0:0:0:0:
329,192,52800,1,0,0:0:0:0:
256,192,52800,1,0,0:0:0:0:
475,192,52800,1,0,0:0:0:0:
36,192,52800,1,0,0:0:0:0:
402,192,52880,1,0,0:0:0:0:
36,192,52960,1,0,0:0:0:0:
182,192,52960,1,0,0:0:0:0:
475,192,52960,1,0,0:0:0:0:
329,192,53040,1,0,0:0:0:0:
109,192,53040,1,0,0:0:0:0:
182,192,53120,1,0,0:0:0:0:
256,192,53120,1,0,0:0:0:0:
402,192,53120,1,0,0:0:0:0:
329,192,53200,1,0,0:0:0:0:
402,192,53280,1,0,0:0:0:0:
109,192,53280,1,0,0:0:0:0:
475,192,53280,1,0,0:0:0:0:
256,192,53360,1,0,0:0:0:0:
36,192,53360,1,0,0:0:0:0:
109,192,53440,1,0,0:0:0:0:
182,192,53440,1,0,0:0:0:0:
329,192,53440,1,0,0:0:0:0:
475,192,53440,1,0,0:0:0:0:
256,192,53520,1,0,0:0:0:0:
329,192,53600,1,0,0:0:0:0:
402,192,53600,1,0,0:0:0:0:
36,192,53600,1,0,0:0:0:0:
182,192,53680,1,0,0:0:0:0:
475,192,53680,1,0,0:0:0:0:
36,192,53760,1,0,0:0:0:0:
109,192,53760,1,0,0:0:0:0:
256,192,53760,1,0,0:0:0:0:
329,192,53760,1,0,0:0:0:0:
402,192,53760,1,0,0:0:0:0:
182,192,53840,1,0,0:0:0:0:
475,192,53920,1,0,0:0:0:0:
329,192,53920,1,0,0:0:0:0:
36,192,54000,1,0,0:0:0:0:
109,192,54000,1,0,0:0:0:0:
182,192,54080,1,0,0:0:0:0:
402,192,54080,1,0,0:0:0:0:
475,192,54080,1,0,0:0:0:0:
256,192,54080,1,0,0:0:0:0:
109,192,54160,1,0,0:0:0:0:
256,192,54240,1,0,0:0:0:0:
402,192,54240,1,0,0:0:0:0:
36,192,54320,1,0,0:0:0:0:
475,192,54320,1,0,0:0:0:0:
109,192,54400,1,0,0:0:0:0:
182,192,54400,1,0,0:0:0:0:
329,192,54400,1,0,0:0:0:0:
402,192,54400,1,0,0:0:0:0:
36,192,54480,1,0,0:0:0:0:
182,192,54560,1,0,0:0:0:0:
329,192,54560,1,0,0:0:0:0:
402,192,54640,1,0,0:0:0:0:
475,192,54640,1,0,0:0:0:0:
256,192,54720,1,0,0:0:0:0:
109,192,54720,1,0,0:0:0:0:
36,192,54720,1,0,0:0:0:0:
329,192,54720,1,0,0:0:0:0:
475,192,54800,1,0,0:0:0:0:
109,192,54880,1,0,0:0:0:0:
256,192,54880,1,0,0:0:0:0:
329,192,54960,1,0,0:0:0:0:
402,192,54960,1,0,0:0:0:0:
36,192,55040,1,0,0:0:0:0:
182,192,55040,1,0,0:0:0:0:
256,192,55040,1,0,0:0:0:0:
475,192,55040,1,0,0:0:0:0:
402,192,55120,1,0,0:0:0:0:
36,192,55200,1,0,0:0:0:0:
182,192,55200,1,0,0:0:0:0:
256,192,55280,1,0,0:0:0:0:
329,192,55280,1,0,0:0:0:0:
402,192,55360,1,0,0:0:0:0:
475,192,55360,1,0,0:0:0:0:
182,192,55360,1,0,0:0:0:0:
109,192,55360,1,0,0:0:0:0:
329,192,55440,1,0,0:0:0:0:
109,192,55520,1,0,0:0:0:0:
475,192,55520,1,0,0:0:0:0:
182,192,55600,1,0,0:0:0:0:
256,192,55600,1,0,0:0:0:0:
329,192,55680,1,0,0:0:0:0:
402,192,55680,1,0,0:0:0:0:
109,192,55680,1,0,0:0:0:0:
36,192,55680,1,0,0:0:0:0:
256,192,55760,1,0,0:0:0:0:
36,192,55840,1,0,0:0:0:0:
402,192,55840,1,0,0:0:0:0:
182,192,55920,1,0,0:0:0:0:
109,192,55920,1,0,0:0:0:0:
402,192,56000,1,0,0:0:0:0:
36,192,56000,1,0,0:0:0:0:
475,192,56000,1,0,0:0:0:0:
329,192,56000,1,0,0:0:0:0:
256,192,56080,1,0,0:0:0:0:
329,192,56160,1,0,0:0:0:0:
182,192,56160,1,0,0:0:0:0:
109,192,56160,1,0,0:0:0:0:
402,192,56160,1,0,0:0:0:0:
256,192,56240,1,0,0:0:0:0:
36,192,56320,1,0,0:0:0:0:
182,192,56320,1,0,0:0:0:0:
475,192,56320,1,0,0:0:0:0:
109,192,56320,1,0,0:0:0:0:
329,192,56400,1,0,0:0:0:0:
109,192,56480,1,0,0:0:0:0:
256,192,56480,1,0,0:0:0:0:
402,192,56560,1,0,0:0:0:0:
475,192,56560,1,0,0:0:0:0:
329,192,56640,1,0,0:0:0:0:
36,192,56640,1,0,0:0:0:0:
256,192,56640,1,0,0:0:0:0:
109,192,56640,1,0,0:0:0:0:
182,192,56720,1,0,0:0:0:0:
256,192,56800,1,0,0:0:0:0:
402,192,56800,1,0,0:0:0:0:
109,192,56880,1,0,0:0:0:0:
36,192,56880,1,0,0:0:0:0:
182,192,56960,1,0,0:0:0:0:
256,192,56960,1,0,0:0:0:0:
402,192,56960,1,0,0:0:0:0:
475,192,56960,1,0,0:0:0:0:
329,192,57040,1,0,0:0:0:0:
36,192,57120,1,0,0:0:0:0:
109,192,57120,1,0,0:0:0:0:
182,192,57120,1,0,0:0:0:0:
402,192,57200,1,0,0:0:0:0:
475,192,57200,1,0,0:0:0:0:
36,192,57280,1,0,0:0:0:0:
329,192,57280,1,0,0:0:0:0:
256,192,57280,1,0,0:0:0:0:
109,192,57280,1,0,0:0:0:0:
182,192,57360,1,0,0:0:0:0:
402,192,57440,1,0,0:0:0:0:
475,192,57440,1,0,0:0:0:0:
329,192,57440,1,0,0:0:0:0:
109,192,57520,1,0,0:0:0:0:
36,192,57520,1,0,0:0:0:0:
182,192,57600,1,0,0:0:0:0:
256,192,57600,1,0,0:0:0:0:
402,192,57600,1,0,0:0:0:0:
475,192,57600,1,0,0:0:0:0:
329,192,57680,1,0,0:0:0:0:
256,192,57760,1,0,0:0:0:0:
182,192,57760,1,0,0:0:0:0:
402,192,57760,1,0,0:0:0:0:
109,192,57840,1,0,0:0:0:0:
36,192,57840,1,0,0:0:0:0:
329,192,57920,1,0,0:0:0:0:
402,192,57920,1,0,0:0:0:0:
475,192,57920,1,0,0:0:0:0:
256,192,57920,1,0,0:0:0:0:
182,192,58000,1,0,0:0:0:0:
256,192,58080,1,0,0:0:0:0:
329,192,58080,1,0,0:0:0:0:
109,192,58080,1,0,0:0:0:0:
402,192,58160,1,0,0:0:0:0:
475,192,58160,1,0,0:0:0:0:
256,192,58240,1,0,0:0:0:0:
182,192,58240,1,0,0:0:0:0:
109,192,58240,1,0,0:0:0:0:
36,192,58240,1,0,0:0:0:0:
329,192,58320,1,0,0:0:0:0:
475,192,58400,1,0,0:0:0:0:
36,192,58400,1,0,0:0:0:0:
182,192,58400,1,0,0:0:0:0:
402,192,58480,1,0,0:0:0:0:
329,192,58480,1,0,0:0:0:0:
36,192,58560,1,0,0:0:0:0:
475,192,58560,1,0,0:0:0:0:
256,192,58560,1,0,0:0:0:0:
109,192,58560,1,0,0:0:0:0:
182,192,58640,1,0,0:0:0:0:
475,192,58720,1,0,0:0:0:0:
36,192,58720,1,0,0:0:0:0:
329,192,58720,1,0,0:0:0:0:
109,192,58800,1,0,0:0:0:0:
182,192,58800,1,0,0:0:0:0:
36,192,58880,1,0,0:0:0:0:
475,192,58880,1,0,0:0:0:0:
402,192,58880,1,0,0:0:0:0:
256,192,58880,1,0,0:0:0:0:
109,192,58960,1,0,0:0:0:0:
182,192,58960,1,0,0:0:0:0:
329,192,59040,1,0,0:0:0:0:
475,192,59040,1,0,0:0:0:0:
36,192,59120,1,0,0:0:0:0:
182,192,59120,1,0,0:0:0:0:
402,192,59200,1,0,0:0:0:0:
475,192,59200,1,0,0:0:0:0:
256,192,59200,1,0,0:0:0:0:
109,192,59280,1,0,0:0:0:0:
36,192,59280,1,0,0:0:0:0:
182,192,59360,1,0,0:0:0:0:
256,192,59360,1,0,0:0:0:0:
329,192,59440,1,0,0:0:0:0:
402,192,59440,1,0,0:0:0:0:
182,192,59520,1,0,0:0:0:0:
109,192,59520,1,0,0:0:0:0:
256,192,59600,1,0,0:0:0:0:
329,192,59600,1,0,0:0:0:0:
402,192,59680,1,0,0:0:0:0:
475,192,59680,1,0,0:0:0:0:
36,192,59760,1,0,0:0:0:0:
182,192,59760,1,0,0:0:0:0:
329,192,59840,1,0,0:0:0:0:
475,192,59840,1,0,0:0:0:0:
109,192,59920,1,0,0:0:0:0:
182,192,59920,1,0,0:0:0:0:
329,192,60000,1,0,0:0:0:0:
402,192,60000,1,0,0:0:0:0:
182,192,60080,1,0,0:0:0:0:
109,192,60080,1,0,0:0:0:0:
329,192,60160,1,0,0:0:0:0:
402,192,60160,1,0,0:0:0:0:
256,192,60200,1,0,0:0:0:0:
182,192,60240,1,0,0:0:0:0:
109,192,60280,1,0,0:0:0:0:
36,192,60320,1,0,0:0:0:0:
402,192,60320,1,0,0:0:0:0:
329,192,60360,1,0,0:0:0:0:
256,192,60400,1,0,0:0:0:0:
182,192,60440,1,0,0:0:0:0:
109,192,60480,1,0,0:0:0:0:
475,192,60480,1,0,0:0:0:0:
402,192,60520,1,0,0:0:0:0:
329,192,60560,1,0,0:0:0:0:
256,192,60600,1,0,0:0:0:0:
182,192,60640,1,0,0:0:0:0:
36,192,60693,1,0,0:0:0:0:
109,192,60720,1,0,0:0:0:0:
182,192,60746,1,0,0:0:0:0:
329,192,60800,1,0,0:0:0:0:
402,192,60826,1,0,0:0:0:0:
475,192,60853,1,0,0:0:0:0:
182,192,60906,1,0,0:0:0:0:
109,192,60933,1,0,0:0:0:0:
36,192,60960,1,0,0:0:0:0:
329,192,60986,1,0,0:0:0:0:
402,192,61013,1,0,0:0:0:0:
475,192,61040,1,0,0:0:0:0:
109,192,61093,1,0,0:0:0:0:
182,192,61120,1,0,0:0:0:0:
256,192,61146,1,0,0:0:0:0:
402,192,61200,1,0,0:0:0:0:
329,192,61226,1,0,0:0:0:0:
256,192,61253,1,0,0:0:0:0:
36,192,61306,1,0,0:0:0:0:
109,192,61333,1,0,0:0:0:0:
182,192,61360,1,0,0:0:0:0:
329,192,61386,1,0,0:0:0:0:
402,192,61413,1,0,0:0:0:0:
475,192,61440,128,0,61546:0:0:0:0:
182,192,61760,1,0,0:0:0:0:
475,192,61920,128,0,62040:0:0:0:0:
109,192,62240,1,0,0:0:0:0:
329,192,62720,128,0,62840:0:0:0:0:
109,192,63040,1,0,0:0:0:0:
329,192,63200,128,0,63320:0:0:0:0:
182,192,63520,1,0,0:0:0:0:
109,192,64000,128,0,64120:0:0:0:0:
402,192,64320,1,0,0:0:0:0:
109,192,64480,128,0,64600:0:0:0:0:
329,192,64800,1,0,0:0:0:0:
182,192,65280,128,0,65400:0:0:0:0:
402,192,65600,1,0,0:0:0:0:
182,192,65760,128,0,65880:0:0:0:0:
329,192,66080,1,0,0:0:0:0:
256,192,66240,128,0,66360:0:0:0:0:
475,192,66560,128,0,66680:0:0:0:0:
182,192,66880,1,0,0:0:0:0:
475,192,67040,128,0,67160:0:0:0:0:
109,192,67360,1,0,0:0:0:0:
329,192,67840,128,0,67960:0:0:0:0:
109,192,68160,1,0,0:0:0:0:
329,192,68320,128,0,68440:0:0:0:0:
182,192,68640,1,0,0:0:0:0:
109,192,69120,128,0,69240:0:0:0:0:
402,192,69440,1,0,0:0:0:0:
109,192,69600,128,0,69720:0:0:0:0:
329,192,69920,1,0,0:0:0:0:
182,192,70400,128,0,70520:0:0:0:0:
402,192,70720,1,0,0:0:0:0:
182,192,70880,128,0,71000:0:0:0:0:
329,192,71200,1,0,0:0:0:0:
36,192,71360,1,0,0:0:0:0:
109,192,71360,1,0,0:0:0:0:
329,192,71440,1,0,0:0:0:0:
402,192,71440,1,0,0:0:0:0:
182,192,71520,1,0,0:0:0:0:
109,192,71520,1,0,0:0:0:0:
402,192,71600,1,0,0:0:0:0:
475,192,71600,1,0,0:0:0:0:
329,192,71680,1,0,0:0:0:0:
256,192,71680,1,0,0:0:0:0:
36,192,71680,1,0,0:0:0:0:
109,192,71680,1,0,0:0:0:0:
182,192,71760,1,0,0:0:0:0:
256,192,71840,1,0,0:0:0:0:
475,192,71840,1,0,0:0:0:0:
109,192,71840,1,0,0:0:0:0:
329,192,71920,1,0,0:0:0:0:
182,192,72000,1,0,0:0:0:0:
402,192,72000,1,0,0:0:0:0:
475,192,72000,1,0,0:0:0:0:
36,192,72000,1,0,0:0:0:0:
109,192,72000,1,0,0:0:0:0:
256,192,72080,1,0,0:0:0:0:
329,192,72160,1,0,0:0:0:0:
182,192,72160,1,0,0:0:0:0:
36,192,72160,1,0,0:0:0:0:
402,192,72240,1,0,0:0:0:0:
475,192,72320,1,0,0:0:0:0:
256,192,72320,1,0,0:0:0:0:
182,192,72320,1,0,0:0:0:0:
109,192,72320,1,0,0:0:0:0:
36,192,72320,1,0,0:0:0:0:
329,192,72400,1,0,0:0:0:0:
475,192,72480,1,0,0:0:0:0:
256,192,72480,1,0,0:0:0:0:
109,192,72480,1,0,0:0:0:0:
402,192,72560,1,0,0:0:0:0:
182,192,72560,1,0,0:0:0:0:
475,192,72640,1,0,0:0:0:0:
36,192,72640,1,0,0:0:0:0:
329,192,72640,1,0,0:0:0:0:
109,192,72640,1,0,0:0:0:0:
182,192,72720,1,0,0:0:0:0:
36,192,72800,1,0,0:0:0:0:
256,192,72800,1,0,0:0:0:0:
402,192,72800,1,0,0:0:0:0:
109,192,72880,1,0,0:0:0:0:
329,192,72880,1,0,0:0:0:0:
36,192,72960,1,0,0:0:0:0:
182,192,72960,1,0,0:0:0:0:
402,192,72960,1,0,0:0:0:0:
475,192,72960,1,0,0:0:0:0:
329,192,73040,1,0,0:0:0:0:
256,192,73120,1,0,0:0:0:0:
475,192,73120,1,0,0:0:0:0:
109,192,73120,1,0,0:0:0:0:
182,192,73200,1,0,0:0:0:0:
329,192,73280,1,0,0:0:0:0:
36,192,73280,1,0,0:0:0:0:
109,192,73280,1,0,0:0:0:0:
475,192,73280,1,0,0:0:0:0:
402,192,73280,1,0,0:0:0:0:
256,192,73360,1,0,0:0:0:0:
182,192,73440,1,0,0:0:0:0:
329,192,73440,1,0,0:0:0:0:
475,192,73440,1,0,0:0:0:0:
109,192,73520,1,0,0:0:0:0:
36,192,73600,1,0,0:0:0:0:
256,192,73600,1,0,0:0:0:0:
329,192,73600,1,0,0:0:0:0:
402,192,73600,1,0,0:0:0:0:
475,192,73600,1,0,0:0:0:0:
109,192,73680,1,0,0:0:0:0:
36,192,73760,1,0,0:0:0:0:
402,192,73760,1,0,0:0:0:0:
256,192,73760,1,0,0:0:0:0:
109,192,73840,1,0,0:0:0:0:
329,192,73840,1,0,0:0:0:0:
36,192,73920,1,0,0:0:0:0:
475,192,73920,1,0,0:0:0:0:
182,192,73920,1,0,0:0:0:0:
256,192,73920,1,0,0:0:0:0:
402,192,74000,1,0,0:0:0:0:
109,192,74080,1,0,0:0:0:0:
475,192,74080,1,0,0:0:0:0:
256,192,74080,1,0,0:0:0:0:
182,192,74160,1,0,0:0:0:0:
402,192,74160,1,0,0:0:0:0:
475,192,74240,1,0,0:0:0:0:
36,192,74240,1,0,0:0:0:0:
256,192,74240,1,0,0:0:0:0:
329,192,74240,1,0,0:0:0:0:
109,192,74320,1,0,0:0:0:0:
182,192,74400,1,0,0:0:0:0:
475,192,74400,1,0,0:0:0:0:
329,192,74400,1,0,0:0:0:0:
256,192,74480,1,0,0:0:0:0:
109,192,74560,1,0,0:0:0:0:
36,192,74560,1,0,0:0:0:0:
329,192,74560,1,0,0:0:0:0:
475,192,74560,1,0,0:0:0:0:
402,192,74560,1,0,0:0:0:0:
182,192,74640,1,0,0:0:0:0:
256,192,74720,1,0,0:0:0:0:
36,192,74720,1,0,0:0:0:0:
402,192,74720,1,0,0:0:0:0:
329,192,74800,1,0,0:0:0:0:
36,192,74880,1,0,0:0:0:0:
109,192,74880,1,0,0:0:0:0:
475,192,74880,1,0,0:0:0:0:
402,192,74880,1,0,0:0:0:0:
329,192,74960,1,0,0:0:0:0:
402,192,75040,1,0,0:0:0:0:
36,192,75040,1,0,0:0:0:0:
256,192,75040,1,0,0:0:0:0:
329,192,75120,1,0,0:0:0:0:
109,192,75120,1,0,0:0:0:0:
402,192,75200,1,0,0:0:0:0:
256,192,75200,1,0,0:0:0:0:
475,192,75200,1,0,0:0:0:0:
36,192,75200,1,0,0:0:0:0:
182,192,75280,1,0,0:0:0:0:
109,192,75360,1,0,0:0:0:0:
256,192,75360,1,0,0:0:0:0:
475,192,75360,1,0,0:0:0:0:
182,192,75440,1,0,0:0:0:0:
402,192,75440,1,0,0:0:0:0:
256,192,75520,1,0,0:0:0:0:
475,192,75520,1,0,0:0:0:0:
36,192,75520,1,0,0:0:0:0:
109,192,75520,1,0,0:0:0:0:
402,192,75600,1,0,0:0:0:0:
329,192,75680,1,0,0:0:0:0:
36,192,75680,1,0,0:0:0:0:
182,192,75680,1,0,0:0:0:0:
256,192,75760,1,0,0:0:0:0:
402,192,75840,1,0,0:0:0:0:
36,192,75840,1,0,0:0:0:0:
475,192,75840,1,0,0:0:0:0:
182,192,75840,1,0,0:0:0:0:
109,192,75840,1,0,0:0:0:0:
329,192,75920,1,0,0:0:0:0:
256,192,76000,1,0,0:0:0:0:
109,192,76000,1,0,0:0:0:0:
475,192,76000,1,0,0:0:0:0:
182,192,76080,1,0,0:0:0:0:
36,192,76160,1,0,0:0:0:0:
109,192,76160,1,0,0:0:0:0:
329,192,76160,1,0,0:0:0:0:
402,192,76160,1,0,0:0:0:0:
475,192,76160,1,0,0:0:0:0:
182,192,76240,1,0,0:0:0:0:
109,192,76320,1,0,0:0:0:0:
256,192,76320,1,0,0:0:0:0:
402,192,76320,1,0,0:0:0:0:
329,192,76400,1,0,0:0:0:0:
475,192,76480,1,0,0:0:0:0:
402,192,76480,1,0,0:0:0:0:
36,192,76480,1,0,0:0:0:0:
182,192,76480,1,0,0:0:0:0:
109,192,76480,1,0,0:0:0:0:
329,192,76560,1,0,0:0:0:0:
402,192,76640,1,0,0:0:0:0:
475,192,76640,1,0,0:0:0:0:
36,192,76640,1,0,0:0:0:0:
109,192,76640,1,0,0:0:0:0:
182,192,76720,1,0,0:0:0:0:
475,192,76800,1,0,0:0:0:0:
36,192,76800,1,0,0:0:0:0:
329,192,76800,1,0,0:0:0:0:
109,192,76800,1,0,0:0:0:0:
402,192,76800,1,0,0:0:0:0:
256,192,76880,1,0,0:0:0:0:
109,192,76960,1,0,0:0:0:0:
182,192,76960,1,0,0:0:0:0:
329,192,76960,1,0,0:0:0:0:
475,192,77040,1,0,0:0:0:0:
256,192,77040,1,0,0:0:0:0:
36,192,77120,1,0,0:0:0:0:
402,192,77120,1,0,0:0:0:0:
329,192,77120,1,0,0:0:0:0:
109,192,77120,1,0,0:0:0:0:
182,192,77120,1,0,0:0:0:0:
256,192,77200,1,0,0:0:0:0:
109,192,77280,1,0,0:0:0:0:
329,192,77280,1,0,0:0:0:0:
475,192,77280,1,0,0:0:0:0:
256,192,77360,1,0,0:0:0:0:
402,192,77440,1,0,0:0:0:0:
475,192,77440,1,0,0:0:0:0:
36,192,77440,1,0,0:0:0:0:
182,192,77440,1,0,0:0:0:0:
109,192,77520,1,0,0:0:0:0:
329,192,77600,1,0,0:0:0:0:
256,192,77600,1,0,0:0:0:0:
475,192,77600,1,0,0:0:0:0:
402,192,77680,1,0,0:0:0:0:
182,192,77680,1,0,0:0:0:0:
109,192,77760,1,0,0:0:0:0:
329,192,77760,1,0,0:0:0:0:
256,192,77760,1,0,0:0:0:0:
36,192,77760,1,0,0:0:0:0:
475,192,77760,1,0,0:0:0:0:
402,192,77840,1,0,0:0:0:0:
256,192,77920,1,0,0:0:0:0:
182,192,77920,1,0,0:0:0:0:
475,192,77920,1,0,0:0:0:0:
36,192,78000,1,0,0:0:0:0:
329,192,78080,1,0,0:0:0:0:
402,192,78080,1,0,0:0:0:0:
475,192,78080,1,0,0:0:0:0:
109,192,78080,1,0,0:0:0:0:
256,192,78160,1,0,0:0:0:0:
402,192,78240,1,0,0:0:0:0:
109,192,78240,1,0,0:0:0:0:
36,192,78240,1,0,0:0:0:0:
329,192,78320,1,0,0:0:0:0:
182,192,78320,1,0,0:0:0:0:
256,192,78400,1,0,0:0:0:0:
475,192,78400,1,0,0:0:0:0:
36,192,78400,1,0,0:0:0:0:
402,192,78400,1,0,0:0:0:0:
109,192,78400,1,0,0:0:0:0:
182,192,78480,1,0,0:0:0:0:
329,192,78560,1,0,0:0:0:0:
475,192,78560,1,0,0:0:0:0:
36,192,78560,1,0,0:0:0:0:
109,192,78640,1,0,0:0:0:0:
182,192,78720,1,0,0:0:0:0:
402,192,78720,1,0,0:0:0:0:
475,192,78720,1,0,0:0:0:0:
256,192,78720,1,0,0:0:0:0:
329,192,78800,1,0,0:0:0:0:
36,192,78880,1,0,0:0:0:0:
475,192,78880,1,0,0:0:0:0:
256,192,78880,1,0,0:0:0:0:
329,192,78960,1,0,0:0:0:0:
182,192,78960,1,0,0:0:0:0:
109,192,79040,1,0,0:0:0:0:
36,192,79040,1,0,0:0:0:0:
256,192,79040,1,0,0:0:0:0:
475,192,79040,1,0,0:0:0:0:
402,192,79040,1,0,0:0:0:0:
182,192,79120,1,0,0:0:0:0:
109,192,79200,1,0,0:0:0:0:
402,192,79200,1,0,0:0:0:0:
256,192,79200,1,0,0:0:0:0:
475,192,79280,1,0,0:0:0:0:
402,192,79360,1,0,0:0:0:0:
182,192,79360,1,0,0:0:0:0:
109,192,79360,1,0,0:0:0:0:
36,192,79360,1,0,0:0:0:0:
256,192,79440,1,0,0:0:0:0:
329,192,79520,1,0,0:0:0:0:
109,192,79520,1,0,0:0:0:0:
475,192,79520,1,0,0:0:0:0:
182,192,79600,1,0,0:0:0:0:
402,192,79600,1,0,0:0:0:0:
475,192,79680,1,0,0:0:0:0:
109,192,79680,1,0,0:0:0:0:
36,192,79680,1,0,0:0:0:0:
256,192,79680,1,0,0:0:0:0:
329,192,79680,1,0,0:0:0:0:
402,192,79760,1,0,0:0:0:0:
329,192,79840,1,0,0:0:0:0:
182,192,79840,1,0,0:0:0:0:
36,192,79840,1,0,0:0:0:0:
402,192,79920,1,0,0:0:0:0:
475,192,80000,1,0,0:0:0:0:
109,192,80000,1,0,0:0:0:0:
256,192,80000,1,0,0:0:0:0:
36,192,80000,1,0,0:0:0:0:
182,192,80080,1,0,0:0:0:0:
256,192,80160,1,0,0:0:0:0:
402,192,80160,1,0,0:0:0:0:
36,192,80160,1,0,0:0:0:0:
182,192,80240,1,0,0:0:0:0:
329,192,80240,1,0,0:0:0:0:
109,192,80320,1,0,0:0:0:0:
475,192,80320,1,0,0:0:0:0:
402,192,80320,1,0,0:0:0:0:
36,192,80320,1,0,0:0:0:0:
256,192,80320,1,0,0:0:0:0:
329,192,80400,1,0,0:0:0:0:
182,192,80480,1,0,0:0:0:0:
475,192,80480,1,0,0:0:0:0:
109,192,80480,1,0,0:0:0:0:
329,192,80560,1,0,0:0:0:0:
256,192,80640,1,0,0:0:0:0:
36,192,80640,1,0,0:0:0:0:
475,192,80640,1,0,0:0:0:0:
109,192,80640,1,0,0:0:0:0:
329,192,80720,1,0,0:0:0:0:
475,192,80800,1,0,0:0:0:0:
402,192,80800,1,0,0:0:0:0:
182,192,80800,1,0,0:0:0:0:
329,192,80880,1,0,0:0:0:0:
109,192,80880,1,0,0:0:0:0:
256,192,80960,1,0,0:0:0:0:
36,192,80960,1,0,0:0:0:0:
475,192,80960,1,0,0:0:0:0:
182,192,80960,1,0,0:0:0:0:
402,192,80960,1,0,0:0:0:0:
329,192,81040,1,0,0:0:0:0:
402,192,81120,1,0,0:0:0:0:
36,192,81120,1,0,0:0:0:0:
182,192,81120,1,0,0:0:0:0:
109,192,81200,1,0,0:0:0:0:
256,192,81200,1,0,0:0:0:0:
475,192,81280,1,0,0:0:0:0:
36,192,81280,1,0,0:0:0:0:
329,192,81280,1,0,0:0:0:0:
402,192,81280,1,0,0:0:0:0:
182,192,81360,1,0,0:0:0:0:
256,192,81360,1,0,0:0:0:0:
36,192,81440,1,0,0:0:0:0:
109,192,81440,1,0,0:0:0:0:
475,192,81440,1,0,0:0:0:0:
402,192,81440,1,0,0:0:0:0:
329,192,81520,1,0,0:0:0:0:
256,192,81520,1,0,0:0:0:0:
182,192,81520,1,0,0:0:0:0:
109,192,81600,1,0,0:0:0:0:
36,192,81600,1,0,0:0:0:0:
402,192,81600,1,0,0:0:0:0:
475,192,81600,1,0,0:0:0:0:
329,192,81680,1,0,0:0:0:0:
256,192,81680,1,0,0:0:0:0:
182,192,81760,1,0,0:0:0:0:
36,192,81760,1,0,0:0:0:0:
109,192,81760,1,0,0:0:0:0:
256,192,81800,1,0,0:0:0:0:
329,192,81840,1,0,0:0:0:0:
402,192,81880,1,0,0:0:0:0:
475,192,81920,1,0,0:0:0:0:
36,192,81920,1,0,0:0:0:0:
182,192,81920,1,0,0:0:0:0:
109,192,81920,1,0,0:0:0:0:
256,192,82000,1,0,0:0:0:0:
329,192,82000,1,0,0:0:0:0:
475,192,82080,1,0,0:0:0:0:
109,192,82080,1,0,0:0:0:0:
182,192,82080,1,0,0:0:0:0:
256,192,82160,1,0,0:0:0:0:
329,192,82160,1,0,0:0:0:0:
475,192,82240,1,0,0:0:0:0:
402,192,82240,1,0,0:0:0:0:
182,192,82240,1,0,0:0:0:0:
36,192,82240,1,0,0:0:0:0:
329,192,82320,1,0,0:0:0:0:
109,192,82320,1,0,0:0:0:0:
36,192,82400,1,0,0:0:0:0:
475,192,82400,1,0,0:0:0:0:
182,192,82480,1,0,0:0:0:0:
402,192,82480,1,0,0:0:0:0:
475,192,82560,1,0,0:0:0:0:
109,192,82560,1,0,0:0:0:0:
36,192,82560,1,0,0:0:0:0:
329,192,82560,1,0,0:0:0:0:
256,192,82640,1,0,0:0:0:0:
182,192,82640,1,0,0:0:0:0:
36,192,82720,1,0,0:0:0:0:
402,192,82720,1,0,0:0:0:0:
475,192,82720,1,0,0:0:0:0:
182,192,82800,1,0,0:0:0:0:
256,192,82800,1,0,0:0:0:0:
329,192,82880,1,0,0:0:0:0:
475,192,82880,1,0,0:0:0:0:
109,192,82880,1,0,0:0:0:0:
36,192,82880,1,0,0:0:0:0:
182,192,82960,1,0,0:0:0:0:
402,192,82960,1,0,0:0:0:0:
475,192,83040,1,0,0:0:0:0:
36,192,83040,1,0,0:0:0:0:
329,192,83120,1,0,0:0:0:0:
109,192,83120,1,0,0:0:0:0:
182,192,83200,1,0,0:0:0:0:
36,192,83200,1,0,0:0:0:0:
402,192,83200,1,0,0:0:0:0:
475,192,83200,1,0,0:0:0:0:
256,192,83280,1,0,0:0:0:0:
109,192,83280,1,0,0:0:0:0:
475,192,83360,1,0,0:0:0:0:
36,192,83360,1,0,0:0:0:0:
329,192,83360,1,0,0:0:0:0:
256,192,83440,1,0,0:0:0:0:
402,192,83440,1,0,0:0:0:0:
109,192,83520,1,0,0:0:0:0:
36,192,83520,1,0,0:0:0:0:
329,192,83520,1,0,0:0:0:0:
475,192,83520,1,0,0:0:0:0:
182,192,83600,1,0,0:0:0:0:
256,192,83600,1,0,0:0:0:0:
109,192,83680,1,0,0:0:0:0:
402,192,83680,1,0,0:0:0:0:
475,192,83680,1,0,0:0:0:0:
36,192,83760,1,0,0:0:0:0:
256,192,83760,1,0,0:0:0:0:
329,192,83840,1,0,0:0:0:0:
475,192,83840,1,0,0:0:0:0:
182,192,83840,1,0,0:0:0:0:
109,192,83840,1,0,0:0:0:0:
256,192,83920,1,0,0:0:0:0:
402,192,83920,1,0,0:0:0:0:
36,192,84000,1,0,0:0:0:0:
475,192,84000,1,0,0:0:0:0:
109,192,84080,1,0,0:0:0:0:
256,192,84080,1,0,0:0:0:0:
402,192,84160,1,0,0:0:0:0:
182,192,84160,1,0,0:0:0:0:
475,192,84160,1,0,0:0:0:0:
36,192,84160,1,0,0:0:0:0:
256,192,84240,1,0,0:0:0:0:
329,192,84240,1,0,0:0:0:0:
402,192,84320,1,0,0:0:0:0:
109,192,84320,1,0,0:0:0:0:
36,192,84320,1,0,0:0:0:0:
475,192,84400,1,0,0:0:0:0:
256,192,84400,1,0,0:0:0:0:
402,192,84480,1,0,0:0:0:0:
36,192,84480,1,0,0:0:0:0:
329,192,84480,1,0,0:0:0:0:
182,192,84480,1,0,0:0:0:0:
109,192,84560,1,0,0:0:0:0:
256,192,84560,1,0,0:0:0:0:
475,192,84640,1,0,0:0:0:0:
402,192,84640,1,0,0:0:0:0:
329,192,84640,1,0,0:0:0:0:
36,192,84720,1,0,0:0:0:0:
256,192,84720,1,0,0:0:0:0:
329,192,84800,1,0,0:0:0:0:
475,192,84800,1,0,0:0:0:0:
182,192,84800,1,0,0:0:0:0:
109,192,84800,1,0,0:0:0:0:
256,192,84880,1,0,0:0:0:0:
402,192,84880,1,0,0:0:0:0:
36,192,84960,1,0,0:0:0:0:
109,192,84960,1,0,0:0:0:0:
182,192,84960,1,0,0:0:0:0:
256,192,85040,1,0,0:0:0:0:
475,192,85040,1,0,0:0:0:0:
402,192,85120,1,0,0:0:0:0:
329,192,85120,1,0,0:0:0:0:
182,192,85120,1,0,0:0:0:0:
36,192,85120,1,0,0:0:0:0:
475,192,85200,1,0,0:0:0:0:
109,192,85200,1,0,0:0:0:0:
182,192,85280,1,0,0:0:0:0:
329,192,85280,1,0,0:0:0:0:
36,192,85360,1,0,0:0:0:0:
402,192,85360,1,0,0:0:0:0:
256,192,85440,1,0,0:0:0:0:
182,192,85440,1,0,0:0:0:0:
109,192,85440,1,0,0:0:0:0:
475,192,85440,1,0,0:0:0:0:
36,192,85520,1,0,0:0:0:0:
402,192,85520,1,0,0:0:0:0:
329,192,85600,1,0,0:0:0:0:
182,192,85600,1,0,0:0:0:0:
109,192,85680,1,0,0:0:0:0:
475,192,85680,1,0,0:0:0:0:
402,192,85760,1,0,0:0:0:0:
329,192,85760,1,0,0:0:0:0:
256,192,85760,1,0,0:0:0:0:
36,192,85760,1,0,0:0:0:0:
182,192,85840,1,0,0:0:0:0:
109,192,85840,1,0,0:0:0:0:
475,192,85920,1,0,0:0:0:0:
256,192,85920,1,0,0:0:0:0:
402,192,85920,1,0,0:0:0:0:
36,192,86000,1,0,0:0:0:0:
329,192,86000,1,0,0:0:0:0:
182,192,86080,1,0,0:0:0:0:
256,192,86080,1,0,0:0:0:0:
475,192,86080,1,0,0:0:0:0:
109,192,86080,1,0,0:0:0:0:
329,192,86160,1,0,0:0:0:0:
402,192,86160,1,0,0:0:0:0:
36,192,86240,1,0,0:0:0:0:
109,192,86240,1,0,0:0:0:0:
256,192,86240,1,0,0:0:0:0:
182,192,86320,1,0,0:0:0:0:
475,192,86320,1,0,0:0:0:0:
402,192,86400,1,0,0:0:0:0:
329,192,86400,1,0,0:0:0:0:
256,192,86400,1,0,0:0:0:0:
36,192,86400,1,0,0:0:0:0:
182,192,86480,1,0,0:0:0:0:
329,192,86560,1,0,0:0:0:0:
36,192,86560,1,0,0:0:0:0:
475,192,86560,1,0,0:0:0:0:
256,192,86640,1,0,0:0:0:0:
402,192,86720,1,0,0:0:0:0:
475,192,86720,1,0,0:0:0:0:
109,192,86720,1,0,0:0:0:0:
36,192,86720,1,0,0:0:0:0:
182,192,86720,1,0,0:0:0:0:
256,192,86800,1,0,0:0:0:0:
329,192,86880,1,0,0:0:0:0:
402,192,86880,1,0,0:0:0:0:
475,192,86880,1,0,0:0:0:0:
109,192,86880,1,0,0:0:0:0:
36,192,86880,1,0,0:0:0:0:
182,192,86960,1,0,0:0:0:0:
256,192,87040,1,0,0:0:0:0:
402,192,87040,1,0,0:0:0:0:
475,192,87040,1,0,0:0:0:0:
36,192,87040,1,0,0:0:0:0:
109,192,87040,1,0,0:0:0:0:
182,192,87120,1,0,0:0:0:0:
256,192,87200,1,0,0:0:0:0:
475,192,87200,1,0,0:0:0:0:
109,192,87200,1,0,0:0:0:0:
36,192,87280,1,0,0:0:0:0:
402,192,87280,1,0,0:0:0:0:
182,192,87360,1,0,0:0:0:0:
256,192,87360,1,0,0:0:0:0:
475,192,87360,1,0,0:0:0:0:
109,192,87360,1,0,0:0:0:0:
329,192,87440,1,0,0:0:0:0:
36,192,87520,1,0,0:0:0:0:
256,192,87520,1,0,0:0:0:0:
402,192,87520,1,0,0:0:0:0:
475,192,87600,1,0,0:0:0:0:
109,192,87600,1,0,0:0:0:0:
36,192,87680,1,0,0:0:0:0:
256,192,87680,1,0,0:0:0:0:
329,192,87680,1,0,0:0:0:0:
402,192,87680,1,0,0:0:0:0:
182,192,87760,1,0,0:0:0:0:
475,192,87840,1,0,0:0:0:0:
109,192,87840,1,0,0:0:0:0:
256,192,87840,1,0,0:0:0:0:
36,192,87920,1,0,0:0:0:0:
402,192,87920,1,0,0:0:0:0:
475,192,88000,1,0,0:0:0:0:
109,192,88000,1,0,0:0:0:0:
256,192,88000,1,0,0:0:0:0:
182,192,88000,1,0,0:0:0:0:
329,192,88080,1,0,0:0:0:0:
402,192,88160,1,0,0:0:0:0:
36,192,88160,1,0,0:0:0:0:
256,192,88160,1,0,0:0:0:0:
475,192,88240,1,0,0:0:0:0:
109,192,88240,1,0,0:0:0:0:
402,192,88320,1,0,0:0:0:0:
256,192,88320,1,0,0:0:0:0:
329,192,88320,1,0,0:0:0:0:
36,192,88320,1,0,0:0:0:0:
182,192,88400,1,0,0:0:0:0:
475,192,88480,1,0,0:0:0:0:
36,192,88480,1,0,0:0:0:0:
402,192,88480,1,0,0:0:0:0:
256,192,88560,1,0,0:0:0:0:
109,192,88560,1,0,0:0:0:0:
402,192,88640,1,0,0:0:0:0:
36,192,88640,1,0,0:0:0:0:
475,192,88640,1,0,0:0:0:0:
182,192,88640,1,0,0:0:0:0:
329,192,88720,1,0,0:0:0:0:
109,192,88800,1,0,0:0:0:0:
36,192,88800,1,0,0:0:0:0:
475,192,88800,1,0,0:0:0:0:
256,192,88880,1,0,0:0:0:0:
402,192,88880,1,0,0:0:0:0:
109,192,88960,1,0,0:0:0:0:
36,192,88960,1,0,0:0:0:0:
475,192,88960,1,0,0:0:0:0:
329,192,88960,1,0,0:0:0:0:
256,192,89040,1,0,0:0:0:0:
36,192,89120,1,0,0:0:0:0:
475,192,89120,1,0,0:0:0:0:
329,192,89120,1,0,0:0:0:0:
256,192,89200,1,0,0:0:0:0:
182,192,89200,1,0,0:0:0:0:
36,192,89280,1,0,0:0:0:0:
109,192,89280,1,0,0:0:0:0:
475,192,89280,1,0,0:0:0:0:
402,192,89280,1,0,0:0:0:0:
329,192,89360,1,0,0:0:0:0:
109,192,89440,1,0,0:0:0:0:
36,192,89440,1,0,0:0:0:0:
402,192,89440,1,0,0:0:0:0:
475,192,89440,1,0,0:0:0:0:
182,192,89520,1,0,0:0:0:0:
402,192,89600,1,0,0:0:0:0:
475,192,89600,1,0,0:0:0:0:
109,192,89600,1,0,0:0:0:0:
36,192,89600,1,0,0:0:0:0:
256,192,89680,1,0,0:0:0:0:
329,192,89680,1,0,0:0:0:0:
109,192,89760,1,0,0:0:0:0:
182,192,89760,1,0,0:0:0:0:
329,192,89840,1,0,0:0:0:0:
402,192,89840,1,0,0:0:0:0:
36,192,89920,1,0,0:0:0:0:
109,192,89920,1,0,0:0:0:0:
256,192,89920,1,0,0:0:0:0:
402,192,90000,1,0,0:0:0:0:
475,192,90000,1,0,0:0:0:0:
182,192,90080,1,0,0:0:0:0:
36,192,90080,1,0,0:0:0:0:
329,192,90160,1,0,0:0:0:0:
475,192,90160,1,0,0:0:0:0:
182,192,90240,1,0,0:0:0:0:
109,192,90240,1,0,0:0:0:0:
329,192,90320,1,0,0:0:0:0:
402,192,90320,1,0,0:0:0:0:
182,192,90400,1,0,0:0:0:0:
36,192,90400,1,0,0:0:0:0:
329,192,90480,1,0,0:0:0:0:
475,192,90480,1,0,0:0:0:0:
36,192,90560,1,0,0:0:0:0:
109,192,90560,1,0,0:0:0:0:
256,192,90560,1,0,0:0:0:0:
402,192,90640,1,0,0:0:0:0:
475,192,90640,1,0,0:0:0:0:
109,192,90720,1,0,0:0:0:0:
182,192,90720,1,0,0:0:0:0:
329,192,90800,1,0,0:0:0:0:
402,192,90800,1,0,0:0:0:0:
36,192,90880,1,0,0:0:0:0:
109,192,90920,1,0,0:0:0:0:
182,192,90960,1,0,0:0:0:0:
475,192,91000,1,0,0:0:0:0:
402,192,91040,1,0,0:0:0:0:
329,192,91080,1,0,0:0:0:0:
256,192,91120,1,0,0:0:0:0:
182,192,91160,1,0,0:0:0:0:
109,192,91200,1,0,0:0:0:0:
36,192,91240,1,0,0:0:0:0:
475,192,91280,1,0,0:0:0:0:
402,192,91320,1,0,0:0:0:0:
256,192,91360,1,0,0:0:0:0:
109,192,91400,1,0,0:0:0:0:
36,192,91480,1,0,0:0:0:0:
329,192,91520,1,0,0:0:0:0:
475,192,91546,1,0,0:0:0:0:
256,192,91573,1,0,0:0:0:0:
36,192,91626,1,0,0:0:0:0:
402,192,91653,1,0,0:0:0:0:
182,192,91680,1,0,0:0:0:0:
256,192,91733,1,0,0:0:0:0:
475,192,91760,1,0,0:0:0:0:
329,192,91786,1,0,0:0:0:0:
182,192,91813,1,0,0:0:0:0:
36,192,91840,1,0,0:0:0:0:
109,192,91866,1,0,0:0:0:0:
475,192,91920,1,0,0:0:0:0:
402,192,91946,1,0,0:0:0:0:
329,192,91973,1,0,0:0:0:0:
36,192,92000,1,0,0:0:0:0:
109,192,92026,1,0,0:0:0:0:
182,192,92053,1,0,0:0:0:0:
475,192,92080,1,0,0:0:0:0:
402,192,92106,1,0,0:0:0:0:
329,192,92133,1,0,0:0:0:0:
36,192,92160,1,0,0:0:0:0:
256,192,92160,1,0,0:0:0:0:
182,192,92160,1,0,0:0:0:0:
182,192,92320,1,0,0:0:0:0:
402,192,92320,1,0,0:0:0:0:
256,192,92400,1,0,0:0:0:0:
36,192,92480,1,0,0:0:0:0:
475,192,92480,1,0,0:0:0:0:
329,192,92480,1,0,0:0:0:0:
109,192,92480,1,0,0:0:0:0:
182,192,92640,1,0,0:0:0:0:
402,192,92640,1,0,0:0:0:0:
329,192,92720,1,0,0:0:0:0:
109,192,92800,1,0,0:0:0:0:
36,192,92800,1,0,0:0:0:0:
182,192,92800,1,0,0:0:0:0:
109,192,92960,1,0,0:0:0:0:
329,192,92960,1,0,0:0:0:0:
182,192,93040,1,0,0:0:0:0:
256,192,93120,1,0,0:0:0:0:
402,192,93120,1,0,0:0:0:0:
475,192,93120,1,0,0:0:0:0:
36,192,93120,1,0,0:0:0:0:
329,192,93280,1,0,0:0:0:0:
109,192,93280,1,0,0:0:0:0:
256,192,93360,1,0,0:0:0:0:
402,192,93440,1,0,0:0:0:0:
475,192,93440,1,0,0:0:0:0:
329,192,93440,1,0,0:0:0:0:
256,192,93600,1,0,0:0:0:0:
402,192,93600,1,0,0:0:0:0:
182,192,93680,1,0,0:0:0:0:
109,192,93760,1,0,0:0:0:0:
36,192,93760,1,0,0:0:0:0:
329,192,93760,1,0,0:0:0:0:
475,192,93760,1,0,0:0:0:0:
182,192,93920,1,0,0:0:0:0:
329,192,94000,1,0,0:0:0:0:
109,192,94080,1,0,0:0:0:0:
36,192,94080,1,0,0:0:0:0:
256,192,94080,1,0,0:0:0:0:
182,192,94080,1,0,0:0:0:0:
329,192,94240,1,0,0:0:0:0:
402,192,94240,1,0,0:0:0:0:
256,192,94320,1,0,0:0:0:0:
402,192,94400,1,0,0:0:0:0:
475,192,94400,1,0,0:0:0:0:
182,192,94400,1,0,0:0:0:0:
36,192,94400,1,0,0:0:0:0:
329,192,94560,1,0,0:0:0:0:
402,192,94560,1,0,0:0:0:0:
182,192,94640,1,0,0:0:0:0:
36,192,94720,1,0,0:0:0:0:
109,192,94720,1,0,0:0:0:0:
256,192,94720,1,0,0:0:0:0:
36,192,94880,1,0,0:0:0:0:
256,192,94880,1,0,0:0:0:0:
402,192,94960,1,0,0:0:0:0:
475,192,95040,1,0,0:0:0:0:
329,192,95040,1,0,0:0:0:0:
182,192,95040,1,0,0:0:0:0:
109,192,95040,1,0,0:0:0:0:
256,192,95200,1,0,0:0:0:0:
402,192,95200,1,0,0:0:0:0:
109,192,95280,1,0,0:0:0:0:
329,192,95360,1,0,0:0:0:0:
475,192,95360,1,0,0:0:0:0:
402,192,95360,1,0,0:0:0:0:
256,192,95520,1,0,0:0:0:0:
109,192,95520,1,0,0:0:0:0:
402,192,95600,1,0,0:0:0:0:
256,192,95680,1,0,0:0:0:0:
36,192,95680,1,0,0:0:0:0:
182,192,95680,1,0,0:0:0:0:
475,192,95680,1,0,0:0:0:0:
402,192,95840,1,0,0:0:0:0:
256,192,95840,1,0,0:0:0:0:
329,192,95920,1,0,0:0:0:0:
109,192,96000,1,0,0:0:0:0:
36,192,96000,1,0,0:0:0:0:
182,192,96000,1,0,0:0:0:0:
256,192,96000,1,0,0:0:0:0:
36,192,96160,1,0,0:0:0:0:
329,192,96160,1,0,0:0:0:0:
256,192,96240,1,0,0:0:0:0:
402,192,96320,1,0,0:0:0:0:
182,192,96320,1,0,0:0:0:0:
475,192,96320,1,0,0:0:0:0:
329,192,96320,1,0,0:0:0:0:
109,192,96480,1,0,0:0:0:0:
256,192,96480,1,0,0:0:0:0:
182,192,96560,1,0,0:0:0:0:
256,192,96640,1,0,0:0:0:0:
402,192,96640,1,0,0:0:0:0:
475,192,96640,1,0,0:0:0:0:
329,192,96640,1,0,0:0:0:0:
182,192,96800,1,0,0:0:0:0:
256,192,96800,1,0,0:0:0:0:
402,192,96880,1,0,0:0:0:0:
182,192,96960,1,0,0:0:0:0:
109,192,96960,1,0,0:0:0:0:
36,192,96960,1,0,0:0:0:0:
329,192,96960,1,0,0:0:0:0:
109,192,97120,1,0,0:0:0:0:
36,192,97120,1,0,0:0:0:0:
475,192,97120,1,0,0:0:0:0:
329,192,97120,1,0,0:0:0:0:
256,192,97200,1,0,0:0:0:0:
36,192,97280,1,0,0:0:0:0:
109,192,97280,1,0,0:0:0:0:
402,192,97280,1,0,0:0:0:0:
475,192,97280,1,0,0:0:0:0:
109,192,97440,1,0,0:0:0:0:
256,192,97440,1,0,0:0:0:0:
329,192,97520,1,0,0:0:0:0:
402,192,97600,1,0,0:0:0:0:
475,192,97600,1,0,0:0:0:0:
182,192,97600,1,0,0:0:0:0:
36,192,97600,1,0,0:0:0:0:
256,192,97760,1,0,0:0:0:0:
109,192,97840,1,0,0:0:0:0:
182,192,97920,1,0,0:0:0:0:
36,192,97920,1,0,0:0:0:0:
256,192,97920,1,0,0:0:0:0:
329,192,97920,1,0,0:0:0:0:
475,192,98080,1,0,0:0:0:0:
329,192,98080,1,0,0:0:0:0:
256,192,98160,1,0,0:0:0:0:
182,192,98240,1,0,0:0:0:0:
402,192,98240,1,0,0:0:0:0:
475,192,98240,1,0,0:0:0:0:
36,192,98240,1,0,0:0:0:0:
256,192,98400,1,0,0:0:0:0:
402,192,98480,1,0,0:0:0:0:
329,192,98560,1,0,0:0:0:0:
475,192,98560,1,0,0:0:0:0:
256,192,98560,1,0,0:0:0:0:
182,192,98560,1,0,0:0:0:0:
182,192,98720,1,0,0:0:0:0:
402,192,98720,1,0,0:0:0:0:
256,192,98800,1,0,0:0:0:0:
329,192,98880,1,0,0:0:0:0:
475,192,98880,1,0,0:0:0:0:
109,192,98880,1,0,0:0:0:0:
36,192,98880,1,0,0:0:0:0:
182,192,99040,1,0,0:0:0:0:
402,192,99040,1,0,0:0:0:0:
109,192,99120,1,0,0:0:0:0:
256,192,99200,1,0,0:0:0:0:
182,192,99200,1,0,0:0:0:0:
329,192,99200,1,0,0:0:0:0:
36,192,99200,1,0,0:0:0:0:
256,192,99360,1,0,0:0:0:0:
475,192,99360,1,0,0:0:0:0:
329,192,99440,1,0,0:0:0:0:
182,192,99520,1,0,0:0:0:0:
109,192,99520,1,0,0:0:0:0:
402,192,99520,1,0,0:0:0:0:
256,192,99520,1,0,0:0:0:0:
329,192,99680,1,0,0:0:0:0:
475,192,99680,1,0,0:0:0:0:
256,192,99760,1,0,0:0:0:0:
329,192,99840,1,0,0:0:0:0:
109,192,99840,1,0,0:0:0:0:
36,192,99840,1,0,0:0:0:0:
182,192,99840,1,0,0:0:0:0:
182,192,100000,1,0,0:0:0:0:
36,192,100000,1,0,0:0:0:0:
256,192,100080,1,0,0:0:0:0:
402,192,100160,1,0,0:0:0:0:
475,192,100160,1,0,0:0:0:0:
109,192,100160,1,0,0:0:0:0:
182,192,100160,1,0,0:0:0:0:
329,192,100320,1,0,0:0:0:0:
182,192,100320,1,0,0:0:0:0:
256,192,100400,1,0,0:0:0:0:
329,192,100480,1,0,0:0:0:0:
475,192,100480,1,0,0:0:0:0:
402,192,100480,1,0,0:0:0:0:
109,192,100640,1,0,0:0:0:0:
329,192,100640,1,0,0:0:0:0:
182,192,100720,1,0,0:0:0:0:
256,192,100800,1,0,0:0:0:0:
402,192,100800,1,0,0:0:0:0:
475,192,100800,1,0,0:0:0:0:
36,192,100800,1,0,0:0:0:0:
329,192,100960,1,0,0:0:0:0:
402,192,100960,1,0,0:0:0:0:
256,192,101040,1,0,0:0:0:0:
109,192,101120,1,0,0:0:0:0:
36,192,101120,1,0,0:0:0:0:
182,192,101120,1,0,0:0:0:0:
402,192,101120,1,0,0:0:0:0:
109,192,101280,1,0,0:0:0:0:
256,192,101280,1,0,0:0:0:0:
402,192,101360,1,0,0:0:0:0:
329,192,101440,1,0,0:0:0:0:
182,192,101440,1,0,0:0:0:0:
36,192,101440,1,0,0:0:0:0:
475,192,101440,1,0,0:0:0:0:
256,192,101600,1,0,0:0:0:0:
109,192,101600,1,0,0:0:0:0:
402,192,101680,1,0,0:0:0:0:
182,192,101760,1,0,0:0:0:0:
475,192,101920,1,0,0:0:0:0:
329,192,101920,1,0,0:0:0:0:
36,192,102000,1,0,0:0:0:0:
182,192,102000,1,0,0:0:0:0:
329,192,102080,1,0,0:0:0:0:
475,192,102080,1,0,0:0:0:0:
109,192,102240,1,0,0:0:0:0:
402,192,102240,1,0,0:0:0:0:
256,192,102400,1,0,0:0:0:0:
36,192,102400,1,0,0:0:0:0:
109,192,102400,1,0,0:0:0:0:
402,192,102400,1,0,0:0:0:0:
475,192,102400,1,0,0:0:0:0:
182,192,102480,1,0,0:0:0:0:
256,192,102560,1,0,0:0:0:0:
329,192,102560,1,0,0:0:0:0:
475,192,102560,1,0,0:0:0:0:
109,192,102640,1,0,0:0:0:0:
36,192,102640,1,0,0:0:0:0:
182,192,102720,1,0,0:0:0:0:
402,192,102720,1,0,0:0:0:0:
475,192,102720,1,0,0:0:0:0:
329,192,102720,1,0,0:0:0:0:
256,192,102800,1,0,0:0:0:0:
36,192,102880,1,0,0:0:0:0:
475,192,102880,1,0,0:0:0:0:
402,192,102880,1,0,0:0:0:0:
109,192,102960,1,0,0:0:0:0:
256,192,102960,1,0,0:0:0:0:
475,192,103040,1,0,0:0:0:0:
36,192,103040,1,0,0:0:0:0:
402,192,103040,1,0,0:0:0:0:
182,192,103040,1,0,0:0:0:0:
329,192,103120,1,0,0:0:0:0:
109,192,103200,1,0,0:0:0:0:
36,192,103200,1,0,0:0:0:0:
256,192,103200,1,0,0:0:0:0:
402,192,103280,1,0,0:0:0:0:
475,192,103280,1,0,0:0:0:0:
329,192,103360,1,0,0:0:0:0:
256,192,103360,1,0,0:0:0:0:
109,192,103360,1,0,0:0:0:0:
36,192,103360,1,0,0:0:0:0:
182,192,103440,1,0,0:0:0:0:
475,192,103520,1,0,0:0:0:0:
256,192,103520,1,0,0:0:0:0:
36,192,103520,1,0,0:0:0:0:
402,192,103600,1,0,0:0:0:0:
182,192,103600,1,0,0:0:0:0:
329,192,103680,1,0,0:0:0:0:
475,192,103680,1,0,0:0:0:0:
109,192,103680,1,0,0:0:0:0:
36,192,103680,1,0,0:0:0:0:
182,192,103760,1,0,0:0:0:0:
402,192,103840,1,0,0:0:0:0:
475,192,103840,1,0,0:0:0:0:
256,192,103840,1,0,0:0:0:0:
36,192,103920,1,0,0:0:0:0:
182,192,103920,1,0,0:0:0:0:
475,192,104000,1,0,0:0:0:0:
109,192,104000,1,0,0:0:0:0:
256,192,104000,1,0,0:0:0:0:
329,192,104000,1,0,0:0:0:0:
402,192,104080,1,0,0:0:0:0:
36,192,104160,1,0,0:0:0:0:
475,192,104160,1,0,0:0:0:0:
256,192,104160,1,0,0:0:0:0:
402,192,104240,1,0,0:0:0:0:
182,192,104240,1,0,0:0:0:0:
329,192,104320,1,0,0:0:0:0:
475,192,104320,1,0,0:0:0:0:
109,192,104320,1,0,0:0:0:0:
36,192,104320,1,0,0:0:0:0:
182,192,104400,1,0,0:0:0:0:
402,192,104400,1,0,0:0:0:0:
256,192,104480,1,0,0:0:0:0:
329,192,104480,1,0,0:0:0:0:
109,192,104480,1,0,0:0:0:0:
402,192,104560,1,0,0:0:0:0:
475,192,104560,1,0,0:0:0:0:
36,192,104560,1,0,0:0:0:0:
109,192,104640,1,0,0:0:0:0:
182,192,104640,1,0,0:0:0:0:
256,192,104640,1,0,0:0:0:0:
329,192,104640,1,0,0:0:0:0:
36,192,104720,1,0,0:0:0:0:
182,192,104800,1,0,0:0:0:0:
256,192,104800,1,0,0:0:0:0:
475,192,104800,1,0,0:0:0:0:
402,192,104800,1,0,0:0:0:0:
109,192,104880,1,0,0:0:0:0:
36,192,104960,1,0,0:0:0:0:
256,192,104960,1,0,0:0:0:0:
329,192,104960,1,0,0:0:0:0:
402,192,104960,1,0,0:0:0:0:
475,192,104960,1,0,0:0:0:0:
182,192,105040,1,0,0:0:0:0:
109,192,105120,1,0,0:0:0:0:
475,192,105120,1,0,0:0:0:0:
402,192,105120,1,0,0:0:0:0:
329,192,105200,1,0,0:0:0:0:
256,192,105200,1,0,0:0:0:0:
402,192,105280,1,0,0:0:0:0:
475,192,105280,1,0,0:0:0:0:
109,192,105280,1,0,0:0:0:0:
36,192,105280,1,0,0:0:0:0:
182,192,105360,1,0,0:0:0:0:
36,192,105440,1,0,0:0:0:0:
256,192,105440,1,0,0:0:0:0:
402,192,105440,1,0,0:0:0:0:
182,192,105520,1,0,0:0:0:0:
475,192,105520,1,0,0:0:0:0:
36,192,105600,1,0,0:0:0:0:
109,192,105600,1,0,0:0:0:0:
329,192,105600,1,0,0:0:0:0:
402,192,105600,1,0,0:0:0:0:
256,192,105680,1,0,0:0:0:0:
182,192,105760,1,0,0:0:0:0:
475,192,105760,1,0,0:0:0:0:
109,192,105760,1,0,0:0:0:0:
402,192,105840,1,0,0:0:0:0:
329,192,105840,1,0,0:0:0:0:
36,192,105840,1,0,0:0:0:0:
109,192,105920,1,0,0:0:0:0:
182,192,105920,1,0,0:0:0:0:
256,192,105920,1,0,0:0:0:0:
475,192,105920,1,0,0:0:0:0:
329,192,106000,1,0,0:0:0:0:
475,192,106080,1,0,0:0:0:0:
36,192,106080,1,0,0:0:0:0:
182,192,106080,1,0,0:0:0:0:
402,192,106160,1,0,0:0:0:0:
256,192,106160,1,0,0:0:0:0:
329,192,106240,1,0,0:0:0:0:
475,192,106240,1,0,0:0:0:0:
36,192,106240,1,0,0:0:0:0:
109,192,106240,1,0,0:0:0:0:
182,192,106240,1,0,0:0:0:0:
256,192,106320,1,0,0:0:0:0:
475,192,106400,1,0,0:0:0:0:
402,192,106400,1,0,0:0:0:0:
329,192,106400,1,0,0:0:0:0:
182,192,106480,1,0,0:0:0:0:
109,192,106480,1,0,0:0:0:0:
36,192,106560,1,0,0:0:0:0:
402,192,106560,1,0,0:0:0:0:
475,192,106560,1,0,0:0:0:0:
256,192,106560,1,0,0:0:0:0:
182,192,106640,1,0,0:0:0:0:
36,192,106720,1,0,0:0:0:0:
475,192,106720,1,0,0:0:0:0:
329,192,106720,1,0,0:0:0:0:
109,192,106800,1,0,0:0:0:0:
256,192,106800,1,0,0:0:0:0:
329,192,106880,1,0,0:0:0:0:
402,192,106880,1,0,0:0:0:0:
475,192,106880,1,0,0:0:0:0:
182,192,106880,1,0,0:0:0:0:
36,192,106880,1,0,0:0:0:0:
256,192,106960,1,0,0:0:0:0:
182,192,107040,1,0,0:0:0:0:
109,192,107040,1,0,0:0:0:0:
36,192,107040,1,0,0:0:0:0:
329,192,107120,1,0,0:0:0:0:
402,192,107120,1,0,0:0:0:0:
256,192,107200,1,0,0:0:0:0:
475,192,107200,1,0,0:0:0:0:
109,192,107200,1,0,0:0:0:0:
36,192,107200,1,0,0:0:0:0:
329,192,107280,1,0,0:0:0:0:
36,192,107360,1,0,0:0:0:0:
256,192,107360,1,0,0:0:0:0:
475,192,107360,1,0,0:0:0:0:
402,192,107360,1,0,0:0:0:0:
182,192,107440,1,0,0:0:0:0:
475,192,107520,1,0,0:0:0:0:
256,192,107520,1,0,0:0:0:0:
109,192,107520,1,0,0:0:0:0:
36,192,107520,1,0,0:0:0:0:
329,192,107600,1,0,0:0:0:0:
402,192,107680,1,0,0:0:0:0:
475,192,107680,1,0,0:0:0:0:
182,192,107680,1,0,0:0:0:0:
109,192,107680,1,0,0:0:0:0:
256,192,107760,1,0,0:0:0:0:
475,192,107840,1,0,0:0:0:0:
36,192,107840,1,0,0:0:0:0:
109,192,107840,1,0,0:0:0:0:
329,192,107840,1,0,0:0:0:0:
402,192,107840,1,0,0:0:0:0:
182,192,107920,1,0,0:0:0:0:
475,192,108000,1,0,0:0:0:0:
402,192,108000,1,0,0:0:0:0:
109,192,108000,1,0,0:0:0:0:
36,192,108080,1,0,0:0:0:0:
256,192,108080,1,0,0:0:0:0:
182,192,108160,1,0,0:0:0:0:
329,192,108160,1,0,0:0:0:0:
475,192,108160,1,0,0:0:0:0:
109,192,108160,1,0,0:0:0:0:
256,192,108240,1,0,0:0:0:0:
475,192,108320,1,0,0:0:0:0:
402,192,108320,1,0,0:0:0:0:
182,192,108320,1,0,0:0:0:0:
36,192,108400,1,0,0:0:0:0:
109,192,108400,1,0,0:0:0:0:
329,192,108400,1,0,0:0:0:0:
475,192,108480,1,0,0:0:0:0:
182,192,108480,1,0,0:0:0:0:
402,192,108480,1,0,0:0:0:0:
256,192,108480,1,0,0:0:0:0:
329,192,108560,1,0,0:0:0:0:
109,192,108640,1,0,0:0:0:0:
36,192,108640,1,0,0:0:0:0:
256,192,108640,1,0,0:0:0:0:
402,192,108720,1,0,0:0:0:0:
475,192,108720,1,0,0:0:0:0:
329,192,108800,1,0,0:0:0:0:
109,192,108800,1,0,0:0:0:0:
36,192,108800,1,0,0:0:0:0:
256,192,108800,1,0,0:0:0:0:
182,192,108880,1,0,0:0:0:0:
475,192,108960,1,0,0:0:0:0:
36,192,108960,1,0,0:0:0:0:
109,192,108960,1,0,0:0:0:0:
256,192,108960,1,0,0:0:0:0:
402,192,108960,1,0,0:0:0:0:
329,192,109040,1,0,0:0:0:0:
475,192,109120,1,0,0:0:0:0:
109,192,109120,1,0,0:0:0:0:
36,192,109120,1,0,0:0:0:0:
182,192,109120,1,0,0:0:0:0:
402,192,109120,1,0,0:0:0:0:
256,192,109200,1,0,0:0:0:0:
402,192,109280,1,0,0:0:0:0:
36,192,109280,1,0,0:0:0:0:
182,192,109280,1,0,0:0:0:0:
475,192,109360,1,0,0:0:0:0:
109,192,109360,1,0,0:0:0:0:
36,192,109440,1,0,0:0:0:0:
182,192,109440,1,0,0:0:0:0:
329,192,109440,1,0,0:0:0:0:
256,192,109440,1,0,0:0:0:0:
402,192,109520,1,0,0:0:0:0:
475,192,109600,1,0,0:0:0:0:
256,192,109600,1,0,0:0:0:0:
36,192,109600,1,0,0:0:0:0:
109,192,109680,1,0,0:0:0:0:
475,192,109760,1,0,0:0:0:0:
182,192,109760,1,0,0:0:0:0:
329,192,109760,1,0,0:0:0:0:
36,192,109760,1,0,0:0:0:0:
256,192,109760,1,0,0:0:0:0:
402,192,109840,1,0,0:0:0:0:
36,192,109920,1,0,0:0:0:0:
182,192,109920,1,0,0:0:0:0:
256,192,109920,1,0,0:0:0:0:
329,192,109920,1,0,0:0:0:0:
475,192,109920,1,0,0:0:0:0:
109,192,110000,1,0,0:0:0:0:
402,192,110080,1,0,0:0:0:0:
475,192,110080,1,0,0:0:0:0:
256,192,110080,1,0,0:0:0:0:
36,192,110080,1,0,0:0:0:0:
109,192,110160,1,0,0:0:0:0:
182,192,110160,1,0,0:0:0:0:
256,192,110240,1,0,0:0:0:0:
329,192,110240,1,0,0:0:0:0:
402,192,110320,1,0,0:0:0:0:
475,192,110320,1,0,0:0:0:0:
36,192,110400,1,0,0:0:0:0:
109,192,110400,1,0,0:0:0:0:
182,192,110400,1,0,0:0:0:0:
256,192,110480,1,0,0:0:0:0:
329,192,110480,1,0,0:0:0:0:
402,192,110480,1,0,0:0:0:0:
182,192,110560,1,0,0:0:0:0:
109,192,110560,1,0,0:0:0:0:
329,192,110640,1,0,0:0:0:0:
475,192,110640,1,0,0:0:0:0:
182,192,110720,1,0,0:0:0:0:
36,192,110720,1,0,0:0:0:0:
329,192,110800,1,0,0:0:0:0:
402,192,110800,1,0,0:0:0:0:
109,192,110880,1,0,0:0:0:0:
36,192,110880,1,0,0:0:0:0:
256,192,110880,1,0,0:0:0:0:
475,192,110960,1,0,0:0:0:0:
402,192,110960,1,0,0:0:0:0:
182,192,111040,1,0,0:0:0:0:
109,192,111040,1,0,0:0:0:0:
256,192,111040,1,0,0:0:0:0:
329,192,111120,1,0,0:0:0:0:
475,192,111120,1,0,0:0:0:0:
182,192,111200,1,0,0:0:0:0:
36,192,111200,1,0,0:0:0:0:
109,192,111200,1,0,0:0:0:0:
329,192,111280,1,0,0:0:0:0:
402,192,111280,1,0,0:0:0:0:
36,192,111360,1,0,0:0:0:0:
109,192,111400,1,0,0:0:0:0:
256,192,111440,1,0,0:0:0:0:
329,192,111480,1,0,0:0:0:0:
402,192,111520,1,0,0:0:0:0:
475,192,111560,1,0,0:0:0:0:
36,192,111560,1,0,0:0:0:0:
182,192,111600,1,0,0:0:0:0:
256,192,111640,1,0,0:0:0:0:
329,192,111680,1,0,0:0:0:0:
402,192,111720,1,0,0:0:0:0:
475,192,111760,1,0,0:0:0:0:
36,192,111760,1,0,0:0:0:0:
109,192,111800,1,0,0:0:0:0:
182,192,111840,1,0,0:0:0:0:
256,192,111880,1,0,0:0:0:0:
329,192,111920,1,0,0:0:0:0:
36,192,111960,1,0,0:0:0:0:
475,192,111960,1,0,0:0:0:0:
109,192,112000,1,0,0:0:0:0:
182,192,112040,1,0,0:0:0:0:
256,192,112080,1,0,0:0:0:0:
402,192,112120,1,0,0:0:0:0:
475,192,112160,1,0,0:0:0:0:
36,192,112186,1,0,0:0:0:0:
256,192,112213,1,0,0:0:0:0:
109,192,112266,1,0,0:0:0:0:
475,192,112293,1,0,0:0:0:0:
329,192,112320,1,0,0:0:0:0:
402,192,112373,1,0,0:0:0:0:
256,192,112400,1,0,0:0:0:0:
182,192,112426,1,0,0:0:0:0:
36,192,112453,1,0,0:0:0:0:
475,192,112506,1,0,0:0:0:0:
329,192,112533,1,0,0:0:0:0:
109,192,112560,1,0,0:0:0:0:
256,192,112586,1,0,0:0:0:0:
182,192,112640,1,0,0:0:0:0:
36,192,112640,1,0,0:0:0:0:
109,192,112640,1,0,0:0:0:0:
475,192,112640,1,0,0:0:0:0:
329,192,112640,1,0,0:0:0:0:
402,192,112720,1,0,0:0:0:0:
256,192,112720,1,0,0:0:0:0:
329,192,112800,1,0,0:0:0:0:
36,192,112800,1,0,0:0:0:0:
109,192,112800,1,0,0:0:0:0:
182,192,112880,1,0,0:0:0:0:
402,192,112880,1,0,0:0:0:0:
256,192,112960,1,0,0:0:0:0:
36,192,112960,1,0,0:0:0:0:
475,192,112960,1,0,0:0:0:0:
329,192,112960,1,0,0:0:0:0:
109,192,113040,1,0,0:0:0:0:
402,192,113040,1,0,0:0:0:0:
182,192,113120,1,0,0:0:0:0:
256,192,113120,1,0,0:0:0:0:
475,192,113120,1,0,0:0:0:0:
329,192,113200,1,0,0:0:0:0:
36,192,113200,1,0,0:0:0:0:
475,192,113280,1,0,0:0:0:0:
402,192,113280,1,0,0:0:0:0:
109,192,113280,1,0,0:0:0:0:
256,192,113280,1,0,0:0:0:0:
182,192,113360,1,0,0:0:0:0:
36,192,113360,1,0,0:0:0:0:
109,192,113440,1,0,0:0:0:0:
329,192,113440,1,0,0:0:0:0:
402,192,113440,1,0,0:0:0:0:
256,192,113520,1,0,0:0:0:0:
475,192,113520,1,0,0:0:0:0:
402,192,113600,1,0,0:0:0:0:
182,192,113600,1,0,0:0:0:0:
36,192,113600,1,0,0:0:0:0:
329,192,113600,1,0,0:0:0:0:
256,192,113680,1,0,0:0:0:0:
109,192,113680,1,0,0:0:0:0:
182,192,113760,1,0,0:0:0:0:
475,192,113760,1,0,0:0:0:0:
402,192,113760,1,0,0:0:0:0:
329,192,113840,1,0,0:0:0:0:
109,192,113840,1,0,0:0:0:0:
402,192,113920,1,0,0:0:0:0:
475,192,113920,1,0,0:0:0:0:
36,192,113920,1,0,0:0:0:0:
256,192,113920,1,0,0:0:0:0:
182,192,114000,1,0,0:0:0:0:
329,192,114000,1,0,0:0:0:0:
109,192,114080,1,0,0:0:0:0:
36,192,114080,1,0,0:0:0:0:
402,192,114080,1,0,0:0:0:0:
256,192,114160,1,0,0:0:0:0:
475,192,114160,1,0,0:0:0:0:
36,192,114240,1,0,0:0:0:0:
182,192,114240,1,0,0:0:0:0:
109,192,114240,1,0,0:0:0:0:
329,192,114240,1,0,0:0:0:0:
256,192,114320,1,0,0:0:0:0:
402,192,114320,1,0,0:0:0:0:
109,192,114400,1,0,0:0:0:0:
475,192,114400,1,0,0:0:0:0:
329,192,114400,1,0,0:0:0:0:
256,192,114480,1,0,0:0:0:0:
36,192,114480,1,0,0:0:0:0:
402,192,114560,1,0,0:0:0:0:
475,192,114560,1,0,0:0:0:0:
182,192,114560,1,0,0:0:0:0:
329,192,114560,1,0,0:0:0:0:
256,192,114640,1,0,0:0:0:0:
109,192,114640,1,0,0:0:0:0:
36,192,114720,1,0,0:0:0:0:
182,192,114720,1,0,0:0:0:0:
475,192,114720,1,0,0:0:0:0:
402,192,114800,1,0,0:0:0:0:
109,192,114800,1,0,0:0:0:0:
256,192,114880,1,0,0:0:0:0:
329,192,114880,1,0,0:0:0:0:
182,192,114880,1,0,0:0:0:0:
475,192,114880,1,0,0:0:0:0:
402,192,114960,1,0,0:0:0:0:
36,192,114960,1,0,0:0:0:0:
329,192,115040,1,0,0:0:0:0:
182,192,115040,1,0,0:0:0:0:
109,192,115040,1,0,0:0:0:0:
475,192,115120,1,0,0:0:0:0:
256,192,115120,1,0,0:0:0:0:
402,192,115200,1,0,0:0:0:0:
329,192,115200,1,0,0:0:0:0:
182,192,115200,1,0,0:0:0:0:
36,192,115200,1,0,0:0:0:0:
256,192,115280,1,0,0:0:0:0:
109,192,115280,1,0,0:0:0:0:
475,192,115360,1,0,0:0:0:0:
402,192,115360,1,0,0:0:0:0:
182,192,115360,1,0,0:0:0:0:
329,192,115440,1,0,0:0:0:0:
109,192,115440,1,0,0:0:0:0:
256,192,115520,1,0,0:0:0:0:
475,192,115520,1,0,0:0:0:0:
36,192,115520,1,0,0:0:0:0:
109,192,115600,1,0,0:0:0:0:
329,192,115600,1,0,0:0:0:0:
256,192,115680,1,0,0:0:0:0:
182,192,115680,1,0,0:0:0:0:
475,192,115680,1,0,0:0:0:0:
402,192,115760,1,0,0:0:0:0:
36,192,115760,1,0,0:0:0:0:
109,192,115840,1,0,0:0:0:0:
182,192,115840,1,0,0:0:0:0:
329,192,115840,1,0,0:0:0:0:
475,192,115840,1,0,0:0:0:0:
256,192,115920,1,0,0:0:0:0:
402,192,115920,1,0,0:0:0:0:
36,192,116000,1,0,0:0:0:0:
475,192,116000,1,0,0:0:0:0:
109,192,116000,1,0,0:0:0:0:
182,192,116080,1,0,0:0:0:0:
329,192,116080,1,0,0:0:0:0:
36,192,116160,1,0,0:0:0:0:
402,192,116160,1,0,0:0:0:0:
475,192,116160,1,0,0:0:0:0:
256,192,116160,1,0,0:0:0:0:
109,192,116240,1,0,0:0:0:0:
329,192,116240,1,0,0:0:0:0:
182,192,116320,1,0,0:0:0:0:
475,192,116320,1,0,0:0:0:0:
256,192,116320,1,0,0:0:0:0:
402,192,116400,1,0,0:0:0:0:
36,192,116400,1,0,0:0:0:0:
109,192,116480,1,0,0:0:0:0:
256,192,116480,1,0,0:0:0:0:
475,192,116480,1,0,0:0:0:0:
182,192,116480,1,0,0:0:0:0:
329,192,116560,1,0,0:0:0:0:
36,192,116560,1,0,0:0:0:0:
402,192,116640,1,0,0:0:0:0:
475,192,116640,1,0,0:0:0:0:
182,192,116640,1,0,0:0:0:0:
109,192,116720,1,0,0:0:0:0:
329,192,116720,1,0,0:0:0:0:
36,192,116800,1,0,0:0:0:0:
475,192,116800,1,0,0:0:0:0:
402,192,116800,1,0,0:0:0:0:
182,192,116800,1,0,0:0:0:0:
109,192,116880,1,0,0:0:0:0:
256,192,116880,1,0,0:0:0:0:
402,192,116960,1,0,0:0:0:0:
475,192,116960,1,0,0:0:0:0:
329,192,116960,1,0,0:0:0:0:
36,192,116960,1,0,0:0:0:0:
109,192,117040,1,0,0:0:0:0:
182,192,117040,1,0,0:0:0:0:
256,192,117120,1,0,0:0:0:0:
402,192,117120,1,0,0:0:0:0:
475,192,117120,1,0,0:0:0:0:
36,192,117120,1,0,0:0:0:0:
329,192,117200,1,0,0:0:0:0:
182,192,117200,1,0,0:0:0:0:
109,192,117280,1,0,0:0:0:0:
36,192,117280,1,0,0:0:0:0:
256,192,117280,1,0,0:0:0:0:
475,192,117280,1,0,0:0:0:0:
402,192,117360,1,0,0:0:0:0:
329,192,117360,1,0,0:0:0:0:
109,192,117440,1,0,0:0:0:0:
36,192,117440,1,0,0:0:0:0:
182,192,117440,1,0,0:0:0:0:
475,192,117440,1,0,0:0:0:0:
256,192,117520,1,0,0:0:0:0:
329,192,117520,1,0,0:0:0:0:
475,192,117600,1,0,0:0:0:0:
402,192,117600,1,0,0:0:0:0:
109,192,117600,1,0,0:0:0:0:
36,192,117600,1,0,0:0:0:0:
182,192,117680,1,0,0:0:0:0:
256,192,117680,1,0,0:0:0:0:
329,192,117680,1,0,0:0:0:0:
109,192,117760,1,0,0:0:0:0:
36,192,117760,1,0,0:0:0:0:
402,192,117760,1,0,0:0:0:0:
475,192,117760,1,0,0:0:0:0:
182,192,117840,1,0,0:0:0:0:
329,192,117840,1,0,0:0:0:0:
256,192,117920,1,0,0:0:0:0:
475,192,117920,1,0,0:0:0:0:
36,192,117920,1,0,0:0:0:0:
329,192,118000,1,0,0:0:0:0:
109,192,118000,1,0,0:0:0:0:
402,192,118080,1,0,0:0:0:0:
475,192,118080,1,0,0:0:0:0:
182,192,118080,1,0,0:0:0:0:
256,192,118160,1,0,0:0:0:0:
36,192,118160,1,0,0:0:0:0:
109,192,118240,1,0,0:0:0:0:
475,192,118240,1,0,0:0:0:0:
329,192,118240,1,0,0:0:0:0:
182,192,118320,1,0,0:0:0:0:
256,192,118320,1,0,0:0:0:0:
402,192,118400,1,0,0:0:0:0:
475,192,118400,1,0,0:0:0:0:
109,192,118400,1,0,0:0:0:0:
36,192,118400,1,0,0:0:0:0:
329,192,118480,1,0,0:0:0:0:
182,192,118480,1,0,0:0:0:0:
256,192,118560,1,0,0:0:0:0:
36,192,118560,1,0,0:0:0:0:
475,192,118560,1,0,0:0:0:0:
109,192,118640,1,0,0:0:0:0:
329,192,118640,1,0,0:0:0:0:
402,192,118720,1,0,0:0:0:0:
182,192,118720,1,0,0:0:0:0:
475,192,118720,1,0,0:0:0:0:
36,192,118800,1,0,0:0:0:0:
256,192,118800,1,0,0:0:0:0:
475,192,118880,1,0,0:0:0:0:
329,192,118880,1,0,0:0:0:0:
109,192,118880,1,0,0:0:0:0:
256,192,118960,1,0,0:0:0:0:
182,192,118960,1,0,0:0:0:0:
475,192,119040,1,0,0:0:0:0:
109,192,119040,1,0,0:0:0:0:
36,192,119040,1,0,0:0:0:0:
402,192,119040,1,0,0:0:0:0:
182,192,119120,1,0,0:0:0:0:
329,192,119120,1,0,0:0:0:0:
36,192,119200,1,0,0:0:0:0:
475,192,119200,1,0,0:0:0:0:
256,192,119200,1,0,0:0:0:0:
182,192,119280,1,0,0:0:0:0:
402,192,119280,1,0,0:0:0:0:
36,192,119360,1,0,0:0:0:0:
109,192,119360,1,0,0:0:0:0:
329,192,119360,1,0,0:0:0:0:
475,192,119440,1,0,0:0:0:0:
256,192,119440,1,0,0:0:0:0:
402,192,119520,1,0,0:0:0:0:
36,192,119520,1,0,0:0:0:0:
182,192,119520,1,0,0:0:0:0:
109,192,119520,1,0,0:0:0:0:
256,192,119600,1,0,0:0:0:0:
329,192,119600,1,0,0:0:0:0:
475,192,119680,1,0,0:0:0:0:
36,192,119680,1,0,0:0:0:0:
109,192,119680,1,0,0:0:0:0:
402,192,119680,1,0,0:0:0:0:
182,192,119760,1,0,0:0:0:0:
256,192,119760,1,0,0:0:0:0:
475,192,119840,1,0,0:0:0:0:
36,192,119840,1,0,0:0:0:0:
109,192,119840,1,0,0:0:0:0:
329,192,119840,1,0,0:0:0:0:
256,192,119920,1,0,0:0:0:0:
182,192,119920,1,0,0:0:0:0:
475,192,120000,1,0,0:0:0:0:
402,192,120000,1,0,0:0:0:0:
109,192,120000,1,0,0:0:0:0:
36,192,120000,1,0,0:0:0:0:
329,192,120080,1,0,0:0:0:0:
256,192,120080,1,0,0:0:0:0:
182,192,120160,1,0,0:0:0:0:
36,192,120160,1,0,0:0:0:0:
475,192,120160,1,0,0:0:0:0:
109,192,120160,1,0,0:0:0:0:
402,192,120240,1,0,0:0:0:0:
329,192,120240,1,0,0:0:0:0:
256,192,120320,1,0,0:0:0:0:
182,192,120320,1,0,0:0:0:0:
109,192,120320,1,0,0:0:0:0:
36,192,120320,1,0,0:0:0:0:
475,192,120320,1,0,0:0:0:0:
329,192,120400,1,0,0:0:0:0:
402,192,120400,1,0,0:0:0:0:
36,192,120480,1,0,0:0:0:0:
182,192,120480,1,0,0:0:0:0:
475,192,120480,1,0,0:0:0:0:
256,192,120560,1,0,0:0:0:0:
109,192,120560,1,0,0:0:0:0:
329,192,120640,1,0,0:0:0:0:
402,192,120640,1,0,0:0:0:0:
475,192,120640,1,0,0:0:0:0:
182,192,120640,1,0,0:0:0:0:
36,192,120720,1,0,0:0:0:0:
109,192,120720,1,0,0:0:0:0:
182,192,120800,1,0,0:0:0:0:
329,192,120800,1,0,0:0:0:0:
402,192,120800,1,0,0:0:0:0:
475,192,120800,1,0,0:0:0:0:
256,192,120880,1,0,0:0:0:0:
109,192,120880,1,0,0:0:0:0:
36,192,120960,1,0,0:0:0:0:
475,192,120960,1,0,0:0:0:0:
402,192,120960,1,0,0:0:0:0:
182,192,120960,1,0,0:0:0:0:
329,192,121040,1,0,0:0:0:0:
256,192,121040,1,0,0:0:0:0:
36,192,121120,1,0,0:0:0:0:
182,192,121120,1,0,0:0:0:0:
109,192,121120,1,0,0:0:0:0:
475,192,121120,1,0,0:0:0:0:
256,192,121200,1,0,0:0:0:0:
402,192,121200,1,0,0:0:0:0:
329,192,121280,1,0,0:0:0:0:
36,192,121280,1,0,0:0:0:0:
109,192,121280,1,0,0:0:0:0:
475,192,121280,1,0,0:0:0:0:
182,192,121360,1,0,0:0:0:0:
256,192,121360,1,0,0:0:0:0:
329,192,121440,1,0,0:0:0:0:
402,192,121440,1,0,0:0:0:0:
475,192,121440,1,0,0:0:0:0:
36,192,121440,1,0,0:0:0:0:
109,192,121520,1,0,0:0:0:0:
182,192,121520,1,0,0:0:0:0:
256,192,121600,1,0,0:0:0:0:
402,192,121600,1,0,0:0:0:0:
36,192,121600,1,0,0:0:0:0:
182,192,121680,1,0,0:0:0:0:
329,192,121680,1,0,0:0:0:0:
475,192,121760,1,0,0:0:0:0:
109,192,121760,1,0,0:0:0:0:
36,192,121760,1,0,0:0:0:0:
256,192,121760,1,0,0:0:0:0:
402,192,121840,1,0,0:0:0:0:
182,192,121840,1,0,0:0:0:0:
256,192,121920,1,0,0:0:0:0:
475,192,121920,1,0,0:0:0:0:
36,192,121920,1,0,0:0:0:0:
109,192,122000,1,0,0:0:0:0:
329,192,122000,1,0,0:0:0:0:
402,192,122080,1,0,0:0:0:0:
475,192,122080,1,0,0:0:0:0:
182,192,122080,1,0,0:0:0:0:
36,192,122080,1,0,0:0:0:0:
256,192,122160,1,0,0:0:0:0:
329,192,122160,1,0,0:0:0:0:
36,192,122240,1,0,0:0:0:0:
402,192,122240,1,0,0:0:0:0:
475,192,122240,1,0,0:0:0:0:
182,192,122240,1,0,0:0:0:0:
109,192,122320,1,0,0:0:0:0:
329,192,122320,1,0,0:0:0:0:
36,192,122400,1,0,0:0:0:0:
256,192,122400,1,0,0:0:0:0:
475,192,122400,1,0,0:0:0:0:
182,192,122480,1,0,0:0:0:0:
329,192,122480,1,0,0:0:0:0:
109,192,122560,1,0,0:0:0:0:
36,192,122560,1,0,0:0:0:0:
402,192,122560,1,0,0:0:0:0:
475,192,122560,1,0,0:0:0:0:
182,192,122640,1,0,0:0:0:0:
329,192,122640,1,0,0:0:0:0:
256,192,122720,1,0,0:0:0:0:
475,192,122720,1,0,0:0:0:0:
109,192,122720,1,0,0:0:0:0:
36,192,122720,1,0,0:0:0:0:
402,192,122720,1,0,0:0:0:0:
329,192,122800,1,0,0:0:0:0:
182,192,122800,1,0,0:0:0:0:
402,192,122880,1,0,0:0:0:0:
475,192,122880,1,0,0:0:0:0:
109,192,122880,1,0,0:0:0:0:
36,192,122880,1,0,0:0:0:0:
256,192,122880,1,0,0:0:0:0:
329,192,122960,1,0,0:0:0:0:
182,192,122960,1,0,0:0:0:0:
36,192,123040,1,0,0:0:0:0:
109,192,123040,1,0,0:0:0:0:
475,192,123040,1,0,0:0:0:0:
256,192,123120,1,0,0:0:0:0:
329,192,123120,1,0,0:0:0:0:
402,192,123200,1,0,0:0:0:0:
475,192,123200,1,0,0:0:0:0:
182,192,123200,1,0,0:0:0:0:
36,192,123200,1,0,0:0:0:0:
109,192,123280,1,0,0:0:0:0:
329,192,123280,1,0,0:0:0:0:
182,192,123360,1,0,0:0:0:0:
36,192,123360,1,0,0:0:0:0:
402,192,123360,1,0,0:0:0:0:
475,192,123360,1,0,0:0:0:0:
329,192,123440,1,0,0:0:0:0:
256,192,123440,1,0,0:0:0:0:
109,192,123520,1,0,0:0:0:0:
475,192,123520,1,0,0:0:0:0:
36,192,123520,1,0,0:0:0:0:
402,192,123600,1,0,0:0:0:0:
182,192,123600,1,0,0:0:0:0:
256,192,123680,1,0,0:0:0:0:
109,192,123680,1,0,0:0:0:0:
36,192,123680,1,0,0:0:0:0:
329,192,123680,1,0,0:0:0:0:
402,192,123760,1,0,0:0:0:0:
182,192,123760,1,0,0:0:0:0:
475,192,123840,1,0,0:0:0:0:
256,192,123840,1,0,0:0:0:0:
36,192,123840,1,0,0:0:0:0:
109,192,123920,1,0,0:0:0:0:
329,192,123920,1,0,0:0:0:0:
182,192,124000,1,0,0:0:0:0:
402,192,124000,1,0,0:0:0:0:
475,192,124000,1,0,0:0:0:0:
256,192,124000,1,0,0:0:0:0:
36,192,124080,1,0,0:0:0:0:
109,192,124080,1,0,0:0:0:0:
329,192,124160,1,0,0:0:0:0:
402,192,124160,1,0,0:0:0:0:
475,192,124160,1,0,0:0:0:0:
182,192,124160,1,0,0:0:0:0:
256,192,124240,1,0,0:0:0:0:
109,192,124240,1,0,0:0:0:0:
182,192,124320,1,0,0:0:0:0:
36,192,124320,1,0,0:0:0:0:
475,192,124320,1,0,0:0:0:0:
402,192,124400,1,0,0:0:0:0:
329,192,124400,1,0,0:0:0:0:
109,192,124480,1,0,0:0:0:0:
36,192,124480,1,0,0:0:0:0:
256,192,124480,1,0,0:0:0:0:
182,192,124480,1,0,0:0:0:0:
402,192,124560,1,0,0:0:0:0:
475,192,124560,1,0,0:0:0:0:
329,192,124640,1,0,0:0:0:0:
182,192,124640,1,0,0:0:0:0:
256,192,124720,1,0,0:0:0:0:
36,192,124720,1,0,0:0:0:0:
402,192,124800,1,0,0:0:0:0:
475,192,124800,1,0,0:0:0:0:
109,192,124800,1,0,0:0:0:0:
182,192,124800,1,0,0:0:0:0:
329,192,124880,1,0,0:0:0:0:
256,192,124880,1,0,0:0:0:0:
402,192,124960,1,0,0:0:0:0:
475,192,124960,1,0,0:0:0:0:
182,192,124960,1,0,0:0:0:0:
36,192,125040,1,0,0:0:0:0:
109,192,125040,1,0,0:0:0:0:
256,192,125040,1,0,0:0:0:0:
329,192,125120,1,0,0:0:0:0:
475,192,125120,1,0,0:0:0:0:
402,192,125120,1,0,0:0:0:0:
256,192,125200,1,0,0:0:0:0:
109,192,125200,1,0,0:0:0:0:
36,192,125280,1,0,0:0:0:0:
182,192,125280,1,0,0:0:0:0:
475,192,125280,1,0,0:0:0:0:
402,192,125360,1,0,0:0:0:0:
256,192,125360,1,0,0:0:0:0:
182,192,125440,1,0,0:0:0:0:
109,192,125440,1,0,0:0:0:0:
36,192,125440,1,0,0:0:0:0:
329,192,125440,1,0,0:0:0:0:
256,192,125520,1,0,0:0:0:0:
402,192,125520,1,0,0:0:0:0:
329,192,125600,1,0,0:0:0:0:
475,192,125600,1,0,0:0:0:0:
36,192,125600,1,0,0:0:0:0:
109,192,125680,1,0,0:0:0:0:
182,192,125680,1,0,0:0:0:0:
402,192,125760,1,0,0:0:0:0:
475,192,125760,1,0,0:0:0:0:
256,192,125760,1,0,0:0:0:0:
329,192,125760,1,0,0:0:0:0:
109,192,125840,1,0,0:0:0:0:
36,192,125840,1,0,0:0:0:0:
182,192,125920,1,0,0:0:0:0:
329,192,125920,1,0,0:0:0:0:
256,192,126000,1,0,0:0:0:0:
475,192,126000,1,0,0:0:0:0:
109,192,126080,1,0,0:0:0:0:
36,192,126080,1,0,0:0:0:0:
402,192,126080,1,0,0:0:0:0:
329,192,126080,1,0,0:0:0:0:
182,192,126160,1,0,0:0:0:0:
256,192,126160,1,0,0:0:0:0:
109,192,126240,1,0,0:0:0:0:
36,192,126240,1,0,0:0:0:0:
329,192,126240,1,0,0:0:0:0:
475,192,126320,1,0,0:0:0:0:
402,192,126320,1,0,0:0:0:0:
256,192,126320,1,0,0:0:0:0:
182,192,126400,1,0,0:0:0:0:
36,192,126400,1,0,0:0:0:0:
109,192,126400,1,0,0:0:0:0:
256,192,126480,1,0,0:0:0:0:
402,192,126480,1,0,0:0:0:0:
475,192,126560,1,0,0:0:0:0:
329,192,126560,1,0,0:0:0:0:
36,192,126560,1,0,0:0:0:0:
109,192,126640,1,0,0:0:0:0:
256,192,126640,1,0,0:0:0:0:
402,192,126720,1,0,0:0:0:0:
475,192,126720,1,0,0:0:0:0:
36,192,126720,1,0,0:0:0:0:
182,192,126720,1,0,0:0:0:0:
329,192,126800,1,0,0:0:0:0:
256,192,126800,1,0,0:0:0:0:
109,192,126880,1,0,0:0:0:0:
36,192,126880,1,0,0:0:0:0:
475,192,126880,1,0,0:0:0:0:
182,192,126960,1,0,0:0:0:0:
256,192,126960,1,0,0:0:0:0:
402,192,127040,1,0,0:0:0:0:
475,192,127040,1,0,0:0:0:0:
36,192,127040,1,0,0:0:0:0:
109,192,127040,1,0,0:0:0:0:
182,192,127120,1,0,0:0:0:0:
329,192,127120,1,0,0:0:0:0:
256,192,127200,1,0,0:0:0:0:
109,192,127200,1,0,0:0:0:0:
36,192,127280,1,0,0:0:0:0:
402,192,127280,1,0,0:0:0:0:
475,192,127280,1,0,0:0:0:0:
329,192,127360,1,0,0:0:0:0:
182,192,127360,1,0,0:0:0:0:
109,192,127360,1,0,0:0:0:0:
256,192,127360,1,0,0:0:0:0:
402,192,127440,1,0,0:0:0:0:
475,192,127440,1,0,0:0:0:0:
36,192,127440,1,0,0:0:0:0:
182,192,127520,1,0,0:0:0:0:
256,192,127520,1,0,0:0:0:0:
109,192,127600,1,0,0:0:0:0:
329,192,127600,1,0,0:0:0:0:
36,192,127680,1,0,0:0:0:0:
475,192,127680,1,0,0:0:0:0:
402,192,127680,1,0,0:0:0:0:
256,192,127680,1,0,0:0:0:0:
182,192,127760,1,0,0:0:0:0:
329,192,127760,1,0,0:0:0:0:
36,192,127840,1,0,0:0:0:0:
109,192,127840,1,0,0:0:0:0:
256,192,127840,1,0,0:0:0:0:
475,192,127840,1,0,0:0:0:0:
329,192,127920,1,0,0:0:0:0:
182,192,127920,1,0,0:0:0:0:
402,192,128000,1,0,0:0:0:0:
475,192,128000,1,0,0:0:0:0:
36,192,128000,1,0,0:0:0:0:
109,192,128000,1,0,0:0:0:0:
256,192,128080,1,0,0:0:0:0:
182,192,128080,1,0,0:0:0:0:
109,192,128160,1,0,0:0:0:0:
402,192,128160,1,0,0:0:0:0:
36,192,128240,1,0,0:0:0:0:
256,192,128240,1,0,0:0:0:0:
329,192,128240,1,0,0:0:0:0:
182,192,128320,1,0,0:0:0:0:
109,192,128320,1,0,0:0:0:0:
402,192,128320,1,0,0:0:0:0:
475,192,128320,1,0,0:0:0:0:
329,192,128400,1,0,0:0:0:0:
256,192,128400,1,0,0:0:0:0:
475,192,128480,1,0,0:0:0:0:
182,192,128480,1,0,0:0:0:0:
36,192,128480,1,0,0:0:0:0:
402,192,128560,1,0,0:0:0:0:
256,192,128560,1,0,0:0:0:0:
36,192,128640,1,0,0:0:0:0:
109,192,128640,1,0,0:0:0:0:
329,192,128640,1,0,0:0:0:0:
182,192,128640,1,0,0:0:0:0:
402,192,128720,1,0,0:0:0:0:
475,192,128720,1,0,0:0:0:0:
256,192,128800,1,0,0:0:0:0:
329,192,128800,1,0,0:0:0:0:
109,192,128800,1,0,0:0:0:0:
36,192,128880,1,0,0:0:0:0:
182,192,128880,1,0,0:0:0:0:
475,192,128960,1,0,0:0:0:0:
402,192,128960,1,0,0:0:0:0:
329,192,128960,1,0,0:0:0:0:
109,192,128960,1,0,0:0:0:0:
256,192,129040,1,0,0:0:0:0:
182,192,129040,1,0,0:0:0:0:
36,192,129120,1,0,0:0:0:0:
475,192,129120,1,0,0:0:0:0:
329,192,129120,1,0,0:0:0:0:
402,192,129200,1,0,0:0:0:0:
256,192,129200,1,0,0:0:0:0:
109,192,129280,1,0,0:0:0:0:
36,192,129280,1,0,0:0:0:0:
475,192,129280,1,0,0:0:0:0:
182,192,129280,1,0,0:0:0:0:
256,192,129360,1,0,0:0:0:0:
329,192,129360,1,0,0:0:0:0:
402,192,129440,1,0,0:0:0:0:
109,192,129440,1,0,0:0:0:0:
475,192,129520,1,0,0:0:0:0:
256,192,129520,1,0,0:0:0:0:
182,192,129520,1,0,0:0:0:0:
329,192,129600,1,0,0:0:0:0:
402,192,129600,1,0,0:0:0:0:
109,192,129600,1,0,0:0:0:0:
36,192,129600,1,0,0:0:0:0:
182,192,129680,1,0,0:0:0:0:
256,192,129680,1,0,0:0:0:0:
36,192,129760,1,0,0:0:0:0:
329,192,129760,1,0,0:0:0:0:
475,192,129760,1,0,0:0:0:0:
109,192,129840,1,0,0:0:0:0:
256,192,129840,1,0,0:0:0:0:
475,192,129920,1,0,0:0:0:0:
402,192,129920,1,0,0:0:0:0:
182,192,129920,1,0,0:0:0:0:
329,192,129920,1,0,0:0:0:0:
109,192,130000,1,0,0:0:0:0:
36,192,130000,1,0,0:0:0:0:
256,192,130080,1,0,0:0:0:0:
182,192,130080,1,0,0:0:0:0:
402,192,130080,1,0,0:0:0:0:
475,192,130160,1,0,0:0:0:0:
329,192,130160,1,0,0:0:0:0:
36,192,130240,1,0,0:0:0:0:
109,192,130240,1,0,0:0:0:0:
182,192,130240,1,0,0:0:0:0:
402,192,130240,1,0,0:0:0:0:
256,192,130320,1,0,0:0:0:0:
329,192,130320,1,0,0:0:0:0:
475,192,130400,1,0,0:0:0:0:
36,192,130400,1,0,0:0:0:0:
182,192,130400,1,0,0:0:0:0:
109,192,130480,1,0,0:0:0:0:
256,192,130480,1,0,0:0:0:0:
182,192,130560,1,0,0:0:0:0:
402,192,130560,1,0,0:0:0:0:
475,192,130560,1,0,0:0:0:0:
36,192,130560,1,0,0:0:0:0:
329,192,130640,1,0,0:0:0:0:
256,192,130640,1,0,0:0:0:0:
182,192,130720,1,0,0:0:0:0:
36,192,130720,1,0,0:0:0:0:
402,192,130720,1,0,0:0:0:0:
109,192,130800,1,0,0:0:0:0:
256,192,130800,1,0,0:0:0:0:
402,192,130880,1,0,0:0:0:0:
475,192,130880,1,0,0:0:0:0:
36,192,130880,1,0,0:0:0:0:
182,192,130880,1,0,0:0:0:0:
329,192,130960,1,0,0:0:0:0:
256,192,130960,1,0,0:0:0:0:
182,192,131040,1,0,0:0:0:0:
36,192,131040,1,0,0:0:0:0:
402,192,131040,1,0,0:0:0:0:
109,192,131120,1,0,0:0:0:0:
256,192,131120,1,0,0:0:0:0:
36,192,131200,1,0,0:0:0:0:
402,192,131200,1,0,0:0:0:0:
475,192,131200,1,0,0:0:0:0:
182,192,131200,1,0,0:0:0:0:
329,192,131280,1,0,0:0:0:0:
256,192,131280,1,0,0:0:0:0:
182,192,131360,1,0,0:0:0:0:
402,192,131360,1,0,0:0:0:0:
475,192,131360,1,0,0:0:0:0:
36,192,131360,1,0,0:0:0:0:
256,192,131440,1,0,0:0:0:0:
329,192,131440,1,0,0:0:0:0:
402,192,131520,1,0,0:0:0:0:
475,192,131520,1,0,0:0:0:0:
36,192,131520,1,0,0:0:0:0:
109,192,131520,1,0,0:0:0:0:
182,192,131600,1,0,0:0:0:0:
256,192,131600,1,0,0:0:0:0:
329,192,131680,1,0,0:0:0:0:
109,192,131680,1,0,0:0:0:0:
36,192,131680,1,0,0:0:0:0:
475,192,131680,1,0,0:0:0:0:
182,192,131760,1,0,0:0:0:0:
256,192,131760,1,0,0:0:0:0:
329,192,131840,1,0,0:0:0:0:
109,192,131840,1,0,0:0:0:0:
36,192,131840,1,0,0:0:0:0:
475,192,131840,1,0,0:0:0:0:
182,192,131920,1,0,0:0:0:0:
256,192,131920,1,0,0:0:0:0:
329,192,132000,1,0,0:0:0:0:
475,192,132000,1,0,0:0:0:0:
109,192,132000,1,0,0:0:0:0:
402,192,132080,1,0,0:0:0:0:
256,192,132080,1,0,0:0:0:0:
109,192,132160,1,0,0:0:0:0:
36,192,132160,1,0,0:0:0:0:
475,192,132160,1,0,0:0:0:0:
182,192,132240,1,0,0:0:0:0:
256,192,132240,1,0,0:0:0:0:
329,192,132320,1,0,0:0:0:0:
475,192,132320,1,0,0:0:0:0:
109,192,132320,1,0,0:0:0:0:
402,192,132400,1,0,0:0:0:0:
256,192,132400,1,0,0:0:0:0:
475,192,132480,1,0,0:0:0:0:
109,192,132480,1,0,0:0:0:0:
36,192,132480,1,0,0:0:0:0:
329,192,132480,1,0,0:0:0:0:
182,192,132560,1,0,0:0:0:0:
256,192,132560,1,0,0:0:0:0:
329,192,132640,1,0,0:0:0:0:
109,192,132640,1,0,0:0:0:0:
36,192,132640,1,0,0:0:0:0:
402,192,132640,1,0,0:0:0:0:
256,192,132720,1,0,0:0:0:0:
182,192,132720,1,0,0:0:0:0:
109,192,132800,1,0,0:0:0:0:
36,192,132800,1,0,0:0:0:0:
475,192,132800,1,0,0:0:0:0:
402,192,132800,1,0,0:0:0:0:
329,192,132880,1,0,0:0:0:0:
256,192,132880,1,0,0:0:0:0:
182,192,132960,1,0,0:0:0:0:
402,192,132960,1,0,0:0:0:0:
475,192,132960,1,0,0:0:0:0:
36,192,132960,1,0,0:0:0:0:
109,192,132960,1,0,0:0:0:0:
329,192,133040,1,0,0:0:0:0:
256,192,133040,1,0,0:0:0:0:
402,192,133120,1,0,0:0:0:0:
475,192,133120,1,0,0:0:0:0:
36,192,133120,1,0,0:0:0:0:
182,192,133120,1,0,0:0:0:0:
109,192,133120,1,0,0:0:0:0:
256,192,133200,1,0,0:0:0:0:
36,192,133280,1,0,0:0:0:0:
402,192,133280,1,0,0:0:0:0:
109,192,133280,1,0,0:0:0:0:
182,192,133360,1,0,0:0:0:0:
256,192,133360,1,0,0:0:0:0:
329,192,133440,1,0,0:0:0:0:
475,192,133440,1,0,0:0:0:0:
36,192,133440,1,0,0:0:0:0:
109,192,133440,1,0,0:0:0:0:
182,192,133520,1,0,0:0:0:0:
109,192,133600,1,0,0:0:0:0:
36,192,133600,1,0,0:0:0:0:
402,192,133600,1,0,0:0:0:0:
329,192,133680,1,0,0:0:0:0:
256,192,133680,1,0,0:0:0:0:
182,192,133760,1,0,0:0:0:0:
36,192,133760,1,0,0:0:0:0:
402,192,133760,1,0,0:0:0:0:
475,192,133760,1,0,0:0:0:0:
109,192,133840,1,0,0:0:0:0:
329,192,133920,1,0,0:0:0:0:
402,192,133920,1,0,0:0:0:0:
36,192,133920,1,0,0:0:0:0:
256,192,134000,1,0,0:0:0:0:
182,192,134000,1,0,0:0:0:0:
109,192,134080,1,0,0:0:0:0:
36,192,134080,1,0,0:0:0:0:
475,192,134080,1,0,0:0:0:0:
329,192,134080,1,0,0:0:0:0:
402,192,134160,1,0,0:0:0:0:
109,192,134240,1,0,0:0:0:0:
182,192,134240,1,0,0:0:0:0:
475,192,134240,1,0,0:0:0:0:
256,192,134320,1,0,0:0:0:0:
329,192,134320,1,0,0:0:0:0:
402,192,134400,1,0,0:0:0:0:
475,192,134400,1,0,0:0:0:0:
182,192,134400,1,0,0:0:0:0:
36,192,134400,1,0,0:0:0:0:
109,192,134480,1,0,0:0:0:0:
256,192,134560,1,0,0:0:0:0:
402,192,134560,1,0,0:0:0:0:
36,192,134560,1,0,0:0:0:0:
109,192,134640,1,0,0:0:0:0:
329,192,134720,1,0,0:0:0:0:
475,192,134720,1,0,0:0:0:0:
182,192,134720,1,0,0:0:0:0:
36,192,134720,1,0,0:0:0:0:
402,192,134800,1,0,0:0:0:0:
109,192,134880,1,0,0:0:0:0:
256,192,134880,1,0,0:0:0:0:
475,192,134880,1,0,0:0:0:0:
402,192,134960,1,0,0:0:0:0:
329,192,135040,1,0,0:0:0:0:
182,192,135040,1,0,0:0:0:0:
36,192,135040,1,0,0:0:0:0:
475,192,135040,1,0,0:0:0:0:
256,192,135093,1,0,0:0:0:0:
402,192,135120,1,0,0:0:0:0:
182,192,135146,1,0,0:0:0:0:
109,192,135200,1,0,0:0:0:0:
329,192,135200,1,0,0:0:0:0:
256,192,135253,1,0,0:0:0:0:
36,192,135280,1,0,0:0:0:0:
475,192,135306,1,0,0:0:0:0:
182,192,135360,1,0,0:0:0:0:
402,192,135360,1,0,0:0:0:0:
109,192,135413,1,0,0:0:0:0:
329,192,135413,1,0,0:0:0:0:
36,192,135466,1,0,0:0:0:0:
256,192,135466,1,0,0:0:0:0:
475,192,135520,1,0,0:0:0:0:
182,192,135520,1,0,0:0:0:0:
402,192,135573,1,0,0:0:0:0:
109,192,135600,1,0,0:0:0:0:
329,192,135626,1,0,0:0:0:0:
36,192,135680,1,0,0:0:0:0:
256,192,135680,1,0,0:0:0:0:
182,192,135680,1,0,0:0:0:0:
329,192,135760,1,0,0:0:0:0:
402,192,135760,1,0,0:0:0:0:
475,192,135840,1,0,0:0:0:0:
36,192,135840,1,0,0:0:0:0:
109,192,135840,1,0,0:0:0:0:
182,192,135920,1,0,0:0:0:0:
329,192,135920,1,0,0:0:0:0:
109,192,136000,1,0,0:0:0:0:
36,192,136000,1,0,0:0:0:0:
402,192,136000,1,0,0:0:0:0:
475,192,136000,1,0,0:0:0:0:
256,192,136000,1,0,0:0:0:0:
329,192,136080,1,0,0:0:0:0:
182,192,136080,1,0,0:0:0:0:
109,192,136160,1,0,0:0:0:0:
36,192,136160,1,0,0:0:0:0:
256,192,136160,1,0,0:0:0:0:
475,192,136240,1,0,0:0:0:0:
402,192,136240,1,0,0:0:0:0:
329,192,136320,1,0,0:0:0:0:
182,192,136320,1,0,0:0:0:0:
36,192,136320,1,0,0:0:0:0:
109,192,136320,1,0,0:0:0:0:
256,192,136400,1,0,0:0:0:0:
475,192,136400,1,0,0:0:0:0:
182,192,136480,1,0,0:0:0:0:
109,192,136480,1,0,0:0:0:0:
36,192,136480,1,0,0:0:0:0:
402,192,136480,1,0,0:0:0:0:
475,192,136560,1,0,0:0:0:0:
329,192,136560,1,0,0:0:0:0:
256,192,136640,1,0,0:0:0:0:
36,192,136640,1,0,0:0:0:0:
109,192,136640,1,0,0:0:0:0:
182,192,136640,1,0,0:0:0:0:
329,192,136720,1,0,0:0:0:0:
475,192,136720,1,0,0:0:0:0:
402,192,136800,1,0,0:0:0:0:
256,192,136800,1,0,0:0:0:0:
109,192,136800,1,0,0:0:0:0:
36,192,136880,1,0,0:0:0:0:
182,192,136880,1,0,0:0:0:0:
256,192,136960,1,0,0:0:0:0:
329,192,136960,1,0,0:0:0:0:
402,192,136960,1,0,0:0:0:0:
475,192,136960,1,0,0:0:0:0:
36,192,137040,1,0,0:0:0:0:
109,192,137040,1,0,0:0:0:0:
182,192,137120,1,0,0:0:0:0:
402,192,137120,1,0,0:0:0:0:
475,192,137120,1,0,0:0:0:0:
329,192,137120,1,0,0:0:0:0:
256,192,137200,1,0,0:0:0:0:
36,192,137200,1,0,0:0:0:0:
109,192,137280,1,0,0:0:0:0:
402,192,137280,1,0,0:0:0:0:
329,192,137280,1,0,0:0:0:0:
475,192,137280,1,0,0:0:0:0:
256,192,137360,1,0,0:0:0:0:
182,192,137360,1,0,0:0:0:0:
109,192,137440,1,0,0:0:0:0:
36,192,137440,1,0,0:0:0:0:
475,192,137440,1,0,0:0:0:0:
402,192,137440,1,0,0:0:0:0:
329,192,137520,1,0,0:0:0:0:
182,192,137520,1,0,0:0:0:0:
256,192,137600,1,0,0:0:0:0:
109,192,137600,1,0,0:0:0:0:
36,192,137600,1,0,0:0:0:0:
475,192,137600,1,0,0:0:0:0:
402,192,137680,1,0,0:0:0:0:
329,192,137680,1,0,0:0:0:0:
256,192,137760,1,0,0:0:0:0:
182,192,137760,1,0,0:0:0:0:
109,192,137760,1,0,0:0:0:0:
36,192,137760,1,0,0:0:0:0:
475,192,137840,1,0,0:0:0:0:
402,192,137840,1,0,0:0:0:0:
36,192,137920,1,0,0:0:0:0:
182,192,137920,1,0,0:0:0:0:
109,192,137920,1,0,0:0:0:0:
329,192,137920,1,0,0:0:0:0:
256,192,138000,1,0,0:0:0:0:
475,192,138000,1,0,0:0:0:0:
402,192,138080,1,0,0:0:0:0:
329,192,138080,1,0,0:0:0:0:
109,192,138080,1,0,0:0:0:0:
36,192,138080,1,0,0:0:0:0:
182,192,138160,1,0,0:0:0:0:
256,192,138160,1,0,0:0:0:0:
402,192,138240,1,0,0:0:0:0:
475,192,138240,1,0,0:0:0:0:
329,192,138240,1,0,0:0:0:0:
109,192,138240,1,0,0:0:0:0:
36,192,138240,1,0,0:0:0:0:
182,192,138320,1,0,0:0:0:0:
256,192,138320,1,0,0:0:0:0:
329,192,138400,1,0,0:0:0:0:
402,192,138400,1,0,0:0:0:0:
475,192,138400,1,0,0:0:0:0:
36,192,138400,1,0,0:0:0:0:
109,192,138480,1,0,0:0:0:0:
256,192,138480,1,0,0:0:0:0:
182,192,138560,1,0,0:0:0:0:
329,192,138560,1,0,0:0:0:0:
475,192,138560,1,0,0:0:0:0:
402,192,138560,1,0,0:0:0:0:
36,192,138640,1,0,0:0:0:0:
109,192,138640,1,0,0:0:0:0:
182,192,138720,1,0,0:0:0:0:
256,192,138720,1,0,0:0:0:0:
402,192,138720,1,0,0:0:0:0:
475,192,138720,1,0,0:0:0:0:
36,192,138800,1,0,0:0:0:0:
109,192,138800,1,0,0:0:0:0:
329,192,138880,1,0,0:0:0:0:
402,192,138880,1,0,0:0:0:0:
475,192,138880,1,0,0:0:0:0:
256,192,138880,1,0,0:0:0:0:
182,192,138960,1,0,0:0:0:0:
36,192,138960,1,0,0:0:0:0:
109,192,139040,1,0,0:0:0:0:
256,192,139040,1,0,0:0:0:0:
402,192,139040,1,0,0:0:0:0:
475,192,139040,1,0,0:0:0:0:
36,192,139120,1,0,0:0:0:0:
182,192,139120,1,0,0:0:0:0:
329,192,139200,1,0,0:0:0:0:
402,192,139200,1,0,0:0:0:0:
475,192,139200,1,0,0:0:0:0:
256,192,139200,1,0,0:0:0:0:
36,192,139280,1,0,0:0:0:0:
109,192,139280,1,0,0:0:0:0:
182,192,139360,1,0,0:0:0:0:
256,192,139360,1,0,0:0:0:0:
475,192,139360,1,0,0:0:0:0:
402,192,139360,1,0,0:0:0:0:
329,192,139440,1,0,0:0:0:0:
109,192,139440,1,0,0:0:0:0:
256,192,139520,1,0,0:0:0:0:
182,192,139520,1,0,0:0:0:0:
36,192,139520,1,0,0:0:0:0:
475,192,139520,1,0,0:0:0:0:
402,192,139600,1,0,0:0:0:0:
329,192,139600,1,0,0:0:0:0:
182,192,139680,1,0,0:0:0:0:
36,192,139680,1,0,0:0:0:0:
109,192,139680,1,0,0:0:0:0:
256,192,139680,1,0,0:0:0:0:
402,192,139760,1,0,0:0:0:0:
475,192,139760,1,0,0:0:0:0:
329,192,139840,1,0,0:0:0:0:
109,192,139840,1,0,0:0:0:0:
36,192,139840,1,0,0:0:0:0:
182,192,139840,1,0,0:0:0:0:
256,192,139920,1,0,0:0:0:0:
402,192,139920,1,0,0:0:0:0:
182,192,140000,1,0,0:0:0:0:
109,192,140000,1,0,0:0:0:0:
36,192,140000,1,0,0:0:0:0:
329,192,140000,1,0,0:0:0:0:
475,192,140080,1,0,0:0:0:0:
402,192,140080,1,0,0:0:0:0:
329,192,140160,1,0,0:0:0:0:
256,192,140160,1,0,0:0:0:0:
109,192,140160,1,0,0:0:0:0:
36,192,140160,1,0,0:0:0:0:
402,192,140240,1,0,0:0:0:0:
475,192,140240,1,0,0:0:0:0:
36,192,140320,1,0,0:0:0:0:
109,192,140320,1,0,0:0:0:0:
182,192,140320,1,0,0:0:0:0:
256,192,140320,1,0,0:0:0:0:
329,192,140400,1,0,0:0:0:0:
402,192,140400,1,0,0:0:0:0:
475,192,140480,1,0,0:0:0:0:
36,192,140480,1,0,0:0:0:0:
109,192,140480,1,0,0:0:0:0:
256,192,140480,1,0,0:0:0:0:
182,192,140560,1,0,0:0:0:0:
329,192,140560,1,0,0:0:0:0:
402,192,140640,1,0,0:0:0:0:
475,192,140640,1,0,0:0:0:0:
36,192,140640,1,0,0:0:0:0:
256,192,140640,1,0,0:0:0:0:
182,192,140720,1,0,0:0:0:0:
109,192,140720,1,0,0:0:0:0:
402,192,140800,1,0,0:0:0:0:
475,192,140800,1,0,0:0:0:0:
329,192,140800,1,0,0:0:0:0:
36,192,140800,1,0,0:0:0:0:
109,192,140880,1,0,0:0:0:0:
182,192,140880,1,0,0:0:0:0:
402,192,140960,1,0,0:0:0:0:
475,192,140960,1,0,0:0:0:0:
329,192,140960,1,0,0:0:0:0:
256,192,140960,1,0,0:0:0:0:
36,192,141040,1,0,0:0:0:0:
182,192,141040,1,0,0:0:0:0:
329,192,141120,1,0,0:0:0:0:
402,192,141120,1,0,0:0:0:0:
475,192,141120,1,0,0:0:0:0:
109,192,141120,1,0,0:0:0:0:
182,192,141200,1,0,0:0:0:0:
256,192,141200,1,0,0:0:0:0:
329,192,141280,1,0,0:0:0:0:
402,192,141280,1,0,0:0:0:0:
475,192,141280,1,0,0:0:0:0:
36,192,141280,1,0,0:0:0:0:
109,192,141360,1,0,0:0:0:0:
182,192,141360,1,0,0:0:0:0:
256,192,141440,1,0,0:0:0:0:
329,192,141440,1,0,0:0:0:0:
475,192,141440,1,0,0:0:0:0:
402,192,141440,1,0,0:0:0:0:
36,192,141520,1,0,0:0:0:0:
109,192,141520,1,0,0:0:0:0:
182,192,141600,1,0,0:0:0:0:
256,192,141600,1,0,0:0:0:0:
402,192,141600,1,0,0:0:0:0:
475,192,141600,1,0,0:0:0:0:
36,192,141680,1,0,0:0:0:0:
329,192,141680,1,0,0:0:0:0:
182,192,141760,1,0,0:0:0:0:
109,192,141760,1,0,0:0:0:0:
475,192,141760,1,0,0:0:0:0:
402,192,141760,1,0,0:0:0:0:
256,192,141840,1,0,0:0:0:0:
329,192,141840,1,0,0:0:0:0:
109,192,141920,1,0,0:0:0:0:
36,192,141920,1,0,0:0:0:0:
475,192,141920,1,0,0:0:0:0:
402,192,141920,1,0,0:0:0:0:
329,192,142000,1,0,0:0:0:0:
256,192,142000,1,0,0:0:0:0:
182,192,142080,1,0,0:0:0:0:
109,192,142080,1,0,0:0:0:0:
36,192,142080,1,0,0:0:0:0:
475,192,142080,1,0,0:0:0:0:
402,192,142080,1,0,0:0:0:0:
329,192,142160,1,0,0:0:0:0:
256,192,142160,1,0,0:0:0:0:
182,192,142240,1,0,0:0:0:0:
109,192,142240,1,0,0:0:0:0:
36,192,142240,1,0,0:0:0:0:
475,192,142240,1,0,0:0:0:0:
402,192,142320,1,0,0:0:0:0:
256,192,142320,1,0,0:0:0:0:
182,192,142400,1,0,0:0:0:0:
109,192,142400,1,0,0:0:0:0:
36,192,142400,1,0,0:0:0:0:
329,192,142400,1,0,0:0:0:0:
475,192,142480,1,0,0:0:0:0:
402,192,142480,1,0,0:0:0:0:
256,192,142560,1,0,0:0:0:0:
109,192,142560,1,0,0:0:0:0:
36,192,142560,1,0,0:0:0:0:
182,192,142560,1,0,0:0:0:0:
329,192,142640,1,0,0:0:0:0:
402,192,142640,1,0,0:0:0:0:
256,192,142720,1,0,0:0:0:0:
109,192,142720,1,0,0:0:0:0:
36,192,142720,1,0,0:0:0:0:
475,192,142720,1,0,0:0:0:0:
402,192,142800,1,0,0:0:0:0:
329,192,142800,1,0,0:0:0:0:
182,192,142880,1,0,0:0:0:0:
109,192,142880,1,0,0:0:0:0:
36,192,142880,1,0,0:0:0:0:
256,192,142880,1,0,0:0:0:0:
475,192,142960,1,0,0:0:0:0:
402,192,142960,1,0,0:0:0:0:
109,192,143040,1,0,0:0:0:0:
36,192,143040,1,0,0:0:0:0:
256,192,143040,1,0,0:0:0:0:
182,192,143040,1,0,0:0:0:0:
329,192,143120,1,0,0:0:0:0:
475,192,143120,1,0,0:0:0:0:
402,192,143200,1,0,0:0:0:0:
182,192,143200,1,0,0:0:0:0:
109,192,143200,1,0,0:0:0:0:
36,192,143200,1,0,0:0:0:0:
256,192,143280,1,0,0:0:0:0:
329,192,143280,1,0,0:0:0:0:
402,192,143360,1,0,0:0:0:0:
475,192,143360,1,0,0:0:0:0:
36,192,143360,1,0,0:0:0:0:
109,192,143360,1,0,0:0:0:0:
182,192,143440,1,0,0:0:0:0:
256,192,143440,1,0,0:0:0:0:
329,192,143520,1,0,0:0:0:0:
402,192,143520,1,0,0:0:0:0:
475,192,143520,1,0,0:0:0:0:
36,192,143520,1,0,0:0:0:0:
109,192,143600,1,0,0:0:0:0:
182,192,143600,1,0,0:0:0:0:
256,192,143680,1,0,0:0:0:0:
329,192,143680,1,0,0:0:0:0:
402,192,143680,1,0,0:0:0:0:
475,192,143680,1,0,0:0:0:0:
36,192,143760,1,0,0:0:0:0:
182,192,143760,1,0,0:0:0:0:
109,192,143840,1,0,0:0:0:0:
402,192,143840,1,0,0:0:0:0:
475,192,143840,1,0,0:0:0:0:
329,192,143840,1,0,0:0:0:0:
36,192,143920,1,0,0:0:0:0:
182,192,143920,1,0,0:0:0:0:
329,192,144000,1,0,0:0:0:0:
402,192,144000,1,0,0:0:0:0:
475,192,144000,1,0,0:0:0:0:
256,192,144000,1,0,0:0:0:0:
36,192,144080,1,0,0:0:0:0:
109,192,144080,1,0,0:0:0:0:
182,192,144160,1,0,0:0:0:0:
329,192,144160,1,0,0:0:0:0:
475,192,144160,1,0,0:0:0:0:
256,192,144160,1,0,0:0:0:0:
36,192,144240,1,0,0:0:0:0:
109,192,144240,1,0,0:0:0:0:
329,192,144320,1,0,0:0:0:0:
402,192,144320,1,0,0:0:0:0:
475,192,144320,1,0,0:0:0:0:
256,192,144320,1,0,0:0:0:0:
182,192,144320,1,0,0:0:0:0:
109,192,144400,1,0,0:0:0:0:
36,192,144480,1,0,0:0:0:0:
402,192,144480,1,0,0:0:0:0:
475,192,144480,1,0,0:0:0:0:
256,192,144480,1,0,0:0:0:0:
329,192,144560,1,0,0:0:0:0:
182,192,144560,1,0,0:0:0:0:
109,192,144640,1,0,0:0:0:0:
36,192,144640,1,0,0:0:0:0:
256,192,144640,1,0,0:0:0:0:
475,192,144640,1,0,0:0:0:0:
402,192,144720,1,0,0:0:0:0:
329,192,144720,1,0,0:0:0:0:
182,192,144800,1,0,0:0:0:0:
109,192,144800,1,0,0:0:0:0:
36,192,144800,1,0,0:0:0:0:
256,192,144800,1,0,0:0:0:0:
475,192,144880,1,0,0:0:0:0:
402,192,144880,1,0,0:0:0:0:
329,192,144960,1,0,0:0:0:0:
256,192,144960,1,0,0:0:0:0:
182,192,144960,1,0,0:0:0:0:
109,192,145040,1,0,0:0:0:0:
36,192,145040,1,0,0:0:0:0:
256,192,145120,1,0,0:0:0:0:
329,192,145120,1,0,0:0:0:0:
402,192,145120,1,0,0:0:0:0:
475,192,145120,1,0,0:0:0:0:
36,192,145200,1,0,0:0:0:0:
109,192,145200,1,0,0:0:0:0:
182,192,145280,1,0,0:0:0:0:
256,192,145280,1,0,0:0:0:0:
329,192,145280,1,0,0:0:0:0:
402,192,145280,1,0,0:0:0:0:
475,192,145280,1,0,0:0:0:0:
36,192,145360,1,0,0:0:0:0:
109,192,145360,1,0,0:0:0:0:
182,192,145440,1,0,0:0:0:0:
256,192,145440,1,0,0:0:0:0:
329,192,145440,1,0,0:0:0:0:
402,192,145520,1,0,0:0:0:0:
475,192,145520,1,0,0:0:0:0:
36,192,145600,1,0,0:0:0:0:
109,192,145600,1,0,0:0:0:0:
182,192,145600,1,0,0:0:0:0:
329,192,145600,1,0,0:0:0:0:
475,192,145680,1,0,0:0:0:0:
256,192,145680,1,0,0:0:0:0:
36,192,145760,1,0,0:0:0:0:
109,192,145760,1,0,0:0:0:0:
182,192,145760,1,0,0:0:0:0:
402,192,145760,1,0,0:0:0:0:
475,192,145840,1,0,0:0:0:0:
256,192,145840,1,0,0:0:0:0:
329,192,145920,1,0,0:0:0:0:
182,192,145920,1,0,0:0:0:0:
109,192,145920,1,0,0:0:0:0:
36,192,145920,1,0,0:0:0:0:
402,192,145920,1,0,0:0:0:0:
256,192,146000,1,0,0:0:0:0:
475,192,146000,1,0,0:0:0:0:
402,192,146080,1,0,0:0:0:0:
329,192,146080,1,0,0:0:0:0:
36,192,146080,1,0,0:0:0:0:
109,192,146080,1,0,0:0:0:0:
182,192,146160,1,0,0:0:0:0:
256,192,146160,1,0,0:0:0:0:
329,192,146240,1,0,0:0:0:0:
402,192,146240,1,0,0:0:0:0:
475,192,146240,1,0,0:0:0:0:
36,192,146240,1,0,0:0:0:0:
109,192,146320,1,0,0:0:0:0:
182,192,146320,1,0,0:0:0:0:
256,192,146400,1,0,0:0:0:0:
329,192,146400,1,0,0:0:0:0:
402,192,146400,1,0,0:0:0:0:
475,192,146400,1,0,0:0:0:0:
36,192,146480,1,0,0:0:0:0:
109,192,146480,1,0,0:0:0:0:
182,192,146560,1,0,0:0:0:0:
256,192,146560,1,0,0:0:0:0:
402,192,146560,1,0,0:0:0:0:
475,192,146560,1,0,0:0:0:0:
36,192,146640,1,0,0:0:0:0:
109,192,146640,1,0,0:0:0:0:
256,192,146720,1,0,0:0:0:0:
402,192,146720,1,0,0:0:0:0:
475,192,146720,1,0,0:0:0:0:
329,192,146720,1,0,0:0:0:0:
36,192,146800,1,0,0:0:0:0:
182,192,146800,1,0,0:0:0:0:
109,192,146880,1,0,0:0:0:0:
402,192,146880,1,0,0:0:0:0:
475,192,146880,1,0,0:0:0:0:
329,192,146880,1,0,0:0:0:0:
36,192,146960,1,0,0:0:0:0:
256,192,146960,1,0,0:0:0:0:
402,192,147040,1,0,0:0:0:0:
475,192,147040,1,0,0:0:0:0:
182,192,147040,1,0,0:0:0:0:
109,192,147040,1,0,0:0:0:0:
329,192,147120,1,0,0:0:0:0:
256,192,147120,1,0,0:0:0:0:
109,192,147200,1,0,0:0:0:0:
36,192,147200,1,0,0:0:0:0:
182,192,147200,1,0,0:0:0:0:
475,192,147200,1,0,0:0:0:0:
402,192,147200,1,0,0:0:0:0:
329,192,147280,1,0,0:0:0:0:
256,192,147280,1,0,0:0:0:0:
182,192,147360,1,0,0:0:0:0:
109,192,147360,1,0,0:0:0:0:
36,192,147360,1,0,0:0:0:0:
475,192,147360,1,0,0:0:0:0:
402,192,147440,1,0,0:0:0:0:
329,192,147440,1,0,0:0:0:0:
109,192,147520,1,0,0:0:0:0:
36,192,147520,1,0,0:0:0:0:
182,192,147520,1,0,0:0:0:0:
256,192,147520,1,0,0:0:0:0:
475,192,147600,1,0,0:0:0:0:
402,192,147600,1,0,0:0:0:0:
256,192,147680,1,0,0:0:0:0:
109,192,147680,1,0,0:0:0:0:
36,192,147680,1,0,0:0:0:0:
329,192,147760,1,0,0:0:0:0:
402,192,147760,1,0,0:0:0:0:
182,192,147840,1,0,0:0:0:0:
109,192,147840,1,0,0:0:0:0:
36,192,147840,1,0,0:0:0:0:
256,192,147840,1,0,0:0:0:0:
475,192,147920,1,0,0:0:0:0:
402,192,147920,1,0,0:0:0:0:
329,192,148000,1,0,0:0:0:0:
109,192,148000,1,0,0:0:0:0:
36,192,148000,1,0,0:0:0:0:
182,192,148000,1,0,0:0:0:0:
475,192,148080,1,0,0:0:0:0:
402,192,148080,1,0,0:0:0:0:
182,192,148160,1,0,0:0:0:0:
256,192,148160,1,0,0:0:0:0:
109,192,148160,1,0,0:0:0:0:
36,192,148160,1,0,0:0:0:0:
329,192,148240,1,0,0:0:0:0:
402,192,148240,1,0,0:0:0:0:
475,192,148320,1,0,0:0:0:0:
36,192,148320,1,0,0:0:0:0:
109,192,148320,1,0,0:0:0:0:
256,192,148320,1,0,0:0:0:0:
182,192,148400,1,0,0:0:0:0:
329,192,148400,1,0,0:0:0:0:
402,192,148480,1,0,0:0:0:0:
475,192,148480,1,0,0:0:0:0:
36,192,148480,1,0,0:0:0:0:
109,192,148480,1,0,0:0:0:0:
256,192,148480,1,0,0:0:0:0:
182,192,148560,1,0,0:0:0:0:
329,192,148560,1,0,0:0:0:0:
402,192,148640,1,0,0:0:0:0:
475,192,148640,1,0,0:0:0:0:
256,192,148640,1,0,0:0:0:0:
36,192,148640,1,0,0:0:0:0:
109,192,148720,1,0,0:0:0:0:
182,192,148720,1,0,0:0:0:0:
402,192,148800,1,0,0:0:0:0:
36,192,148800,1,0,0:0:0:0:
329,192,148800,1,0,0:0:0:0:
475,192,148800,1,0,0:0:0:0:
109,192,148880,1,0,0:0:0:0:
182,192,148880,1,0,0:0:0:0:
256,192,148960,1,0,0:0:0:0:
329,192,148960,1,0,0:0:0:0:
402,192,148960,1,0,0:0:0:0:
475,192,148960,1,0,0:0:0:0:
36,192,149040,1,0,0:0:0:0:
109,192,149040,1,0,0:0:0:0:
182,192,149120,1,0,0:0:0:0:
256,192,149120,1,0,0:0:0:0:
402,192,149120,1,0,0:0:0:0:
475,192,149120,1,0,0:0:0:0:
36,192,149200,1,0,0:0:0:0:
109,192,149200,1,0,0:0:0:0:
256,192,149280,1,0,0:0:0:0:
402,192,149280,1,0,0:0:0:0:
329,192,149280,1,0,0:0:0:0:
475,192,149280,1,0,0:0:0:0:
36,192,149360,1,0,0:0:0:0:
182,192,149360,1,0,0:0:0:0:
329,192,149440,1,0,0:0:0:0:
402,192,149440,1,0,0:0:0:0:
475,192,149440,1,0,0:0:0:0:
109,192,149440,1,0,0:0:0:0:
256,192,149520,1,0,0:0:0:0:
182,192,149520,1,0,0:0:0:0:
36,192,149600,1,0,0:0:0:0:
402,192,149600,1,0,0:0:0:0:
475,192,149600,1,0,0:0:0:0:
109,192,149600,1,0,0:0:0:0:
329,192,149680,1,0,0:0:0:0:
256,192,149680,1,0,0:0:0:0:
182,192,149760,1,0,0:0:0:0:
109,192,149760,1,0,0:0:0:0:
36,192,149760,1,0,0:0:0:0:
475,192,149760,1,0,0:0:0:0:
402,192,149760,1,0,0:0:0:0:
329,192,149840,1,0,0:0:0:0:
256,192,149840,1,0,0:0:0:0:
182,192,149920,1,0,0:0:0:0:
109,192,149920,1,0,0:0:0:0:
36,192,149920,1,0,0:0:0:0:
475,192,149920,1,0,0:0:0:0:
402,192,150000,1,0,0:0:0:0:
256,192,150000,1,0,0:0:0:0:
182,192,150080,1,0,0:0:0:0:
109,192,150080,1,0,0:0:0:0:
36,192,150080,1,0,0:0:0:0:
329,192,150080,1,0,0:0:0:0:
475,192,150160,1,0,0:0:0:0:
402,192,150160,1,0,0:0:0:0:
329,192,150240,1,0,0:0:0:0:
182,192,150240,1,0,0:0:0:0:
109,192,150240,1,0,0:0:0:0:
36,192,150240,1,0,0:0:0:0:
475,192,150320,1,0,0:0:0:0:
402,192,150320,1,0,0:0:0:0:
256,192,150400,1,0,0:0:0:0:
182,192,150400,1,0,0:0:0:0:
109,192,150400,1,0,0:0:0:0:
36,192,150400,1,0,0:0:0:0:
329,192,150480,1,0,0:0:0:0:
402,192,150480,1,0,0:0:0:0:
109,192,150560,1,0,0:0:0:0:
36,192,150560,1,0,0:0:0:0:
475,192,150560,1,0,0:0:0:0:
256,192,150560,1,0,0:0:0:0:
182,192,150640,1,0,0:0:0:0:
329,192,150640,1,0,0:0:0:0:
109,192,150720,1,0,0:0:0:0:
36,192,150720,1,0,0:0:0:0:
402,192,150720,1,0,0:0:0:0:
475,192,150720,1,0,0:0:0:0:
256,192,150800,1,0,0:0:0:0:
182,192,150800,1,0,0:0:0:0:
109,192,150880,1,0,0:0:0:0:
36,192,150880,1,0,0:0:0:0:
402,192,150880,1,0,0:0:0:0:
475,192,150880,1,0,0:0:0:0:
329,192,150960,1,0,0:0:0:0:
256,192,150960,1,0,0:0:0:0:
109,192,151040,1,0,0:0:0:0:
36,192,151040,1,0,0:0:0:0:
402,192,151040,1,0,0:0:0:0:
475,192,151040,1,0,0:0:0:0:
182,192,151120,1,0,0:0:0:0:
256,192,151120,1,0,0:0:0:0:
329,192,151200,1,0,0:0:0:0:
402,192,151200,1,0,0:0:0:0:
475,192,151200,1,0,0:0:0:0:
36,192,151200,1,0,0:0:0:0:
109,192,151280,1,0,0:0:0:0:
182,192,151280,1,0,0:0:0:0:
256,192,151360,1,0,0:0:0:0:
329,192,151360,1,0,0:0:0:0:
402,192,151360,1,0,0:0:0:0:
475,192,151360,1,0,0:0:0:0:
36,192,151440,1,0,0:0:0:0:
109,192,151440,1,0,0:0:0:0:
329,192,151520,1,0,0:0:0:0:
402,192,151520,1,0,0:0:0:0:
475,192,151520,1,0,0:0:0:0:
182,192,151520,1,0,0:0:0:0:
109,192,151600,1,0,0:0:0:0:
36,192,151600,1,0,0:0:0:0:
329,192,151680,1,0,0:0:0:0:
402,192,151680,1,0,0:0:0:0:
475,192,151680,1,0,0:0:0:0:
256,192,151680,1,0,0:0:0:0:
36,192,151760,1,0,0:0:0:0:
182,192,151760,1,0,0:0:0:0:
109,192,151840,1,0,0:0:0:0:
256,192,151840,1,0,0:0:0:0:
329,192,151840,1,0,0:0:0:0:
402,192,151840,1,0,0:0:0:0:
36,192,151920,1,0,0:0:0:0:
182,192,151920,1,0,0:0:0:0:
329,192,152000,1,0,0:0:0:0:
475,192,152000,1,0,0:0:0:0:
402,192,152000,1,0,0:0:0:0:
256,192,152000,1,0,0:0:0:0:
182,192,152080,1,0,0:0:0:0:
109,192,152080,1,0,0:0:0:0:
36,192,152160,1,0,0:0:0:0:
256,192,152160,1,0,0:0:0:0:
329,192,152160,1,0,0:0:0:0:
402,192,152160,1,0,0:0:0:0:
475,192,152240,1,0,0:0:0:0:
109,192,152240,1,0,0:0:0:0:
182,192,152320,1,0,0:0:0:0:
256,192,152320,1,0,0:0:0:0:
329,192,152320,1,0,0:0:0:0:
402,192,152320,1,0,0:0:0:0:
36,192,152400,1,0,0:0:0:0:
109,192,152400,1,0,0:0:0:0:
182,192,152480,1,0,0:0:0:0:
256,192,152480,1,0,0:0:0:0:
329,192,152480,1,0,0:0:0:0:
402,192,152480,1,0,0:0:0:0:
475,192,152560,1,0,0:0:0:0:
36,192,152560,1,0,0:0:0:0:
109,192,152640,1,0,0:0:0:0:
182,192,152640,1,0,0:0:0:0:
256,192,152640,1,0,0:0:0:0:
329,192,152640,1,0,0:0:0:0:
402,192,152720,1,0,0:0:0:0:
475,192,152720,1,0,0:0:0:0:
329,192,152800,1,0,0:0:0:0:
36,192,152800,1,0,0:0:0:0:
182,192,152800,1,0,0:0:0:0:
256,192,152800,1,0,0:0:0:0:
475,192,152880,1,0,0:0:0:0:
402,192,152880,1,0,0:0:0:0:
329,192,152960,1,0,0:0:0:0:
256,192,152960,1,0,0:0:0:0:
109,192,152960,1,0,0:0:0:0:
36,192,152960,1,0,0:0:0:0:
182,192,153040,1,0,0:0:0:0:
402,192,153040,1,0,0:0:0:0:
329,192,153120,1,0,0:0:0:0:
256,192,153120,1,0,0:0:0:0:
109,192,153120,1,0,0:0:0:0:
36,192,153120,1,0,0:0:0:0:
475,192,153200,1,0,0:0:0:0:
402,192,153200,1,0,0:0:0:0:
256,192,153280,1,0,0:0:0:0:
182,192,153280,1,0,0:0:0:0:
109,192,153280,1,0,0:0:0:0:
36,192,153280,1,0,0:0:0:0:
329,192,153360,1,0,0:0:0:0:
402,192,153360,1,0,0:0:0:0:
109,192,153440,1,0,0:0:0:0:
36,192,153440,1,0,0:0:0:0:
256,192,153440,1,0,0:0:0:0:
475,192,153440,1,0,0:0:0:0:
402,192,153520,1,0,0:0:0:0:
329,192,153520,1,0,0:0:0:0:
256,192,153600,1,0,0:0:0:0:
182,192,153600,1,0,0:0:0:0:
109,192,153600,1,0,0:0:0:0:
36,192,153600,1,0,0:0:0:0:
475,192,153680,1,0,0:0:0:0:
402,192,153680,1,0,0:0:0:0:
109,192,153760,1,0,0:0:0:0:
36,192,153760,1,0,0:0:0:0:
256,192,153760,1,0,0:0:0:0:
182,192,153760,1,0,0:0:0:0:
475,192,153840,1,0,0:0:0:0:
329,192,153840,1,0,0:0:0:0:
256,192,153920,1,0,0:0:0:0:
109,192,153920,1,0,0:0:0:0:
36,192,153920,1,0,0:0:0:0:
402,192,153920,1,0,0:0:0:0:
329,192,154000,1,0,0:0:0:0:
475,192,154000,1,0,0:0:0:0:
182,192,154080,1,0,0:0:0:0:
109,192,154080,1,0,0:0:0:0:
36,192,154080,1,0,0:0:0:0:
256,192,154080,1,0,0:0:0:0:
329,192,154160,1,0,0:0:0:0:
402,192,154160,1,0,0:0:0:0:
475,192,154240,1,0,0:0:0:0:
36,192,154240,1,0,0:0:0:0:
109,192,154240,1,0,0:0:0:0:
182,192,154240,1,0,0:0:0:0:
256,192,154320,1,0,0:0:0:0:
329,192,154320,1,0,0:0:0:0:
402,192,154400,1,0,0:0:0:0:
475,192,154400,1,0,0:0:0:0:
36,192,154400,1,0,0:0:0:0:
109,192,154400,1,0,0:0:0:0:
182,192,154480,1,0,0:0:0:0:
256,192,154480,1,0,0:0:0:0:
329,192,154560,1,0,0:0:0:0:
475,192,154560,1,0,0:0:0:0:
36,192,154560,1,0,0:0:0:0:
402,192,154560,1,0,0:0:0:0:
109,192,154640,1,0,0:0:0:0:
256,192,154640,1,0,0:0:0:0:
402,192,154720,1,0,0:0:0:0:
475,192,154720,1,0,0:0:0:0:
36,192,154720,1,0,0:0:0:0:
182,192,154720,1,0,0:0:0:0:
329,192,154800,1,0,0:0:0:0:
109,192,154800,1,0,0:0:0:0:
402,192,154880,1,0,0:0:0:0:
475,192,154880,1,0,0:0:0:0:
36,192,154880,1,0,0:0:0:0:
182,192,154880,1,0,0:0:0:0:
256,192,154960,1,0,0:0:0:0:
329,192,154960,1,0,0:0:0:0:
402,192,155040,1,0,0:0:0:0:
475,192,155040,1,0,0:0:0:0:
109,192,155040,1,0,0:0:0:0:
182,192,155120,1,0,0:0:0:0:
329,192,155120,1,0,0:0:0:0:
475,192,155200,1,0,0:0:0:0:
36,192,155200,1,0,0:0:0:0:
402,192,155200,1,0,0:0:0:0:
109,192,155200,1,0,0:0:0:0:
182,192,155280,1,0,0:0:0:0:
256,192,155280,1,0,0:0:0:0:
329,192,155360,1,0,0:0:0:0:
402,192,155360,1,0,0:0:0:0:
36,192,155360,1,0,0:0:0:0:
256,192,155440,1,0,0:0:0:0:
109,192,155440,1,0,0:0:0:0:
402,192,155520,1,0,0:0:0:0:
36,192,155520,1,0,0:0:0:0:
475,192,155520,1,0,0:0:0:0:
329,192,155520,1,0,0:0:0:0:
109,192,155600,1,0,0:0:0:0:
182,192,155600,1,0,0:0:0:0:
256,192,155680,1,0,0:0:0:0:
329,192,155680,1,0,0:0:0:0:
475,192,155680,1,0,0:0:0:0:
36,192,155760,1,0,0:0:0:0:
182,192,155760,1,0,0:0:0:0:
402,192,155840,1,0,0:0:0:0:
475,192,155840,1,0,0:0:0:0:
109,192,155840,1,0,0:0:0:0:
329,192,155840,1,0,0:0:0:0:
36,192,155920,1,0,0:0:0:0:
182,192,155920,1,0,0:0:0:0:
109,192,156000,1,0,0:0:0:0:
402,192,156000,1,0,0:0:0:0:
475,192,156000,1,0,0:0:0:0:
256,192,156000,1,0,0:0:0:0:
329,192,156080,1,0,0:0:0:0:
182,192,156080,1,0,0:0:0:0:
36,192,156160,1,0,0:0:0:0:
109,192,156160,1,0,0:0:0:0:
402,192,156160,1,0,0:0:0:0:
475,192,156160,1,0,0:0:0:0:
256,192,156160,1,0,0:0:0:0:
329,192,156240,1,0,0:0:0:0:
182,192,156320,1,0,0:0:0:0:
402,192,156400,1,0,0:0:0:0:
329,192,156480,1,0,0:0:0:0:
475,192,156480,1,0,0:0:0:0:
109,192,156480,1,0,0:0:0:0:
36,192,156480,1,0,0:0:0:0:
256,192,156560,1,0,0:0:0:0:
402,192,156640,1,0,0:0:0:0:
182,192,156720,1,0,0:0:0:0:
36,192,156800,1,0,0:0:0:0:
329,192,156800,1,0,0:0:0:0:
475,192,156800,1,0,0:0:0:0:
256,192,156800,1,0,0:0:0:0:
109,192,156880,1,0,0:0:0:0:
475,192,156960,1,0,0:0:0:0:
182,192,156960,1,0,0:0:0:0:
402,192,157040,1,0,0:0:0:0:
475,192,157120,1,0,0:0:0:0:
256,192,157120,1,0,0:0:0:0:
182,192,157120,1,0,0:0:0:0:
36,192,157120,1,0,0:0:0:0:
329,192,157200,1,0,0:0:0:0:
402,192,157280,1,0,0:0:0:0:
109,192,157360,1,0,0:0:0:0:
182,192,157440,1,0,0:0:0:0:
36,192,157440,1,0,0:0:0:0:
475,192,157440,1,0,0:0:0:0:
256,192,157440,1,0,0:0:0:0:
329,192,157520,1,0,0:0:0:0:
109,192,157600,1,0,0:0:0:0:
402,192,157600,1,0,0:0:0:0:
256,192,157680,1,0,0:0:0:0:
109,192,157760,1,0,0:0:0:0:
182,192,157760,1,0,0:0:0:0:
329,192,157760,1,0,0:0:0:0:
475,192,157760,1,0,0:0:0:0:
36,192,157840,1,0,0:0:0:0:
256,192,157920,1,0,0:0:0:0:
475,192,157920,1,0,0:0:0:0:
402,192,157920,1,0,0:0:0:0:
182,192,158000,1,0,0:0:0:0:
109,192,158080,1,0,0:0:0:0:
329,192,158080,1,0,0:0:0:0:
36,192,158080,1,0,0:0:0:0:
256,192,158160,1,0,0:0:0:0:
402,192,158240,1,0,0:0:0:0:
182,192,158320,1,0,0:0:0:0:
109,192,158400,1,0,0:0:0:0:
36,192,158400,1,0,0:0:0:0:
329,192,158400,1,0,0:0:0:0:
475,192,158400,1,0,0:0:0:0:
256,192,158480,1,0,0:0:0:0:
402,192,158560,1,0,0:0:0:0:
182,192,158560,1,0,0:0:0:0:
329,192,158640,1,0,0:0:0:0:
475,192,158720,1,0,0:0:0:0:
256,192,158720,1,0,0:0:0:0:
36,192,158720,1,0,0:0:0:0:
109,192,158720,1,0,0:0:0:0:
182,192,158800,1,0,0:0:0:0:
402,192,158880,1,0,0:0:0:0:
256,192,158960,1,0,0:0:0:0:
109,192,159040,1,0,0:0:0:0:
36,192,159040,1,0,0:0:0:0:
475,192,159040,1,0,0:0:0:0:
329,192,159040,1,0,0:0:0:0:
182,192,159120,1,0,0:0:0:0:
256,192,159200,1,0,0:0:0:0:
475,192,159200,1,0,0:0:0:0:
402,192,159200,1,0,0:0:0:0:
36,192,159280,1,0,0:0:0:0:
182,192,159360,1,0,0:0:0:0:
329,192,159360,1,0,0:0:0:0:
475,192,159360,1,0,0:0:0:0:
109,192,159440,1,0,0:0:0:0:
256,192,159520,1,0,0:0:0:0:
402,192,159600,1,0,0:0:0:0:
329,192,159680,1,0,0:0:0:0:
475,192,159680,1,0,0:0:0:0:
36,192,159680,1,0,0:0:0:0:
109,192,159680,1,0,0:0:0:0:
182,192,159760,1,0,0:0:0:0:
256,192,159840,1,0,0:0:0:0:
402,192,159840,1,0,0:0:0:0:
109,192,159920,1,0,0:0:0:0:
475,192,160000,1,0,0:0:0:0:
36,192,160000,1,0,0:0:0:0:
182,192,160000,1,0,0:0:0:0:
329,192,160000,1,0,0:0:0:0:
256,192,160080,1,0,0:0:0:0:
109,192,160160,1,0,0:0:0:0:
475,192,160240,1,0,0:0:0:0:
402,192,160320,1,0,0:0:0:0:
329,192,160320,1,0,0:0:0:0:
182,192,160320,1,0,0:0:0:0:
36,192,160320,1,0,0:0:0:0:
256,192,160400,1,0,0:0:0:0:
402,192,160480,1,0,0:0:0:0:
475,192,160480,1,0,0:0:0:0:
109,192,160480,1,0,0:0:0:0:
182,192,160560,1,0,0:0:0:0:
256,192,160640,1,0,0:0:0:0:
36,192,160640,1,0,0:0:0:0:
329,192,160640,1,0,0:0:0:0:
182,192,160720,1,0,0:0:0:0:
109,192,160800,1,0,0:0:0:0:
402,192,160800,1,0,0:0:0:0:
256,192,160880,1,0,0:0:0:0:
329,192,160960,1,0,0:0:0:0:
475,192,160960,1,0,0:0:0:0:
36,192,160960,1,0,0:0:0:0:
109,192,160960,1,0,0:0:0:0:
182,192,161040,1,0,0:0:0:0:
329,192,161120,1,0,0:0:0:0:
475,192,161120,1,0,0:0:0:0:
36,192,161120,1,0,0:0:0:0:
109,192,161120,1,0,0:0:0:0:
256,192,161200,1,0,0:0:0:0:
36,192,161280,1,0,0:0:0:0:
109,192,161280,1,0,0:0:0:0:
329,192,161280,1,0,0:0:0:0:
475,192,161280,1,0,0:0:0:0:
182,192,161360,1,0,0:0:0:0:
256,192,161440,1,0,0:0:0:0:
329,192,161520,1,0,0:0:0:0:
402,192,161600,1,0,0:0:0:0:
475,192,161600,1,0,0:0:0:0:
182,192,161600,1,0,0:0:0:0:
36,192,161600,1,0,0:0:0:0:
256,192,161680,1,0,0:0:0:0:
329,192,161760,1,0,0:0:0:0:
475,192,161760,1,0,0:0:0:0:
109,192,161760,1,0,0:0:0:0:
402,192,161840,1,0,0:0:0:0:
475,192,161920,1,0,0:0:0:0:
36,192,161920,1,0,0:0:0:0:
182,192,161920,1,0,0:0:0:0:
329,192,162000,1,0,0:0:0:0:
256,192,162080,1,0,0:0:0:0:
402,192,162080,1,0,0:0:0:0:
182,192,162160,1,0,0:0:0:0:
109,192,162240,1,0,0:0:0:0:
475,192,162240,1,0,0:0:0:0:
36,192,162240,1,0,0:0:0:0:
329,192,162240,1,0,0:0:0:0:
256,192,162320,1,0,0:0:0:0:
182,192,162400,1,0,0:0:0:0:
109,192,162480,1,0,0:0:0:0:
36,192,162560,1,0,0:0:0:0:
402,192,162560,1,0,0:0:0:0:
475,192,162560,1,0,0:0:0:0:
256,192,162560,1,0,0:0:0:0:
182,192,162640,1,0,0:0:0:0:
256,192,162720,1,0,0:0:0:0:
329,192,162800,1,0,0:0:0:0:
402,192,162880,1,0,0:0:0:0:
475,192,162880,1,0,0:0:0:0:
36,192,162880,1,0,0:0:0:0:
182,192,162880,1,0,0:0:0:0:
256,192,162960,1,0,0:0:0:0:
329,192,163040,1,0,0:0:0:0:
109,192,163040,1,0,0:0:0:0:
36,192,163040,1,0,0:0:0:0:
402,192,163120,1,0,0:0:0:0:
475,192,163200,1,0,0:0:0:0:
182,192,163200,1,0,0:0:0:0:
256,192,163200,1,0,0:0:0:0:
329,192,163280,1,0,0:0:0:0:
256,192,163360,1,0,0:0:0:0:
109,192,163360,1,0,0:0:0:0:
182,192,163440,1,0,0:0:0:0:
109,192,163520,1,0,0:0:0:0:
36,192,163520,1,0,0:0:0:0:
475,192,163520,1,0,0:0:0:0:
329,192,163520,1,0,0:0:0:0:
256,192,163600,1,0,0:0:0:0:
182,192,163680,1,0,0:0:0:0:
109,192,163760,1,0,0:0:0:0:
36,192,163840,1,0,0:0:0:0:
256,192,163840,1,0,0:0:0:0:
402,192,163840,1,0,0:0:0:0:
475,192,163840,1,0,0:0:0:0:
182,192,163920,1,0,0:0:0:0:
109,192,164000,1,0,0:0:0:0:
329,192,164080,1,0,0:0:0:0:
475,192,164160,1,0,0:0:0:0:
36,192,164160,1,0,0:0:0:0:
182,192,164160,1,0,0:0:0:0:
402,192,164160,1,0,0:0:0:0:
256,192,164240,1,0,0:0:0:0:
475,192,164320,1,0,0:0:0:0:
109,192,164320,1,0,0:0:0:0:
329,192,164320,1,0,0:0:0:0:
36,192,164400,1,0,0:0:0:0:
182,192,164480,1,0,0:0:0:0:
256,192,164480,1,0,0:0:0:0:
402,192,164480,1,0,0:0:0:0:
329,192,164560,1,0,0:0:0:0:
109,192,164640,1,0,0:0:0:0:
402,192,164640,1,0,0:0:0:0:
182,192,164720,1,0,0:0:0:0:
256,192,164800,1,0,0:0:0:0:
475,192,164800,1,0,0:0:0:0:
36,192,164800,1,0,0:0:0:0:
109,192,164800,1,0,0:0:0:0:
402,192,164880,1,0,0:0:0:0:
182,192,164960,1,0,0:0:0:0:
329,192,165040,1,0,0:0:0:0:
475,192,165120,1,0,0:0:0:0:
402,192,165120,1,0,0:0:0:0:
256,192,165120,1,0,0:0:0:0:
109,192,165120,1,0,0:0:0:0:
182,192,165200,1,0,0:0:0:0:
36,192,165280,1,0,0:0:0:0:
475,192,165360,1,0,0:0:0:0:
402,192,165440,1,0,0:0:0:0:
329,192,165440,1,0,0:0:0:0:
109,192,165440,1,0,0:0:0:0:
256,192,165440,1,0,0:0:0:0:
182,192,165520,1,0,0:0:0:0:
36,192,165600,1,0,0:0:0:0:
329,192,165600,1,0,0:0:0:0:
475,192,165600,1,0,0:0:0:0:
256,192,165680,1,0,0:0:0:0:
182,192,165760,1,0,0:0:0:0:
109,192,165760,1,0,0:0:0:0:
402,192,165760,1,0,0:0:0:0:
329,192,165840,1,0,0:0:0:0:
182,192,165920,1,0,0:0:0:0:
36,192,165920,1,0,0:0:0:0:
329,192,166000,1,0,0:0:0:0:
475,192,166000,1,0,0:0:0:0:
182,192,166080,1,0,0:0:0:0:
36,192,166080,1,0,0:0:0:0:
256,192,166160,1,0,0:0:0:0:
36,192,166240,1,0,0:0:0:0:
402,192,166240,1,0,0:0:0:0:
475,192,166240,1,0,0:0:0:0:
109,192,166280,1,0,0:0:0:0:
182,192,166320,1,0,0:0:0:0:
256,192,166360,1,0,0:0:0:0:
402,192,166400,1,0,0:0:0:0:
475,192,166400,1,0,0:0:0:0:
329,192,166400,1,0,0:0:0:0:
36,192,166400,1,0,0:0:0:0:
182,192,166480,1,0,0:0:0:0:
109,192,166560,1,0,0:0:0:0:
256,192,166640,1,0,0:0:0:0:
475,192,166640,1,0,0:0:0:0:
182,192,166720,1,0,0:0:0:0:
36,192,166720,1,0,0:0:0:0:
402,192,166720,1,0,0:0:0:0:
329,192,166720,1,0,0:0:0:0:
109,192,166800,1,0,0:0:0:0:
256,192,166880,1,0,0:0:0:0:
475,192,166880,1,0,0:0:0:0:
36,192,166960,1,0,0:0:0:0:
402,192,166960,1,0,0:0:0:0:
109,192,167040,1,0,0:0:0:0:
182,192,167040,1,0,0:0:0:0:
329,192,167040,1,0,0:0:0:0:
475,192,167040,1,0,0:0:0:0:
256,192,167120,1,0,0:0:0:0:
36,192,167200,1,0,0:0:0:0:
182,192,167280,1,0,0:0:0:0:
402,192,167280,1,0,0:0:0:0:
109,192,167360,1,0,0:0:0:0:
36,192,167360,1,0,0:0:0:0:
329,192,167360,1,0,0:0:0:0:
475,192,167360,1,0,0:0:0:0:
256,192,167440,1,0,0:0:0:0:
109,192,167520,1,0,0:0:0:0:
182,192,167600,1,0,0:0:0:0:
402,192,167600,1,0,0:0:0:0:
36,192,167680,1,0,0:0:0:0:
256,192,167680,1,0,0:0:0:0:
475,192,167680,1,0,0:0:0:0:
329,192,167680,1,0,0:0:0:0:
182,192,167760,1,0,0:0:0:0:
256,192,167840,1,0,0:0:0:0:
109,192,167920,1,0,0:0:0:0:
475,192,167920,1,0,0:0:0:0:
402,192,168000,1,0,0:0:0:0:
329,192,168000,1,0,0:0:0:0:
182,192,168000,1,0,0:0:0:0:
36,192,168000,1,0,0:0:0:0:
256,192,168080,1,0,0:0:0:0:
109,192,168160,1,0,0:0:0:0:
182,192,168160,1,0,0:0:0:0:
475,192,168240,1,0,0:0:0:0:
256,192,168240,1,0,0:0:0:0:
329,192,168320,1,0,0:0:0:0:
182,192,168320,1,0,0:0:0:0:
36,192,168320,1,0,0:0:0:0:
402,192,168320,1,0,0:0:0:0:
256,192,168400,1,0,0:0:0:0:
475,192,168480,1,0,0:0:0:0:
109,192,168560,1,0,0:0:0:0:
402,192,168560,1,0,0:0:0:0:
329,192,168640,1,0,0:0:0:0:
36,192,168640,1,0,0:0:0:0:
182,192,168640,1,0,0:0:0:0:
256,192,168640,1,0,0:0:0:0:
475,192,168720,1,0,0:0:0:0:
329,192,168800,1,0,0:0:0:0:
182,192,168880,1,0,0:0:0:0:
402,192,168880,1,0,0:0:0:0:
475,192,168960,1,0,0:0:0:0:
36,192,168960,1,0,0:0:0:0:
109,192,168960,1,0,0:0:0:0:
329,192,168960,1,0,0:0:0:0:
256,192,169040,1,0,0:0:0:0:
402,192,169120,1,0,0:0:0:0:
329,192,169200,1,0,0:0:0:0:
36,192,169200,1,0,0:0:0:0:
402,192,169280,1,0,0:0:0:0:
475,192,169280,1,0,0:0:0:0:
109,192,169280,1,0,0:0:0:0:
182,192,169280,1,0,0:0:0:0:
256,192,169360,1,0,0:0:0:0:
475,192,169440,1,0,0:0:0:0:
329,192,169440,1,0,0:0:0:0:
109,192,169520,1,0,0:0:0:0:
256,192,169520,1,0,0:0:0:0:
402,192,169600,1,0,0:0:0:0:
475,192,169600,1,0,0:0:0:0:
182,192,169600,1,0,0:0:0:0:
36,192,169600,1,0,0:0:0:0:
329,192,169680,1,0,0:0:0:0:
256,192,169760,1,0,0:0:0:0:
109,192,169840,1,0,0:0:0:0:
402,192,169840,1,0,0:0:0:0:
182,192,169920,1,0,0:0:0:0:
36,192,169920,1,0,0:0:0:0:
256,192,169920,1,0,0:0:0:0:
329,192,169920,1,0,0:0:0:0:
475,192,170000,1,0,0:0:0:0:
256,192,170080,1,0,0:0:0:0:
109,192,170160,1,0,0:0:0:0:
329,192,170160,1,0,0:0:0:0:
402,192,170240,1,0,0:0:0:0:
475,192,170240,1,0,0:0:0:0:
182,192,170240,1,0,0:0:0:0:
36,192,170240,1,0,0:0:0:0:
256,192,170320,1,0,0:0:0:0:
329,192,170400,1,0,0:0:0:0:
182,192,170480,1,0,0:0:0:0:
475,192,170480,1,0,0:0:0:0:
256,192,170560,1,0,0:0:0:0:
402,192,170560,1,0,0:0:0:0:
36,192,170560,1,0,0:0:0:0:
109,192,170560,1,0,0:0:0:0:
329,192,170640,1,0,0:0:0:0:
182,192,170720,1,0,0:0:0:0:
256,192,170720,1,0,0:0:0:0:
109,192,170800,1,0,0:0:0:0:
329,192,170800,1,0,0:0:0:0:
182,192,170880,1,0,0:0:0:0:
36,192,170880,1,0,0:0:0:0:
475,192,170880,1,0,0:0:0:0:
402,192,170880,1,0,0:0:0:0:
256,192,170960,1,0,0:0:0:0:
329,192,171040,1,0,0:0:0:0:
36,192,171120,1,0,0:0:0:0:
256,192,171120,1,0,0:0:0:0:
402,192,171200,1,0,0:0:0:0:
109,192,171200,1,0,0:0:0:0:
475,192,171200,1,0,0:0:0:0:
182,192,171200,1,0,0:0:0:0:
36,192,171280,1,0,0:0:0:0:
256,192,171360,1,0,0:0:0:0:
402,192,171360,1,0,0:0:0:0:
475,192,171360,1,0,0:0:0:0:
182,192,171440,1,0,0:0:0:0:
475,192,171520,1,0,0:0:0:0:
402,192,171520,1,0,0:0:0:0:
109,192,171520,1,0,0:0:0:0:
36,192,171520,1,0,0:0:0:0:
329,192,171520,1,0,0:0:0:0:
256,192,171600,1,0,0:0:0:0:
182,192,171680,1,0,0:0:0:0:
329,192,171760,1,0,0:0:0:0:
36,192,171760,1,0,0:0:0:0:
402,192,171840,1,0,0:0:0:0:
475,192,171840,1,0,0:0:0:0:
109,192,171840,1,0,0:0:0:0:
182,192,171840,1,0,0:0:0:0:
256,192,171920,1,0,0:0:0:0:
329,192,172000,1,0,0:0:0:0:
475,192,172080,1,0,0:0:0:0:
182,192,172080,1,0,0:0:0:0:
402,192,172160,1,0,0:0:0:0:
109,192,172160,1,0,0:0:0:0:
36,192,172160,1,0,0:0:0:0:
256,192,172160,1,0,0:0:0:0:
329,192,172240,1,0,0:0:0:0:
182,192,172320,1,0,0:0:0:0:
109,192,172400,1,0,0:0:0:0:
329,192,172400,1,0,0:0:0:0:
36,192,172480,1,0,0:0:0:0:
475,192,172480,1,0,0:0:0:0:
402,192,172480,1,0,0:0:0:0:
256,192,172480,1,0,0:0:0:0:
182,192,172560,1,0,0:0:0:0:
329,192,172640,1,0,0:0:0:0:
182,192,172720,1,0,0:0:0:0:
402,192,172720,1,0,0:0:0:0:
256,192,172800,1,0,0:0:0:0:
475,192,172800,1,0,0:0:0:0:
109,192,172800,1,0,0:0:0:0:
36,192,172800,1,0,0:0:0:0:
329,192,172880,1,0,0:0:0:0:
256,192,172960,1,0,0:0:0:0:
182,192,173040,1,0,0:0:0:0:
402,192,173040,1,0,0:0:0:0:
109,192,173120,1,0,0:0:0:0:
475,192,173120,1,0,0:0:0:0:
329,192,173120,1,0,0:0:0:0:
36,192,173120,1,0,0:0:0:0:
256,192,173200,1,0,0:0:0:0:
182,192,173280,1,0,0:0:0:0:
475,192,173280,1,0,0:0:0:0:
402,192,173280,1,0,0:0:0:0:
109,192,173360,1,0,0:0:0:0:
36,192,173440,1,0,0:0:0:0:
256,192,173440,1,0,0:0:0:0:
475,192,173440,1,0,0:0:0:0:
329,192,173440,1,0,0:0:0:0:
182,192,173520,1,0,0:0:0:0:
256,192,173600,1,0,0:0:0:0:
329,192,173680,1,0,0:0:0:0:
109,192,173680,1,0,0:0:0:0:
402,192,173760,1,0,0:0:0:0:
182,192,173760,1,0,0:0:0:0:
36,192,173760,1,0,0:0:0:0:
475,192,173760,1,0,0:0:0:0:
256,192,173840,1,0,0:0:0:0:
329,192,173920,1,0,0:0:0:0:
402,192,174000,1,0,0:0:0:0:
182,192,174000,1,0,0:0:0:0:
256,192,174080,1,0,0:0:0:0:
109,192,174080,1,0,0:0:0:0:
36,192,174080,1,0,0:0:0:0:
475,192,174160,1,0,0:0:0:0:
329,192,174160,1,0,0:0:0:0:
402,192,174160,1,0,0:0:0:0:
182,192,174240,1,0,0:0:0:0:
36,192,174240,1,0,0:0:0:0:
109,192,174240,1,0,0:0:0:0:
256,192,174320,1,0,0:0:0:0:
402,192,174320,1,0,0:0:0:0:
475,192,174320,1,0,0:0:0:0:
182,192,174400,1,0,0:0:0:0:
109,192,174400,1,0,0:0:0:0:
36,192,174400,1,0,0:0:0:0:
475,192,174480,1,0,0:0:0:0:
402,192,174480,1,0,0:0:0:0:
329,192,174480,1,0,0:0:0:0:
109,192,174560,1,0,0:0:0:0:
36,192,174560,1,0,0:0:0:0:
256,192,174560,1,0,0:0:0:0:
402,192,174640,1,0,0:0:0:0:
475,192,174640,1,0,0:0:0:0:
329,192,174640,1,0,0:0:0:0:
182,192,174720,1,0,0:0:0:0:
256,192,174720,1,0,0:0:0:0:
36,192,174720,1,0,0:0:0:0:
329,192,174800,1,0,0:0:0:0:
475,192,174800,1,0,0:0:0:0:
182,192,174880,1,0,0:0:0:0:
36,192,174880,1,0,0:0:0:0:
475,192,174960,1,0,0:0:0:0:
329,192,174960,1,0,0:0:0:0:
109,192,175040,1,0,0:0:0:0:
36,192,175040,1,0,0:0:0:0:
402,192,175120,1,0,0:0:0:0:
329,192,175120,1,0,0:0:0:0:
109,192,175200,1,0,0:0:0:0:
182,192,175200,1,0,0:0:0:0:
475,192,175280,1,0,0:0:0:0:
402,192,175280,1,0,0:0:0:0:
256,192,175360,1,0,0:0:0:0:
182,192,175400,1,0,0:0:0:0:
109,192,175440,1,0,0:0:0:0:
36,192,175480,1,0,0:0:0:0:
475,192,175520,1,0,0:0:0:0:
402,192,175560,1,0,0:0:0:0:
329,192,175600,1,0,0:0:0:0:
182,192,175640,1,0,0:0:0:0:
109,192,175680,1,0,0:0:0:0:
36,192,175720,1,0,0:0:0:0:
256,192,175760,1,0,0:0:0:0:
329,192,175800,1,0,0:0:0:0:
402,192,175840,1,0,0:0:0:0:
475,192,175866,1,0,0:0:0:0:
109,192,175893,1,0,0:0:0:0:
182,192,175946,1,0,0:0:0:0:
329,192,175973,1,0,0:0:0:0:
475,192,176000,1,0,0:0:0:0:
36,192,176053,1,0,0:0:0:0:
256,192,176080,1,0,0:0:0:0:
402,192,176106,1,0,0:0:0:0:
109,192,176160,1,0,0:0:0:0:
329,192,176186,1,0,0:0:0:0:
475,192,176213,1,0,0:0:0:0:
182,192,176266,1,0,0:0:0:0:
109,192,176293,1,0,0:0:0:0:
36,192,176320,1,0,0:0:0:0:
329,192,176373,1,0,0:0:0:0:
256,192,176400,1,0,0:0:0:0:
182,192,176426,1,0,0:0:0:0:
475,192,176480,1,0,0:0:0:0:
402,192,176506,1,0,0:0:0:0:
329,192,176533,1,0,0:0:0:0:
36,192,176560,1,0,0:0:0:0:
109,192,176586,1,0,0:0:0:0:
182,192,176613,1,0,0:0:0:0:
475,192,176640,1,0,0:0:0:0:
402,192,176640,1,0,0:0:0:0:
329,192,176640,1,0,0:0:0:0:
256,192,176640,1,0,0:0:0:0:
109,192,176720,1,0,0:0:0:0:
402,192,176800,1,0,0:0:0:0:
329,192,176800,1,0,0:0:0:0:
182,192,176800,1,0,0:0:0:0:
109,192,176880,1,0,0:0:0:0:
256,192,176960,1,0,0:0:0:0:
402,192,177040,1,0,0:0:0:0:
329,192,177040,1,0,0:0:0:0:
182,192,177040,1,0,0:0:0:0:
109,192,177120,1,0,0:0:0:0:
256,192,177200,1,0,0:0:0:0:
329,192,177280,1,0,0:0:0:0:
402,192,177280,1,0,0:0:0:0:
182,192,177280,1,0,0:0:0:0:
109,192,177360,1,0,0:0:0:0:
256,192,177440,1,0,0:0:0:0:
402,192,177520,1,0,0:0:0:0:
329,192,177520,1,0,0:0:0:0:
109,192,177520,1,0,0:0:0:0:
182,192,177600,1,0,0:0:0:0:
256,192,177600,1,0,0:0:0:0:
109,192,177680,1,0,0:0:0:0:
329,192,177760,1,0,0:0:0:0:
402,192,177760,1,0,0:0:0:0:
182,192,177840,1,0,0:0:0:0:
256,192,177840,1,0,0:0:0:0:
475,192,177920,1,0,0:0:0:0:
109,192,177920,1,0,0:0:0:0:
36,192,177920,1,0,0:0:0:0:
329,192,178000,1,0,0:0:0:0:
256,192,178080,1,0,0:0:0:0:
182,192,178080,1,0,0:0:0:0:
402,192,178080,1,0,0:0:0:0:
475,192,178160,1,0,0:0:0:0:
329,192,178240,1,0,0:0:0:0:
256,192,178320,1,0,0:0:0:0:
182,192,178320,1,0,0:0:0:0:
402,192,178320,1,0,0:0:0:0:
475,192,178400,1,0,0:0:0:0:
329,192,178480,1,0,0:0:0:0:
256,192,178560,1,0,0:0:0:0:
182,192,178560,1,0,0:0:0:0:
402,192,178560,1,0,0:0:0:0:
475,192,178640,1,0,0:0:0:0:
329,192,178720,1,0,0:0:0:0:
256,192,178800,1,0,0:0:0:0:
182,192,178800,1,0,0:0:0:0:
402,192,178800,1,0,0:0:0:0:
109,192,178880,1,0,0:0:0:0:
36,192,178880,1,0,0:0:0:0:
256,192,178960,1,0,0:0:0:0:
182,192,179040,1,0,0:0:0:0:
109,192,179040,1,0,0:0:0:0:
329,192,179120,1,0,0:0:0:0:
402,192,179120,1,0,0:0:0:0:
36,192,179200,1,0,0:0:0:0:
109,192,179200,1,0,0:0:0:0:
256,192,179200,1,0,0:0:0:0:
182,192,179280,1,0,0:0:0:0:
329,192,179360,1,0,0:0:0:0:
109,192,179360,1,0,0:0:0:0:
402,192,179360,1,0,0:0:0:0:
256,192,179440,1,0,0:0:0:0:
182,192,179520,1,0,0:0:0:0:
329,192,179600,1,0,0:0:0:0:
109,192,179600,1,0,0:0:0:0:
402,192,179600,1,0,0:0:0:0:
256,192,179680,1,0,0:0:0:0:
182,192,179760,1,0,0:0:0:0:
109,192,179840,1,0,0:0:0:0:
329,192,179840,1,0,0:0:0:0:
402,192,179840,1,0,0:0:0:0:
256,192,179920,1,0,0:0:0:0:
329,192,180000,1,0,0:0:0:0:
109,192,180000,1,0,0:0:0:0:
475,192,180000,1,0,0:0:0:0:
256,192,180080,1,0,0:0:0:0:
182,192,180080,1,0,0:0:0:0:
329,192,180160,1,0,0:0:0:0:
402,192,180160,1,0,0:0:0:0:
109,192,180240,1,0,0:0:0:0:
182,192,180240,1,0,0:0:0:0:
256,192,180320,1,0,0:0:0:0:
402,192,180320,1,0,0:0:0:0:
182,192,180400,1,0,0:0:0:0:
329,192,180400,1,0,0:0:0:0:
402,192,180480,1,0,0:0:0:0:
36,192,180480,1,0,0:0:0:0:
109,192,180480,1,0,0:0:0:0:
182,192,180560,1,0,0:0:0:0:
36,192,180640,1,0,0:0:0:0:
109,192,180640,1,0,0:0:0:0:
256,192,180640,1,0,0:0:0:0:
329,192,180720,1,0,0:0:0:0:
182,192,180800,1,0,0:0:0:0:
109,192,180880,1,0,0:0:0:0:
36,192,180880,1,0,0:0:0:0:
256,192,180880,1,0,0:0:0:0:
329,192,180960,1,0,0:0:0:0:
182,192,181040,1,0,0:0:0:0:
36,192,181120,1,0,0:0:0:0:
109,192,181120,1,0,0:0:0:0:
256,192,181120,1,0,0:0:0:0:
329,192,181200,1,0,0:0:0:0:
182,192,181280,1,0,0:0:0:0:
36,192,181360,1,0,0:0:0:0:
109,192,181360,1,0,0:0:0:0:
256,192,181360,1,0,0:0:0:0:
329,192,181440,1,0,0:0:0:0:
402,192,181440,1,0,0:0:0:0:
109,192,181520,1,0,0:0:0:0:
182,192,181520,1,0,0:0:0:0:
256,192,181600,1,0,0:0:0:0:
402,192,181600,1,0,0:0:0:0:
329,192,181680,1,0,0:0:0:0:
475,192,181680,1,0,0:0:0:0:
36,192,181760,1,0,0:0:0:0:
256,192,181760,1,0,0:0:0:0:
182,192,181760,1,0,0:0:0:0:
329,192,181840,1,0,0:0:0:0:
402,192,181920,1,0,0:0:0:0:
182,192,181920,1,0,0:0:0:0:
36,192,181920,1,0,0:0:0:0:
256,192,182000,1,0,0:0:0:0:
329,192,182080,1,0,0:0:0:0:
402,192,182160,1,0,0:0:0:0:
182,192,182160,1,0,0:0:0:0:
36,192,182160,1,0,0:0:0:0:
256,192,182240,1,0,0:0:0:0:
329,192,182320,1,0,0:0:0:0:
182,192,182400,1,0,0:0:0:0:
36,192,182400,1,0,0:0:0:0:
402,192,182400,1,0,0:0:0:0:
256,192,182480,1,0,0:0:0:0:
329,192,182560,1,0,0:0:0:0:
182,192,182640,1,0,0:0:0:0:
36,192,182640,1,0,0:0:0:0:
402,192,182640,1,0,0:0:0:0:
256,192,182720,1,0,0:0:0:0:
329,192,182720,1,0,0:0:0:0:
182,192,182800,1,0,0:0:0:0:
109,192,182800,1,0,0:0:0:0:
475,192,182880,1,0,0:0:0:0:
329,192,182880,1,0,0:0:0:0:
256,192,182960,1,0,0:0:0:0:
109,192,182960,1,0,0:0:0:0:
182,192,183040,1,0,0:0:0:0:
36,192,183040,1,0,0:0:0:0:
475,192,183040,1,0,0:0:0:0:
329,192,183120,1,0,0:0:0:0:
256,192,183200,1,0,0:0:0:0:
109,192,183200,1,0,0:0:0:0:
475,192,183280,1,0,0:0:0:0:
329,192,183360,1,0,0:0:0:0:
256,192,183440,1,0,0:0:0:0:
109,192,183440,1,0,0:0:0:0:
475,192,183520,1,0,0:0:0:0:
329,192,183600,1,0,0:0:0:0:
256,192,183680,1,0,0:0:0:0:
109,192,183680,1,0,0:0:0:0:
475,192,183760,1,0,0:0:0:0:
256,192,183840,1,0,0:0:0:0:
109,192,183840,1,0,0:0:0:0:
475,192,183920,1,0,0:0:0:0:
329,192,184000,1,0,0:0:0:0:
402,192,184000,1,0,0:0:0:0:
256,192,184080,1,0,0:0:0:0:
109,192,184080,1,0,0:0:0:0:
402,192,184160,1,0,0:0:0:0:
475,192,184160,1,0,0:0:0:0:
329,192,184240,1,0,0:0:0:0:
182,192,184240,1,0,0:0:0:0:
36,192,184320,1,0,0:0:0:0:
475,192,184320,1,0,0:0:0:0:
109,192,184320,1,0,0:0:0:0:
256,192,184400,1,0,0:0:0:0:
329,192,184480,1,0,0:0:0:0:
402,192,184480,1,0,0:0:0:0:
109,192,184560,1,0,0:0:0:0:
256,192,184640,1,0,0:0:0:0:
329,192,184720,1,0,0:0:0:0:
402,192,184720,1,0,0:0:0:0:
109,192,184800,1,0,0:0:0:0:
256,192,184880,1,0,0:0:0:0:
329,192,184960,1,0,0:0:0:0:
402,192,184960,1,0,0:0:0:0:
109,192,185040,1,0,0:0:0:0:
256,192,185120,1,0,0:0:0:0:
329,192,185200,1,0,0:0:0:0:
402,192,185200,1,0,0:0:0:0:
109,192,185280,1,0,0:0:0:0:
256,192,185360,1,0,0:0:0:0:
329,192,185440,1,0,0:0:0:0:
402,192,185440,1,0,0:0:0:0:
182,192,185520,1,0,0:0:0:0:
256,192,185520,1,0,0:0:0:0:
36,192,185600,1,0,0:0:0:0:
475,192,185600,1,0,0:0:0:0:
329,192,185680,1,0,0:0:0:0:
182,192,185760,1,0,0:0:0:0:
109,192,185760,1,0,0:0:0:0:
475,192,185840,1,0,0:0:0:0:
329,192,185920,1,0,0:0:0:0:
182,192,186000,1,0,0:0:0:0:
109,192,186000,1,0,0:0:0:0:
475,192,186080,1,0,0:0:0:0:
329,192,186160,1,0,0:0:0:0:
109,192,186240,1,0,0:0:0:0:
182,192,186240,1,0,0:0:0:0:
475,192,186320,1,0,0:0:0:0:
329,192,186400,1,0,0:0:0:0:
109,192,186480,1,0,0:0:0:0:
182,192,186480,1,0,0:0:0:0:
475,192,186560,1,0,0:0:0:0:
329,192,186640,1,0,0:0:0:0:
402,192,186640,1,0,0:0:0:0:
109,192,186720,1,0,0:0:0:0:
182,192,186720,1,0,0:0:0:0:
256,192,186800,1,0,0:0:0:0:
402,192,186800,1,0,0:0:0:0:
329,192,186880,1,0,0:0:0:0:
36,192,186880,1,0,0:0:0:0:
109,192,186880,1,0,0:0:0:0:
475,192,186880,1,0,0:0:0:0:
256,192,186960,1,0,0:0:0:0:
329,192,187040,1,0,0:0:0:0:
182,192,187120,1,0,0:0:0:0:
256,192,187200,1,0,0:0:0:0:
329,192,187280,1,0,0:0:0:0:
182,192,187360,1,0,0:0:0:0:
256,192,187440,1,0,0:0:0:0:
329,192,187520,1,0,0:0:0:0:
182,192,187600,1,0,0:0:0:0:
256,192,187680,1,0,0:0:0:0:
329,192,187760,1,0,0:0:0:0:
182,192,187840,1,0,0:0:0:0:
256,192,187920,1,0,0:0:0:0:
329,192,188000,1,0,0:0:0:0:
109,192,188000,1,0,0:0:0:0:
182,192,188080,1,0,0:0:0:0:
36,192,188160,1,0,0:0:0:0:
256,192,188160,1,0,0:0:0:0:
109,192,188240,1,0,0:0:0:0:
256,192,188320,1,0,0:0:0:0:
36,192,188400,1,0,0:0:0:0:
109,192,188480,1,0,0:0:0:0:
256,192,188560,1,0,0:0:0:0:
36,192,188640,1,0,0:0:0:0:
109,192,188720,1,0,0:0:0:0:
256,192,188800,1,0,0:0:0:0:
36,192,188880,1,0,0:0:0:0:
109,192,188960,1,0,0:0:0:0:
256,192,189040,1,0,0:0:0:0:
36,192,189120,1,0,0:0:0:0:
109,192,189200,1,0,0:0:0:0:
329,192,189200,1,0,0:0:0:0:
256,192,189280,1,0,0:0:0:0:
182,192,189360,1,0,0:0:0:0:
475,192,189360,1,0,0:0:0:0:
329,192,189440,1,0,0:0:0:0:
402,192,189440,1,0,0:0:0:0:
256,192,189520,1,0,0:0:0:0:
182,192,189600,1,0,0:0:0:0:
109,192,189600,1,0,0:0:0:0:
402,192,189680,1,0,0:0:0:0:
256,192,189760,1,0,0:0:0:0:
182,192,189840,1,0,0:0:0:0:
36,192,189840,1,0,0:0:0:0:
402,192,189920,1,0,0:0:0:0:
256,192,190000,1,0,0:0:0:0:
182,192,190080,1,0,0:0:0:0:
36,192,190080,1,0,0:0:0:0:
402,192,190160,1,0,0:0:0:0:
256,192,190240,1,0,0:0:0:0:
182,192,190320,1,0,0:0:0:0:
36,192,190320,1,0,0:0:0:0:
402,192,190400,1,0,0:0:0:0:
256,192,190480,1,0,0:0:0:0:
182,192,190560,1,0,0:0:0:0:
36,192,190560,1,0,0:0:0:0:
256,192,190640,1,0,0:0:0:0:
329,192,190640,1,0,0:0:0:0:
475,192,190720,1,0,0:0:0:0:
36,192,190720,1,0,0:0:0:0:
109,192,190720,1,0,0:0:0:0:
182,192,190800,1,0,0:0:0:0:
402,192,190880,1,0,0:0:0:0:
329,192,190880,1,0,0:0:0:0:
109,192,190960,1,0,0:0:0:0:
182,192,191040,1,0,0:0:0:0:
329,192,191120,1,0,0:0:0:0:
402,192,191120,1,0,0:0:0:0:
109,192,191200,1,0,0:0:0:0:
182,192,191280,1,0,0:0:0:0:
329,192,191360,1,0,0:0:0:0:
402,192,191360,1,0,0:0:0:0:
109,192,191440,1,0,0:0:0:0:
182,192,191520,1,0,0:0:0:0:
329,192,191600,1,0,0:0:0:0:
402,192,191600,1,0,0:0:0:0:
109,192,191680,1,0,0:0:0:0:
182,192,191760,1,0,0:0:0:0:
329,192,191840,1,0,0:0:0:0:
402,192,191840,1,0,0:0:0:0:
256,192,191920,1,0,0:0:0:0:
109,192,191920,1,0,0:0:0:0:
182,192,192000,1,0,0:0:0:0:
36,192,192000,1,0,0:0:0:0:
475,192,192000,1,0,0:0:0:0:
402,192,192080,1,0,0:0:0:0:
329,192,192160,1,0,0:0:0:0:
182,192,192160,1,0,0:0:0:0:
475,192,192240,1,0,0:0:0:0:
109,192,192240,1,0,0:0:0:0:
402,192,192320,1,0,0:0:0:0:
256,192,192320,1,0,0:0:0:0:
329,192,192400,1,0,0:0:0:0:
182,192,192400,1,0,0:0:0:0:
475,192,192480,1,0,0:0:0:0:
109,192,192480,1,0,0:0:0:0:
402,192,192560,1,0,0:0:0:0:
256,192,192560,1,0,0:0:0:0:
329,192,192640,1,0,0:0:0:0:
182,192,192640,1,0,0:0:0:0:
475,192,192720,1,0,0:0:0:0:
109,192,192720,1,0,0:0:0:0:
402,192,192800,1,0,0:0:0:0:
256,192,192800,1,0,0:0:0:0:
329,192,192880,1,0,0:0:0:0:
182,192,192880,1,0,0:0:0:0:
475,192,192960,1,0,0:0:0:0:
109,192,192960,1,0,0:0:0:0:
256,192,193040,1,0,0:0:0:0:
36,192,193040,1,0,0:0:0:0:
182,192,193120,1,0,0:0:0:0:
329,192,193120,1,0,0:0:0:0:
402,192,193200,1,0,0:0:0:0:
36,192,193200,1,0,0:0:0:0:
475,192,193280,1,0,0:0:0:0:
109,192,193280,1,0,0:0:0:0:
256,192,193280,1,0,0:0:0:0:
182,192,193360,1,0,0:0:0:0:
256,192,193440,1,0,0:0:0:0:
402,192,193440,1,0,0:0:0:0:
109,192,193520,1,0,0:0:0:0:
329,192,193520,1,0,0:0:0:0:
182,192,193600,1,0,0:0:0:0:
36,192,193600,1,0,0:0:0:0:
402,192,193680,1,0,0:0:0:0:
256,192,193680,1,0,0:0:0:0:
329,192,193760,1,0,0:0:0:0:
109,192,193760,1,0,0:0:0:0:
182,192,193840,1,0,0:0:0:0:
36,192,193840,1,0,0:0:0:0:
256,192,193920,1,0,0:0:0:0:
402,192,193920,1,0,0:0:0:0:
329,192,194000,1,0,0:0:0:0:
109,192,194000,1,0,0:0:0:0:
182,192,194080,1,0,0:0:0:0:
36,192,194080,1,0,0:0:0:0:
256,192,194160,1,0,0:0:0:0:
402,192,194160,1,0,0:0:0:0:
329,192,194240,1,0,0:0:0:0:
109,192,194240,1,0,0:0:0:0:
182,192,194320,1,0,0:0:0:0:
36,192,194320,1,0,0:0:0:0:
402,192,194320,1,0,0:0:0:0:
475,192,194400,1,0,0:0:0:0:
256,192,194400,1,0,0:0:0:0:
402,192,194480,1,0,0:0:0:0:
109,192,194480,1,0,0:0:0:0:
329,192,194560,1,0,0:0:0:0:
36,192,194560,1,0,0:0:0:0:
256,192,194560,1,0,0:0:0:0:
182,192,194640,1,0,0:0:0:0:
109,192,194720,1,0,0:0:0:0:
329,192,194720,1,0,0:0:0:0:
475,192,194720,1,0,0:0:0:0:
256,192,194800,1,0,0:0:0:0:
402,192,194800,1,0,0:0:0:0:
182,192,194880,1,0,0:0:0:0:
36,192,194880,1,0,0:0:0:0:
109,192,194960,1,0,0:0:0:0:
329,192,194960,1,0,0:0:0:0:
475,192,194960,1,0,0:0:0:0:
256,192,195040,1,0,0:0:0:0:
402,192,195040,1,0,0:0:0:0:
182,192,195120,1,0,0:0:0:0:
36,192,195120,1,0,0:0:0:0:
109,192,195200,1,0,0:0:0:0:
329,192,195200,1,0,0:0:0:0:
475,192,195200,1,0,0:0:0:0:
256,192,195280,1,0,0:0:0:0:
402,192,195280,1,0,0:0:0:0:
182,192,195360,1,0,0:0:0:0:
36,192,195360,1,0,0:0:0:0:
109,192,195440,1,0,0:0:0:0:
329,192,195440,1,0,0:0:0:0:
475,192,195440,1,0,0:0:0:0:
182,192,195520,1,0,0:0:0:0:
402,192,195520,1,0,0:0:0:0:
256,192,195600,1,0,0:0:0:0:
109,192,195600,1,0,0:0:0:0:
182,192,195680,1,0,0:0:0:0:
475,192,195680,1,0,0:0:0:0:
36,192,195680,1,0,0:0:0:0:
329,192,195760,1,0,0:0:0:0:
109,192,195840,1,0,0:0:0:0:
475,192,195840,1,0,0:0:0:0:
256,192,195840,1,0,0:0:0:0:
36,192,195920,1,0,0:0:0:0:
402,192,195920,1,0,0:0:0:0:
329,192,196000,1,0,0:0:0:0:
475,192,196000,1,0,0:0:0:0:
182,192,196000,1,0,0:0:0:0:
256,192,196080,1,0,0:0:0:0:
36,192,196080,1,0,0:0:0:0:
402,192,196160,1,0,0:0:0:0:
109,192,196160,1,0,0:0:0:0:
182,192,196240,1,0,0:0:0:0:
329,192,196240,1,0,0:0:0:0:
475,192,196240,1,0,0:0:0:0:
36,192,196320,1,0,0:0:0:0:
256,192,196320,1,0,0:0:0:0:
402,192,196400,1,0,0:0:0:0:
109,192,196400,1,0,0:0:0:0:
182,192,196480,1,0,0:0:0:0:
329,192,196480,1,0,0:0:0:0:
475,192,196480,1,0,0:0:0:0:
256,192,196560,1,0,0:0:0:0:
36,192,196560,1,0,0:0:0:0:
109,192,196640,1,0,0:0:0:0:
402,192,196640,1,0,0:0:0:0:
182,192,196720,1,0,0:0:0:0:
329,192,196720,1,0,0:0:0:0:
475,192,196720,1,0,0:0:0:0:
36,192,196800,1,0,0:0:0:0:
256,192,196800,1,0,0:0:0:0:
109,192,196880,1,0,0:0:0:0:
402,192,196880,1,0,0:0:0:0:
182,192,196960,1,0,0:0:0:0:
329,192,196960,1,0,0:0:0:0:
402,192,197040,1,0,0:0:0:0:
36,192,197040,1,0,0:0:0:0:
256,192,197040,1,0,0:0:0:0:
109,192,197120,1,0,0:0:0:0:
182,192,197120,1,0,0:0:0:0:
475,192,197120,1,0,0:0:0:0:
329,192,197200,1,0,0:0:0:0:
256,192,197280,1,0,0:0:0:0:
109,192,197280,1,0,0:0:0:0:
402,192,197280,1,0,0:0:0:0:
475,192,197360,1,0,0:0:0:0:
329,192,197440,1,0,0:0:0:0:
402,192,197520,1,0,0:0:0:0:
256,192,197520,1,0,0:0:0:0:
109,192,197520,1,0,0:0:0:0:
475,192,197600,1,0,0:0:0:0:
329,192,197680,1,0,0:0:0:0:
109,192,197760,1,0,0:0:0:0:
256,192,197760,1,0,0:0:0:0:
402,192,197760,1,0,0:0:0:0:
475,192,197840,1,0,0:0:0:0:
329,192,197920,1,0,0:0:0:0:
109,192,198000,1,0,0:0:0:0:
256,192,198000,1,0,0:0:0:0:
402,192,198000,1,0,0:0:0:0:
475,192,198080,1,0,0:0:0:0:
36,192,198080,1,0,0:0:0:0:
329,192,198160,1,0,0:0:0:0:
256,192,198240,1,0,0:0:0:0:
109,192,198240,1,0,0:0:0:0:
475,192,198240,1,0,0:0:0:0:
182,192,198320,1,0,0:0:0:0:
402,192,198320,1,0,0:0:0:0:
256,192,198400,1,0,0:0:0:0:
36,192,198400,1,0,0:0:0:0:
475,192,198400,1,0,0:0:0:0:
182,192,198480,1,0,0:0:0:0:
109,192,198560,1,0,0:0:0:0:
402,192,198560,1,0,0:0:0:0:
256,192,198560,1,0,0:0:0:0:
36,192,198640,1,0,0:0:0:0:
182,192,198720,1,0,0:0:0:0:
109,192,198800,1,0,0:0:0:0:
256,192,198800,1,0,0:0:0:0:
402,192,198800,1,0,0:0:0:0:
36,192,198880,1,0,0:0:0:0:
182,192,198960,1,0,0:0:0:0:
109,192,199040,1,0,0:0:0:0:
256,192,199040,1,0,0:0:0:0:
402,192,199040,1,0,0:0:0:0:
36,192,199120,1,0,0:0:0:0:
182,192,199200,1,0,0:0:0:0:
109,192,199280,1,0,0:0:0:0:
256,192,199280,1,0,0:0:0:0:
402,192,199280,1,0,0:0:0:0:
36,192,199360,1,0,0:0:0:0:
475,192,199360,1,0,0:0:0:0:
182,192,199440,1,0,0:0:0:0:
329,192,199520,1,0,0:0:0:0:
109,192,199520,1,0,0:0:0:0:
402,192,199520,1,0,0:0:0:0:
256,192,199600,1,0,0:0:0:0:
182,192,199600,1,0,0:0:0:0:
36,192,199680,1,0,0:0:0:0:
329,192,199680,1,0,0:0:0:0:
475,192,199680,1,0,0:0:0:0:
109,192,199680,1,0,0:0:0:0:
182,192,199760,1,0,0:0:0:0:
475,192,199840,1,0,0:0:0:0:
256,192,199840,1,0,0:0:0:0:
109,192,199840,1,0,0:0:0:0:
329,192,199920,1,0,0:0:0:0:
402,192,200000,1,0,0:0:0:0:
109,192,200080,1,0,0:0:0:0:
256,192,200080,1,0,0:0:0:0:
475,192,200080,1,0,0:0:0:0:
329,192,200160,1,0,0:0:0:0:
402,192,200240,1,0,0:0:0:0:
256,192,200320,1,0,0:0:0:0:
109,192,200320,1,0,0:0:0:0:
475,192,200320,1,0,0:0:0:0:
329,192,200400,1,0,0:0:0:0:
402,192,200480,1,0,0:0:0:0:
109,192,200560,1,0,0:0:0:0:
256,192,200560,1,0,0:0:0:0:
475,192,200560,1,0,0:0:0:0:
329,192,200640,1,0,0:0:0:0:
402,192,200720,1,0,0:0:0:0:
109,192,200800,1,0,0:0:0:0:
256,192,200800,1,0,0:0:0:0:
475,192,200800,1,0,0:0:0:0:
182,192,200880,1,0,0:0:0:0:
329,192,200880,1,0,0:0:0:0:
256,192,200960,1,0,0:0:0:0:
36,192,200960,1,0,0:0:0:0:
475,192,200960,1,0,0:0:0:0:
402,192,200960,1,0,0:0:0:0:
109,192,201040,1,0,0:0:0:0:
182,192,201120,1,0,0:0:0:0:
256,192,201200,1,0,0:0:0:0:
36,192,201200,1,0,0:0:0:0:
402,192,201200,1,0,0:0:0:0:
109,192,201280,1,0,0:0:0:0:
182,192,201360,1,0,0:0:0:0:
256,192,201440,1,0,0:0:0:0:
402,192,201440,1,0,0:0:0:0:
36,192,201440,1,0,0:0:0:0:
109,192,201520,1,0,0:0:0:0:
182,192,201600,1,0,0:0:0:0:
256,192,201680,1,0,0:0:0:0:
36,192,201680,1,0,0:0:0:0:
402,192,201680,1,0,0:0:0:0:
109,192,201760,1,0,0:0:0:0:
182,192,201840,1,0,0:0:0:0:
256,192,201920,1,0,0:0:0:0:
36,192,201920,1,0,0:0:0:0:
402,192,201920,1,0,0:0:0:0:
182,192,202000,1,0,0:0:0:0:
109,192,202080,1,0,0:0:0:0:
329,192,202080,1,0,0:0:0:0:
475,192,202080,1,0,0:0:0:0:
256,192,202160,1,0,0:0:0:0:
402,192,202160,1,0,0:0:0:0:
182,192,202240,1,0,0:0:0:0:
36,192,202240,1,0,0:0:0:0:
475,192,202240,1,0,0:0:0:0:
109,192,202240,1,0,0:0:0:0:
329,192,202320,1,0,0:0:0:0:
402,192,202400,1,0,0:0:0:0:
256,192,202480,1,0,0:0:0:0:
109,192,202480,1,0,0:0:0:0:
475,192,202480,1,0,0:0:0:0:
329,192,202560,1,0,0:0:0:0:
182,192,202640,1,0,0:0:0:0:
256,192,202720,1,0,0:0:0:0:
36,192,202720,1,0,0:0:0:0:
402,192,202720,1,0,0:0:0:0:
109,192,202800,1,0,0:0:0:0:
329,192,202880,1,0,0:0:0:0:
182,192,202960,1,0,0:0:0:0:
36,192,202960,1,0,0:0:0:0:
402,192,202960,1,0,0:0:0:0:
256,192,203040,1,0,0:0:0:0:
109,192,203120,1,0,0:0:0:0:
329,192,203200,1,0,0:0:0:0:
475,192,203200,1,0,0:0:0:0:
182,192,203200,1,0,0:0:0:0:
256,192,203280,1,0,0:0:0:0:
36,192,203360,1,0,0:0:0:0:
109,192,203360,1,0,0:0:0:0:
402,192,203360,1,0,0:0:0:0:
182,192,203440,1,0,0:0:0:0:
475,192,203520,1,0,0:0:0:0:
36,192,203520,1,0,0:0:0:0:
329,192,203520,1,0,0:0:0:0:
256,192,203600,1,0,0:0:0:0:
109,192,203680,1,0,0:0:0:0:
182,192,203760,1,0,0:0:0:0:
402,192,203760,1,0,0:0:0:0:
36,192,203760,1,0,0:0:0:0:
256,192,203840,1,0,0:0:0:0:
36,192,203920,1,0,0:0:0:0:
109,192,204000,1,0,0:0:0:0:
329,192,204000,1,0,0:0:0:0:
475,192,204000,1,0,0:0:0:0:
256,192,204080,1,0,0:0:0:0:
182,192,204160,1,0,0:0:0:0:
36,192,204240,1,0,0:0:0:0:
109,192,204240,1,0,0:0:0:0:
402,192,204240,1,0,0:0:0:0:
256,192,204320,1,0,0:0:0:0:
182,192,204400,1,0,0:0:0:0:
36,192,204480,1,0,0:0:0:0:
329,192,204480,1,0,0:0:0:0:
475,192,204480,1,0,0:0:0:0:
256,192,204560,1,0,0:0:0:0:
109,192,204640,1,0,0:0:0:0:
402,192,204640,1,0,0:0:0:0:
182,192,204720,1,0,0:0:0:0:
256,192,204800,1,0,0:0:0:0:
475,192,204800,1,0,0:0:0:0:
36,192,204800,1,0,0:0:0:0:
109,192,204880,1,0,0:0:0:0:
329,192,204960,1,0,0:0:0:0:
182,192,205040,1,0,0:0:0:0:
402,192,205040,1,0,0:0:0:0:
475,192,205040,1,0,0:0:0:0:
109,192,205120,1,0,0:0:0:0:
329,192,205200,1,0,0:0:0:0:
182,192,205280,1,0,0:0:0:0:
402,192,205280,1,0,0:0:0:0:
475,192,205280,1,0,0:0:0:0:
109,192,205360,1,0,0:0:0:0:
256,192,205440,1,0,0:0:0:0:
475,192,205520,1,0,0:0:0:0:
182,192,205520,1,0,0:0:0:0:
329,192,205520,1,0,0:0:0:0:
109,192,205600,1,0,0:0:0:0:
256,192,205680,1,0,0:0:0:0:
475,192,205760,1,0,0:0:0:0:
182,192,205760,1,0,0:0:0:0:
402,192,205760,1,0,0:0:0:0:
329,192,205840,1,0,0:0:0:0:
109,192,205920,1,0,0:0:0:0:
256,192,205920,1,0,0:0:0:0:
36,192,206000,1,0,0:0:0:0:
182,192,206080,1,0,0:0:0:0:
475,192,206080,1,0,0:0:0:0:
329,192,206080,1,0,0:0:0:0:
256,192,206160,1,0,0:0:0:0:
109,192,206240,1,0,0:0:0:0:
329,192,206240,1,0,0:0:0:0:
475,192,206240,1,0,0:0:0:0:
182,192,206320,1,0,0:0:0:0:
36,192,206400,1,0,0:0:0:0:
402,192,206480,1,0,0:0:0:0:
475,192,206480,1,0,0:0:0:0:
182,192,206480,1,0,0:0:0:0:
329,192,206560,1,0,0:0:0:0:
36,192,206640,1,0,0:0:0:0:
256,192,206720,1,0,0:0:0:0:
402,192,206720,1,0,0:0:0:0:
475,192,206720,1,0,0:0:0:0:
109,192,206800,1,0,0:0:0:0:
36,192,206880,1,0,0:0:0:0:
256,192,206960,1,0,0:0:0:0:
475,192,206960,1,0,0:0:0:0:
329,192,206960,1,0,0:0:0:0:
109,192,207040,1,0,0:0:0:0:
182,192,207120,1,0,0:0:0:0:
36,192,207200,1,0,0:0:0:0:
329,192,207200,1,0,0:0:0:0:
475,192,207200,1,0,0:0:0:0:
109,192,207280,1,0,0:0:0:0:
402,192,207360,1,0,0:0:0:0:
475,192,207360,1,0,0:0:0:0:
36,192,207360,1,0,0:0:0:0:
256,192,207360,1,0,0:0:0:0:
182,192,207440,1,0,0:0:0:0:
256,192,207520,1,0,0:0:0:0:
475,192,207520,1,0,0:0:0:0:
36,192,207520,1,0,0:0:0:0:
329,192,207600,1,0,0:0:0:0:
182,192,207680,1,0,0:0:0:0:
256,192,207760,1,0,0:0:0:0:
475,192,207760,1,0,0:0:0:0:
36,192,207760,1,0,0:0:0:0:
329,192,207840,1,0,0:0:0:0:
182,192,207920,1,0,0:0:0:0:
256,192,208000,1,0,0:0:0:0:
475,192,208000,1,0,0:0:0:0:
36,192,208000,1,0,0:0:0:0:
329,192,208080,1,0,0:0:0:0:
109,192,208160,1,0,0:0:0:0:
182,192,208240,1,0,0:0:0:0:
36,192,208240,1,0,0:0:0:0:
402,192,208240,1,0,0:0:0:0:
256,192,208320,1,0,0:0:0:0:
109,192,208400,1,0,0:0:0:0:
182,192,208480,1,0,0:0:0:0:
36,192,208480,1,0,0:0:0:0:
329,192,208480,1,0,0:0:0:0:
256,192,208560,1,0,0:0:0:0:
475,192,208640,1,0,0:0:0:0:
109,192,208640,1,0,0:0:0:0:
36,192,208640,1,0,0:0:0:0:
402,192,208720,1,0,0:0:0:0:
329,192,208800,1,0,0:0:0:0:
182,192,208800,1,0,0:0:0:0:
36,192,208800,1,0,0:0:0:0:
475,192,208880,1,0,0:0:0:0:
256,192,208960,1,0,0:0:0:0:
182,192,209040,1,0,0:0:0:0:
36,192,209040,1,0,0:0:0:0:
329,192,209040,1,0,0:0:0:0:
475,192,209120,1,0,0:0:0:0:
329,192,209200,1,0,0:0:0:0:
36,192,209280,1,0,0:0:0:0:
256,192,209280,1,0,0:0:0:0:
402,192,209280,1,0,0:0:0:0:
109,192,209280,1,0,0:0:0:0:
182,192,209360,1,0,0:0:0:0:
256,192,209440,1,0,0:0:0:0:
402,192,209440,1,0,0:0:0:0:
475,192,209440,1,0,0:0:0:0:
109,192,209520,1,0,0:0:0:0:
475,192,209600,1,0,0:0:0:0:
329,192,209600,1,0,0:0:0:0:
182,192,209600,1,0,0:0:0:0:
36,192,209600,1,0,0:0:0:0:
256,192,209680,1,0,0:0:0:0:
36,192,209760,1,0,0:0:0:0:
109,192,209760,1,0,0:0:0:0:
475,192,209760,1,0,0:0:0:0:
402,192,209760,1,0,0:0:0:0:
256,192,209840,1,0,0:0:0:0:
109,192,209920,1,0,0:0:0:0:
36,192,209920,1,0,0:0:0:0:
402,192,209920,1,0,0:0:0:0:
475,192,209920,1,0,0:0:0:0:
329,192,209920,1,0,0:0:0:0:
182,192,210000,1,0,0:0:0:0:
256,192,210000,1,0,0:0:0:0:
329,192,210080,1,0,0:0:0:0:
402,192,210080,1,0,0:0:0:0:
475,192,210080,1,0,0:0:0:0:
36,192,210080,1,0,0:0:0:0:
109,192,210160,1,0,0:0:0:0:
182,192,210160,1,0,0:0:0:0:
329,192,210240,1,0,0:0:0:0:
402,192,210240,1,0,0:0:0:0:
475,192,210240,1,0,0:0:0:0:
256,192,210240,1,0,0:0:0:0:
36,192,210320,1,0,0:0:0:0:
182,192,210320,1,0,0:0:0:0:
329,192,210400,1,0,0:0:0:0:
475,192,210400,1,0,0:0:0:0:
402,192,210400,1,0,0:0:0:0:
109,192,210400,1,0,0:0:0:0:
182,192,210480,1,0,0:0:0:0:
36,192,210480,1,0,0:0:0:0:
256,192,210560,1,0,0:0:0:0:
402,192,210560,1,0,0:0:0:0:
475,192,210560,1,0,0:0:0:0:
329,192,210560,1,0,0:0:0:0:
109,192,210640,1,0,0:0:0:0:
182,192,210640,1,0,0:0:0:0:
402,192,210720,1,0,0:0:0:0:
475,192,210720,1,0,0:0:0:0:
256,192,210720,1,0,0:0:0:0:
36,192,210720,1,0,0:0:0:0:
109,192,210800,1,0,0:0:0:0:
182,192,210800,1,0,0:0:0:0:
402,192,210880,1,0,0:0:0:0:
475,192,210880,1,0,0:0:0:0:
329,192,210880,1,0,0:0:0:0:
256,192,210880,1,0,0:0:0:0:
36,192,210960,1,0,0:0:0:0:
109,192,210960,1,0,0:0:0:0:
182,192,211040,1,0,0:0:0:0:
256,192,211040,1,0,0:0:0:0:
402,192,211040,1,0,0:0:0:0:
475,192,211040,1,0,0:0:0:0:
36,192,211120,1,0,0:0:0:0:
109,192,211120,1,0,0:0:0:0:
182,192,211200,1,0,0:0:0:0:
256,192,211200,1,0,0:0:0:0:
329,192,211200,1,0,0:0:0:0:
402,192,211200,1,0,0:0:0:0:
475,192,211200,1,0,0:0:0:0:
109,192,211280,1,0,0:0:0:0:
36,192,211280,1,0,0:0:0:0:
402,192,211360,1,0,0:0:0:0:
475,192,211360,1,0,0:0:0:0:
329,192,211360,1,0,0:0:0:0:
256,192,211440,1,0,0:0:0:0:
182,192,211440,1,0,0:0:0:0:
36,192,211520,1,0,0:0:0:0:
109,192,211520,1,0,0:0:0:0:
475,192,211520,1,0,0:0:0:0:
329,192,211520,1,0,0:0:0:0:
402,192,211600,1,0,0:0:0:0:
256,192,211600,1,0,0:0:0:0:
182,192,211680,1,0,0:0:0:0:
36,192,211680,1,0,0:0:0:0:
109,192,211680,1,0,0:0:0:0:
475,192,211680,1,0,0:0:0:0:
329,192,211760,1,0,0:0:0:0:
402,192,211760,1,0,0:0:0:0:
475,192,211840,1,0,0:0:0:0:
256,192,211840,1,0,0:0:0:0:
109,192,211840,1,0,0:0:0:0:
36,192,211840,1,0,0:0:0:0:
182,192,211840,1,0,0:0:0:0:
329,192,211920,1,0,0:0:0:0:
402,192,211920,1,0,0:0:0:0:
109,192,212000,1,0,0:0:0:0:
36,192,212000,1,0,0:0:0:0:
475,192,212000,1,0,0:0:0:0:
182,192,212000,1,0,0:0:0:0:
402,192,212080,1,0,0:0:0:0:
329,192,212080,1,0,0:0:0:0:
109,192,212160,1,0,0:0:0:0:
36,192,212160,1,0,0:0:0:0:
182,192,212160,1,0,0:0:0:0:
256,192,212160,1,0,0:0:0:0:
475,192,212240,1,0,0:0:0:0:
329,192,212240,1,0,0:0:0:0:
402,192,212320,1,0,0:0:0:0:
256,192,212320,1,0,0:0:0:0:
109,192,212320,1,0,0:0:0:0:
36,192,212320,1,0,0:0:0:0:
329,192,212400,1,0,0:0:0:0:
475,192,212400,1,0,0:0:0:0:
109,192,212480,1,0,0:0:0:0:
36,192,212480,1,0,0:0:0:0:
182,192,212480,1,0,0:0:0:0:
256,192,212480,1,0,0:0:0:0:
402,192,212560,1,0,0:0:0:0:
329,192,212560,1,0,0:0:0:0:
475,192,212640,1,0,0:0:0:0:
36,192,212640,1,0,0:0:0:0:
109,192,212640,1,0,0:0:0:0:
256,192,212640,1,0,0:0:0:0:
182,192,212720,1,0,0:0:0:0:
329,192,212720,1,0,0:0:0:0:
256,192,212800,1,0,0:0:0:0:
402,192,212800,1,0,0:0:0:0:
475,192,212800,1,0,0:0:0:0:
36,192,212800,1,0,0:0:0:0:
109,192,212880,1,0,0:0:0:0:
182,192,212880,1,0,0:0:0:0:
402,192,212960,1,0,0:0:0:0:
475,192,212960,1,0,0:0:0:0:
329,192,212960,1,0,0:0:0:0:
36,192,212960,1,0,0:0:0:0:
109,192,213040,1,0,0:0:0:0:
256,192,213040,1,0,0:0:0:0:
182,192,213120,1,0,0:0:0:0:
402,192,213120,1,0,0:0:0:0:
475,192,213120,1,0,0:0:0:0:
329,192,213120,1,0,0:0:0:0:
36,192,213200,1,0,0:0:0:0:
109,192,213200,1,0,0:0:0:0:
256,192,213280,1,0,0:0:0:0:
329,192,213280,1,0,0:0:0:0:
402,192,213280,1,0,0:0:0:0:
475,192,213280,1,0,0:0:0:0:
182,192,213360,1,0,0:0:0:0:
109,192,213360,1,0,0:0:0:0:
36,192,213440,1,0,0:0:0:0:
256,192,213440,1,0,0:0:0:0:
402,192,213440,1,0,0:0:0:0:
475,192,213440,1,0,0:0:0:0:
182,192,213520,1,0,0:0:0:0:
109,192,213520,1,0,0:0:0:0:
475,192,213600,1,0,0:0:0:0:
256,192,213600,1,0,0:0:0:0:
329,192,213600,1,0,0:0:0:0:
402,192,213600,1,0,0:0:0:0:
182,192,213680,1,0,0:0:0:0:
36,192,213680,1,0,0:0:0:0:
402,192,213760,1,0,0:0:0:0:
475,192,213760,1,0,0:0:0:0:
329,192,213760,1,0,0:0:0:0:
109,192,213760,1,0,0:0:0:0:
256,192,213760,1,0,0:0:0:0:
36,192,213840,1,0,0:0:0:0:
182,192,213840,1,0,0:0:0:0:
256,192,213920,1,0,0:0:0:0:
329,192,213920,1,0,0:0:0:0:
402,192,213920,1,0,0:0:0:0:
475,192,213920,1,0,0:0:0:0:
182,192,214000,1,0,0:0:0:0:
109,192,214000,1,0,0:0:0:0:
36,192,214080,1,0,0:0:0:0:
402,192,214080,1,0,0:0:0:0:
475,192,214080,1,0,0:0:0:0:
256,192,214080,1,0,0:0:0:0:
329,192,214160,1,0,0:0:0:0:
182,192,214160,1,0,0:0:0:0:
256,192,214240,1,0,0:0:0:0:
109,192,214240,1,0,0:0:0:0:
36,192,214240,1,0,0:0:0:0:
475,192,214240,1,0,0:0:0:0:
402,192,214320,1,0,0:0:0:0:
329,192,214320,1,0,0:0:0:0:
256,192,214400,1,0,0:0:0:0:
182,192,214400,1,0,0:0:0:0:
109,192,214400,1,0,0:0:0:0:
36,192,214400,1,0,0:0:0:0:
475,192,214480,1,0,0:0:0:0:
329,192,214480,1,0,0:0:0:0:
402,192,214560,1,0,0:0:0:0:
182,192,214560,1,0,0:0:0:0:
36,192,214560,1,0,0:0:0:0:
109,192,214560,1,0,0:0:0:0:
329,192,214640,1,0,0:0:0:0:
256,192,214640,1,0,0:0:0:0:
402,192,214720,1,0,0:0:0:0:
475,192,214720,1,0,0:0:0:0:
182,192,214720,1,0,0:0:0:0:
109,192,214720,1,0,0:0:0:0:
36,192,214720,1,0,0:0:0:0:
256,192,214800,1,0,0:0:0:0:
329,192,214800,1,0,0:0:0:0:
402,192,214880,1,0,0:0:0:0:
475,192,214880,1,0,0:0:0:0:
109,192,214880,1,0,0:0:0:0:
36,192,214880,1,0,0:0:0:0:
182,192,214960,1,0,0:0:0:0:
256,192,214960,1,0,0:0:0:0:
329,192,215040,1,0,0:0:0:0:
402,192,215040,1,0,0:0:0:0:
475,192,215040,1,0,0:0:0:0:
109,192,215040,1,0,0:0:0:0:
36,192,215040,1,0,0:0:0:0:
182,192,215120,1,0,0:0:0:0:
256,192,215120,1,0,0:0:0:0:
329,192,215200,1,0,0:0:0:0:
402,192,215200,1,0,0:0:0:0:
475,192,215200,1,0,0:0:0:0:
36,192,215200,1,0,0:0:0:0:
109,192,215280,1,0,0:0:0:0:
182,192,215280,1,0,0:0:0:0:
256,192,215360,1,0,0:0:0:0:
402,192,215360,1,0,0:0:0:0:
475,192,215360,1,0,0:0:0:0:
329,192,215360,1,0,0:0:0:0:
36,192,215440,1,0,0:0:0:0:
182,192,215440,1,0,0:0:0:0:
109,192,215520,1,0,0:0:0:0:
329,192,215520,1,0,0:0:0:0:
402,192,215520,1,0,0:0:0:0:
475,192,215520,1,0,0:0:0:0:
182,192,215600,1,0,0:0:0:0:
256,192,215600,1,0,0:0:0:0:
36,192,215680,1,0,0:0:0:0:
109,192,215680,1,0,0:0:0:0:
402,192,215680,1,0,0:0:0:0:
475,192,215680,1,0,0:0:0:0:
182,192,215760,1,0,0:0:0:0:
256,192,215760,1,0,0:0:0:0:
329,192,215840,1,0,0:0:0:0:
402,192,215840,1,0,0:0:0:0:
475,192,215840,1,0,0:0:0:0:
36,192,215840,1,0,0:0:0:0:
109,192,215920,1,0,0:0:0:0:
182,192,215920,1,0,0:0:0:0:
256,192,216000,1,0,0:0:0:0:
402,192,216000,1,0,0:0:0:0:
475,192,216000,1,0,0:0:0:0:
329,192,216000,1,0,0:0:0:0:
36,192,216080,1,0,0:0:0:0:
182,192,216080,1,0,0:0:0:0:
402,192,216160,1,0,0:0:0:0:
475,192,216160,1,0,0:0:0:0:
256,192,216160,1,0,0:0:0:0:
109,192,216160,1,0,0:0:0:0:
182,192,216240,1,0,0:0:0:0:
36,192,216240,1,0,0:0:0:0:
256,192,216320,1,0,0:0:0:0:
329,192,216320,1,0,0:0:0:0:
402,192,216320,1,0,0:0:0:0:
475,192,216320,1,0,0:0:0:0:
182,192,216400,1,0,0:0:0:0:
109,192,216400,1,0,0:0:0:0:
36,192,216480,1,0,0:0:0:0:
256,192,216480,1,0,0:0:0:0:
475,192,216480,1,0,0:0:0:0:
329,192,216480,1,0,0:0:0:0:
402,192,216560,1,0,0:0:0:0:
182,192,216560,1,0,0:0:0:0:
329,192,216640,1,0,0:0:0:0:
256,192,216640,1,0,0:0:0:0:
109,192,216640,1,0,0:0:0:0:
36,192,216640,1,0,0:0:0:0:
475,192,216720,1,0,0:0:0:0:
402,192,216720,1,0,0:0:0:0:
36,192,216800,1,0,0:0:0:0:
109,192,216800,1,0,0:0:0:0:
182,192,216800,1,0,0:0:0:0:
256,192,216800,1,0,0:0:0:0:
329,192,216880,1,0,0:0:0:0:
402,192,216880,1,0,0:0:0:0:
475,192,216960,1,0,0:0:0:0:
256,192,216960,1,0,0:0:0:0:
109,192,216960,1,0,0:0:0:0:
36,192,216960,1,0,0:0:0:0:
329,192,217040,1,0,0:0:0:0:
402,192,217040,1,0,0:0:0:0:
182,192,217120,1,0,0:0:0:0:
109,192,217120,1,0,0:0:0:0:
36,192,217120,1,0,0:0:0:0:
256,192,217120,1,0,0:0:0:0:
475,192,217200,1,0,0:0:0:0:
402,192,217200,1,0,0:0:0:0:
329,192,217280,1,0,0:0:0:0:
109,192,217280,1,0,0:0:0:0:
36,192,217280,1,0,0:0:0:0:
182,192,217280,1,0,0:0:0:0:
256,192,217360,1,0,0:0:0:0:
402,192,217360,1,0,0:0:0:0:
329,192,217440,1,0,0:0:0:0:
475,192,217440,1,0,0:0:0:0:
36,192,217440,1,0,0:0:0:0:
109,192,217440,1,0,0:0:0:0:
182,192,217520,1,0,0:0:0:0:
256,192,217520,1,0,0:0:0:0:
402,192,217600,1,0,0:0:0:0:
475,192,217600,1,0,0:0:0:0:
329,192,217600,1,0,0:0:0:0:
36,192,217600,1,0,0:0:0:0:
109,192,217600,1,0,0:0:0:0:
182,192,217680,1,0,0:0:0:0:
256,192,217680,1,0,0:0:0:0:
329,192,217760,1,0,0:0:0:0:
402,192,217760,1,0,0:0:0:0:
475,192,217760,1,0,0:0:0:0:
36,192,217760,1,0,0:0:0:0:
109,192,217840,1,0,0:0:0:0:
182,192,217840,1,0,0:0:0:0:
256,192,217920,1,0,0:0:0:0:
402,192,217920,1,0,0:0:0:0:
475,192,217920,1,0,0:0:0:0:
329,192,217920,1,0,0:0:0:0:
36,192,218000,1,0,0:0:0:0:
182,192,218000,1,0,0:0:0:0:
109,192,218080,1,0,0:0:0:0:
256,192,218080,1,0,0:0:0:0:
402,192,218080,1,0,0:0:0:0:
475,192,218080,1,0,0:0:0:0:
36,192,218160,1,0,0:0:0:0:
182,192,218160,1,0,0:0:0:0:
256,192,218240,1,0,0:0:0:0:
402,192,218240,1,0,0:0:0:0:
475,192,218240,1,0,0:0:0:0:
329,192,218240,1,0,0:0:0:0:
36,192,218320,1,0,0:0:0:0:
109,192,218320,1,0,0:0:0:0:
182,192,218400,1,0,0:0:0:0:
402,192,218400,1,0,0:0:0:0:
475,192,218400,1,0,0:0:0:0:
256,192,218400,1,0,0:0:0:0:
36,192,218480,1,0,0:0:0:0:
109,192,218480,1,0,0:0:0:0:
256,192,218560,1,0,0:0:0:0:
329,192,218560,1,0,0:0:0:0:
402,192,218560,1,0,0:0:0:0:
475,192,218560,1,0,0:0:0:0:
182,192,218640,1,0,0:0:0:0:
109,192,218640,1,0,0:0:0:0:
36,192,218720,1,0,0:0:0:0:
256,192,218720,1,0,0:0:0:0:
475,192,218720,1,0,0:0:0:0:
402,192,218720,1,0,0:0:0:0:
329,192,218800,1,0,0:0:0:0:
182,192,218800,1,0,0:0:0:0:
109,192,218880,1,0,0:0:0:0:
36,192,218880,1,0,0:0:0:0:
256,192,218880,1,0,0:0:0:0:
475,192,218880,1,0,0:0:0:0:
402,192,218880,1,0,0:0:0:0:
329,192,218960,1,0,0:0:0:0:
182,192,218960,1,0,0:0:0:0:
109,192,219040,1,0,0:0:0:0:
36,192,219040,1,0,0:0:0:0:
256,192,219040,1,0,0:0:0:0:
475,192,219040,1,0,0:0:0:0:
402,192,219120,1,0,0:0:0:0:
329,192,219120,1,0,0:0:0:0:
256,192,219200,1,0,0:0:0:0:
109,192,219200,1,0,0:0:0:0:
36,192,219200,1,0,0:0:0:0:
182,192,219200,1,0,0:0:0:0:
475,192,219280,1,0,0:0:0:0:
329,192,219280,1,0,0:0:0:0:
109,192,219360,1,0,0:0:0:0:
36,192,219360,1,0,0:0:0:0:
256,192,219360,1,0,0:0:0:0:
402,192,219360,1,0,0:0:0:0:
329,192,219440,1,0,0:0:0:0:
475,192,219440,1,0,0:0:0:0:
256,192,219520,1,0,0:0:0:0:
109,192,219520,1,0,0:0:0:0:
36,192,219520,1,0,0:0:0:0:
182,192,219520,1,0,0:0:0:0:
475,192,219600,1,0,0:0:0:0:
402,192,219600,1,0,0:0:0:0:
109,192,219680,1,0,0:0:0:0:
36,192,219680,1,0,0:0:0:0:
329,192,219680,1,0,0:0:0:0:
256,192,219760,1,0,0:0:0:0:
182,192,219760,1,0,0:0:0:0:
475,192,219760,1,0,0:0:0:0:
36,192,219840,1,0,0:0:0:0:
109,192,219840,1,0,0:0:0:0:
402,192,219840,1,0,0:0:0:0:
329,192,219840,1,0,0:0:0:0:
256,192,219920,1,0,0:0:0:0:
182,192,219920,1,0,0:0:0:0:
109,192,220000,1,0,0:0:0:0:
36,192,220000,1,0,0:0:0:0:
402,192,220000,1,0,0:0:0:0:
475,192,220000,1,0,0:0:0:0:
329,192,220080,1,0,0:0:0:0:
256,192,220080,1,0,0:0:0:0:
109,192,220160,1,0,0:0:0:0:
36,192,220160,1,0,0:0:0:0:
182,192,220160,1,0,0:0:0:0:
402,192,220160,1,0,0:0:0:0:
475,192,220160,1,0,0:0:0:0:
256,192,220240,1,0,0:0:0:0:
329,192,220240,1,0,0:0:0:0:
402,192,220320,1,0,0:0:0:0:
475,192,220320,1,0,0:0:0:0:
182,192,220320,1,0,0:0:0:0:
36,192,220320,1,0,0:0:0:0:
256,192,220400,1,0,0:0:0:0:
329,192,220400,1,0,0:0:0:0:
402,192,220480,1,0,0:0:0:0:
475,192,220480,1,0,0:0:0:0:
36,192,220480,1,0,0:0:0:0:
109,192,220480,1,0,0:0:0:0:
182,192,220560,1,0,0:0:0:0:
329,192,220560,1,0,0:0:0:0:
256,192,220640,1,0,0:0:0:0:
36,192,220640,1,0,0:0:0:0:
109,192,220640,1,0,0:0:0:0:
475,192,220640,1,0,0:0:0:0:
329,192,220720,1,0,0:0:0:0:
402,192,220720,1,0,0:0:0:0:
475,192,220800,1,0,0:0:0:0:
182,192,220800,1,0,0:0:0:0:
109,192,220800,1,0,0:0:0:0:
36,192,220800,1,0,0:0:0:0:
256,192,220880,1,0,0:0:0:0:
329,192,220880,1,0,0:0:0:0:
402,192,220960,1,0,0:0:0:0:
475,192,220960,1,0,0:0:0:0:
36,192,220960,1,0,0:0:0:0:
109,192,220960,1,0,0:0:0:0:
182,192,221040,1,0,0:0:0:0:
256,192,221040,1,0,0:0:0:0:
329,192,221120,1,0,0:0:0:0:
475,192,221120,1,0,0:0:0:0:
36,192,221120,1,0,0:0:0:0:
109,192,221120,1,0,0:0:0:0:
182,192,221200,1,0,0:0:0:0:
256,192,221200,1,0,0:0:0:0:
402,192,221280,1,0,0:0:0:0:
109,192,221280,1,0,0:0:0:0:
36,192,221280,1,0,0:0:0:0:
475,192,221280,1,0,0:0:0:0:
256,192,221360,1,0,0:0:0:0:
329,192,221360,1,0,0:0:0:0:
36,192,221440,1,0,0:0:0:0:
182,192,221440,1,0,0:0:0:0:
402,192,221440,1,0,0:0:0:0:
475,192,221440,1,0,0:0:0:0:
256,192,221520,1,0,0:0:0:0:
329,192,221520,1,0,0:0:0:0:
402,192,221600,1,0,0:0:0:0:
475,192,221600,1,0,0:0:0:0:
36,192,221600,1,0,0:0:0:0:
109,192,221600,1,0,0:0:0:0:
182,192,221680,1,0,0:0:0:0:
329,192,221680,1,0,0:0:0:0:
256,192,221760,1,0,0:0:0:0:
109,192,221760,1,0,0:0:0:0:
36,192,221760,1,0,0:0:0:0:
475,192,221760,1,0,0:0:0:0:
402,192,221840,1,0,0:0:0:0:
329,192,221840,1,0,0:0:0:0:
109,192,221920,1,0,0:0:0:0:
36,192,221920,1,0,0:0:0:0:
182,192,221920,1,0,0:0:0:0:
475,192,221920,1,0,0:0:0:0:
256,192,222000,1,0,0:0:0:0:
329,192,222000,1,0,0:0:0:0:
402,192,222080,1,0,0:0:0:0:
475,192,222080,1,0,0:0:0:0:
36,192,222080,1,0,0:0:0:0:
182,192,222080,1,0,0:0:0:0:
256,192,222160,1,0,0:0:0:0:
109,192,222160,1,0,0:0:0:0:
329,192,222240,1,0,0:0:0:0:
402,192,222240,1,0,0:0:0:0:
475,192,222240,1,0,0:0:0:0:
36,192,222240,1,0,0:0:0:0:
109,192,222320,1,0,0:0:0:0:
182,192,222320,1,0,0:0:0:0:
256,192,222400,1,0,0:0:0:0:
402,192,222400,1,0,0:0:0:0:
475,192,222400,1,0,0:0:0:0:
329,192,222400,1,0,0:0:0:0:
36,192,222480,1,0,0:0:0:0:
182,192,222480,1,0,0:0:0:0:
256,192,222560,1,0,0:0:0:0:
402,192,222560,1,0,0:0:0:0:
475,192,222560,1,0,0:0:0:0:
329,192,222560,1,0,0:0:0:0:
109,192,222640,1,0,0:0:0:0:
182,192,222640,1,0,0:0:0:0:
329,192,222720,1,0,0:0:0:0:
475,192,222720,1,0,0:0:0:0:
402,192,222720,1,0,0:0:0:0:
36,192,222720,1,0,0:0:0:0:
256,192,222720,1,0,0:0:0:0:
109,192,222800,1,0,0:0:0:0:
182,192,222800,1,0,0:0:0:0:
329,192,222880,1,0,0:0:0:0:
475,192,222880,1,0,0:0:0:0:
402,192,222880,1,0,0:0:0:0:
36,192,222880,1,0,0:0:0:0:
256,192,222960,1,0,0:0:0:0:
182,192,222960,1,0,0:0:0:0:
109,192,223040,1,0,0:0:0:0:
36,192,223040,1,0,0:0:0:0:
475,192,223040,1,0,0:0:0:0:
402,192,223040,1,0,0:0:0:0:
182,192,223120,1,0,0:0:0:0:
329,192,223120,1,0,0:0:0:0:
256,192,223200,1,0,0:0:0:0:
36,192,223200,1,0,0:0:0:0:
109,192,223200,1,0,0:0:0:0:
475,192,223200,1,0,0:0:0:0:
329,192,223280,1,0,0:0:0:0:
402,192,223280,1,0,0:0:0:0:
475,192,223360,1,0,0:0:0:0:
109,192,223360,1,0,0:0:0:0:
36,192,223360,1,0,0:0:0:0:
182,192,223360,1,0,0:0:0:0:
329,192,223440,1,0,0:0:0:0:
256,192,223440,1,0,0:0:0:0:
402,192,223520,1,0,0:0:0:0:
475,192,223520,1,0,0:0:0:0:
36,192,223520,1,0,0:0:0:0:
109,192,223520,1,0,0:0:0:0:
182,192,223600,1,0,0:0:0:0:
256,192,223600,1,0,0:0:0:0:
475,192,223680,1,0,0:0:0:0:
36,192,223680,1,0,0:0:0:0:
329,192,223680,1,0,0:0:0:0:
109,192,223680,1,0,0:0:0:0:
402,192,223760,1,0,0:0:0:0:
256,192,223760,1,0,0:0:0:0:
329,192,223840,1,0,0:0:0:0:
475,192,223840,1,0,0:0:0:0:
109,192,223840,1,0,0:0:0:0:
36,192,223840,1,0,0:0:0:0:
182,192,223920,1,0,0:0:0:0:
256,192,223920,1,0,0:0:0:0:
402,192,224000,1,0,0:0:0:0:
475,192,224000,1,0,0:0:0:0:
109,192,224000,1,0,0:0:0:0:
36,192,224000,1,0,0:0:0:0:
329,192,224080,1,0,0:0:0:0:
256,192,224080,1,0,0:0:0:0:
182,192,224160,1,0,0:0:0:0:
36,192,224160,1,0,0:0:0:0:
109,192,224160,1,0,0:0:0:0:
475,192,224160,1,0,0:0:0:0:
402,192,224240,1,0,0:0:0:0:
256,192,224240,1,0,0:0:0:0:
329,192,224320,1,0,0:0:0:0:
182,192,224320,1,0,0:0:0:0:
109,192,224320,1,0,0:0:0:0:
36,192,224320,1,0,0:0:0:0:
475,192,224400,1,0,0:0:0:0:
402,192,224400,1,0,0:0:0:0:
182,192,224480,1,0,0:0:0:0:
256,192,224480,1,0,0:0:0:0:
109,192,224480,1,0,0:0:0:0:
36,192,224480,1,0,0:0:0:0:
402,192,224560,1,0,0:0:0:0:
475,192,224560,1,0,0:0:0:0:
182,192,224640,1,0,0:0:0:0:
329,192,224640,1,0,0:0:0:0:
109,192,224640,1,0,0:0:0:0:
36,192,224640,1,0,0:0:0:0:
256,192,224720,1,0,0:0:0:0:
402,192,224720,1,0,0:0:0:0:
329,192,224800,1,0,0:0:0:0:
475,192,224800,1,0,0:0:0:0:
36,192,224800,1,0,0:0:0:0:
109,192,224800,1,0,0:0:0:0:
182,192,224880,1,0,0:0:0:0:
256,192,224880,1,0,0:0:0:0:
402,192,224960,1,0,0:0:0:0:
475,192,224960,1,0,0:0:0:0:
109,192,224960,1,0,0:0:0:0:
36,192,224960,1,0,0:0:0:0:
329,192,224960,1,0,0:0:0:0:
256,192,225040,1,0,0:0:0:0:
182,192,225040,1,0,0:0:0:0:
109,192,225120,1,0,0:0:0:0:
36,192,225120,1,0,0:0:0:0:
402,192,225120,1,0,0:0:0:0:
475,192,225120,1,0,0:0:0:0:
329,192,225200,1,0,0:0:0:0:
256,192,225200,1,0,0:0:0:0:
402,192,225280,1,0,0:0:0:0:
475,192,225280,1,0,0:0:0:0:
182,192,225280,1,0,0:0:0:0:
109,192,225280,1,0,0:0:0:0:
36,192,225280,1,0,0:0:0:0:
329,192,225360,1,0,0:0:0:0:
256,192,225360,1,0,0:0:0:0:
109,192,225440,1,0,0:0:0:0:
36,192,225440,1,0,0:0:0:0:
182,192,225440,1,0,0:0:0:0:
475,192,225440,1,0,0:0:0:0:
402,192,225520,1,0,0:0:0:0:
329,192,225520,1,0,0:0:0:0:
256,192,225600,1,0,0:0:0:0:
109,192,225600,1,0,0:0:0:0:
36,192,225600,1,0,0:0:0:0:
182,192,225600,1,0,0:0:0:0:
475,192,225680,1,0,0:0:0:0:
329,192,225680,1,0,0:0:0:0:
402,192,225760,1,0,0:0:0:0:
256,192,225760,1,0,0:0:0:0:
109,192,225760,1,0,0:0:0:0:
36,192,225760,1,0,0:0:0:0:
329,192,225840,1,0,0:0:0:0:
475,192,225840,1,0,0:0:0:0:
256,192,225920,1,0,0:0:0:0:
109,192,225920,1,0,0:0:0:0:
36,192,225920,1,0,0:0:0:0:
182,192,225920,1,0,0:0:0:0:
402,192,226000,1,0,0:0:0:0:
475,192,226000,1,0,0:0:0:0:
329,192,226080,1,0,0:0:0:0:
182,192,226080,1,0,0:0:0:0:
109,192,226080,1,0,0:0:0:0:
36,192,226080,1,0,0:0:0:0:
475,192,226160,1,0,0:0:0:0:
402,192,226160,1,0,0:0:0:0:
182,192,226240,1,0,0:0:0:0:
109,192,226240,1,0,0:0:0:0:
36,192,226240,1,0,0:0:0:0:
256,192,226240,1,0,0:0:0:0:
329,192,226320,1,0,0:0:0:0:
402,192,226320,1,0,0:0:0:0:
475,192,226400,1,0,0:0:0:0:
256,192,226400,1,0,0:0:0:0:
36,192,226400,1,0,0:0:0:0:
109,192,226400,1,0,0:0:0:0:
182,192,226480,1,0,0:0:0:0:
329,192,226480,1,0,0:0:0:0:
402,192,226560,1,0,0:0:0:0:
475,192,226560,1,0,0:0:0:0:
36,192,226560,1,0,0:0:0:0:
256,192,226560,1,0,0:0:0:0:
109,192,226640,1,0,0:0:0:0:
182,192,226640,1,0,0:0:0:0:
329,192,226720,1,0,0:0:0:0:
475,192,226720,1,0,0:0:0:0:
402,192,226720,1,0,0:0:0:0:
36,192,226720,1,0,0:0:0:0:
109,192,226800,1,0,0:0:0:0:
256,192,226800,1,0,0:0:0:0:
182,192,226880,1,0,0:0:0:0:
475,192,226880,1,0,0:0:0:0:
402,192,226880,1,0,0:0:0:0:
329,192,226880,1,0,0:0:0:0:
36,192,226960,1,0,0:0:0:0:
109,192,226960,1,0,0:0:0:0:
182,192,227040,1,0,0:0:0:0:
256,192,227040,1,0,0:0:0:0:
402,192,227040,1,0,0:0:0:0:
475,192,227040,1,0,0:0:0:0:
109,192,227120,1,0,0:0:0:0:
36,192,227120,1,0,0:0:0:0:
182,192,227200,1,0,0:0:0:0:
329,192,227200,1,0,0:0:0:0:
402,192,227200,1,0,0:0:0:0:
475,192,227200,1,0,0:0:0:0:
36,192,227280,1,0,0:0:0:0:
256,192,227280,1,0,0:0:0:0:
402,192,227360,1,0,0:0:0:0:
475,192,227360,1,0,0:0:0:0:
109,192,227360,1,0,0:0:0:0:
182,192,227360,1,0,0:0:0:0:
256,192,227440,1,0,0:0:0:0:
36,192,227440,1,0,0:0:0:0:
329,192,227520,1,0,0:0:0:0:
402,192,227520,1,0,0:0:0:0:
475,192,227520,1,0,0:0:0:0:
109,192,227520,1,0,0:0:0:0:
182,192,227600,1,0,0:0:0:0:
256,192,227600,1,0,0:0:0:0:
36,192,227680,1,0,0:0:0:0:
109,192,227680,1,0,0:0:0:0:
402,192,227680,1,0,0:0:0:0:
475,192,227680,1,0,0:0:0:0:
329,192,227680,1,0,0:0:0:0:
182,192,227760,1,0,0:0:0:0:
256,192,227760,1,0,0:0:0:0:
36,192,227840,1,0,0:0:0:0:
402,192,227840,1,0,0:0:0:0:
475,192,227840,1,0,0:0:0:0:
109,192,227840,1,0,0:0:0:0:
182,192,227920,1,0,0:0:0:0:
329,192,227920,1,0,0:0:0:0:
256,192,228000,1,0,0:0:0:0:
36,192,228000,1,0,0:0:0:0:
109,192,228000,1,0,0:0:0:0:
475,192,228000,1,0,0:0:0:0:
329,192,228080,1,0,0:0:0:0:
402,192,228080,1,0,0:0:0:0:
475,192,228160,1,0,0:0:0:0:
36,192,228160,1,0,0:0:0:0:
109,192,228160,1,0,0:0:0:0:
182,192,228160,1,0,0:0:0:0:
256,192,228240,1,0,0:0:0:0:
329,192,228240,1,0,0:0:0:0:
402,192,228320,1,0,0:0:0:0:
475,192,228320,1,0,0:0:0:0:
36,192,228320,1,0,0:0:0:0:
182,192,228320,1,0,0:0:0:0:
256,192,228400,1,0,0:0:0:0:
329,192,228400,1,0,0:0:0:0:
402,192,228480,1,0,0:0:0:0:
475,192,228480,1,0,0:0:0:0:
109,192,228480,1,0,0:0:0:0:
36,192,228480,1,0,0:0:0:0:
182,192,228560,1,0,0:0:0:0:
329,192,228560,1,0,0:0:0:0:
109,192,228640,1,0,0:0:0:0:
36,192,228640,1,0,0:0:0:0:
475,192,228640,1,0,0:0:0:0:
402,192,228640,1,0,0:0:0:0:
182,192,228720,1,0,0:0:0:0:
256,192,228720,1,0,0:0:0:0:
329,192,228800,1,0,0:0:0:0:
402,192,228800,1,0,0:0:0:0:
475,192,228800,1,0,0:0:0:0:
36,192,228800,1,0,0:0:0:0:
109,192,228880,1,0,0:0:0:0:
182,192,228880,1,0,0:0:0:0:
256,192,228960,1,0,0:0:0:0:
402,192,228960,1,0,0:0:0:0:
475,192,228960,1,0,0:0:0:0:
329,192,228960,1,0,0:0:0:0:
36,192,229040,1,0,0:0:0:0:
109,192,229040,1,0,0:0:0:0:
182,192,229120,1,0,0:0:0:0:
329,192,229120,1,0,0:0:0:0:
402,192,229120,1,0,0:0:0:0:
475,192,229120,1,0,0:0:0:0:
256,192,229120,1,0,0:0:0:0:
36,192,229200,1,0,0:0:0:0:
109,192,229200,1,0,0:0:0:0:
182,192,229280,1,0,0:0:0:0:
329,192,229280,1,0,0:0:0:0:
402,192,229280,1,0,0:0:0:0:
475,192,229280,1,0,0:0:0:0:
256,192,229360,1,0,0:0:0:0:
36,192,229360,1,0,0:0:0:0:
402,192,229440,1,0,0:0:0:0:
475,192,229440,1,0,0:0:0:0:
329,192,229440,1,0,0:0:0:0:
182,192,229440,1,0,0:0:0:0:
36,192,229520,1,0,0:0:0:0:
109,192,229520,1,0,0:0:0:0:
402,192,229600,1,0,0:0:0:0:
475,192,229600,1,0,0:0:0:0:
329,192,229600,1,0,0:0:0:0:
256,192,229600,1,0,0:0:0:0:
109,192,229680,1,0,0:0:0:0:
182,192,229680,1,0,0:0:0:0:
36,192,229760,1,0,0:0:0:0:
475,192,229760,1,0,0:0:0:0:
329,192,229760,1,0,0:0:0:0:
256,192,229760,1,0,0:0:0:0:
402,192,229840,1,0,0:0:0:0:
182,192,229840,1,0,0:0:0:0:
109,192,229920,1,0,0:0:0:0:
36,192,229920,1,0,0:0:0:0:
475,192,229920,1,0,0:0:0:0:
256,192,229920,1,0,0:0:0:0:
402,192,230000,1,0,0:0:0:0:
329,192,230000,1,0,0:0:0:0:
109,192,230080,1,0,0:0:0:0:
182,192,230080,1,0,0:0:0:0:
475,192,230080,1,0,0:0:0:0:
36,192,230080,1,0,0:0:0:0:
329,192,230160,1,0,0:0:0:0:
256,192,230160,1,0,0:0:0:0:
475,192,230240,1,0,0:0:0:0:
36,192,230240,1,0,0:0:0:0:
109,192,230240,1,0,0:0:0:0:
182,192,230240,1,0,0:0:0:0:
256,192,230320,1,0,0:0:0:0:
329,192,230320,1,0,0:0:0:0:
475,192,230400,1,0,0:0:0:0:
182,192,230400,1,0,0:0:0:0:
109,192,230400,1,0,0:0:0:0:
36,192,230400,1,0,0:0:0:0:
402,192,230400,1,0,0:0:0:0:
329,192,230480,1,0,0:0:0:0:
256,192,230480,1,0,0:0:0:0:
109,192,230560,1,0,0:0:0:0:
36,192,230560,1,0,0:0:0:0:
182,192,230560,1,0,0:0:0:0:
475,192,230560,1,0,0:0:0:0:
402,192,230640,1,0,0:0:0:0:
329,192,230640,1,0,0:0:0:0:
256,192,230720,1,0,0:0:0:0:
109,192,230720,1,0,0:0:0:0:
36,192,230720,1,0,0:0:0:0:
475,192,230720,1,0,0:0:0:0:
402,192,230800,1,0,0:0:0:0:
329,192,230800,1,0,0:0:0:0:
256,192,230880,1,0,0:0:0:0:
109,192,230880,1,0,0:0:0:0:
36,192,230880,1,0,0:0:0:0:
182,192,230880,1,0,0:0:0:0:
475,192,230960,1,0,0:0:0:0:
402,192,230960,1,0,0:0:0:0:
329,192,231040,1,0,0:0:0:0:
182,192,231040,1,0,0:0:0:0:
109,192,231040,1,0,0:0:0:0:
36,192,231040,1,0,0:0:0:0:
256,192,231120,1,0,0:0:0:0:
475,192,231120,1,0,0:0:0:0:
402,192,231200,1,0,0:0:0:0:
109,192,231200,1,0,0:0:0:0:
36,192,231200,1,0,0:0:0:0:
182,192,231200,1,0,0:0:0:0:
329,192,231280,1,0,0:0:0:0:
475,192,231280,1,0,0:0:0:0:
256,192,231360,1,0,0:0:0:0:
109,192,231360,1,0,0:0:0:0:
36,192,231360,1,0,0:0:0:0:
182,192,231360,1,0,0:0:0:0:
329,192,231440,1,0,0:0:0:0:
402,192,231440,1,0,0:0:0:0:
475,192,231520,1,0,0:0:0:0:
36,192,231520,1,0,0:0:0:0:
109,192,231520,1,0,0:0:0:0:
256,192,231520,1,0,0:0:0:0:
182,192,231600,1,0,0:0:0:0:
329,192,231600,1,0,0:0:0:0:
475,192,231680,1,0,0:0:0:0:
36,192,231680,1,0,0:0:0:0:
256,192,231680,1,0,0:0:0:0:
402,192,231680,1,0,0:0:0:0:
109,192,231760,1,0,0:0:0:0:
182,192,231760,1,0,0:0:0:0:
475,192,231840,1,0,0:0:0:0:
329,192,231840,1,0,0:0:0:0:
402,192,231840,1,0,0:0:0:0:
256,192,231840,1,0,0:0:0:0:
36,192,231920,1,0,0:0:0:0:
182,192,231920,1,0,0:0:0:0:
109,192,232000,1,0,0:0:0:0:
402,192,232000,1,0,0:0:0:0:
475,192,232000,1,0,0:0:0:0:
256,192,232000,1,0,0:0:0:0:
182,192,232080,1,0,0:0:0:0:
36,192,232080,1,0,0:0:0:0:
402,192,232160,1,0,0:0:0:0:
475,192,232160,1,0,0:0:0:0:
329,192,232160,1,0,0:0:0:0:
256,192,232160,1,0,0:0:0:0:
36,192,232240,1,0,0:0:0:0:
109,192,232240,1,0,0:0:0:0:
182,192,232320,1,0,0:0:0:0:
256,192,232320,1,0,0:0:0:0:
329,192,232320,1,0,0:0:0:0:
475,192,232320,1,0,0:0:0:0:
109,192,232400,1,0,0:0:0:0:
36,192,232400,1,0,0:0:0:0:
182,192,232480,1,0,0:0:0:0:
256,192,232480,1,0,0:0:0:0:
402,192,232480,1,0,0:0:0:0:
475,192,232480,1,0,0:0:0:0:
329,192,232560,1,0,0:0:0:0:
109,192,232560,1,0,0:0:0:0:
36,192,232640,1,0,0:0:0:0:
475,192,232640,1,0,0:0:0:0:
402,192,232640,1,0,0:0:0:0:
256,192,232640,1,0,0:0:0:0:
109,192,232720,1,0,0:0:0:0:
182,192,232720,1,0,0:0:0:0:
329,192,232800,1,0,0:0:0:0:
402,192,232800,1,0,0:0:0:0:
475,192,232800,1,0,0:0:0:0:
36,192,232800,1,0,0:0:0:0:
256,192,232880,1,0,0:0:0:0:
182,192,232880,1,0,0:0:0:0:
109,192,232960,1,0,0:0:0:0:
36,192,232960,1,0,0:0:0:0:
475,192,232960,1,0,0:0:0:0:
402,192,232960,1,0,0:0:0:0:
329,192,232960,1,0,0:0:0:0:
256,192,233040,1,0,0:0:0:0:
182,192,233040,1,0,0:0:0:0:
109,192,233120,1,0,0:0:0:0:
36,192,233120,1,0,0:0:0:0:
475,192,233120,1,0,0:0:0:0:
329,192,233120,1,0,0:0:0:0:
402,192,233200,1,0,0:0:0:0:
256,192,233200,1,0,0:0:0:0:
182,192,233280,1,0,0:0:0:0:
109,192,233280,1,0,0:0:0:0:
36,192,233280,1,0,0:0:0:0:
329,192,233280,1,0,0:0:0:0:
475,192,233360,1,0,0:0:0:0:
402,192,233360,1,0,0:0:0:0:
109,192,233440,1,0,0:0:0:0:
36,192,233440,1,0,0:0:0:0:
256,192,233440,1,0,0:0:0:0:
329,192,233440,1,0,0:0:0:0:
475,192,233520,1,0,0:0:0:0:
402,192,233520,1,0,0:0:0:0:
109,192,233600,1,0,0:0:0:0:
182,192,233600,1,0,0:0:0:0:
36,192,233600,1,0,0:0:0:0:
256,192,233600,1,0,0:0:0:0:
329,192,233680,1,0,0:0:0:0:
475,192,233680,1,0,0:0:0:0:
256,192,233760,1,0,0:0:0:0:
109,192,233760,1,0,0:0:0:0:
36,192,233760,1,0,0:0:0:0:
402,192,233760,1,0,0:0:0:0:
329,192,233840,1,0,0:0:0:0:
475,192,233840,1,0,0:0:0:0:
402,192,233920,1,0,0:0:0:0:
109,192,233920,1,0,0:0:0:0:
36,192,233920,1,0,0:0:0:0:
182,192,233920,1,0,0:0:0:0:
256,192,234000,1,0,0:0:0:0:
329,192,234000,1,0,0:0:0:0:
475,192,234080,1,0,0:0:0:0:
402,192,234080,1,0,0:0:0:0:
36,192,234080,1,0,0:0:0:0:
109,192,234080,1,0,0:0:0:0:
182,192,234160,1,0,0:0:0:0:
329,192,234160,1,0,0:0:0:0:
256,192,234240,1,0,0:0:0:0:
402,192,234240,1,0,0:0:0:0:
475,192,234240,1,0,0:0:0:0:
36,192,234240,1,0,0:0:0:0:
109,192,234240,1,0,0:0:0:0:
182,192,234320,1,0,0:0:0:0:
329,192,234320,1,0,0:0:0:0:
475,192,234400,1,0,0:0:0:0:
256,192,234400,1,0,0:0:0:0:
402,192,234400,1,0,0:0:0:0:
36,192,234400,1,0,0:0:0:0:
109,192,234480,1,0,0:0:0:0:
182,192,234480,1,0,0:0:0:0:
329,192,234560,1,0,0:0:0:0:
402,192,234560,1,0,0:0:0:0:
475,192,234560,1,0,0:0:0:0:
256,192,234560,1,0,0:0:0:0:
36,192,234640,1,0,0:0:0:0:
109,192,234640,1,0,0:0:0:0:
182,192,234720,1,0,0:0:0:0:
402,192,234720,1,0,0:0:0:0:
329,192,234720,1,0,0:0:0:0:
475,192,234720,1,0,0:0:0:0:
256,192,234800,1,0,0:0:0:0:
109,192,234800,1,0,0:0:0:0:
36,192,234880,1,0,0:0:0:0:
182,192,234880,1,0,0:0:0:0:
402,192,234880,1,0,0:0:0:0:
475,192,234880,1,0,0:0:0:0:
329,192,234960,1,0,0:0:0:0:
256,192,234960,1,0,0:0:0:0:
109,192,235040,1,0,0:0:0:0:
36,192,235040,1,0,0:0:0:0:
475,192,235040,1,0,0:0:0:0:
402,192,235040,1,0,0:0:0:0:
182,192,235120,1,0,0:0:0:0:
256,192,235120,1,0,0:0:0:0:
36,192,235200,1,0,0:0:0:0:
329,192,235200,1,0,0:0:0:0:
402,192,235200,1,0,0:0:0:0:
475,192,235200,1,0,0:0:0:0:
109,192,235200,1,0,0:0:0:0:
256,192,235280,1,0,0:0:0:0:
182,192,235280,1,0,0:0:0:0:
329,192,235360,1,0,0:0:0:0:
402,192,235360,1,0,0:0:0:0:
475,192,235360,1,0,0:0:0:0:
36,192,235360,1,0,0:0:0:0:
182,192,235440,1,0,0:0:0:0:
256,192,235440,1,0,0:0:0:0:
329,192,235520,1,0,0:0:0:0:
402,192,235520,1,0,0:0:0:0:
475,192,235520,1,0,0:0:0:0:
109,192,235520,1,0,0:0:0:0:
36,192,235520,1,0,0:0:0:0:
182,192,235600,1,0,0:0:0:0:
256,192,235600,1,0,0:0:0:0:
402,192,235680,1,0,0:0:0:0:
475,192,235680,1,0,0:0:0:0:
109,192,235680,1,0,0:0:0:0:
36,192,235680,1,0,0:0:0:0:
182,192,235760,1,0,0:0:0:0:
329,192,235760,1,0,0:0:0:0:
256,192,235840,1,0,0:0:0:0:
475,192,235840,1,0,0:0:0:0:
402,192,235840,1,0,0:0:0:0:
36,192,235840,1,0,0:0:0:0:
109,192,235920,1,0,0:0:0:0:
182,192,235920,1,0,0:0:0:0:
256,192,236000,1,0,0:0:0:0:
475,192,236000,1,0,0:0:0:0:
36,192,236000,1,0,0:0:0:0:
402,192,236000,1,0,0:0:0:0:
329,192,236080,1,0,0:0:0:0:
182,192,236080,1,0,0:0:0:0:
109,192,236160,1,0,0:0:0:0:
36,192,236160,1,0,0:0:0:0:
402,192,236160,1,0,0:0:0:0:
475,192,236160,1,0,0:0:0:0:
256,192,236240,1,0,0:0:0:0:
329,192,236240,1,0,0:0:0:0:
402,192,236320,1,0,0:0:0:0:
475,192,236320,1,0,0:0:0:0:
182,192,236320,1,0,0:0:0:0:
36,192,236320,1,0,0:0:0:0:
256,192,236400,1,0,0:0:0:0:
329,192,236400,1,0,0:0:0:0:
402,192,236480,1,0,0:0:0:0:
475,192,236480,1,0,0:0:0:0:
36,192,236480,1,0,0:0:0:0:
109,192,236480,1,0,0:0:0:0:
182,192,236560,1,0,0:0:0:0:
256,192,236560,1,0,0:0:0:0:
329,192,236640,1,0,0:0:0:0:
475,192,236640,1,0,0:0:0:0:
36,192,236640,1,0,0:0:0:0:
109,192,236640,1,0,0:0:0:0:
182,192,236720,1,0,0:0:0:0:
256,192,236720,1,0,0:0:0:0:
475,192,236800,1,0,0:0:0:0:
402,192,236800,1,0,0:0:0:0:
109,192,236800,1,0,0:0:0:0:
36,192,236800,1,0,0:0:0:0:
329,192,236880,1,0,0:0:0:0:
182,192,236880,1,0,0:0:0:0:
256,192,236960,1,0,0:0:0:0:
109,192,236960,1,0,0:0:0:0:
36,192,236960,1,0,0:0:0:0:
475,192,236960,1,0,0:0:0:0:
402,192,237040,1,0,0:0:0:0:
329,192,237040,1,0,0:0:0:0:
256,192,237120,1,0,0:0:0:0:
475,192,237120,1,0,0:0:0:0:
36,192,237120,1,0,0:0:0:0:
182,192,237120,1,0,0:0:0:0:
402,192,237200,1,0,0:0:0:0:
329,192,237200,1,0,0:0:0:0:
256,192,237280,1,0,0:0:0:0:
109,192,237280,1,0,0:0:0:0:
36,192,237280,1,0,0:0:0:0:
182,192,237280,1,0,0:0:0:0:
475,192,237360,1,0,0:0:0:0:
402,192,237360,1,0,0:0:0:0:
329,192,237440,1,0,0:0:0:0:
109,192,237440,1,0,0:0:0:0:
36,192,237440,1,0,0:0:0:0:
182,192,237440,1,0,0:0:0:0:
402,192,237520,1,0,0:0:0:0:
475,192,237520,1,0,0:0:0:0:
256,192,237600,1,0,0:0:0:0:
109,192,237600,1,0,0:0:0:0:
36,192,237600,1,0,0:0:0:0:
182,192,237600,1,0,0:0:0:0:
329,192,237680,1,0,0:0:0:0:
402,192,237680,1,0,0:0:0:0:
256,192,237760,1,0,0:0:0:0:
109,192,237760,1,0,0:0:0:0:
36,192,237760,1,0,0:0:0:0:
475,192,237760,1,0,0:0:0:0:
182,192,237840,1,0,0:0:0:0:
329,192,237840,1,0,0:0:0:0:
402,192,237920,1,0,0:0:0:0:
475,192,237920,1,0,0:0:0:0:
36,192,237920,1,0,0:0:0:0:
256,192,237920,1,0,0:0:0:0:
109,192,238000,1,0,0:0:0:0:
182,192,238000,1,0,0:0:0:0:
329,192,238080,1,0,0:0:0:0:
402,192,238080,1,0,0:0:0:0:
475,192,238080,1,0,0:0:0:0:
256,192,238080,1,0,0:0:0:0:
36,192,238160,1,0,0:0:0:0:
109,192,238160,1,0,0:0:0:0:
182,192,238240,1,0,0:0:0:0:
329,192,238240,1,0,0:0:0:0:
475,192,238240,1,0,0:0:0:0:
402,192,238240,1,0,0:0:0:0:
36,192,238320,1,0,0:0:0:0:
109,192,238320,1,0,0:0:0:0:
402,192,238400,1,0,0:0:0:0:
475,192,238400,1,0,0:0:0:0:
256,192,238400,1,0,0:0:0:0:
182,192,238400,1,0,0:0:0:0:
109,192,238480,1,0,0:0:0:0:
329,192,238480,1,0,0:0:0:0:
256,192,238560,1,0,0:0:0:0:
36,192,238560,1,0,0:0:0:0:
182,192,238560,1,0,0:0:0:0:
475,192,238560,1,0,0:0:0:0:
402,192,238640,1,0,0:0:0:0:
329,192,238640,1,0,0:0:0:0:
256,192,238720,1,0,0:0:0:0:
182,192,238720,1,0,0:0:0:0:
109,192,238720,1,0,0:0:0:0:
36,192,238720,1,0,0:0:0:0:
475,192,238800,1,0,0:0:0:0:
402,192,238800,1,0,0:0:0:0:
329,192,238880,1,0,0:0:0:0:
109,192,238880,1,0,0:0:0:0:
36,192,238880,1,0,0:0:0:0:
256,192,238880,1,0,0:0:0:0:
475,192,238960,1,0,0:0:0:0:
402,192,238960,1,0,0:0:0:0:
109,192,239040,1,0,0:0:0:0:
36,192,239040,1,0,0:0:0:0:
256,192,239040,1,0,0:0:0:0:
182,192,239040,1,0,0:0:0:0:
329,192,239120,1,0,0:0:0:0:
402,192,239120,1,0,0:0:0:0:
475,192,239200,1,0,0:0:0:0:
256,192,239200,1,0,0:0:0:0:
36,192,239200,1,0,0:0:0:0:
109,192,239200,1,0,0:0:0:0:
182,192,239280,1,0,0:0:0:0:
329,192,239280,1,0,0:0:0:0:
402,192,239360,1,0,0:0:0:0:
475,192,239360,1,0,0:0:0:0:
256,192,239360,1,0,0:0:0:0:
36,192,239360,1,0,0:0:0:0:
109,192,239440,1,0,0:0:0:0:
182,192,239440,1,0,0:0:0:0:
256,192,239520,1,0,0:0:0:0:
402,192,239520,1,0,0:0:0:0:
475,192,239520,1,0,0:0:0:0:
36,192,239520,1,0,0:0:0:0:
329,192,239600,1,0,0:0:0:0:
182,192,239600,1,0,0:0:0:0:
109,192,239680,1,0,0:0:0:0:
36,192,239680,1,0,0:0:0:0:
256,192,239680,1,0,0:0:0:0:
475,192,239680,1,0,0:0:0:0:
402,192,239760,1,0,0:0:0:0:
329,192,239760,1,0,0:0:0:0:
475,192,239840,1,0,0:0:0:0:
109,192,239840,1,0,0:0:0:0:
36,192,239840,1,0,0:0:0:0:
182,192,239840,1,0,0:0:0:0:
329,192,239920,1,0,0:0:0:0:
256,192,239920,1,0,0:0:0:0:
402,192,240000,1,0,0:0:0:0:
475,192,240000,1,0,0:0:0:0:
36,192,240000,1,0,0:0:0:0:
109,192,240000,1,0,0:0:0:0:
182,192,240080,1,0,0:0:0:0:
329,192,240080,1,0,0:0:0:0:
256,192,240160,1,0,0:0:0:0:
402,192,240160,1,0,0:0:0:0:
475,192,240160,1,0,0:0:0:0:
36,192,240160,1,0,0:0:0:0:
182,192,240240,1,0,0:0:0:0:
109,192,240240,1,0,0:0:0:0:
329,192,240320,1,0,0:0:0:0:
402,192,240320,1,0,0:0:0:0:
475,192,240320,1,0,0:0:0:0:
36,192,240320,1,0,0:0:0:0:
256,192,240400,1,0,0:0:0:0:
182,192,240400,1,0,0:0:0:0:
109,192,240480,1,0,0:0:0:0:
36,192,240480,1,0,0:0:0:0:
475,192,240480,1,0,0:0:0:0:
402,192,240480,1,0,0:0:0:0:
329,192,240560,1,0,0:0:0:0:
256,192,240560,1,0,0:0:0:0:
182,192,240560,1,0,0:0:0:0:
109,192,240640,128,0,241920:0:0:0:0:
36,192,240640,128,0,241920:0:0:0:0:
402,192,240640,128,0,241920:0:0:0:0:
475,192,240640,128,0,241920:0:0:0:0:
