osu file format v14

[General]
AudioFilename: audio.mp3
AudioLeadIn: 0
PreviewTime: 189303
Countdown: 0
SampleSet: Soft
StackLeniency: 0.7
Mode: 3
LetterboxInBreaks: 0
SpecialStyle: 0
WidescreenStoryboard: 0

[Editor]
Bookmarks: 9390,17463,26689,27843,34762,37069,46295,55522,64748,71668,73974,83201,92427,101653,110880,113186,122412,130485,131639,139712,140865,148938,150091,158164,159318,167391,168544,176617,177770,182384,184690,185843,186997,189303,207781,235434,237740,253887,256193,258500,295405,301171,338077,366909,370369,373829
DistanceSpacing: 0.8
BeatDivisor: 4
GridSize: 32
TimelineZoom: 2

[Metadata]
Title:IVALTEK
TitleUnicode:IVALTEK
Artist:DJ SHARPNEL
ArtistUnicode:DJ SHARPNEL
Creator:Maxim-Miau
Version:Distant memory of a past love
Source:
Tags:kiss me goodbye final fantasy xii ff12 otaku overclocks 21 sharpnelsound electronic drum bass dnb happy hardcore english j-core jcore オタクオーバークロックス21 chordstream Angela Aki アンジェラ・アキ Good-Bye Bye ファイナルファンタジーXII
BeatmapID:4045694
BeatmapSetID:1953575

[Difficulty]
HPDrainRate:8
CircleSize:7
OverallDifficulty:8.5
ApproachRate:5
SliderMultiplier:1.4
SliderTickRate:1

[Events]
//Background and Video events
0,0,"ivaltek.jpg",0,0
//Break Periods
//Storyboard Layer 0 (Background)
//Storyboard Layer 1 (Fail)
//Storyboard Layer 2 (Pass)
//Storyboard Layer 3 (Foreground)
//Storyboard Layer 4 (Overlay)
//Storyboard Sound Samples

[TimingPoints]
164,288.322921672273,4,2,1,45,1,0
189303,294.550810014728,4,2,1,45,1,0
189303,-97.9431929480901,4,2,1,45,0,0
190481,287.218764959311,4,2,1,45,1,0
190481,-100.401606425703,4,2,1,45,0,0
192778,289.296046287367,4,2,1,45,1,0
192778,-99.7008973080758,4,2,1,45,0,0
195092,290.9796314258,4,2,1,45,1,0
195092,-99.1080277502478,4,2,1,45,0,0
197419,290.135396518375,4,2,1,45,1,0
197419,-99.403578528827,4,2,1,45,0,0
199740,286.806883365201,4,2,1,45,1,0
199740,-100.603621730382,4,2,1,45,0,0
202034,287.907869481766,4,2,1,45,1,0
202034,-100.200400801603,4,2,1,45,0,0
204337,286.259541984733,4,2,1,45,1,0
204337,-100.806451612903,4,2,1,45,0,0
206627,288.600288600289,4,2,1,45,1,0
206627,-100,4,2,1,45,0,0
208935,288.322921672273,4,2,1,45,1,0
208935,-100,4,2,1,45,0,0
211241,289.715113471753,4,2,1,45,1,0
211241,-99.601593625498,4,2,1,45,0,0
213558,287.218764959311,4,2,1,45,1,0
213558,-100.401606425703,4,2,1,45,0,0
215855,288.739172281039,4,2,1,45,1,0
215855,-99.9000999000999,4,2,1,45,0,0
218164,289.017341040462,4,2,1,45,1,0
218164,-99.8003992015968,4,2,1,45,0,0
220476,286.396181384248,4,2,1,45,1,0
220476,-100.704934541793,4,2,1,45,0,0
222767,286.806883365201,4,2,1,45,1,0
222767,-100.603621730382,4,2,1,45,0,0
226208,288.322921672273,4,2,1,45,1,1
226208,-100,4,2,1,45,0,1
243507,-100,4,2,1,45,0,0
244660,-100,4,2,1,45,0,1
261960,-100,4,2,1,45,0,0
263113,-100,4,2,1,45,0,1
280412,-100,4,2,1,45,0,0
281566,-100,4,2,1,45,0,1
300018,-100,4,2,1,45,0,0

[HitObjects]
36,192,164,5,0,0:0:0:0:
256,192,164,1,0,0:0:0:0:
475,192,164,1,0,0:0:0:0:
256,192,308,1,0,0:0:0:0:
402,192,452,1,0,0:0:0:0:
182,192,452,1,0,0:0:0:0:
109,192,596,1,0,0:0:0:0:
329,192,596,1,0,0:0:0:0:
475,192,740,1,0,0:0:0:0:
475,192,884,1,0,0:0:0:0:
36,192,1028,1,0,0:0:0:0:
182,192,1028,1,0,0:0:0:0:
329,192,1173,1,0,0:0:0:0:
256,192,1317,1,0,0:0:0:0:
256,192,1461,1,0,0:0:0:0:
329,192,1605,1,0,0:0:0:0:
36,192,1605,1,0,0:0:0:0:
475,192,1749,1,0,0:0:0:0:
182,192,1749,1,0,0:0:0:0:
329,192,1893,1,0,0:0:0:0:
329,192,2038,1,0,0:0:0:0:
36,192,2182,1,0,0:0:0:0:
256,192,2182,1,0,0:0:0:0:
109,192,2326,1,0,0:0:0:0:
402,192,2470,1,0,0:0:0:0:
402,192,2614,1,0,0:0:0:0:
109,192,2758,1,0,0:0:0:0:
182,192,2758,1,0,0:0:0:0:
256,192,2903,1,0,0:0:0:0:
329,192,2903,1,0,0:0:0:0:
36,192,3047,1,0,0:0:0:0:
36,192,3191,1,0,0:0:0:0:
329,192,3335,1,0,0:0:0:0:
475,192,3335,1,0,0:0:0:0:
256,192,3479,1,0,0:0:0:0:
109,192,3623,1,0,0:0:0:0:
109,192,3768,1,0,0:0:0:0:
329,192,3912,1,0,0:0:0:0:
475,192,3912,1,0,0:0:0:0:
182,192,4056,1,0,0:0:0:0:
36,192,4056,1,0,0:0:0:0:
402,192,4200,1,0,0:0:0:0:
402,192,4344,1,0,0:0:0:0:
109,192,4488,1,0,0:0:0:0:
182,192,4488,1,0,0:0:0:0:
475,192,4633,1,0,0:0:0:0:
256,192,4777,1,0,0:0:0:0:
256,192,4921,1,0,0:0:0:0:
329,192,5065,1,0,0:0:0:0:
109,192,5065,1,0,0:0:0:0:
182,192,5209,1,0,0:0:0:0:
402,192,5209,1,0,0:0:0:0:
36,192,5353,1,0,0:0:0:0:
36,192,5497,1,0,0:0:0:0:
329,192,5642,1,0,0:0:0:0:
475,192,5642,1,0,0:0:0:0:
182,192,5786,1,0,0:0:0:0:
256,192,5930,1,0,0:0:0:0:
256,192,6074,1,0,0:0:0:0:
475,192,6218,1,0,0:0:0:0:
182,192,6218,1,0,0:0:0:0:
329,192,6362,1,0,0:0:0:0:
36,192,6362,1,0,0:0:0:0:
182,192,6507,1,0,0:0:0:0:
182,192,6651,1,0,0:0:0:0:
256,192,6795,1,0,0:0:0:0:
475,192,6795,1,0,0:0:0:0:
402,192,6939,1,0,0:0:0:0:
109,192,7083,1,0,0:0:0:0:
109,192,7227,1,0,0:0:0:0:
329,192,7372,1,0,0:0:0:0:
402,192,7372,1,0,0:0:0:0:
182,192,7516,1,0,0:0:0:0:
256,192,7516,1,0,0:0:0:0:
475,192,7660,1,0,0:0:0:0:
475,192,7804,1,0,0:0:0:0:
36,192,7948,1,0,0:0:0:0:
182,192,7948,1,0,0:0:0:0:
256,192,8092,1,0,0:0:0:0:
402,192,8237,1,0,0:0:0:0:
402,192,8381,1,0,0:0:0:0:
36,192,8525,1,0,0:0:0:0:
182,192,8525,1,0,0:0:0:0:
475,192,8669,1,0,0:0:0:0:
329,192,8669,1,0,0:0:0:0:
109,192,8813,1,0,0:0:0:0:
109,192,8957,1,0,0:0:0:0:
329,192,9102,1,0,0:0:0:0:
475,192,9102,1,0,0:0:0:0:
36,192,9246,1,0,0:0:0:0:
109,192,9390,1,0,0:0:0:0:
256,192,9390,1,0,0:0:0:0:
402,192,9390,1,0,0:0:0:0:
256,192,9534,1,0,0:0:0:0:
402,192,9678,1,0,0:0:0:0:
182,192,9678,1,0,0:0:0:0:
109,192,9822,1,0,0:0:0:0:
329,192,9822,1,0,0:0:0:0:
475,192,9966,1,0,0:0:0:0:
475,192,10111,1,0,0:0:0:0:
36,192,10255,1,0,0:0:0:0:
182,192,10255,1,0,0:0:0:0:
329,192,10399,1,0,0:0:0:0:
256,192,10543,1,0,0:0:0:0:
256,192,10687,1,0,0:0:0:0:
329,192,10831,1,0,0:0:0:0:
36,192,10831,1,0,0:0:0:0:
475,192,10976,1,0,0:0:0:0:
182,192,10976,1,0,0:0:0:0:
329,192,11120,1,0,0:0:0:0:
329,192,11264,1,0,0:0:0:0:
36,192,11408,1,0,0:0:0:0:
256,192,11408,1,0,0:0:0:0:
109,192,11552,1,0,0:0:0:0:
402,192,11696,1,0,0:0:0:0:
402,192,11841,1,0,0:0:0:0:
109,192,11985,1,0,0:0:0:0:
182,192,11985,1,0,0:0:0:0:
256,192,12129,1,0,0:0:0:0:
329,192,12129,1,0,0:0:0:0:
36,192,12273,1,0,0:0:0:0:
36,192,12417,1,0,0:0:0:0:
329,192,12561,1,0,0:0:0:0:
475,192,12561,1,0,0:0:0:0:
256,192,12706,1,0,0:0:0:0:
109,192,12850,1,0,0:0:0:0:
109,192,12994,1,0,0:0:0:0:
329,192,13138,1,0,0:0:0:0:
475,192,13138,1,0,0:0:0:0:
182,192,13282,1,0,0:0:0:0:
36,192,13282,1,0,0:0:0:0:
402,192,13426,1,0,0:0:0:0:
402,192,13571,1,0,0:0:0:0:
109,192,13715,1,0,0:0:0:0:
182,192,13715,1,0,0:0:0:0:
475,192,13859,1,0,0:0:0:0:
256,192,14003,1,0,0:0:0:0:
256,192,14147,1,0,0:0:0:0:
329,192,14291,1,0,0:0:0:0:
109,192,14291,1,0,0:0:0:0:
182,192,14435,1,0,0:0:0:0:
402,192,14435,1,0,0:0:0:0:
36,192,14580,1,0,0:0:0:0:
36,192,14724,1,0,0:0:0:0:
329,192,14868,1,0,0:0:0:0:
475,192,14868,1,0,0:0:0:0:
182,192,15012,1,0,0:0:0:0:
256,192,15156,1,0,0:0:0:0:
256,192,15300,1,0,0:0:0:0:
475,192,15445,1,0,0:0:0:0:
182,192,15445,1,0,0:0:0:0:
329,192,15589,1,0,0:0:0:0:
36,192,15589,1,0,0:0:0:0:
182,192,15733,1,0,0:0:0:0:
182,192,15877,1,0,0:0:0:0:
256,192,16021,1,0,0:0:0:0:
475,192,16021,1,0,0:0:0:0:
402,192,16165,1,0,0:0:0:0:
109,192,16310,1,0,0:0:0:0:
109,192,16454,1,0,0:0:0:0:
329,192,16598,1,0,0:0:0:0:
402,192,16598,1,0,0:0:0:0:
182,192,16742,1,0,0:0:0:0:
256,192,16742,1,0,0:0:0:0:
475,192,16886,1,0,0:0:0:0:
475,192,17030,1,0,0:0:0:0:
36,192,17175,1,0,0:0:0:0:
182,192,17175,1,0,0:0:0:0:
256,192,17319,1,0,0:0:0:0:
402,192,17463,1,0,0:0:0:0:
475,192,17463,1,0,0:0:0:0:
329,192,17463,1,0,0:0:0:0:
402,192,17607,1,0,0:0:0:0:
36,192,17751,1,0,0:0:0:0:
182,192,17751,1,0,0:0:0:0:
109,192,17751,1,0,0:0:0:0:
109,192,17895,1,0,0:0:0:0:
36,192,17895,1,0,0:0:0:0:
182,192,17895,1,0,0:0:0:0:
475,192,18040,1,0,0:0:0:0:
402,192,18040,1,0,0:0:0:0:
256,192,18040,128,0,18328:0:0:0:0:
182,192,18328,1,0,0:0:0:0:
475,192,18328,1,0,0:0:0:0:
36,192,18328,1,0,0:0:0:0:
402,192,18472,1,0,0:0:0:0:
329,192,18508,1,0,0:0:0:0:
256,192,18544,1,0,0:0:0:0:
182,192,18580,1,0,0:0:0:0:
109,192,18616,1,0,0:0:0:0:
36,192,18616,1,0,0:0:0:0:
402,192,18616,1,0,0:0:0:0:
475,192,18616,1,0,0:0:0:0:
329,192,18760,1,0,0:0:0:0:
256,192,18760,1,0,0:0:0:0:
182,192,18904,1,0,0:0:0:0:
475,192,18904,1,0,0:0:0:0:
36,192,18904,1,0,0:0:0:0:
109,192,18977,1,0,0:0:0:0:
329,192,19049,1,0,0:0:0:0:
402,192,19049,1,0,0:0:0:0:
475,192,19049,1,0,0:0:0:0:
256,192,19121,1,0,0:0:0:0:
182,192,19193,1,0,0:0:0:0:
36,192,19193,1,0,0:0:0:0:
109,192,19193,1,0,0:0:0:0:
329,192,19337,1,0,0:0:0:0:
402,192,19409,1,0,0:0:0:0:
109,192,19481,1,0,0:0:0:0:
475,192,19481,1,0,0:0:0:0:
256,192,19481,1,0,0:0:0:0:
182,192,19625,1,0,0:0:0:0:
256,192,19661,1,0,0:0:0:0:
402,192,19697,1,0,0:0:0:0:
329,192,19733,1,0,0:0:0:0:
182,192,19769,1,0,0:0:0:0:
36,192,19769,1,0,0:0:0:0:
109,192,19769,1,0,0:0:0:0:
329,192,19914,1,0,0:0:0:0:
475,192,19914,1,0,0:0:0:0:
182,192,20058,1,0,0:0:0:0:
109,192,20058,1,0,0:0:0:0:
36,192,20058,1,0,0:0:0:0:
329,192,20130,1,0,0:0:0:0:
475,192,20202,1,0,0:0:0:0:
36,192,20202,1,0,0:0:0:0:
256,192,20202,1,0,0:0:0:0:
182,192,20274,1,0,0:0:0:0:
329,192,20346,1,0,0:0:0:0:
402,192,20346,1,0,0:0:0:0:
475,192,20346,1,0,0:0:0:0:
256,192,20490,1,0,0:0:0:0:
182,192,20562,1,0,0:0:0:0:
402,192,20634,1,0,0:0:0:0:
36,192,20634,1,0,0:0:0:0:
109,192,20634,1,0,0:0:0:0:
256,192,20779,1,0,0:0:0:0:
182,192,20815,1,0,0:0:0:0:
329,192,20851,1,0,0:0:0:0:
402,192,20887,1,0,0:0:0:0:
36,192,20923,1,0,0:0:0:0:
109,192,20923,1,0,0:0:0:0:
475,192,20923,1,0,0:0:0:0:
256,192,21067,1,0,0:0:0:0:
329,192,21067,1,0,0:0:0:0:
475,192,21211,1,0,0:0:0:0:
36,192,21211,1,0,0:0:0:0:
182,192,21211,1,0,0:0:0:0:
402,192,21283,1,0,0:0:0:0:
329,192,21355,1,0,0:0:0:0:
256,192,21355,1,0,0:0:0:0:
109,192,21355,1,0,0:0:0:0:
182,192,21427,1,0,0:0:0:0:
36,192,21499,1,0,0:0:0:0:
475,192,21499,1,0,0:0:0:0:
402,192,21499,1,0,0:0:0:0:
182,192,21644,1,0,0:0:0:0:
256,192,21644,1,0,0:0:0:0:
329,192,21788,1,0,0:0:0:0:
402,192,21788,1,0,0:0:0:0:
475,192,21788,1,0,0:0:0:0:
109,192,21932,1,0,0:0:0:0:
182,192,21968,1,0,0:0:0:0:
256,192,22004,1,0,0:0:0:0:
329,192,22040,1,0,0:0:0:0:
109,192,22076,1,0,0:0:0:0:
36,192,22076,1,0,0:0:0:0:
402,192,22076,1,0,0:0:0:0:
475,192,22220,1,0,0:0:0:0:
182,192,22220,1,0,0:0:0:0:
402,192,22364,1,0,0:0:0:0:
256,192,22364,1,0,0:0:0:0:
36,192,22364,1,0,0:0:0:0:
182,192,22436,1,0,0:0:0:0:
329,192,22509,1,0,0:0:0:0:
109,192,22509,1,0,0:0:0:0:
475,192,22509,1,0,0:0:0:0:
256,192,22581,1,0,0:0:0:0:
182,192,22653,1,0,0:0:0:0:
475,192,22653,1,0,0:0:0:0:
402,192,22653,1,0,0:0:0:0:
36,192,22797,1,0,0:0:0:0:
109,192,22797,1,0,0:0:0:0:
256,192,22869,1,0,0:0:0:0:
329,192,22941,1,0,0:0:0:0:
475,192,22941,1,0,0:0:0:0:
182,192,22941,1,0,0:0:0:0:
402,192,23085,1,0,0:0:0:0:
329,192,23121,1,0,0:0:0:0:
256,192,23157,1,0,0:0:0:0:
182,192,23193,1,0,0:0:0:0:
109,192,23229,1,0,0:0:0:0:
36,192,23229,1,0,0:0:0:0:
475,192,23229,1,0,0:0:0:0:
329,192,23373,1,0,0:0:0:0:
256,192,23373,1,0,0:0:0:0:
475,192,23518,1,0,0:0:0:0:
36,192,23518,1,0,0:0:0:0:
109,192,23518,1,0,0:0:0:0:
182,192,23590,1,0,0:0:0:0:
329,192,23662,1,0,0:0:0:0:
402,192,23662,1,0,0:0:0:0:
475,192,23662,1,0,0:0:0:0:
256,192,23734,1,0,0:0:0:0:
182,192,23806,1,0,0:0:0:0:
109,192,23806,1,0,0:0:0:0:
36,192,23806,1,0,0:0:0:0:
402,192,23950,1,0,0:0:0:0:
475,192,23950,1,0,0:0:0:0:
36,192,24094,1,0,0:0:0:0:
256,192,24094,1,0,0:0:0:0:
109,192,24094,1,0,0:0:0:0:
329,192,24238,1,0,0:0:0:0:
256,192,24275,1,0,0:0:0:0:
182,192,24311,1,0,0:0:0:0:
109,192,24347,1,0,0:0:0:0:
329,192,24383,1,0,0:0:0:0:
475,192,24383,1,0,0:0:0:0:
402,192,24383,1,0,0:0:0:0:
182,192,24527,1,0,0:0:0:0:
36,192,24527,1,0,0:0:0:0:
256,192,24671,1,0,0:0:0:0:
329,192,24671,1,0,0:0:0:0:
475,192,24671,1,0,0:0:0:0:
182,192,24743,1,0,0:0:0:0:
109,192,24815,1,0,0:0:0:0:
402,192,24815,1,0,0:0:0:0:
36,192,24815,1,0,0:0:0:0:
329,192,24887,1,0,0:0:0:0:
256,192,24959,1,0,0:0:0:0:
475,192,24959,128,0,25248:0:0:0:0:
36,192,24959,1,0,0:0:0:0:
182,192,25103,1,0,0:0:0:0:
402,192,25103,1,0,0:0:0:0:
36,192,25248,1,0,0:0:0:0:
109,192,25248,1,0,0:0:0:0:
256,192,25248,1,0,0:0:0:0:
329,192,25392,1,0,0:0:0:0:
182,192,25428,1,0,0:0:0:0:
256,192,25464,1,0,0:0:0:0:
109,192,25500,1,0,0:0:0:0:
329,192,25536,1,0,0:0:0:0:
402,192,25536,1,0,0:0:0:0:
475,192,25536,1,0,0:0:0:0:
256,192,25680,1,0,0:0:0:0:
109,192,25680,1,0,0:0:0:0:
182,192,25824,1,0,0:0:0:0:
329,192,25824,1,0,0:0:0:0:
36,192,25824,1,0,0:0:0:0:
475,192,25896,1,0,0:0:0:0:
329,192,25968,1,0,0:0:0:0:
256,192,25968,1,0,0:0:0:0:
182,192,25968,1,0,0:0:0:0:
109,192,26040,1,0,0:0:0:0:
402,192,26113,1,0,0:0:0:0:
475,192,26113,1,0,0:0:0:0:
36,192,26113,1,0,0:0:0:0:
182,192,26257,1,0,0:0:0:0:
256,192,26329,1,0,0:0:0:0:
329,192,26401,1,0,0:0:0:0:
402,192,26401,1,0,0:0:0:0:
36,192,26401,1,0,0:0:0:0:
182,192,26545,1,0,0:0:0:0:
256,192,26581,1,0,0:0:0:0:
329,192,26617,1,0,0:0:0:0:
402,192,26653,1,0,0:0:0:0:
36,192,26689,1,0,0:0:0:0:
109,192,26689,1,0,0:0:0:0:
475,192,26689,1,0,0:0:0:0:
329,192,26833,1,0,0:0:0:0:
402,192,26833,1,0,0:0:0:0:
475,192,26833,1,0,0:0:0:0:
256,192,26978,1,0,0:0:0:0:
182,192,26978,1,0,0:0:0:0:
109,192,26978,1,0,0:0:0:0:
182,192,27122,1,0,0:0:0:0:
256,192,27122,1,0,0:0:0:0:
109,192,27122,1,0,0:0:0:0:
475,192,27266,1,0,0:0:0:0:
36,192,27266,1,0,0:0:0:0:
109,192,27266,1,0,0:0:0:0:
256,192,27410,1,0,0:0:0:0:
329,192,27410,1,0,0:0:0:0:
402,192,27410,1,0,0:0:0:0:
182,192,27554,1,0,0:0:0:0:
402,192,27554,1,0,0:0:0:0:
475,192,27554,1,0,0:0:0:0:
109,192,27698,1,0,0:0:0:0:
182,192,27734,1,0,0:0:0:0:
256,192,27770,1,0,0:0:0:0:
329,192,27806,1,0,0:0:0:0:
402,192,27843,1,0,0:0:0:0:
475,192,27843,1,0,0:0:0:0:
36,192,27843,1,0,0:0:0:0:
109,192,27843,1,0,0:0:0:0:
182,192,27987,1,0,0:0:0:0:
36,192,27987,1,0,0:0:0:0:
329,192,27987,1,0,0:0:0:0:
256,192,28131,1,0,0:0:0:0:
475,192,28131,1,0,0:0:0:0:
402,192,28131,1,0,0:0:0:0:
256,192,28275,1,0,0:0:0:0:
475,192,28275,1,0,0:0:0:0:
402,192,28275,1,0,0:0:0:0:
182,192,28419,1,0,0:0:0:0:
36,192,28419,1,0,0:0:0:0:
109,192,28419,1,0,0:0:0:0:
329,192,28563,1,0,0:0:0:0:
402,192,28563,1,0,0:0:0:0:
475,192,28563,1,0,0:0:0:0:
256,192,28707,1,0,0:0:0:0:
109,192,28707,1,0,0:0:0:0:
36,192,28707,1,0,0:0:0:0:
329,192,28852,1,0,0:0:0:0:
256,192,28888,1,0,0:0:0:0:
109,192,28924,1,0,0:0:0:0:
182,192,28960,1,0,0:0:0:0:
402,192,28996,1,0,0:0:0:0:
475,192,28996,1,0,0:0:0:0:
329,192,28996,1,0,0:0:0:0:
256,192,29140,1,0,0:0:0:0:
402,192,29140,1,0,0:0:0:0:
36,192,29140,1,0,0:0:0:0:
36,192,29284,1,0,0:0:0:0:
109,192,29284,1,0,0:0:0:0:
329,192,29284,1,0,0:0:0:0:
182,192,29428,1,0,0:0:0:0:
475,192,29428,1,0,0:0:0:0:
256,192,29428,1,0,0:0:0:0:
256,192,29572,1,0,0:0:0:0:
402,192,29572,1,0,0:0:0:0:
329,192,29572,1,0,0:0:0:0:
36,192,29717,1,0,0:0:0:0:
182,192,29717,1,0,0:0:0:0:
109,192,29717,1,0,0:0:0:0:
329,192,29861,1,0,0:0:0:0:
402,192,29861,1,0,0:0:0:0:
475,192,29861,1,0,0:0:0:0:
256,192,30005,1,0,0:0:0:0:
182,192,30041,1,0,0:0:0:0:
329,192,30077,1,0,0:0:0:0:
402,192,30113,1,0,0:0:0:0:
109,192,30149,1,0,0:0:0:0:
182,192,30149,1,0,0:0:0:0:
36,192,30149,1,0,0:0:0:0:
475,192,30293,1,0,0:0:0:0:
36,192,30293,1,0,0:0:0:0:
109,192,30293,1,0,0:0:0:0:
256,192,30437,1,0,0:0:0:0:
402,192,30437,1,0,0:0:0:0:
329,192,30437,1,0,0:0:0:0:
182,192,30582,1,0,0:0:0:0:
109,192,30582,1,0,0:0:0:0:
256,192,30582,1,0,0:0:0:0:
329,192,30726,1,0,0:0:0:0:
475,192,30726,1,0,0:0:0:0:
402,192,30726,1,0,0:0:0:0:
256,192,30870,1,0,0:0:0:0:
36,192,30870,1,0,0:0:0:0:
182,192,30870,1,0,0:0:0:0:
109,192,31014,1,0,0:0:0:0:
402,192,31014,1,0,0:0:0:0:
475,192,31014,1,0,0:0:0:0:
329,192,31158,1,0,0:0:0:0:
256,192,31194,1,0,0:0:0:0:
182,192,31230,1,0,0:0:0:0:
109,192,31266,1,0,0:0:0:0:
402,192,31302,1,0,0:0:0:0:
475,192,31302,1,0,0:0:0:0:
36,192,31302,1,0,0:0:0:0:
36,192,31447,1,0,0:0:0:0:
329,192,31447,1,0,0:0:0:0:
475,192,31447,1,0,0:0:0:0:
182,192,31591,1,0,0:0:0:0:
256,192,31591,1,0,0:0:0:0:
109,192,31591,1,0,0:0:0:0:
329,192,31735,1,0,0:0:0:0:
475,192,31735,1,0,0:0:0:0:
402,192,31735,1,0,0:0:0:0:
36,192,31879,1,0,0:0:0:0:
256,192,31879,1,0,0:0:0:0:
402,192,31879,1,0,0:0:0:0:
182,192,32023,1,0,0:0:0:0:
109,192,32023,1,0,0:0:0:0:
256,192,32023,1,0,0:0:0:0:
329,192,32167,1,0,0:0:0:0:
402,192,32167,1,0,0:0:0:0:
475,192,32167,1,0,0:0:0:0:
36,192,32312,1,0,0:0:0:0:
109,192,32348,1,0,0:0:0:0:
182,192,32384,1,0,0:0:0:0:
256,192,32420,1,0,0:0:0:0:
329,192,32456,1,0,0:0:0:0:
475,192,32456,1,0,0:0:0:0:
402,192,32456,1,0,0:0:0:0:
36,192,32600,1,0,0:0:0:0:
182,192,32600,1,0,0:0:0:0:
109,192,32600,1,0,0:0:0:0:
256,192,32744,1,0,0:0:0:0:
402,192,32744,1,0,0:0:0:0:
182,192,32744,1,0,0:0:0:0:
109,192,32888,1,0,0:0:0:0:
329,192,32888,1,0,0:0:0:0:
475,192,32888,1,0,0:0:0:0:
402,192,33032,1,0,0:0:0:0:
475,192,33032,1,0,0:0:0:0:
256,192,33032,1,0,0:0:0:0:
36,192,33176,1,0,0:0:0:0:
182,192,33176,1,0,0:0:0:0:
256,192,33176,1,0,0:0:0:0:
109,192,33321,1,0,0:0:0:0:
329,192,33321,1,0,0:0:0:0:
36,192,33321,1,0,0:0:0:0:
475,192,33465,1,0,0:0:0:0:
402,192,33501,1,0,0:0:0:0:
329,192,33537,1,0,0:0:0:0:
256,192,33573,1,0,0:0:0:0:
182,192,33609,1,0,0:0:0:0:
36,192,33609,1,0,0:0:0:0:
109,192,33609,1,0,0:0:0:0:
329,192,33753,1,0,0:0:0:0:
475,192,33753,1,0,0:0:0:0:
402,192,33753,1,0,0:0:0:0:
109,192,33897,1,0,0:0:0:0:
256,192,33897,1,0,0:0:0:0:
475,192,33897,1,0,0:0:0:0:
182,192,34041,1,0,0:0:0:0:
402,192,34041,1,0,0:0:0:0:
109,192,34041,1,0,0:0:0:0:
329,192,34186,1,0,0:0:0:0:
36,192,34186,128,0,34474:0:0:0:0:
475,192,34186,1,0,0:0:0:0:
256,192,34330,1,0,0:0:0:0:
182,192,34330,1,0,0:0:0:0:
329,192,34402,1,0,0:0:0:0:
475,192,34474,1,0,0:0:0:0:
402,192,34474,1,0,0:0:0:0:
109,192,34474,1,0,0:0:0:0:
182,192,34546,1,0,0:0:0:0:
256,192,34618,1,0,0:0:0:0:
329,192,34690,1,0,0:0:0:0:
182,192,34762,1,0,0:0:0:0:
36,192,34762,1,0,0:0:0:0:
182,192,34858,1,0,0:0:0:0:
36,192,34858,1,0,0:0:0:0:
329,192,34954,1,0,0:0:0:0:
475,192,34954,1,0,0:0:0:0:
329,192,35051,128,0,35339:0:0:0:0:
475,192,35051,128,0,35339:0:0:0:0:
109,192,35339,128,0,35627:0:0:0:0:
402,192,35627,128,0,35916:0:0:0:0:
475,192,35916,1,0,0:0:0:0:
182,192,36108,1,0,0:0:0:0:
475,192,36204,128,0,36781:0:0:0:0:
256,192,36204,1,0,0:0:0:0:
256,192,36492,1,0,0:0:0:0:
256,192,36781,1,0,0:0:0:0:
109,192,37069,1,0,0:0:0:0:
182,192,37069,1,0,0:0:0:0:
329,192,37069,1,0,0:0:0:0:
402,192,37069,1,0,0:0:0:0:
36,192,37069,1,0,0:0:0:0:
256,192,37213,1,0,0:0:0:0:
475,192,37213,1,0,0:0:0:0:
402,192,37285,1,0,0:0:0:0:
36,192,37357,1,0,0:0:0:0:
182,192,37357,1,0,0:0:0:0:
329,192,37357,1,0,0:0:0:0:
109,192,37501,1,0,0:0:0:0:
256,192,37501,1,0,0:0:0:0:
182,192,37573,1,0,0:0:0:0:
329,192,37645,1,0,0:0:0:0:
402,192,37645,1,0,0:0:0:0:
475,192,37645,1,0,0:0:0:0:
36,192,37790,1,0,0:0:0:0:
182,192,37790,1,0,0:0:0:0:
402,192,37862,1,0,0:0:0:0:
109,192,37934,1,0,0:0:0:0:
256,192,37934,1,0,0:0:0:0:
329,192,37934,1,0,0:0:0:0:
182,192,38078,1,0,0:0:0:0:
475,192,38078,1,0,0:0:0:0:
256,192,38150,1,0,0:0:0:0:
36,192,38222,1,0,0:0:0:0:
109,192,38222,1,0,0:0:0:0:
402,192,38222,1,0,0:0:0:0:
256,192,38366,1,0,0:0:0:0:
329,192,38366,1,0,0:0:0:0:
402,192,38438,1,0,0:0:0:0:
182,192,38510,1,0,0:0:0:0:
109,192,38510,1,0,0:0:0:0:
475,192,38510,1,0,0:0:0:0:
402,192,38655,1,0,0:0:0:0:
256,192,38655,1,0,0:0:0:0:
329,192,38727,1,0,0:0:0:0:
182,192,38799,1,0,0:0:0:0:
109,192,38799,1,0,0:0:0:0:
36,192,38799,1,0,0:0:0:0:
256,192,38943,1,0,0:0:0:0:
475,192,38943,1,0,0:0:0:0:
36,192,39015,1,0,0:0:0:0:
329,192,39087,1,0,0:0:0:0:
109,192,39087,1,0,0:0:0:0:
182,192,39087,1,0,0:0:0:0:
109,192,39231,1,0,0:0:0:0:
182,192,39231,1,0,0:0:0:0:
329,192,39231,1,0,0:0:0:0:
402,192,39375,1,0,0:0:0:0:
475,192,39375,1,0,0:0:0:0:
256,192,39375,1,0,0:0:0:0:
36,192,39520,1,0,0:0:0:0:
182,192,39520,1,0,0:0:0:0:
256,192,39592,1,0,0:0:0:0:
109,192,39664,1,0,0:0:0:0:
329,192,39664,1,0,0:0:0:0:
475,192,39664,1,0,0:0:0:0:
256,192,39808,1,0,0:0:0:0:
402,192,39808,1,0,0:0:0:0:
36,192,39880,1,0,0:0:0:0:
182,192,39952,1,0,0:0:0:0:
109,192,39952,1,0,0:0:0:0:
329,192,39952,1,0,0:0:0:0:
36,192,40096,1,0,0:0:0:0:
256,192,40096,1,0,0:0:0:0:
182,192,40168,1,0,0:0:0:0:
475,192,40240,1,0,0:0:0:0:
329,192,40240,1,0,0:0:0:0:
402,192,40240,1,0,0:0:0:0:
182,192,40385,1,0,0:0:0:0:
256,192,40385,1,0,0:0:0:0:
329,192,40457,1,0,0:0:0:0:
109,192,40529,1,0,0:0:0:0:
36,192,40529,1,0,0:0:0:0:
402,192,40529,1,0,0:0:0:0:
182,192,40673,1,0,0:0:0:0:
475,192,40673,1,0,0:0:0:0:
402,192,40745,1,0,0:0:0:0:
256,192,40817,1,0,0:0:0:0:
329,192,40817,1,0,0:0:0:0:
36,192,40817,1,0,0:0:0:0:
475,192,40961,1,0,0:0:0:0:
402,192,40961,1,0,0:0:0:0:
329,192,41033,1,0,0:0:0:0:
36,192,41105,1,0,0:0:0:0:
109,192,41105,1,0,0:0:0:0:
182,192,41105,1,0,0:0:0:0:
256,192,41177,1,0,0:0:0:0:
329,192,41177,1,0,0:0:0:0:
402,192,41177,1,0,0:0:0:0:
182,192,41250,1,0,0:0:0:0:
109,192,41250,1,0,0:0:0:0:
36,192,41250,1,0,0:0:0:0:
329,192,41394,1,0,0:0:0:0:
402,192,41394,1,0,0:0:0:0:
475,192,41394,1,0,0:0:0:0:
329,192,41538,1,0,0:0:0:0:
402,192,41538,1,0,0:0:0:0:
475,192,41538,1,0,0:0:0:0:
36,192,41682,1,0,0:0:0:0:
109,192,41682,1,0,0:0:0:0:
256,192,41682,1,0,0:0:0:0:
182,192,41826,1,0,0:0:0:0:
329,192,41826,1,0,0:0:0:0:
475,192,41898,1,0,0:0:0:0:
402,192,41970,1,0,0:0:0:0:
109,192,41970,1,0,0:0:0:0:
256,192,41970,1,0,0:0:0:0:
182,192,42114,1,0,0:0:0:0:
475,192,42114,1,0,0:0:0:0:
36,192,42187,1,0,0:0:0:0:
256,192,42259,1,0,0:0:0:0:
329,192,42259,1,0,0:0:0:0:
402,192,42259,1,0,0:0:0:0:
36,192,42403,1,0,0:0:0:0:
109,192,42403,1,0,0:0:0:0:
256,192,42475,1,0,0:0:0:0:
182,192,42547,1,0,0:0:0:0:
329,192,42547,1,0,0:0:0:0:
475,192,42547,1,0,0:0:0:0:
36,192,42691,1,0,0:0:0:0:
256,192,42691,1,0,0:0:0:0:
109,192,42763,1,0,0:0:0:0:
182,192,42835,1,0,0:0:0:0:
402,192,42835,1,0,0:0:0:0:
329,192,42835,1,0,0:0:0:0:
256,192,42979,1,0,0:0:0:0:
109,192,42979,1,0,0:0:0:0:
182,192,43052,1,0,0:0:0:0:
329,192,43124,1,0,0:0:0:0:
402,192,43124,1,0,0:0:0:0:
475,192,43124,1,0,0:0:0:0:
36,192,43268,1,0,0:0:0:0:
182,192,43268,1,0,0:0:0:0:
329,192,43340,1,0,0:0:0:0:
256,192,43412,1,0,0:0:0:0:
475,192,43412,1,0,0:0:0:0:
109,192,43412,1,0,0:0:0:0:
182,192,43556,1,0,0:0:0:0:
402,192,43556,1,0,0:0:0:0:
109,192,43628,1,0,0:0:0:0:
256,192,43700,1,0,0:0:0:0:
329,192,43700,1,0,0:0:0:0:
36,192,43700,1,0,0:0:0:0:
36,192,43844,1,0,0:0:0:0:
256,192,43844,1,0,0:0:0:0:
329,192,43844,1,0,0:0:0:0:
402,192,43989,1,0,0:0:0:0:
475,192,43989,1,0,0:0:0:0:
182,192,43989,1,0,0:0:0:0:
109,192,44133,1,0,0:0:0:0:
36,192,44133,1,0,0:0:0:0:
329,192,44205,1,0,0:0:0:0:
256,192,44277,1,0,0:0:0:0:
182,192,44277,1,0,0:0:0:0:
402,192,44277,1,0,0:0:0:0:
36,192,44421,1,0,0:0:0:0:
475,192,44421,1,0,0:0:0:0:
182,192,44493,1,0,0:0:0:0:
109,192,44565,1,0,0:0:0:0:
256,192,44565,1,0,0:0:0:0:
329,192,44565,1,0,0:0:0:0:
182,192,44709,1,0,0:0:0:0:
402,192,44709,1,0,0:0:0:0:
256,192,44781,1,0,0:0:0:0:
36,192,44854,1,0,0:0:0:0:
109,192,44854,1,0,0:0:0:0:
329,192,44854,1,0,0:0:0:0:
256,192,44998,1,0,0:0:0:0:
475,192,44998,1,0,0:0:0:0:
109,192,45070,1,0,0:0:0:0:
329,192,45142,1,0,0:0:0:0:
402,192,45142,1,0,0:0:0:0:
182,192,45142,1,0,0:0:0:0:
109,192,45286,1,0,0:0:0:0:
36,192,45286,1,0,0:0:0:0:
475,192,45358,1,0,0:0:0:0:
329,192,45430,1,0,0:0:0:0:
402,192,45430,1,0,0:0:0:0:
256,192,45430,1,0,0:0:0:0:
109,192,45574,1,0,0:0:0:0:
182,192,45574,1,0,0:0:0:0:
36,192,45646,1,0,0:0:0:0:
329,192,45719,1,0,0:0:0:0:
402,192,45719,1,0,0:0:0:0:
475,192,45719,1,0,0:0:0:0:
256,192,45791,1,0,0:0:0:0:
182,192,45791,1,0,0:0:0:0:
109,192,45791,1,0,0:0:0:0:
329,192,45863,1,0,0:0:0:0:
402,192,45863,1,0,0:0:0:0:
475,192,45863,1,0,0:0:0:0:
36,192,46007,1,0,0:0:0:0:
109,192,46007,1,0,0:0:0:0:
182,192,46007,1,0,0:0:0:0:
36,192,46151,1,0,0:0:0:0:
109,192,46151,1,0,0:0:0:0:
182,192,46151,1,0,0:0:0:0:
256,192,46295,1,0,0:0:0:0:
329,192,46295,1,0,0:0:0:0:
402,192,46295,1,0,0:0:0:0:
475,192,46295,1,0,0:0:0:0:
109,192,46295,1,0,0:0:0:0:
182,192,46439,1,0,0:0:0:0:
36,192,46439,1,0,0:0:0:0:
329,192,46511,1,0,0:0:0:0:
109,192,46583,1,0,0:0:0:0:
256,192,46583,1,0,0:0:0:0:
475,192,46583,1,0,0:0:0:0:
402,192,46583,1,0,0:0:0:0:
182,192,46728,1,0,0:0:0:0:
329,192,46728,1,0,0:0:0:0:
36,192,46800,1,0,0:0:0:0:
256,192,46872,1,0,0:0:0:0:
109,192,46872,1,0,0:0:0:0:
402,192,46872,1,0,0:0:0:0:
182,192,47016,1,0,0:0:0:0:
329,192,47016,1,0,0:0:0:0:
256,192,47088,1,0,0:0:0:0:
36,192,47160,1,0,0:0:0:0:
109,192,47160,1,0,0:0:0:0:
475,192,47160,1,0,0:0:0:0:
402,192,47160,1,0,0:0:0:0:
182,192,47304,1,0,0:0:0:0:
329,192,47304,1,0,0:0:0:0:
109,192,47376,1,0,0:0:0:0:
256,192,47448,1,0,0:0:0:0:
475,192,47448,1,0,0:0:0:0:
402,192,47448,1,0,0:0:0:0:
36,192,47593,1,0,0:0:0:0:
109,192,47593,1,0,0:0:0:0:
475,192,47665,1,0,0:0:0:0:
182,192,47737,1,0,0:0:0:0:
256,192,47737,1,0,0:0:0:0:
329,192,47737,1,0,0:0:0:0:
402,192,47737,1,0,0:0:0:0:
109,192,47881,1,0,0:0:0:0:
475,192,47881,1,0,0:0:0:0:
256,192,47953,1,0,0:0:0:0:
182,192,48025,1,0,0:0:0:0:
329,192,48025,1,0,0:0:0:0:
36,192,48025,1,0,0:0:0:0:
256,192,48169,1,0,0:0:0:0:
402,192,48169,1,0,0:0:0:0:
36,192,48241,1,0,0:0:0:0:
329,192,48313,1,0,0:0:0:0:
475,192,48313,1,0,0:0:0:0:
182,192,48313,1,0,0:0:0:0:
109,192,48313,1,0,0:0:0:0:
182,192,48458,1,0,0:0:0:0:
329,192,48458,1,0,0:0:0:0:
475,192,48458,1,0,0:0:0:0:
36,192,48602,1,0,0:0:0:0:
109,192,48602,1,0,0:0:0:0:
256,192,48602,1,0,0:0:0:0:
329,192,48746,1,0,0:0:0:0:
475,192,48746,1,0,0:0:0:0:
109,192,48818,1,0,0:0:0:0:
36,192,48890,1,0,0:0:0:0:
182,192,48890,1,0,0:0:0:0:
402,192,48890,1,0,0:0:0:0:
256,192,48890,1,0,0:0:0:0:
109,192,49034,1,0,0:0:0:0:
329,192,49034,1,0,0:0:0:0:
402,192,49106,1,0,0:0:0:0:
182,192,49178,1,0,0:0:0:0:
256,192,49178,1,0,0:0:0:0:
475,192,49178,1,0,0:0:0:0:
109,192,49323,1,0,0:0:0:0:
402,192,49323,1,0,0:0:0:0:
182,192,49395,1,0,0:0:0:0:
329,192,49467,1,0,0:0:0:0:
256,192,49467,1,0,0:0:0:0:
36,192,49467,1,0,0:0:0:0:
475,192,49467,1,0,0:0:0:0:
182,192,49611,1,0,0:0:0:0:
109,192,49611,1,0,0:0:0:0:
256,192,49683,1,0,0:0:0:0:
329,192,49755,1,0,0:0:0:0:
402,192,49755,1,0,0:0:0:0:
475,192,49755,1,0,0:0:0:0:
182,192,49899,1,0,0:0:0:0:
256,192,49899,1,0,0:0:0:0:
475,192,49971,1,0,0:0:0:0:
109,192,50043,1,0,0:0:0:0:
36,192,50043,1,0,0:0:0:0:
329,192,50043,1,0,0:0:0:0:
402,192,50043,1,0,0:0:0:0:
182,192,50188,1,0,0:0:0:0:
256,192,50188,1,0,0:0:0:0:
329,192,50260,1,0,0:0:0:0:
402,192,50332,1,0,0:0:0:0:
36,192,50332,1,0,0:0:0:0:
475,192,50332,1,0,0:0:0:0:
329,192,50404,1,0,0:0:0:0:
256,192,50404,1,0,0:0:0:0:
109,192,50404,1,0,0:0:0:0:
402,192,50476,1,0,0:0:0:0:
475,192,50476,1,0,0:0:0:0:
182,192,50476,1,0,0:0:0:0:
256,192,50620,1,0,0:0:0:0:
109,192,50620,1,0,0:0:0:0:
36,192,50620,1,0,0:0:0:0:
329,192,50620,1,0,0:0:0:0:
36,192,50764,1,0,0:0:0:0:
256,192,50764,1,0,0:0:0:0:
109,192,50764,1,0,0:0:0:0:
182,192,50908,1,0,0:0:0:0:
402,192,50908,1,0,0:0:0:0:
329,192,50908,1,0,0:0:0:0:
109,192,51052,1,0,0:0:0:0:
256,192,51052,1,0,0:0:0:0:
182,192,51125,1,0,0:0:0:0:
329,192,51197,1,0,0:0:0:0:
402,192,51197,1,0,0:0:0:0:
475,192,51197,1,0,0:0:0:0:
36,192,51197,1,0,0:0:0:0:
109,192,51341,1,0,0:0:0:0:
182,192,51341,1,0,0:0:0:0:
475,192,51413,1,0,0:0:0:0:
256,192,51485,1,0,0:0:0:0:
329,192,51485,1,0,0:0:0:0:
402,192,51485,1,0,0:0:0:0:
36,192,51629,1,0,0:0:0:0:
182,192,51629,1,0,0:0:0:0:
329,192,51701,1,0,0:0:0:0:
256,192,51773,1,0,0:0:0:0:
475,192,51773,1,0,0:0:0:0:
402,192,51773,1,0,0:0:0:0:
109,192,51773,1,0,0:0:0:0:
182,192,51917,1,0,0:0:0:0:
329,192,51917,1,0,0:0:0:0:
109,192,51990,1,0,0:0:0:0:
402,192,52062,1,0,0:0:0:0:
256,192,52062,1,0,0:0:0:0:
36,192,52062,1,0,0:0:0:0:
109,192,52206,1,0,0:0:0:0:
329,192,52206,1,0,0:0:0:0:
36,192,52278,1,0,0:0:0:0:
182,192,52350,1,0,0:0:0:0:
256,192,52350,1,0,0:0:0:0:
475,192,52350,1,0,0:0:0:0:
402,192,52350,1,0,0:0:0:0:
36,192,52494,1,0,0:0:0:0:
329,192,52494,1,0,0:0:0:0:
402,192,52566,1,0,0:0:0:0:
256,192,52638,1,0,0:0:0:0:
109,192,52638,1,0,0:0:0:0:
182,192,52638,1,0,0:0:0:0:
329,192,52782,1,0,0:0:0:0:
475,192,52782,1,0,0:0:0:0:
402,192,52855,1,0,0:0:0:0:
36,192,52927,1,0,0:0:0:0:
109,192,52927,1,0,0:0:0:0:
256,192,52927,1,0,0:0:0:0:
182,192,52927,1,0,0:0:0:0:
109,192,53071,1,0,0:0:0:0:
182,192,53071,1,0,0:0:0:0:
36,192,53071,1,0,0:0:0:0:
329,192,53215,1,0,0:0:0:0:
402,192,53215,1,0,0:0:0:0:
475,192,53215,1,0,0:0:0:0:
256,192,53359,1,0,0:0:0:0:
109,192,53359,1,0,0:0:0:0:
402,192,53431,1,0,0:0:0:0:
36,192,53503,1,0,0:0:0:0:
182,192,53503,1,0,0:0:0:0:
475,192,53503,1,0,0:0:0:0:
329,192,53503,1,0,0:0:0:0:
256,192,53647,1,0,0:0:0:0:
402,192,53647,1,0,0:0:0:0:
475,192,53719,1,0,0:0:0:0:
329,192,53792,1,0,0:0:0:0:
182,192,53792,1,0,0:0:0:0:
36,192,53792,1,0,0:0:0:0:
109,192,53936,1,0,0:0:0:0:
256,192,53936,1,0,0:0:0:0:
36,192,54008,1,0,0:0:0:0:
329,192,54080,1,0,0:0:0:0:
402,192,54080,1,0,0:0:0:0:
475,192,54080,1,0,0:0:0:0:
182,192,54080,1,0,0:0:0:0:
36,192,54224,1,0,0:0:0:0:
109,192,54224,1,0,0:0:0:0:
256,192,54296,1,0,0:0:0:0:
475,192,54368,1,0,0:0:0:0:
329,192,54368,1,0,0:0:0:0:
402,192,54368,1,0,0:0:0:0:
182,192,54512,1,0,0:0:0:0:
109,192,54512,1,0,0:0:0:0:
256,192,54584,1,0,0:0:0:0:
402,192,54657,1,0,0:0:0:0:
475,192,54657,1,0,0:0:0:0:
36,192,54657,1,0,0:0:0:0:
402,192,54801,1,0,0:0:0:0:
475,192,54801,1,0,0:0:0:0:
36,192,54801,1,0,0:0:0:0:
329,192,54945,1,0,0:0:0:0:
182,192,54945,1,0,0:0:0:0:
256,192,54945,1,0,0:0:0:0:
109,192,54945,1,0,0:0:0:0:
402,192,55089,1,0,0:0:0:0:
36,192,55089,1,0,0:0:0:0:
329,192,55233,1,0,0:0:0:0:
475,192,55233,1,0,0:0:0:0:
256,192,55233,1,0,0:0:0:0:
109,192,55377,1,0,0:0:0:0:
182,192,55413,1,0,0:0:0:0:
256,192,55449,1,0,0:0:0:0:
329,192,55485,1,0,0:0:0:0:
402,192,55522,1,0,0:0:0:0:
475,192,55522,1,0,0:0:0:0:
182,192,55522,1,0,0:0:0:0:
109,192,55522,1,0,0:0:0:0:
36,192,55522,1,0,0:0:0:0:
475,192,55666,1,0,0:0:0:0:
329,192,55666,1,0,0:0:0:0:
182,192,55738,1,0,0:0:0:0:
36,192,55810,1,0,0:0:0:0:
109,192,55810,1,0,0:0:0:0:
402,192,55810,1,0,0:0:0:0:
256,192,55810,1,0,0:0:0:0:
182,192,55954,1,0,0:0:0:0:
329,192,55954,1,0,0:0:0:0:
475,192,56026,1,0,0:0:0:0:
109,192,56098,1,0,0:0:0:0:
402,192,56098,1,0,0:0:0:0:
256,192,56098,1,0,0:0:0:0:
182,192,56242,1,0,0:0:0:0:
329,192,56242,1,0,0:0:0:0:
256,192,56314,1,0,0:0:0:0:
36,192,56386,1,0,0:0:0:0:
109,192,56386,1,0,0:0:0:0:
475,192,56386,1,0,0:0:0:0:
402,192,56386,1,0,0:0:0:0:
182,192,56531,1,0,0:0:0:0:
329,192,56531,1,0,0:0:0:0:
402,192,56603,1,0,0:0:0:0:
109,192,56675,1,0,0:0:0:0:
36,192,56675,1,0,0:0:0:0:
256,192,56675,1,0,0:0:0:0:
402,192,56819,1,0,0:0:0:0:
475,192,56819,1,0,0:0:0:0:
36,192,56891,1,0,0:0:0:0:
182,192,56963,1,0,0:0:0:0:
109,192,56963,1,0,0:0:0:0:
329,192,56963,1,0,0:0:0:0:
256,192,56963,1,0,0:0:0:0:
36,192,57107,1,0,0:0:0:0:
402,192,57107,1,0,0:0:0:0:
256,192,57179,1,0,0:0:0:0:
475,192,57251,1,0,0:0:0:0:
182,192,57251,1,0,0:0:0:0:
329,192,57251,1,0,0:0:0:0:
109,192,57396,1,0,0:0:0:0:
256,192,57396,1,0,0:0:0:0:
475,192,57468,1,0,0:0:0:0:
329,192,57540,1,0,0:0:0:0:
402,192,57540,1,0,0:0:0:0:
182,192,57540,1,0,0:0:0:0:
36,192,57540,1,0,0:0:0:0:
36,192,57684,1,0,0:0:0:0:
182,192,57684,1,0,0:0:0:0:
329,192,57684,1,0,0:0:0:0:
256,192,57828,1,0,0:0:0:0:
402,192,57828,1,0,0:0:0:0:
475,192,57828,1,0,0:0:0:0:
36,192,57972,1,0,0:0:0:0:
182,192,57972,1,0,0:0:0:0:
402,192,58044,1,0,0:0:0:0:
109,192,58116,1,0,0:0:0:0:
256,192,58116,1,0,0:0:0:0:
475,192,58116,1,0,0:0:0:0:
329,192,58116,1,0,0:0:0:0:
182,192,58261,1,0,0:0:0:0:
402,192,58261,1,0,0:0:0:0:
109,192,58333,1,0,0:0:0:0:
36,192,58405,1,0,0:0:0:0:
256,192,58405,1,0,0:0:0:0:
329,192,58405,1,0,0:0:0:0:
109,192,58549,1,0,0:0:0:0:
402,192,58549,1,0,0:0:0:0:
329,192,58621,1,0,0:0:0:0:
475,192,58693,1,0,0:0:0:0:
36,192,58693,1,0,0:0:0:0:
182,192,58693,1,0,0:0:0:0:
256,192,58693,1,0,0:0:0:0:
402,192,58837,1,0,0:0:0:0:
329,192,58837,1,0,0:0:0:0:
256,192,58909,1,0,0:0:0:0:
36,192,58981,1,0,0:0:0:0:
109,192,58981,1,0,0:0:0:0:
182,192,58981,1,0,0:0:0:0:
256,192,59126,1,0,0:0:0:0:
329,192,59126,1,0,0:0:0:0:
36,192,59198,1,0,0:0:0:0:
182,192,59270,1,0,0:0:0:0:
109,192,59270,1,0,0:0:0:0:
402,192,59270,1,0,0:0:0:0:
475,192,59270,1,0,0:0:0:0:
329,192,59414,1,0,0:0:0:0:
256,192,59414,1,0,0:0:0:0:
182,192,59486,1,0,0:0:0:0:
109,192,59558,1,0,0:0:0:0:
475,192,59558,1,0,0:0:0:0:
36,192,59558,1,0,0:0:0:0:
402,192,59630,1,0,0:0:0:0:
256,192,59630,1,0,0:0:0:0:
182,192,59630,1,0,0:0:0:0:
36,192,59702,1,0,0:0:0:0:
329,192,59702,1,0,0:0:0:0:
109,192,59702,1,0,0:0:0:0:
256,192,59846,1,0,0:0:0:0:
402,192,59846,1,0,0:0:0:0:
182,192,59846,1,0,0:0:0:0:
475,192,59846,1,0,0:0:0:0:
402,192,59991,1,0,0:0:0:0:
475,192,59991,1,0,0:0:0:0:
256,192,59991,1,0,0:0:0:0:
182,192,60135,1,0,0:0:0:0:
109,192,60135,1,0,0:0:0:0:
329,192,60135,1,0,0:0:0:0:
256,192,60279,1,0,0:0:0:0:
402,192,60279,1,0,0:0:0:0:
329,192,60351,1,0,0:0:0:0:
36,192,60423,1,0,0:0:0:0:
475,192,60423,1,0,0:0:0:0:
182,192,60423,1,0,0:0:0:0:
109,192,60423,1,0,0:0:0:0:
329,192,60567,1,0,0:0:0:0:
402,192,60567,1,0,0:0:0:0:
36,192,60639,1,0,0:0:0:0:
109,192,60711,1,0,0:0:0:0:
182,192,60711,1,0,0:0:0:0:
256,192,60711,1,0,0:0:0:0:
329,192,60855,1,0,0:0:0:0:
475,192,60855,1,0,0:0:0:0:
182,192,60928,1,0,0:0:0:0:
109,192,61000,1,0,0:0:0:0:
402,192,61000,1,0,0:0:0:0:
256,192,61000,1,0,0:0:0:0:
36,192,61000,1,0,0:0:0:0:
182,192,61144,1,0,0:0:0:0:
329,192,61144,1,0,0:0:0:0:
402,192,61216,1,0,0:0:0:0:
475,192,61288,1,0,0:0:0:0:
256,192,61288,1,0,0:0:0:0:
109,192,61288,1,0,0:0:0:0:
182,192,61432,1,0,0:0:0:0:
402,192,61432,1,0,0:0:0:0:
475,192,61504,1,0,0:0:0:0:
36,192,61576,1,0,0:0:0:0:
109,192,61576,1,0,0:0:0:0:
329,192,61576,1,0,0:0:0:0:
256,192,61576,1,0,0:0:0:0:
182,192,61720,1,0,0:0:0:0:
475,192,61720,1,0,0:0:0:0:
109,192,61793,1,0,0:0:0:0:
329,192,61865,1,0,0:0:0:0:
402,192,61865,1,0,0:0:0:0:
256,192,61865,1,0,0:0:0:0:
36,192,62009,1,0,0:0:0:0:
182,192,62009,1,0,0:0:0:0:
109,192,62081,1,0,0:0:0:0:
256,192,62153,1,0,0:0:0:0:
329,192,62153,1,0,0:0:0:0:
475,192,62153,1,0,0:0:0:0:
402,192,62153,1,0,0:0:0:0:
475,192,62297,1,0,0:0:0:0:
329,192,62297,1,0,0:0:0:0:
402,192,62297,1,0,0:0:0:0:
36,192,62441,1,0,0:0:0:0:
109,192,62441,1,0,0:0:0:0:
182,192,62441,1,0,0:0:0:0:
109,192,62585,1,0,0:0:0:0:
256,192,62585,1,0,0:0:0:0:
475,192,62657,1,0,0:0:0:0:
36,192,62730,1,0,0:0:0:0:
182,192,62730,1,0,0:0:0:0:
329,192,62730,1,0,0:0:0:0:
402,192,62730,1,0,0:0:0:0:
109,192,62874,1,0,0:0:0:0:
256,192,62874,1,0,0:0:0:0:
36,192,62946,1,0,0:0:0:0:
475,192,63018,1,0,0:0:0:0:
329,192,63018,1,0,0:0:0:0:
182,192,63018,1,0,0:0:0:0:
256,192,63162,1,0,0:0:0:0:
402,192,63162,1,0,0:0:0:0:
475,192,63234,1,0,0:0:0:0:
36,192,63306,1,0,0:0:0:0:
329,192,63306,1,0,0:0:0:0:
182,192,63306,1,0,0:0:0:0:
109,192,63306,1,0,0:0:0:0:
402,192,63450,1,0,0:0:0:0:
475,192,63450,1,0,0:0:0:0:
329,192,63522,1,0,0:0:0:0:
109,192,63595,1,0,0:0:0:0:
182,192,63595,1,0,0:0:0:0:
256,192,63595,1,0,0:0:0:0:
402,192,63739,1,0,0:0:0:0:
329,192,63739,1,0,0:0:0:0:
256,192,63811,1,0,0:0:0:0:
475,192,63883,1,0,0:0:0:0:
36,192,63883,1,0,0:0:0:0:
109,192,63883,1,0,0:0:0:0:
182,192,63883,1,0,0:0:0:0:
36,192,64027,1,0,0:0:0:0:
109,192,64027,1,0,0:0:0:0:
182,192,64099,1,0,0:0:0:0:
475,192,64171,1,0,0:0:0:0:
329,192,64171,1,0,0:0:0:0:
256,192,64171,1,0,0:0:0:0:
402,192,64243,1,0,0:0:0:0:
182,192,64243,1,0,0:0:0:0:
109,192,64243,1,0,0:0:0:0:
36,192,64315,1,0,0:0:0:0:
256,192,64315,1,0,0:0:0:0:
329,192,64315,1,0,0:0:0:0:
109,192,64460,1,0,0:0:0:0:
36,192,64460,1,0,0:0:0:0:
402,192,64460,1,0,0:0:0:0:
475,192,64460,1,0,0:0:0:0:
36,192,64604,1,0,0:0:0:0:
402,192,64604,1,0,0:0:0:0:
475,192,64604,1,0,0:0:0:0:
402,192,64748,1,0,0:0:0:0:
475,192,64748,1,0,0:0:0:0:
256,192,64748,1,0,0:0:0:0:
329,192,64748,1,0,0:0:0:0:
109,192,64748,1,0,0:0:0:0:
36,192,64892,1,0,0:0:0:0:
182,192,64892,1,0,0:0:0:0:
329,192,64964,1,0,0:0:0:0:
475,192,65036,1,0,0:0:0:0:
402,192,65036,1,0,0:0:0:0:
109,192,65036,1,0,0:0:0:0:
256,192,65036,1,0,0:0:0:0:
329,192,65180,1,0,0:0:0:0:
182,192,65180,1,0,0:0:0:0:
36,192,65252,1,0,0:0:0:0:
402,192,65324,1,0,0:0:0:0:
109,192,65324,1,0,0:0:0:0:
256,192,65324,1,0,0:0:0:0:
329,192,65469,1,0,0:0:0:0:
182,192,65469,1,0,0:0:0:0:
256,192,65541,1,0,0:0:0:0:
475,192,65613,1,0,0:0:0:0:
402,192,65613,1,0,0:0:0:0:
36,192,65613,1,0,0:0:0:0:
109,192,65613,1,0,0:0:0:0:
329,192,65757,1,0,0:0:0:0:
182,192,65757,1,0,0:0:0:0:
109,192,65829,1,0,0:0:0:0:
402,192,65901,1,0,0:0:0:0:
475,192,65901,1,0,0:0:0:0:
256,192,65901,1,0,0:0:0:0:
109,192,66045,1,0,0:0:0:0:
36,192,66045,1,0,0:0:0:0:
475,192,66117,1,0,0:0:0:0:
329,192,66189,1,0,0:0:0:0:
402,192,66189,1,0,0:0:0:0:
182,192,66189,1,0,0:0:0:0:
256,192,66189,1,0,0:0:0:0:
475,192,66334,1,0,0:0:0:0:
109,192,66334,1,0,0:0:0:0:
256,192,66406,1,0,0:0:0:0:
36,192,66478,1,0,0:0:0:0:
329,192,66478,1,0,0:0:0:0:
182,192,66478,1,0,0:0:0:0:
402,192,66622,1,0,0:0:0:0:
256,192,66622,1,0,0:0:0:0:
36,192,66694,1,0,0:0:0:0:
182,192,66766,1,0,0:0:0:0:
109,192,66766,1,0,0:0:0:0:
329,192,66766,1,0,0:0:0:0:
475,192,66766,1,0,0:0:0:0:
475,192,66910,1,0,0:0:0:0:
329,192,66910,1,0,0:0:0:0:
182,192,66910,1,0,0:0:0:0:
256,192,67054,1,0,0:0:0:0:
109,192,67054,1,0,0:0:0:0:
36,192,67054,1,0,0:0:0:0:
475,192,67199,1,0,0:0:0:0:
329,192,67199,1,0,0:0:0:0:
109,192,67271,1,0,0:0:0:0:
402,192,67343,1,0,0:0:0:0:
256,192,67343,1,0,0:0:0:0:
36,192,67343,1,0,0:0:0:0:
182,192,67343,1,0,0:0:0:0:
329,192,67487,1,0,0:0:0:0:
109,192,67487,1,0,0:0:0:0:
402,192,67559,1,0,0:0:0:0:
475,192,67631,1,0,0:0:0:0:
256,192,67631,1,0,0:0:0:0:
182,192,67631,1,0,0:0:0:0:
402,192,67775,1,0,0:0:0:0:
109,192,67775,1,0,0:0:0:0:
182,192,67847,1,0,0:0:0:0:
36,192,67919,1,0,0:0:0:0:
475,192,67919,1,0,0:0:0:0:
329,192,67919,1,0,0:0:0:0:
256,192,67919,1,0,0:0:0:0:
109,192,68064,1,0,0:0:0:0:
182,192,68064,1,0,0:0:0:0:
256,192,68136,1,0,0:0:0:0:
475,192,68208,1,0,0:0:0:0:
402,192,68208,1,0,0:0:0:0:
329,192,68208,1,0,0:0:0:0:
256,192,68352,1,0,0:0:0:0:
182,192,68352,1,0,0:0:0:0:
475,192,68424,1,0,0:0:0:0:
329,192,68496,1,0,0:0:0:0:
402,192,68496,1,0,0:0:0:0:
109,192,68496,1,0,0:0:0:0:
36,192,68496,1,0,0:0:0:0:
256,192,68640,1,0,0:0:0:0:
182,192,68640,1,0,0:0:0:0:
329,192,68712,1,0,0:0:0:0:
475,192,68784,1,0,0:0:0:0:
36,192,68784,1,0,0:0:0:0:
402,192,68784,1,0,0:0:0:0:
329,192,68856,1,0,0:0:0:0:
256,192,68856,1,0,0:0:0:0:
109,192,68856,1,0,0:0:0:0:
402,192,68929,1,0,0:0:0:0:
182,192,68929,1,0,0:0:0:0:
475,192,68929,1,0,0:0:0:0:
329,192,69073,1,0,0:0:0:0:
36,192,69073,1,0,0:0:0:0:
256,192,69073,1,0,0:0:0:0:
109,192,69073,1,0,0:0:0:0:
256,192,69217,1,0,0:0:0:0:
36,192,69217,1,0,0:0:0:0:
109,192,69217,1,0,0:0:0:0:
329,192,69361,1,0,0:0:0:0:
402,192,69361,1,0,0:0:0:0:
182,192,69361,1,0,0:0:0:0:
256,192,69505,1,0,0:0:0:0:
109,192,69505,1,0,0:0:0:0:
182,192,69577,1,0,0:0:0:0:
475,192,69649,1,0,0:0:0:0:
36,192,69649,1,0,0:0:0:0:
329,192,69649,1,0,0:0:0:0:
402,192,69649,1,0,0:0:0:0:
182,192,69793,1,0,0:0:0:0:
109,192,69793,1,0,0:0:0:0:
475,192,69866,1,0,0:0:0:0:
402,192,69938,1,0,0:0:0:0:
329,192,69938,1,0,0:0:0:0:
256,192,69938,1,0,0:0:0:0:
182,192,70082,1,0,0:0:0:0:
36,192,70082,1,0,0:0:0:0:
329,192,70154,1,0,0:0:0:0:
402,192,70226,1,0,0:0:0:0:
109,192,70226,1,0,0:0:0:0:
256,192,70226,1,0,0:0:0:0:
475,192,70226,1,0,0:0:0:0:
329,192,70370,1,0,0:0:0:0:
182,192,70370,1,0,0:0:0:0:
109,192,70442,1,0,0:0:0:0:
36,192,70514,5,0,0:0:0:0:
256,192,70514,1,0,0:0:0:0:
402,192,70514,1,0,0:0:0:0:
329,192,70658,1,0,0:0:0:0:
109,192,70658,1,0,0:0:0:0:
36,192,70731,1,0,0:0:0:0:
475,192,70803,1,0,0:0:0:0:
402,192,70803,1,0,0:0:0:0:
182,192,70803,1,0,0:0:0:0:
256,192,70803,1,0,0:0:0:0:
329,192,70947,1,0,0:0:0:0:
36,192,70947,1,0,0:0:0:0:
402,192,71019,1,0,0:0:0:0:
182,192,71091,1,0,0:0:0:0:
109,192,71091,1,0,0:0:0:0:
256,192,71091,1,0,0:0:0:0:
475,192,71235,1,0,0:0:0:0:
329,192,71235,1,0,0:0:0:0:
402,192,71307,1,0,0:0:0:0:
256,192,71379,1,0,0:0:0:0:
182,192,71379,1,0,0:0:0:0:
36,192,71379,1,0,0:0:0:0:
109,192,71379,1,0,0:0:0:0:
36,192,71523,1,0,0:0:0:0:
182,192,71523,1,0,0:0:0:0:
109,192,71523,1,0,0:0:0:0:
475,192,71668,5,0,0:0:0:0:
402,192,71668,1,0,0:0:0:0:
329,192,71668,1,0,0:0:0:0:
256,192,71668,1,0,0:0:0:0:
36,192,71668,1,0,0:0:0:0:
182,192,71812,1,0,0:0:0:0:
256,192,71956,1,0,0:0:0:0:
329,192,72100,1,0,0:0:0:0:
256,192,72244,1,0,0:0:0:0:
109,192,72388,1,0,0:0:0:0:
256,192,72533,1,0,0:0:0:0:
402,192,72677,1,0,0:0:0:0:
256,192,72821,1,0,0:0:0:0:
475,192,72821,1,0,0:0:0:0:
109,192,72821,1,0,0:0:0:0:
36,192,72965,1,0,0:0:0:0:
329,192,73109,1,0,0:0:0:0:
256,192,73109,128,0,73398:0:0:0:0:
109,192,73253,1,0,0:0:0:0:
402,192,73398,1,0,0:0:0:0:
475,192,73398,1,0,0:0:0:0:
36,192,73470,1,0,0:0:0:0:
182,192,73470,1,0,0:0:0:0:
402,192,73542,1,0,0:0:0:0:
475,192,73542,1,0,0:0:0:0:
109,192,73686,1,0,0:0:0:0:
256,192,73686,1,0,0:0:0:0:
36,192,73686,1,0,0:0:0:0:
182,192,73830,1,0,0:0:0:0:
329,192,73830,1,0,0:0:0:0:
402,192,73830,1,0,0:0:0:0:
256,192,73974,1,0,0:0:0:0:
402,192,73974,1,0,0:0:0:0:
109,192,73974,1,0,0:0:0:0:
36,192,73974,1,0,0:0:0:0:
475,192,73974,1,0,0:0:0:0:
182,192,74046,1,0,0:0:0:0:
329,192,74118,1,0,0:0:0:0:
475,192,74118,1,0,0:0:0:0:
256,192,74190,1,0,0:0:0:0:
402,192,74262,1,0,0:0:0:0:
109,192,74262,1,0,0:0:0:0:
36,192,74262,1,0,0:0:0:0:
329,192,74335,1,0,0:0:0:0:
256,192,74407,1,0,0:0:0:0:
475,192,74407,1,0,0:0:0:0:
182,192,74479,1,0,0:0:0:0:
475,192,74551,1,0,0:0:0:0:
36,192,74551,1,0,0:0:0:0:
109,192,74551,1,0,0:0:0:0:
329,192,74623,1,0,0:0:0:0:
402,192,74695,1,0,0:0:0:0:
182,192,74695,1,0,0:0:0:0:
256,192,74767,1,0,0:0:0:0:
329,192,74839,1,0,0:0:0:0:
475,192,74839,1,0,0:0:0:0:
109,192,74839,1,0,0:0:0:0:
182,192,74911,1,0,0:0:0:0:
402,192,74983,1,0,0:0:0:0:
256,192,74983,1,0,0:0:0:0:
475,192,75055,1,0,0:0:0:0:
36,192,75127,1,0,0:0:0:0:
109,192,75127,1,0,0:0:0:0:
329,192,75127,1,0,0:0:0:0:
182,192,75200,1,0,0:0:0:0:
256,192,75272,1,0,0:0:0:0:
36,192,75272,1,0,0:0:0:0:
329,192,75344,1,0,0:0:0:0:
109,192,75416,1,0,0:0:0:0:
475,192,75416,1,0,0:0:0:0:
402,192,75416,1,0,0:0:0:0:
182,192,75488,1,0,0:0:0:0:
475,192,75560,1,0,0:0:0:0:
256,192,75560,1,0,0:0:0:0:
402,192,75632,1,0,0:0:0:0:
36,192,75704,1,0,0:0:0:0:
109,192,75704,1,0,0:0:0:0:
329,192,75704,1,0,0:0:0:0:
182,192,75776,1,0,0:0:0:0:
256,192,75848,1,0,0:0:0:0:
475,192,75848,1,0,0:0:0:0:
402,192,75920,1,0,0:0:0:0:
329,192,75992,1,0,0:0:0:0:
182,192,75992,1,0,0:0:0:0:
36,192,75992,1,0,0:0:0:0:
109,192,75992,1,0,0:0:0:0:
182,192,76137,1,0,0:0:0:0:
329,192,76137,1,0,0:0:0:0:
36,192,76137,1,0,0:0:0:0:
475,192,76281,1,0,0:0:0:0:
256,192,76281,1,0,0:0:0:0:
402,192,76281,1,0,0:0:0:0:
182,192,76353,1,0,0:0:0:0:
109,192,76425,1,0,0:0:0:0:
329,192,76425,1,0,0:0:0:0:
256,192,76497,1,0,0:0:0:0:
182,192,76569,1,0,0:0:0:0:
402,192,76569,1,0,0:0:0:0:
475,192,76569,1,0,0:0:0:0:
329,192,76641,1,0,0:0:0:0:
109,192,76713,1,0,0:0:0:0:
36,192,76713,1,0,0:0:0:0:
182,192,76785,1,0,0:0:0:0:
256,192,76857,1,0,0:0:0:0:
475,192,76857,1,0,0:0:0:0:
36,192,76857,1,0,0:0:0:0:
402,192,76929,1,0,0:0:0:0:
329,192,77002,1,0,0:0:0:0:
109,192,77002,1,0,0:0:0:0:
256,192,77074,1,0,0:0:0:0:
182,192,77146,1,0,0:0:0:0:
109,192,77146,1,0,0:0:0:0:
36,192,77146,1,0,0:0:0:0:
402,192,77218,1,0,0:0:0:0:
329,192,77290,1,0,0:0:0:0:
475,192,77290,1,0,0:0:0:0:
256,192,77362,1,0,0:0:0:0:
402,192,77434,1,0,0:0:0:0:
36,192,77434,1,0,0:0:0:0:
109,192,77434,1,0,0:0:0:0:
182,192,77506,1,0,0:0:0:0:
256,192,77578,1,0,0:0:0:0:
475,192,77578,1,0,0:0:0:0:
329,192,77650,1,0,0:0:0:0:
475,192,77722,1,0,0:0:0:0:
402,192,77722,1,0,0:0:0:0:
36,192,77722,1,0,0:0:0:0:
109,192,77794,1,0,0:0:0:0:
182,192,77867,1,0,0:0:0:0:
329,192,77867,1,0,0:0:0:0:
256,192,77939,1,0,0:0:0:0:
182,192,78011,1,0,0:0:0:0:
36,192,78011,1,0,0:0:0:0:
109,192,78011,1,0,0:0:0:0:
329,192,78083,1,0,0:0:0:0:
475,192,78083,1,0,0:0:0:0:
402,192,78083,1,0,0:0:0:0:
182,192,78155,1,0,0:0:0:0:
36,192,78155,1,0,0:0:0:0:
109,192,78155,1,0,0:0:0:0:
329,192,78299,1,0,0:0:0:0:
402,192,78299,1,0,0:0:0:0:
475,192,78299,1,0,0:0:0:0:
256,192,78299,1,0,0:0:0:0:
182,192,78371,1,0,0:0:0:0:
329,192,78443,1,0,0:0:0:0:
402,192,78443,1,0,0:0:0:0:
475,192,78443,1,0,0:0:0:0:
182,192,78515,1,0,0:0:0:0:
36,192,78587,1,0,0:0:0:0:
256,192,78587,1,0,0:0:0:0:
475,192,78587,1,0,0:0:0:0:
109,192,78659,1,0,0:0:0:0:
182,192,78731,1,0,0:0:0:0:
329,192,78731,1,0,0:0:0:0:
402,192,78804,1,0,0:0:0:0:
256,192,78876,1,0,0:0:0:0:
36,192,78876,1,0,0:0:0:0:
475,192,78876,1,0,0:0:0:0:
182,192,78948,1,0,0:0:0:0:
109,192,79020,1,0,0:0:0:0:
402,192,79020,1,0,0:0:0:0:
329,192,79092,1,0,0:0:0:0:
256,192,79164,1,0,0:0:0:0:
475,192,79164,1,0,0:0:0:0:
182,192,79164,1,0,0:0:0:0:
109,192,79236,1,0,0:0:0:0:
36,192,79308,1,0,0:0:0:0:
402,192,79308,1,0,0:0:0:0:
329,192,79380,1,0,0:0:0:0:
36,192,79452,1,0,0:0:0:0:
256,192,79452,1,0,0:0:0:0:
475,192,79452,1,0,0:0:0:0:
109,192,79524,1,0,0:0:0:0:
182,192,79596,1,0,0:0:0:0:
256,192,79596,1,0,0:0:0:0:
329,192,79669,1,0,0:0:0:0:
475,192,79741,1,0,0:0:0:0:
109,192,79741,1,0,0:0:0:0:
402,192,79741,1,0,0:0:0:0:
182,192,79813,1,0,0:0:0:0:
256,192,79885,1,0,0:0:0:0:
475,192,79885,1,0,0:0:0:0:
329,192,79957,1,0,0:0:0:0:
402,192,80029,1,0,0:0:0:0:
36,192,80029,1,0,0:0:0:0:
109,192,80029,1,0,0:0:0:0:
182,192,80101,1,0,0:0:0:0:
256,192,80173,1,0,0:0:0:0:
475,192,80173,1,0,0:0:0:0:
402,192,80245,1,0,0:0:0:0:
329,192,80317,1,0,0:0:0:0:
182,192,80317,1,0,0:0:0:0:
36,192,80317,1,0,0:0:0:0:
256,192,80389,1,0,0:0:0:0:
402,192,80461,1,0,0:0:0:0:
475,192,80461,1,0,0:0:0:0:
329,192,80534,1,0,0:0:0:0:
36,192,80606,1,0,0:0:0:0:
109,192,80606,1,0,0:0:0:0:
182,192,80606,1,0,0:0:0:0:
256,192,80606,1,0,0:0:0:0:
36,192,80750,1,0,0:0:0:0:
109,192,80750,1,0,0:0:0:0:
182,192,80750,1,0,0:0:0:0:
329,192,80894,1,0,0:0:0:0:
475,192,80894,1,0,0:0:0:0:
36,192,80894,1,0,0:0:0:0:
256,192,80966,1,0,0:0:0:0:
182,192,81038,1,0,0:0:0:0:
109,192,81038,1,0,0:0:0:0:
329,192,81110,1,0,0:0:0:0:
182,192,81182,1,0,0:0:0:0:
402,192,81182,1,0,0:0:0:0:
475,192,81182,1,0,0:0:0:0:
256,192,81254,1,0,0:0:0:0:
329,192,81326,1,0,0:0:0:0:
36,192,81326,1,0,0:0:0:0:
109,192,81398,1,0,0:0:0:0:
475,192,81471,1,0,0:0:0:0:
402,192,81471,1,0,0:0:0:0:
182,192,81471,1,0,0:0:0:0:
329,192,81543,1,0,0:0:0:0:
256,192,81615,1,0,0:0:0:0:
402,192,81687,1,0,0:0:0:0:
329,192,81759,1,0,0:0:0:0:
182,192,81759,1,0,0:0:0:0:
36,192,81759,1,0,0:0:0:0:
109,192,81831,1,0,0:0:0:0:
256,192,81903,1,0,0:0:0:0:
475,192,81903,1,0,0:0:0:0:
329,192,81975,1,0,0:0:0:0:
475,192,82047,1,0,0:0:0:0:
402,192,82047,1,0,0:0:0:0:
182,192,82047,1,0,0:0:0:0:
109,192,82119,1,0,0:0:0:0:
256,192,82191,1,0,0:0:0:0:
36,192,82191,1,0,0:0:0:0:
182,192,82263,1,0,0:0:0:0:
402,192,82336,1,0,0:0:0:0:
109,192,82336,1,0,0:0:0:0:
36,192,82336,1,0,0:0:0:0:
329,192,82408,1,0,0:0:0:0:
256,192,82480,1,0,0:0:0:0:
475,192,82480,1,0,0:0:0:0:
182,192,82552,1,0,0:0:0:0:
329,192,82624,1,0,0:0:0:0:
402,192,82624,1,0,0:0:0:0:
475,192,82624,1,0,0:0:0:0:
36,192,82696,1,0,0:0:0:0:
109,192,82696,1,0,0:0:0:0:
182,192,82696,1,0,0:0:0:0:
329,192,82768,1,0,0:0:0:0:
402,192,82768,1,0,0:0:0:0:
475,192,82768,1,0,0:0:0:0:
36,192,82912,1,0,0:0:0:0:
109,192,82912,1,0,0:0:0:0:
182,192,82912,1,0,0:0:0:0:
256,192,82912,1,0,0:0:0:0:
329,192,82984,1,0,0:0:0:0:
36,192,83056,1,0,0:0:0:0:
109,192,83056,1,0,0:0:0:0:
182,192,83056,1,0,0:0:0:0:
329,192,83128,1,0,0:0:0:0:
475,192,83201,1,0,0:0:0:0:
402,192,83201,1,0,0:0:0:0:
36,192,83201,1,0,0:0:0:0:
109,192,83201,1,0,0:0:0:0:
256,192,83201,1,0,0:0:0:0:
329,192,83273,1,0,0:0:0:0:
182,192,83345,1,0,0:0:0:0:
36,192,83345,1,0,0:0:0:0:
256,192,83417,1,0,0:0:0:0:
109,192,83489,1,0,0:0:0:0:
402,192,83489,1,0,0:0:0:0:
475,192,83489,1,0,0:0:0:0:
182,192,83561,1,0,0:0:0:0:
256,192,83633,1,0,0:0:0:0:
36,192,83633,1,0,0:0:0:0:
329,192,83705,1,0,0:0:0:0:
36,192,83777,1,0,0:0:0:0:
475,192,83777,1,0,0:0:0:0:
402,192,83777,1,0,0:0:0:0:
182,192,83849,1,0,0:0:0:0:
109,192,83921,1,0,0:0:0:0:
329,192,83921,1,0,0:0:0:0:
256,192,83993,1,0,0:0:0:0:
182,192,84065,1,0,0:0:0:0:
36,192,84065,1,0,0:0:0:0:
402,192,84065,1,0,0:0:0:0:
329,192,84138,1,0,0:0:0:0:
109,192,84210,1,0,0:0:0:0:
256,192,84210,1,0,0:0:0:0:
36,192,84282,1,0,0:0:0:0:
475,192,84354,1,0,0:0:0:0:
402,192,84354,1,0,0:0:0:0:
182,192,84354,1,0,0:0:0:0:
329,192,84426,1,0,0:0:0:0:
256,192,84498,1,0,0:0:0:0:
475,192,84498,1,0,0:0:0:0:
182,192,84570,1,0,0:0:0:0:
402,192,84642,1,0,0:0:0:0:
36,192,84642,1,0,0:0:0:0:
109,192,84642,1,0,0:0:0:0:
329,192,84714,1,0,0:0:0:0:
36,192,84786,1,0,0:0:0:0:
256,192,84786,1,0,0:0:0:0:
109,192,84858,1,0,0:0:0:0:
475,192,84930,1,0,0:0:0:0:
402,192,84930,1,0,0:0:0:0:
182,192,84930,1,0,0:0:0:0:
329,192,85003,1,0,0:0:0:0:
256,192,85075,1,0,0:0:0:0:
36,192,85075,1,0,0:0:0:0:
109,192,85147,1,0,0:0:0:0:
182,192,85219,1,0,0:0:0:0:
329,192,85219,1,0,0:0:0:0:
475,192,85219,1,0,0:0:0:0:
402,192,85219,1,0,0:0:0:0:
329,192,85363,1,0,0:0:0:0:
182,192,85363,1,0,0:0:0:0:
475,192,85363,1,0,0:0:0:0:
36,192,85507,1,0,0:0:0:0:
256,192,85507,1,0,0:0:0:0:
109,192,85507,1,0,0:0:0:0:
329,192,85579,1,0,0:0:0:0:
402,192,85651,1,0,0:0:0:0:
182,192,85651,1,0,0:0:0:0:
256,192,85723,1,0,0:0:0:0:
329,192,85795,1,0,0:0:0:0:
109,192,85795,1,0,0:0:0:0:
36,192,85795,1,0,0:0:0:0:
182,192,85867,1,0,0:0:0:0:
402,192,85940,1,0,0:0:0:0:
475,192,85940,1,0,0:0:0:0:
329,192,86012,1,0,0:0:0:0:
256,192,86084,1,0,0:0:0:0:
36,192,86084,1,0,0:0:0:0:
475,192,86084,1,0,0:0:0:0:
109,192,86156,1,0,0:0:0:0:
182,192,86228,1,0,0:0:0:0:
402,192,86228,1,0,0:0:0:0:
256,192,86300,1,0,0:0:0:0:
329,192,86372,1,0,0:0:0:0:
402,192,86372,1,0,0:0:0:0:
475,192,86372,1,0,0:0:0:0:
109,192,86444,1,0,0:0:0:0:
182,192,86516,1,0,0:0:0:0:
36,192,86516,1,0,0:0:0:0:
256,192,86588,1,0,0:0:0:0:
109,192,86660,1,0,0:0:0:0:
475,192,86660,1,0,0:0:0:0:
402,192,86660,1,0,0:0:0:0:
329,192,86732,1,0,0:0:0:0:
256,192,86805,1,0,0:0:0:0:
36,192,86805,1,0,0:0:0:0:
182,192,86877,1,0,0:0:0:0:
36,192,86949,1,0,0:0:0:0:
109,192,86949,1,0,0:0:0:0:
475,192,86949,1,0,0:0:0:0:
402,192,87021,1,0,0:0:0:0:
329,192,87093,1,0,0:0:0:0:
182,192,87093,1,0,0:0:0:0:
256,192,87165,1,0,0:0:0:0:
329,192,87237,1,0,0:0:0:0:
475,192,87237,1,0,0:0:0:0:
402,192,87237,1,0,0:0:0:0:
182,192,87309,1,0,0:0:0:0:
36,192,87309,1,0,0:0:0:0:
109,192,87309,1,0,0:0:0:0:
329,192,87381,1,0,0:0:0:0:
475,192,87381,1,0,0:0:0:0:
402,192,87381,1,0,0:0:0:0:
182,192,87525,1,0,0:0:0:0:
109,192,87525,1,0,0:0:0:0:
36,192,87525,1,0,0:0:0:0:
256,192,87525,1,0,0:0:0:0:
329,192,87597,1,0,0:0:0:0:
182,192,87670,1,0,0:0:0:0:
109,192,87670,1,0,0:0:0:0:
36,192,87670,1,0,0:0:0:0:
329,192,87742,1,0,0:0:0:0:
475,192,87814,1,0,0:0:0:0:
256,192,87814,1,0,0:0:0:0:
36,192,87814,1,0,0:0:0:0:
402,192,87886,1,0,0:0:0:0:
329,192,87958,1,0,0:0:0:0:
182,192,87958,1,0,0:0:0:0:
109,192,88030,1,0,0:0:0:0:
256,192,88102,1,0,0:0:0:0:
475,192,88102,1,0,0:0:0:0:
36,192,88102,1,0,0:0:0:0:
329,192,88174,1,0,0:0:0:0:
402,192,88246,1,0,0:0:0:0:
109,192,88246,1,0,0:0:0:0:
182,192,88318,1,0,0:0:0:0:
256,192,88390,1,0,0:0:0:0:
36,192,88390,1,0,0:0:0:0:
329,192,88390,1,0,0:0:0:0:
402,192,88462,1,0,0:0:0:0:
475,192,88534,1,0,0:0:0:0:
109,192,88534,1,0,0:0:0:0:
182,192,88607,1,0,0:0:0:0:
475,192,88679,1,0,0:0:0:0:
256,192,88679,1,0,0:0:0:0:
36,192,88679,1,0,0:0:0:0:
402,192,88751,1,0,0:0:0:0:
329,192,88823,1,0,0:0:0:0:
256,192,88823,1,0,0:0:0:0:
182,192,88895,1,0,0:0:0:0:
36,192,88967,1,0,0:0:0:0:
402,192,88967,1,0,0:0:0:0:
109,192,88967,1,0,0:0:0:0:
329,192,89039,1,0,0:0:0:0:
256,192,89111,1,0,0:0:0:0:
36,192,89111,1,0,0:0:0:0:
182,192,89183,1,0,0:0:0:0:
109,192,89255,1,0,0:0:0:0:
475,192,89255,1,0,0:0:0:0:
402,192,89255,1,0,0:0:0:0:
329,192,89327,1,0,0:0:0:0:
256,192,89399,1,0,0:0:0:0:
36,192,89399,1,0,0:0:0:0:
109,192,89472,1,0,0:0:0:0:
182,192,89544,1,0,0:0:0:0:
329,192,89544,1,0,0:0:0:0:
475,192,89544,1,0,0:0:0:0:
256,192,89616,1,0,0:0:0:0:
109,192,89688,1,0,0:0:0:0:
36,192,89688,1,0,0:0:0:0:
182,192,89760,1,0,0:0:0:0:
475,192,89832,1,0,0:0:0:0:
402,192,89832,1,0,0:0:0:0:
329,192,89832,1,0,0:0:0:0:
256,192,89832,1,0,0:0:0:0:
475,192,89976,1,0,0:0:0:0:
402,192,89976,1,0,0:0:0:0:
329,192,89976,1,0,0:0:0:0:
182,192,90120,1,0,0:0:0:0:
36,192,90120,1,0,0:0:0:0:
475,192,90120,1,0,0:0:0:0:
256,192,90192,1,0,0:0:0:0:
329,192,90264,1,0,0:0:0:0:
402,192,90264,1,0,0:0:0:0:
182,192,90336,1,0,0:0:0:0:
329,192,90409,1,0,0:0:0:0:
109,192,90409,1,0,0:0:0:0:
36,192,90409,1,0,0:0:0:0:
256,192,90481,1,0,0:0:0:0:
182,192,90553,1,0,0:0:0:0:
475,192,90553,1,0,0:0:0:0:
402,192,90625,1,0,0:0:0:0:
36,192,90697,1,0,0:0:0:0:
109,192,90697,1,0,0:0:0:0:
329,192,90697,1,0,0:0:0:0:
182,192,90769,1,0,0:0:0:0:
256,192,90841,1,0,0:0:0:0:
109,192,90913,1,0,0:0:0:0:
182,192,90985,1,0,0:0:0:0:
329,192,90985,1,0,0:0:0:0:
475,192,90985,1,0,0:0:0:0:
402,192,91057,1,0,0:0:0:0:
256,192,91129,1,0,0:0:0:0:
36,192,91129,1,0,0:0:0:0:
182,192,91201,1,0,0:0:0:0:
36,192,91274,1,0,0:0:0:0:
109,192,91274,1,0,0:0:0:0:
329,192,91274,1,0,0:0:0:0:
402,192,91346,1,0,0:0:0:0:
256,192,91418,1,0,0:0:0:0:
475,192,91418,1,0,0:0:0:0:
329,192,91490,1,0,0:0:0:0:
109,192,91562,1,0,0:0:0:0:
402,192,91562,1,0,0:0:0:0:
475,192,91562,1,0,0:0:0:0:
182,192,91634,1,0,0:0:0:0:
256,192,91706,1,0,0:0:0:0:
36,192,91706,1,0,0:0:0:0:
329,192,91778,1,0,0:0:0:0:
182,192,91850,1,0,0:0:0:0:
109,192,91850,1,0,0:0:0:0:
36,192,91850,1,0,0:0:0:0:
475,192,91922,1,0,0:0:0:0:
402,192,91922,1,0,0:0:0:0:
329,192,91922,1,0,0:0:0:0:
182,192,91994,1,0,0:0:0:0:
109,192,91994,1,0,0:0:0:0:
36,192,91994,1,0,0:0:0:0:
475,192,92139,1,0,0:0:0:0:
402,192,92139,1,0,0:0:0:0:
329,192,92139,1,0,0:0:0:0:
256,192,92139,1,0,0:0:0:0:
182,192,92211,1,0,0:0:0:0:
475,192,92283,1,0,0:0:0:0:
402,192,92283,1,0,0:0:0:0:
329,192,92283,1,0,0:0:0:0:
182,192,92355,1,0,0:0:0:0:
36,192,92427,1,0,0:0:0:0:
109,192,92427,1,0,0:0:0:0:
475,192,92427,1,0,0:0:0:0:
402,192,92427,1,0,0:0:0:0:
256,192,92427,1,0,0:0:0:0:
182,192,92499,1,0,0:0:0:0:
329,192,92571,1,0,0:0:0:0:
475,192,92571,1,0,0:0:0:0:
256,192,92643,1,0,0:0:0:0:
402,192,92715,1,0,0:0:0:0:
109,192,92715,1,0,0:0:0:0:
36,192,92715,1,0,0:0:0:0:
329,192,92787,1,0,0:0:0:0:
256,192,92859,1,0,0:0:0:0:
475,192,92859,1,0,0:0:0:0:
182,192,92931,1,0,0:0:0:0:
475,192,93003,1,0,0:0:0:0:
36,192,93003,1,0,0:0:0:0:
109,192,93003,1,0,0:0:0:0:
329,192,93076,1,0,0:0:0:0:
402,192,93148,1,0,0:0:0:0:
182,192,93148,1,0,0:0:0:0:
256,192,93220,1,0,0:0:0:0:
329,192,93292,1,0,0:0:0:0:
475,192,93292,1,0,0:0:0:0:
109,192,93292,1,0,0:0:0:0:
182,192,93364,1,0,0:0:0:0:
402,192,93436,1,0,0:0:0:0:
256,192,93436,1,0,0:0:0:0:
475,192,93508,1,0,0:0:0:0:
36,192,93580,1,0,0:0:0:0:
109,192,93580,1,0,0:0:0:0:
329,192,93580,1,0,0:0:0:0:
182,192,93652,1,0,0:0:0:0:
256,192,93724,1,0,0:0:0:0:
36,192,93724,1,0,0:0:0:0:
329,192,93796,1,0,0:0:0:0:
109,192,93868,1,0,0:0:0:0:
475,192,93868,1,0,0:0:0:0:
402,192,93868,1,0,0:0:0:0:
182,192,93941,1,0,0:0:0:0:
475,192,94013,1,0,0:0:0:0:
256,192,94013,1,0,0:0:0:0:
402,192,94085,1,0,0:0:0:0:
36,192,94157,1,0,0:0:0:0:
109,192,94157,1,0,0:0:0:0:
329,192,94157,1,0,0:0:0:0:
182,192,94229,1,0,0:0:0:0:
256,192,94301,1,0,0:0:0:0:
475,192,94301,1,0,0:0:0:0:
402,192,94373,1,0,0:0:0:0:
329,192,94445,1,0,0:0:0:0:
182,192,94445,1,0,0:0:0:0:
36,192,94445,1,0,0:0:0:0:
109,192,94445,1,0,0:0:0:0:
182,192,94589,1,0,0:0:0:0:
329,192,94589,1,0,0:0:0:0:
36,192,94589,1,0,0:0:0:0:
475,192,94733,1,0,0:0:0:0:
256,192,94733,1,0,0:0:0:0:
402,192,94733,1,0,0:0:0:0:
182,192,94805,1,0,0:0:0:0:
109,192,94878,1,0,0:0:0:0:
329,192,94878,1,0,0:0:0:0:
256,192,94950,1,0,0:0:0:0:
182,192,95022,1,0,0:0:0:0:
402,192,95022,1,0,0:0:0:0:
475,192,95022,1,0,0:0:0:0:
329,192,95094,1,0,0:0:0:0:
109,192,95166,1,0,0:0:0:0:
36,192,95166,1,0,0:0:0:0:
182,192,95238,1,0,0:0:0:0:
256,192,95310,1,0,0:0:0:0:
475,192,95310,1,0,0:0:0:0:
36,192,95310,1,0,0:0:0:0:
402,192,95382,1,0,0:0:0:0:
329,192,95454,1,0,0:0:0:0:
109,192,95454,1,0,0:0:0:0:
256,192,95526,1,0,0:0:0:0:
182,192,95598,1,0,0:0:0:0:
109,192,95598,1,0,0:0:0:0:
36,192,95598,1,0,0:0:0:0:
402,192,95670,1,0,0:0:0:0:
329,192,95743,1,0,0:0:0:0:
475,192,95743,1,0,0:0:0:0:
256,192,95815,1,0,0:0:0:0:
402,192,95887,1,0,0:0:0:0:
36,192,95887,1,0,0:0:0:0:
109,192,95887,1,0,0:0:0:0:
182,192,95959,1,0,0:0:0:0:
256,192,96031,1,0,0:0:0:0:
475,192,96031,1,0,0:0:0:0:
329,192,96103,1,0,0:0:0:0:
475,192,96175,1,0,0:0:0:0:
402,192,96175,1,0,0:0:0:0:
36,192,96175,1,0,0:0:0:0:
109,192,96247,1,0,0:0:0:0:
182,192,96319,1,0,0:0:0:0:
329,192,96319,1,0,0:0:0:0:
256,192,96391,1,0,0:0:0:0:
182,192,96463,1,0,0:0:0:0:
36,192,96463,1,0,0:0:0:0:
109,192,96463,1,0,0:0:0:0:
329,192,96535,1,0,0:0:0:0:
475,192,96535,1,0,0:0:0:0:
402,192,96535,1,0,0:0:0:0:
182,192,96608,1,0,0:0:0:0:
36,192,96608,1,0,0:0:0:0:
109,192,96608,1,0,0:0:0:0:
329,192,96752,1,0,0:0:0:0:
402,192,96752,1,0,0:0:0:0:
475,192,96752,1,0,0:0:0:0:
256,192,96752,1,0,0:0:0:0:
182,192,96824,1,0,0:0:0:0:
329,192,96896,1,0,0:0:0:0:
402,192,96896,1,0,0:0:0:0:
475,192,96896,1,0,0:0:0:0:
182,192,96968,1,0,0:0:0:0:
36,192,97040,1,0,0:0:0:0:
256,192,97040,1,0,0:0:0:0:
475,192,97040,1,0,0:0:0:0:
109,192,97112,1,0,0:0:0:0:
182,192,97184,1,0,0:0:0:0:
329,192,97184,1,0,0:0:0:0:
402,192,97256,1,0,0:0:0:0:
256,192,97328,1,0,0:0:0:0:
36,192,97328,1,0,0:0:0:0:
475,192,97328,1,0,0:0:0:0:
182,192,97400,1,0,0:0:0:0:
109,192,97472,1,0,0:0:0:0:
402,192,97472,1,0,0:0:0:0:
329,192,97545,1,0,0:0:0:0:
256,192,97617,1,0,0:0:0:0:
475,192,97617,1,0,0:0:0:0:
182,192,97617,1,0,0:0:0:0:
109,192,97689,1,0,0:0:0:0:
36,192,97761,1,0,0:0:0:0:
402,192,97761,1,0,0:0:0:0:
329,192,97833,1,0,0:0:0:0:
36,192,97905,1,0,0:0:0:0:
256,192,97905,1,0,0:0:0:0:
475,192,97905,1,0,0:0:0:0:
109,192,97977,1,0,0:0:0:0:
182,192,98049,1,0,0:0:0:0:
256,192,98049,1,0,0:0:0:0:
329,192,98121,1,0,0:0:0:0:
475,192,98193,1,0,0:0:0:0:
109,192,98193,1,0,0:0:0:0:
402,192,98193,1,0,0:0:0:0:
182,192,98265,1,0,0:0:0:0:
256,192,98337,1,0,0:0:0:0:
475,192,98337,1,0,0:0:0:0:
329,192,98410,1,0,0:0:0:0:
402,192,98482,1,0,0:0:0:0:
36,192,98482,1,0,0:0:0:0:
109,192,98482,1,0,0:0:0:0:
182,192,98554,1,0,0:0:0:0:
256,192,98626,1,0,0:0:0:0:
475,192,98626,1,0,0:0:0:0:
402,192,98698,1,0,0:0:0:0:
329,192,98770,1,0,0:0:0:0:
182,192,98770,1,0,0:0:0:0:
36,192,98770,1,0,0:0:0:0:
256,192,98842,1,0,0:0:0:0:
402,192,98914,1,0,0:0:0:0:
475,192,98914,1,0,0:0:0:0:
329,192,98986,1,0,0:0:0:0:
36,192,99058,1,0,0:0:0:0:
109,192,99058,1,0,0:0:0:0:
182,192,99058,1,0,0:0:0:0:
256,192,99058,1,0,0:0:0:0:
36,192,99202,1,0,0:0:0:0:
109,192,99202,1,0,0:0:0:0:
182,192,99202,1,0,0:0:0:0:
329,192,99347,1,0,0:0:0:0:
475,192,99347,1,0,0:0:0:0:
36,192,99347,1,0,0:0:0:0:
256,192,99419,1,0,0:0:0:0:
182,192,99491,1,0,0:0:0:0:
109,192,99491,1,0,0:0:0:0:
329,192,99563,1,0,0:0:0:0:
182,192,99635,1,0,0:0:0:0:
402,192,99635,1,0,0:0:0:0:
475,192,99635,1,0,0:0:0:0:
256,192,99707,1,0,0:0:0:0:
329,192,99779,1,0,0:0:0:0:
36,192,99779,1,0,0:0:0:0:
109,192,99851,1,0,0:0:0:0:
475,192,99923,1,0,0:0:0:0:
402,192,99923,1,0,0:0:0:0:
182,192,99923,1,0,0:0:0:0:
329,192,99995,1,0,0:0:0:0:
256,192,100067,1,0,0:0:0:0:
109,192,100067,1,0,0:0:0:0:
402,192,100139,1,0,0:0:0:0:
329,192,100212,1,0,0:0:0:0:
182,192,100212,1,0,0:0:0:0:
36,192,100212,1,0,0:0:0:0:
109,192,100284,1,0,0:0:0:0:
256,192,100356,1,0,0:0:0:0:
475,192,100356,1,0,0:0:0:0:
329,192,100428,1,0,0:0:0:0:
475,192,100500,1,0,0:0:0:0:
402,192,100500,1,0,0:0:0:0:
182,192,100500,1,0,0:0:0:0:
109,192,100572,1,0,0:0:0:0:
256,192,100644,1,0,0:0:0:0:
36,192,100644,1,0,0:0:0:0:
182,192,100716,1,0,0:0:0:0:
402,192,100788,1,0,0:0:0:0:
109,192,100788,1,0,0:0:0:0:
36,192,100788,1,0,0:0:0:0:
329,192,100860,1,0,0:0:0:0:
256,192,100932,1,0,0:0:0:0:
475,192,100932,1,0,0:0:0:0:
182,192,101004,1,0,0:0:0:0:
329,192,101077,1,0,0:0:0:0:
402,192,101077,1,0,0:0:0:0:
475,192,101077,1,0,0:0:0:0:
36,192,101149,1,0,0:0:0:0:
109,192,101149,1,0,0:0:0:0:
182,192,101149,1,0,0:0:0:0:
329,192,101221,1,0,0:0:0:0:
402,192,101221,1,0,0:0:0:0:
475,192,101221,1,0,0:0:0:0:
36,192,101365,1,0,0:0:0:0:
109,192,101365,1,0,0:0:0:0:
182,192,101365,1,0,0:0:0:0:
256,192,101365,1,0,0:0:0:0:
329,192,101437,1,0,0:0:0:0:
36,192,101509,1,0,0:0:0:0:
109,192,101509,1,0,0:0:0:0:
182,192,101509,1,0,0:0:0:0:
329,192,101581,1,0,0:0:0:0:
475,192,101653,1,0,0:0:0:0:
402,192,101653,1,0,0:0:0:0:
36,192,101653,1,0,0:0:0:0:
109,192,101653,1,0,0:0:0:0:
256,192,101653,1,0,0:0:0:0:
329,192,101725,1,0,0:0:0:0:
182,192,101797,1,0,0:0:0:0:
36,192,101797,1,0,0:0:0:0:
256,192,101869,1,0,0:0:0:0:
109,192,101941,1,0,0:0:0:0:
402,192,101941,1,0,0:0:0:0:
475,192,101941,1,0,0:0:0:0:
182,192,102014,1,0,0:0:0:0:
256,192,102086,1,0,0:0:0:0:
36,192,102086,1,0,0:0:0:0:
329,192,102158,1,0,0:0:0:0:
36,192,102230,1,0,0:0:0:0:
475,192,102230,1,0,0:0:0:0:
402,192,102230,1,0,0:0:0:0:
182,192,102302,1,0,0:0:0:0:
109,192,102374,1,0,0:0:0:0:
329,192,102374,1,0,0:0:0:0:
256,192,102446,1,0,0:0:0:0:
182,192,102518,1,0,0:0:0:0:
36,192,102518,1,0,0:0:0:0:
402,192,102518,1,0,0:0:0:0:
329,192,102590,1,0,0:0:0:0:
109,192,102662,1,0,0:0:0:0:
256,192,102662,1,0,0:0:0:0:
36,192,102734,1,0,0:0:0:0:
475,192,102806,1,0,0:0:0:0:
402,192,102806,1,0,0:0:0:0:
182,192,102806,1,0,0:0:0:0:
329,192,102879,1,0,0:0:0:0:
256,192,102951,1,0,0:0:0:0:
475,192,102951,1,0,0:0:0:0:
182,192,103023,1,0,0:0:0:0:
402,192,103095,1,0,0:0:0:0:
36,192,103095,1,0,0:0:0:0:
109,192,103095,1,0,0:0:0:0:
329,192,103167,1,0,0:0:0:0:
36,192,103239,1,0,0:0:0:0:
256,192,103239,1,0,0:0:0:0:
109,192,103311,1,0,0:0:0:0:
475,192,103383,1,0,0:0:0:0:
402,192,103383,1,0,0:0:0:0:
182,192,103383,1,0,0:0:0:0:
329,192,103455,1,0,0:0:0:0:
256,192,103527,1,0,0:0:0:0:
36,192,103527,1,0,0:0:0:0:
109,192,103599,1,0,0:0:0:0:
182,192,103671,1,0,0:0:0:0:
329,192,103671,1,0,0:0:0:0:
475,192,103671,1,0,0:0:0:0:
402,192,103671,1,0,0:0:0:0:
329,192,103816,1,0,0:0:0:0:
182,192,103816,1,0,0:0:0:0:
475,192,103816,1,0,0:0:0:0:
36,192,103960,1,0,0:0:0:0:
256,192,103960,1,0,0:0:0:0:
109,192,103960,1,0,0:0:0:0:
329,192,104032,1,0,0:0:0:0:
402,192,104104,1,0,0:0:0:0:
182,192,104104,1,0,0:0:0:0:
256,192,104176,1,0,0:0:0:0:
329,192,104248,1,0,0:0:0:0:
109,192,104248,1,0,0:0:0:0:
36,192,104248,1,0,0:0:0:0:
182,192,104320,1,0,0:0:0:0:
402,192,104392,1,0,0:0:0:0:
475,192,104392,1,0,0:0:0:0:
329,192,104464,1,0,0:0:0:0:
256,192,104536,1,0,0:0:0:0:
36,192,104536,1,0,0:0:0:0:
475,192,104536,1,0,0:0:0:0:
109,192,104608,1,0,0:0:0:0:
182,192,104681,1,0,0:0:0:0:
402,192,104681,1,0,0:0:0:0:
256,192,104753,1,0,0:0:0:0:
329,192,104825,1,0,0:0:0:0:
402,192,104825,1,0,0:0:0:0:
475,192,104825,1,0,0:0:0:0:
109,192,104897,1,0,0:0:0:0:
182,192,104969,1,0,0:0:0:0:
36,192,104969,1,0,0:0:0:0:
256,192,105041,1,0,0:0:0:0:
109,192,105113,1,0,0:0:0:0:
475,192,105113,1,0,0:0:0:0:
402,192,105113,1,0,0:0:0:0:
329,192,105185,1,0,0:0:0:0:
256,192,105257,1,0,0:0:0:0:
36,192,105257,1,0,0:0:0:0:
182,192,105329,1,0,0:0:0:0:
36,192,105401,1,0,0:0:0:0:
109,192,105401,1,0,0:0:0:0:
475,192,105401,1,0,0:0:0:0:
402,192,105473,1,0,0:0:0:0:
329,192,105546,1,0,0:0:0:0:
182,192,105546,1,0,0:0:0:0:
256,192,105618,1,0,0:0:0:0:
329,192,105690,1,0,0:0:0:0:
475,192,105690,1,0,0:0:0:0:
402,192,105690,1,0,0:0:0:0:
182,192,105762,1,0,0:0:0:0:
36,192,105762,1,0,0:0:0:0:
109,192,105762,1,0,0:0:0:0:
329,192,105834,1,0,0:0:0:0:
475,192,105834,1,0,0:0:0:0:
402,192,105834,1,0,0:0:0:0:
182,192,105978,1,0,0:0:0:0:
109,192,105978,1,0,0:0:0:0:
36,192,105978,1,0,0:0:0:0:
256,192,105978,1,0,0:0:0:0:
329,192,106050,1,0,0:0:0:0:
182,192,106122,1,0,0:0:0:0:
109,192,106122,1,0,0:0:0:0:
36,192,106122,1,0,0:0:0:0:
329,192,106194,1,0,0:0:0:0:
475,192,106266,1,0,0:0:0:0:
256,192,106266,1,0,0:0:0:0:
36,192,106266,1,0,0:0:0:0:
402,192,106338,1,0,0:0:0:0:
329,192,106410,1,0,0:0:0:0:
182,192,106410,1,0,0:0:0:0:
256,192,106410,1,0,0:0:0:0:
109,192,106483,1,0,0:0:0:0:
256,192,106555,1,0,0:0:0:0:
475,192,106555,1,0,0:0:0:0:
36,192,106555,1,0,0:0:0:0:
329,192,106627,1,0,0:0:0:0:
402,192,106699,1,0,0:0:0:0:
109,192,106699,1,0,0:0:0:0:
475,192,106699,1,0,0:0:0:0:
182,192,106771,1,0,0:0:0:0:
256,192,106843,1,0,0:0:0:0:
36,192,106843,1,0,0:0:0:0:
329,192,106843,1,0,0:0:0:0:
402,192,106915,1,0,0:0:0:0:
475,192,106987,1,0,0:0:0:0:
109,192,106987,1,0,0:0:0:0:
36,192,106987,1,0,0:0:0:0:
182,192,107059,1,0,0:0:0:0:
475,192,107131,1,0,0:0:0:0:
256,192,107131,1,0,0:0:0:0:
36,192,107131,1,0,0:0:0:0:
402,192,107203,1,0,0:0:0:0:
329,192,107275,1,0,0:0:0:0:
256,192,107275,1,0,0:0:0:0:
109,192,107275,1,0,0:0:0:0:
182,192,107348,1,0,0:0:0:0:
36,192,107420,5,0,0:0:0:0:
402,192,107420,1,0,0:0:0:0:
109,192,107420,1,0,0:0:0:0:
329,192,107492,1,0,0:0:0:0:
256,192,107564,1,0,0:0:0:0:
36,192,107564,1,0,0:0:0:0:
475,192,107564,1,0,0:0:0:0:
182,192,107636,1,0,0:0:0:0:
109,192,107708,1,0,0:0:0:0:
475,192,107708,1,0,0:0:0:0:
402,192,107708,1,0,0:0:0:0:
329,192,107780,1,0,0:0:0:0:
256,192,107852,1,0,0:0:0:0:
36,192,107852,1,0,0:0:0:0:
402,192,107852,1,0,0:0:0:0:
109,192,107924,1,0,0:0:0:0:
182,192,107996,1,0,0:0:0:0:
329,192,107996,1,0,0:0:0:0:
475,192,107996,1,0,0:0:0:0:
256,192,108068,1,0,0:0:0:0:
109,192,108140,1,0,0:0:0:0:
36,192,108140,1,0,0:0:0:0:
402,192,108140,1,0,0:0:0:0:
182,192,108213,1,0,0:0:0:0:
475,192,108285,1,0,0:0:0:0:
329,192,108285,1,0,0:0:0:0:
256,192,108285,1,0,0:0:0:0:
36,192,108285,1,0,0:0:0:0:
475,192,108429,1,0,0:0:0:0:
329,192,108429,1,0,0:0:0:0:
256,192,108429,1,0,0:0:0:0:
182,192,108573,5,0,0:0:0:0:
36,192,108573,1,0,0:0:0:0:
402,192,108573,1,0,0:0:0:0:
256,192,108645,1,0,0:0:0:0:
329,192,108717,1,0,0:0:0:0:
475,192,108717,1,0,0:0:0:0:
36,192,108717,1,0,0:0:0:0:
402,192,108789,1,0,0:0:0:0:
256,192,108861,1,0,0:0:0:0:
109,192,108861,1,0,0:0:0:0:
182,192,108861,1,0,0:0:0:0:
475,192,108933,1,0,0:0:0:0:
402,192,109005,1,0,0:0:0:0:
36,192,109005,1,0,0:0:0:0:
109,192,109005,1,0,0:0:0:0:
329,192,109077,1,0,0:0:0:0:
182,192,109150,1,0,0:0:0:0:
36,192,109150,1,0,0:0:0:0:
475,192,109150,1,0,0:0:0:0:
256,192,109222,1,0,0:0:0:0:
109,192,109294,1,0,0:0:0:0:
329,192,109294,1,0,0:0:0:0:
36,192,109294,1,0,0:0:0:0:
402,192,109366,1,0,0:0:0:0:
475,192,109438,1,0,0:0:0:0:
256,192,109438,1,0,0:0:0:0:
109,192,109438,1,0,0:0:0:0:
329,192,109510,1,0,0:0:0:0:
402,192,109582,1,0,0:0:0:0:
182,192,109582,1,0,0:0:0:0:
36,192,109582,1,0,0:0:0:0:
256,192,109654,1,0,0:0:0:0:
109,192,109726,1,0,0:0:0:0:
475,192,109726,1,0,0:0:0:0:
329,192,109726,1,0,0:0:0:0:
36,192,109798,1,0,0:0:0:0:
256,192,109798,1,0,0:0:0:0:
182,192,109870,1,0,0:0:0:0:
402,192,109870,1,0,0:0:0:0:
329,192,109942,1,0,0:0:0:0:
109,192,109942,1,0,0:0:0:0:
36,192,110015,1,0,0:0:0:0:
256,192,110015,1,0,0:0:0:0:
475,192,110015,1,0,0:0:0:0:
182,192,110087,1,0,0:0:0:0:
402,192,110087,1,0,0:0:0:0:
329,192,110159,1,0,0:0:0:0:
109,192,110159,1,0,0:0:0:0:
256,192,110231,1,0,0:0:0:0:
36,192,110231,1,0,0:0:0:0:
402,192,110303,1,0,0:0:0:0:
182,192,110303,1,0,0:0:0:0:
475,192,110303,1,0,0:0:0:0:
109,192,110375,1,0,0:0:0:0:
329,192,110375,1,0,0:0:0:0:
256,192,110375,1,0,0:0:0:0:
402,192,110447,1,0,0:0:0:0:
36,192,110447,1,0,0:0:0:0:
475,192,110447,1,0,0:0:0:0:
256,192,110519,1,0,0:0:0:0:
182,192,110519,1,0,0:0:0:0:
475,192,110591,1,0,0:0:0:0:
36,192,110591,1,0,0:0:0:0:
109,192,110591,1,0,0:0:0:0:
402,192,110663,1,0,0:0:0:0:
329,192,110663,1,0,0:0:0:0:
36,192,110735,1,0,0:0:0:0:
256,192,110735,1,0,0:0:0:0:
109,192,110735,1,0,0:0:0:0:
329,192,110807,1,0,0:0:0:0:
182,192,110807,1,0,0:0:0:0:
36,192,110880,1,0,0:0:0:0:
109,192,110880,1,0,0:0:0:0:
475,192,110880,1,0,0:0:0:0:
402,192,110880,1,0,0:0:0:0:
256,192,110880,1,0,0:0:0:0:
36,192,113186,1,0,0:0:0:0:
109,192,113186,1,0,0:0:0:0:
402,192,113186,1,0,0:0:0:0:
475,192,113186,1,0,0:0:0:0:
256,192,113186,1,0,0:0:0:0:
182,192,113258,1,0,0:0:0:0:
329,192,113330,1,0,0:0:0:0:
475,192,113330,1,0,0:0:0:0:
256,192,113402,1,0,0:0:0:0:
182,192,113474,1,0,0:0:0:0:
36,192,113474,1,0,0:0:0:0:
402,192,113474,1,0,0:0:0:0:
329,192,113546,1,0,0:0:0:0:
109,192,113619,1,0,0:0:0:0:
36,192,113619,1,0,0:0:0:0:
182,192,113691,1,0,0:0:0:0:
475,192,113763,1,0,0:0:0:0:
329,192,113763,1,0,0:0:0:0:
402,192,113763,1,0,0:0:0:0:
256,192,113835,1,0,0:0:0:0:
182,192,113907,1,0,0:0:0:0:
402,192,113907,1,0,0:0:0:0:
109,192,113979,1,0,0:0:0:0:
36,192,114051,1,0,0:0:0:0:
256,192,114051,1,0,0:0:0:0:
475,192,114051,1,0,0:0:0:0:
329,192,114123,1,0,0:0:0:0:
109,192,114195,1,0,0:0:0:0:
402,192,114195,1,0,0:0:0:0:
182,192,114267,1,0,0:0:0:0:
36,192,114339,1,0,0:0:0:0:
329,192,114339,1,0,0:0:0:0:
256,192,114339,1,0,0:0:0:0:
109,192,114411,1,0,0:0:0:0:
182,192,114484,1,0,0:0:0:0:
402,192,114484,1,0,0:0:0:0:
256,192,114556,1,0,0:0:0:0:
329,192,114628,1,0,0:0:0:0:
475,192,114628,1,0,0:0:0:0:
402,192,114628,1,0,0:0:0:0:
36,192,114700,1,0,0:0:0:0:
109,192,114772,1,0,0:0:0:0:
256,192,114772,1,0,0:0:0:0:
182,192,114844,1,0,0:0:0:0:
475,192,114916,1,0,0:0:0:0:
402,192,114916,1,0,0:0:0:0:
36,192,114916,1,0,0:0:0:0:
329,192,114988,1,0,0:0:0:0:
109,192,115060,1,0,0:0:0:0:
256,192,115060,1,0,0:0:0:0:
402,192,115132,1,0,0:0:0:0:
182,192,115204,1,0,0:0:0:0:
36,192,115204,1,0,0:0:0:0:
329,192,115204,1,0,0:0:0:0:
36,192,115349,1,0,0:0:0:0:
182,192,115349,1,0,0:0:0:0:
329,192,115349,1,0,0:0:0:0:
109,192,115493,1,0,0:0:0:0:
256,192,115493,1,0,0:0:0:0:
402,192,115493,1,0,0:0:0:0:
182,192,115565,1,0,0:0:0:0:
329,192,115637,1,0,0:0:0:0:
475,192,115637,1,0,0:0:0:0:
256,192,115709,1,0,0:0:0:0:
182,192,115781,1,0,0:0:0:0:
36,192,115781,1,0,0:0:0:0:
329,192,115781,1,0,0:0:0:0:
109,192,115853,1,0,0:0:0:0:
402,192,115925,1,0,0:0:0:0:
475,192,115925,1,0,0:0:0:0:
329,192,115997,1,0,0:0:0:0:
109,192,116069,1,0,0:0:0:0:
256,192,116069,1,0,0:0:0:0:
182,192,116069,1,0,0:0:0:0:
402,192,116141,1,0,0:0:0:0:
36,192,116213,1,0,0:0:0:0:
329,192,116213,1,0,0:0:0:0:
109,192,116286,1,0,0:0:0:0:
182,192,116358,1,0,0:0:0:0:
256,192,116358,1,0,0:0:0:0:
475,192,116358,1,0,0:0:0:0:
402,192,116430,1,0,0:0:0:0:
329,192,116502,1,0,0:0:0:0:
36,192,116502,1,0,0:0:0:0:
256,192,116574,1,0,0:0:0:0:
36,192,116646,1,0,0:0:0:0:
109,192,116646,1,0,0:0:0:0:
182,192,116646,1,0,0:0:0:0:
402,192,116718,1,0,0:0:0:0:
329,192,116790,1,0,0:0:0:0:
182,192,116790,1,0,0:0:0:0:
256,192,116862,1,0,0:0:0:0:
36,192,116934,1,0,0:0:0:0:
475,192,116934,1,0,0:0:0:0:
402,192,116934,1,0,0:0:0:0:
109,192,117006,1,0,0:0:0:0:
182,192,117078,1,0,0:0:0:0:
402,192,117078,1,0,0:0:0:0:
329,192,117151,1,0,0:0:0:0:
109,192,117223,1,0,0:0:0:0:
182,192,117223,1,0,0:0:0:0:
256,192,117223,1,0,0:0:0:0:
329,192,117295,1,0,0:0:0:0:
402,192,117295,1,0,0:0:0:0:
475,192,117295,1,0,0:0:0:0:
182,192,117367,1,0,0:0:0:0:
109,192,117367,1,0,0:0:0:0:
256,192,117367,1,0,0:0:0:0:
402,192,117511,1,0,0:0:0:0:
475,192,117511,1,0,0:0:0:0:
36,192,117511,1,0,0:0:0:0:
36,192,117655,1,0,0:0:0:0:
402,192,117655,1,0,0:0:0:0:
475,192,117655,1,0,0:0:0:0:
109,192,117799,1,0,0:0:0:0:
182,192,117799,1,0,0:0:0:0:
256,192,117799,1,0,0:0:0:0:
329,192,117871,1,0,0:0:0:0:
402,192,117943,1,0,0:0:0:0:
36,192,117943,1,0,0:0:0:0:
109,192,118015,1,0,0:0:0:0:
256,192,118088,1,0,0:0:0:0:
182,192,118088,1,0,0:0:0:0:
475,192,118088,1,0,0:0:0:0:
402,192,118160,1,0,0:0:0:0:
329,192,118232,1,0,0:0:0:0:
182,192,118232,1,0,0:0:0:0:
256,192,118304,1,0,0:0:0:0:
109,192,118376,1,0,0:0:0:0:
36,192,118376,1,0,0:0:0:0:
475,192,118376,1,0,0:0:0:0:
402,192,118448,1,0,0:0:0:0:
329,192,118520,1,0,0:0:0:0:
109,192,118520,1,0,0:0:0:0:
256,192,118592,1,0,0:0:0:0:
36,192,118664,1,0,0:0:0:0:
475,192,118664,1,0,0:0:0:0:
182,192,118664,1,0,0:0:0:0:
402,192,118736,1,0,0:0:0:0:
329,192,118808,1,0,0:0:0:0:
109,192,118808,1,0,0:0:0:0:
182,192,118880,1,0,0:0:0:0:
475,192,118953,1,0,0:0:0:0:
256,192,118953,1,0,0:0:0:0:
402,192,118953,1,0,0:0:0:0:
329,192,119025,1,0,0:0:0:0:
36,192,119097,1,0,0:0:0:0:
109,192,119097,1,0,0:0:0:0:
182,192,119169,1,0,0:0:0:0:
475,192,119241,1,0,0:0:0:0:
329,192,119241,1,0,0:0:0:0:
402,192,119241,1,0,0:0:0:0:
256,192,119313,1,0,0:0:0:0:
36,192,119385,1,0,0:0:0:0:
182,192,119385,1,0,0:0:0:0:
402,192,119457,1,0,0:0:0:0:
329,192,119529,1,0,0:0:0:0:
256,192,119529,1,0,0:0:0:0:
109,192,119529,1,0,0:0:0:0:
182,192,119601,1,0,0:0:0:0:
329,192,119673,1,0,0:0:0:0:
402,192,119673,1,0,0:0:0:0:
256,192,119745,1,0,0:0:0:0:
475,192,119818,1,0,0:0:0:0:
182,192,119818,1,0,0:0:0:0:
36,192,119818,1,0,0:0:0:0:
182,192,119962,1,0,0:0:0:0:
36,192,119962,1,0,0:0:0:0:
475,192,119962,1,0,0:0:0:0:
256,192,120106,1,0,0:0:0:0:
329,192,120106,1,0,0:0:0:0:
109,192,120106,1,0,0:0:0:0:
182,192,120178,1,0,0:0:0:0:
329,192,120250,1,0,0:0:0:0:
475,192,120250,1,0,0:0:0:0:
256,192,120322,1,0,0:0:0:0:
182,192,120394,1,0,0:0:0:0:
36,192,120394,1,0,0:0:0:0:
402,192,120394,1,0,0:0:0:0:
329,192,120466,1,0,0:0:0:0:
256,192,120538,1,0,0:0:0:0:
109,192,120538,1,0,0:0:0:0:
182,192,120610,1,0,0:0:0:0:
329,192,120682,1,0,0:0:0:0:
475,192,120682,1,0,0:0:0:0:
402,192,120682,1,0,0:0:0:0:
256,192,120755,1,0,0:0:0:0:
36,192,120827,1,0,0:0:0:0:
109,192,120827,1,0,0:0:0:0:
182,192,120899,1,0,0:0:0:0:
475,192,120971,1,0,0:0:0:0:
402,192,120971,1,0,0:0:0:0:
256,192,120971,1,0,0:0:0:0:
329,192,121043,1,0,0:0:0:0:
109,192,121115,1,0,0:0:0:0:
182,192,121115,1,0,0:0:0:0:
256,192,121187,1,0,0:0:0:0:
182,192,121259,1,0,0:0:0:0:
329,192,121259,1,0,0:0:0:0:
475,192,121259,1,0,0:0:0:0:
182,192,121403,1,0,0:0:0:0:
329,192,121403,1,0,0:0:0:0:
475,192,121403,1,0,0:0:0:0:
256,192,121547,1,0,0:0:0:0:
109,192,121547,1,0,0:0:0:0:
402,192,121547,1,0,0:0:0:0:
109,192,121692,1,0,0:0:0:0:
256,192,121692,1,0,0:0:0:0:
402,192,121692,1,0,0:0:0:0:
36,192,121836,1,0,0:0:0:0:
109,192,121836,1,0,0:0:0:0:
182,192,121836,1,0,0:0:0:0:
329,192,121908,1,0,0:0:0:0:
402,192,121908,1,0,0:0:0:0:
475,192,121908,1,0,0:0:0:0:
182,192,121980,1,0,0:0:0:0:
109,192,121980,1,0,0:0:0:0:
36,192,121980,1,0,0:0:0:0:
475,192,122052,1,0,0:0:0:0:
329,192,122052,1,0,0:0:0:0:
402,192,122052,1,0,0:0:0:0:
182,192,122124,1,0,0:0:0:0:
109,192,122124,1,0,0:0:0:0:
36,192,122124,1,0,0:0:0:0:
329,192,122196,1,0,0:0:0:0:
402,192,122196,1,0,0:0:0:0:
475,192,122196,1,0,0:0:0:0:
109,192,122268,1,0,0:0:0:0:
36,192,122268,1,0,0:0:0:0:
256,192,122268,1,0,0:0:0:0:
182,192,122340,1,0,0:0:0:0:
329,192,122340,1,0,0:0:0:0:
256,192,122412,1,0,0:0:0:0:
36,192,122412,1,0,0:0:0:0:
109,192,122412,1,0,0:0:0:0:
475,192,122412,1,0,0:0:0:0:
402,192,122412,1,0,0:0:0:0:
329,192,122484,1,0,0:0:0:0:
36,192,122557,1,0,0:0:0:0:
182,192,122557,1,0,0:0:0:0:
256,192,122629,1,0,0:0:0:0:
109,192,122701,1,0,0:0:0:0:
475,192,122701,1,0,0:0:0:0:
329,192,122701,1,0,0:0:0:0:
182,192,122773,1,0,0:0:0:0:
475,192,122845,1,0,0:0:0:0:
402,192,122845,1,0,0:0:0:0:
329,192,122917,1,0,0:0:0:0:
109,192,122989,1,0,0:0:0:0:
182,192,122989,1,0,0:0:0:0:
36,192,122989,1,0,0:0:0:0:
256,192,123061,1,0,0:0:0:0:
109,192,123133,1,0,0:0:0:0:
329,192,123133,1,0,0:0:0:0:
402,192,123205,1,0,0:0:0:0:
36,192,123277,1,0,0:0:0:0:
256,192,123277,1,0,0:0:0:0:
475,192,123277,1,0,0:0:0:0:
182,192,123349,1,0,0:0:0:0:
109,192,123422,1,0,0:0:0:0:
402,192,123422,1,0,0:0:0:0:
329,192,123494,1,0,0:0:0:0:
256,192,123566,1,0,0:0:0:0:
182,192,123566,1,0,0:0:0:0:
475,192,123566,1,0,0:0:0:0:
402,192,123638,1,0,0:0:0:0:
109,192,123710,1,0,0:0:0:0:
329,192,123710,1,0,0:0:0:0:
256,192,123782,1,0,0:0:0:0:
109,192,123854,1,0,0:0:0:0:
36,192,123854,1,0,0:0:0:0:
182,192,123854,1,0,0:0:0:0:
475,192,123926,1,0,0:0:0:0:
256,192,123998,1,0,0:0:0:0:
402,192,123998,1,0,0:0:0:0:
329,192,124070,1,0,0:0:0:0:
475,192,124142,1,0,0:0:0:0:
109,192,124142,1,0,0:0:0:0:
36,192,124142,1,0,0:0:0:0:
182,192,124214,1,0,0:0:0:0:
256,192,124287,1,0,0:0:0:0:
402,192,124287,1,0,0:0:0:0:
109,192,124359,1,0,0:0:0:0:
182,192,124431,1,0,0:0:0:0:
475,192,124431,1,0,0:0:0:0:
329,192,124431,1,0,0:0:0:0:
182,192,124575,1,0,0:0:0:0:
329,192,124575,1,0,0:0:0:0:
475,192,124575,1,0,0:0:0:0:
109,192,124719,1,0,0:0:0:0:
256,192,124719,1,0,0:0:0:0:
402,192,124719,1,0,0:0:0:0:
329,192,124791,1,0,0:0:0:0:
36,192,124863,1,0,0:0:0:0:
182,192,124863,1,0,0:0:0:0:
256,192,124935,1,0,0:0:0:0:
182,192,125007,1,0,0:0:0:0:
475,192,125007,1,0,0:0:0:0:
329,192,125007,1,0,0:0:0:0:
402,192,125079,1,0,0:0:0:0:
36,192,125151,1,0,0:0:0:0:
109,192,125151,1,0,0:0:0:0:
182,192,125224,1,0,0:0:0:0:
329,192,125296,1,0,0:0:0:0:
256,192,125296,1,0,0:0:0:0:
402,192,125296,1,0,0:0:0:0:
109,192,125368,1,0,0:0:0:0:
182,192,125440,1,0,0:0:0:0:
475,192,125440,1,0,0:0:0:0:
402,192,125512,1,0,0:0:0:0:
36,192,125584,1,0,0:0:0:0:
256,192,125584,1,0,0:0:0:0:
329,192,125584,1,0,0:0:0:0:
109,192,125656,1,0,0:0:0:0:
475,192,125728,1,0,0:0:0:0:
182,192,125728,1,0,0:0:0:0:
256,192,125800,1,0,0:0:0:0:
329,192,125872,1,0,0:0:0:0:
402,192,125872,1,0,0:0:0:0:
475,192,125872,1,0,0:0:0:0:
109,192,125944,1,0,0:0:0:0:
329,192,126016,1,0,0:0:0:0:
182,192,126016,1,0,0:0:0:0:
256,192,126089,1,0,0:0:0:0:
109,192,126161,1,0,0:0:0:0:
36,192,126161,1,0,0:0:0:0:
475,192,126161,1,0,0:0:0:0:
402,192,126233,1,0,0:0:0:0:
109,192,126305,1,0,0:0:0:0:
329,192,126305,1,0,0:0:0:0:
182,192,126377,1,0,0:0:0:0:
256,192,126449,1,0,0:0:0:0:
329,192,126449,1,0,0:0:0:0:
402,192,126449,1,0,0:0:0:0:
36,192,126521,1,0,0:0:0:0:
109,192,126521,1,0,0:0:0:0:
182,192,126521,1,0,0:0:0:0:
256,192,126593,1,0,0:0:0:0:
402,192,126593,1,0,0:0:0:0:
329,192,126593,1,0,0:0:0:0:
475,192,126737,1,0,0:0:0:0:
36,192,126737,1,0,0:0:0:0:
109,192,126737,1,0,0:0:0:0:
36,192,126881,1,0,0:0:0:0:
109,192,126881,1,0,0:0:0:0:
475,192,126881,1,0,0:0:0:0:
256,192,127026,1,0,0:0:0:0:
329,192,127026,1,0,0:0:0:0:
402,192,127026,1,0,0:0:0:0:
182,192,127098,1,0,0:0:0:0:
475,192,127170,1,0,0:0:0:0:
109,192,127170,1,0,0:0:0:0:
402,192,127242,1,0,0:0:0:0:
36,192,127314,1,0,0:0:0:0:
329,192,127314,1,0,0:0:0:0:
256,192,127314,1,0,0:0:0:0:
109,192,127386,1,0,0:0:0:0:
329,192,127458,1,0,0:0:0:0:
182,192,127458,1,0,0:0:0:0:
256,192,127530,1,0,0:0:0:0:
36,192,127602,1,0,0:0:0:0:
475,192,127602,1,0,0:0:0:0:
402,192,127602,1,0,0:0:0:0:
109,192,127674,1,0,0:0:0:0:
402,192,127746,1,0,0:0:0:0:
182,192,127746,1,0,0:0:0:0:
256,192,127818,1,0,0:0:0:0:
329,192,127891,1,0,0:0:0:0:
36,192,127891,1,0,0:0:0:0:
475,192,127891,1,0,0:0:0:0:
109,192,127963,1,0,0:0:0:0:
402,192,128035,1,0,0:0:0:0:
182,192,128035,1,0,0:0:0:0:
329,192,128107,1,0,0:0:0:0:
109,192,128179,1,0,0:0:0:0:
256,192,128179,1,0,0:0:0:0:
36,192,128179,1,0,0:0:0:0:
182,192,128251,1,0,0:0:0:0:
402,192,128323,1,0,0:0:0:0:
475,192,128323,1,0,0:0:0:0:
329,192,128395,1,0,0:0:0:0:
109,192,128467,1,0,0:0:0:0:
182,192,128467,1,0,0:0:0:0:
36,192,128467,1,0,0:0:0:0:
256,192,128539,1,0,0:0:0:0:
329,192,128611,1,0,0:0:0:0:
475,192,128611,1,0,0:0:0:0:
109,192,128683,1,0,0:0:0:0:
402,192,128756,1,0,0:0:0:0:
256,192,128756,1,0,0:0:0:0:
182,192,128756,1,0,0:0:0:0:
329,192,128828,1,0,0:0:0:0:
109,192,128900,1,0,0:0:0:0:
182,192,128900,1,0,0:0:0:0:
256,192,128972,1,0,0:0:0:0:
475,192,129044,1,0,0:0:0:0:
329,192,129044,1,0,0:0:0:0:
36,192,129044,1,0,0:0:0:0:
36,192,129188,1,0,0:0:0:0:
475,192,129188,1,0,0:0:0:0:
329,192,129188,1,0,0:0:0:0:
402,192,129332,1,0,0:0:0:0:
182,192,129332,1,0,0:0:0:0:
256,192,129332,1,0,0:0:0:0:
329,192,129404,1,0,0:0:0:0:
36,192,129476,1,0,0:0:0:0:
182,192,129476,1,0,0:0:0:0:
256,192,129548,1,0,0:0:0:0:
109,192,129620,1,0,0:0:0:0:
475,192,129620,1,0,0:0:0:0:
329,192,129620,1,0,0:0:0:0:
182,192,129693,1,0,0:0:0:0:
402,192,129765,1,0,0:0:0:0:
256,192,129765,1,0,0:0:0:0:
329,192,129837,1,0,0:0:0:0:
36,192,129909,1,0,0:0:0:0:
182,192,129909,1,0,0:0:0:0:
109,192,129909,1,0,0:0:0:0:
256,192,129981,1,0,0:0:0:0:
402,192,130053,1,0,0:0:0:0:
475,192,130053,1,0,0:0:0:0:
329,192,130125,1,0,0:0:0:0:
256,192,130197,1,0,0:0:0:0:
109,192,130197,1,0,0:0:0:0:
36,192,130197,1,0,0:0:0:0:
182,192,130269,1,0,0:0:0:0:
329,192,130341,1,0,0:0:0:0:
402,192,130341,1,0,0:0:0:0:
256,192,130413,1,0,0:0:0:0:
475,192,130485,1,0,0:0:0:0:
36,192,130485,1,0,0:0:0:0:
109,192,130485,1,0,0:0:0:0:
402,192,130522,1,0,0:0:0:0:
329,192,130558,1,0,0:0:0:0:
256,192,130594,1,0,0:0:0:0:
182,192,130630,1,0,0:0:0:0:
36,192,130774,1,0,0:0:0:0:
402,192,130774,1,0,0:0:0:0:
475,192,130774,1,0,0:0:0:0:
109,192,130810,1,0,0:0:0:0:
182,192,130846,1,0,0:0:0:0:
256,192,130882,1,0,0:0:0:0:
329,192,130918,1,0,0:0:0:0:
109,192,131062,1,0,0:0:0:0:
402,192,131062,1,0,0:0:0:0:
475,192,131062,1,0,0:0:0:0:
182,192,131206,1,0,0:0:0:0:
402,192,131350,1,0,0:0:0:0:
475,192,131350,1,0,0:0:0:0:
109,192,131350,1,0,0:0:0:0:
182,192,131495,1,0,0:0:0:0:
475,192,131639,1,0,0:0:0:0:
256,192,131639,1,0,0:0:0:0:
402,192,131639,1,0,0:0:0:0:
36,192,131639,1,0,0:0:0:0:
109,192,131639,1,0,0:0:0:0:
182,192,131711,1,0,0:0:0:0:
475,192,131783,1,0,0:0:0:0:
329,192,131783,1,0,0:0:0:0:
256,192,131855,1,0,0:0:0:0:
402,192,131927,1,0,0:0:0:0:
36,192,131927,1,0,0:0:0:0:
182,192,131927,1,0,0:0:0:0:
329,192,131999,1,0,0:0:0:0:
36,192,132071,1,0,0:0:0:0:
109,192,132071,1,0,0:0:0:0:
182,192,132143,1,0,0:0:0:0:
402,192,132215,1,0,0:0:0:0:
329,192,132215,1,0,0:0:0:0:
475,192,132215,1,0,0:0:0:0:
256,192,132287,1,0,0:0:0:0:
402,192,132360,1,0,0:0:0:0:
182,192,132360,1,0,0:0:0:0:
109,192,132432,1,0,0:0:0:0:
475,192,132504,1,0,0:0:0:0:
256,192,132504,1,0,0:0:0:0:
36,192,132504,1,0,0:0:0:0:
329,192,132576,1,0,0:0:0:0:
402,192,132648,1,0,0:0:0:0:
109,192,132648,1,0,0:0:0:0:
182,192,132720,1,0,0:0:0:0:
256,192,132792,1,0,0:0:0:0:
329,192,132792,1,0,0:0:0:0:
36,192,132792,1,0,0:0:0:0:
109,192,132864,1,0,0:0:0:0:
402,192,132936,1,0,0:0:0:0:
182,192,132936,1,0,0:0:0:0:
256,192,133008,1,0,0:0:0:0:
402,192,133080,1,0,0:0:0:0:
475,192,133080,1,0,0:0:0:0:
329,192,133080,1,0,0:0:0:0:
36,192,133152,1,0,0:0:0:0:
256,192,133225,1,0,0:0:0:0:
109,192,133225,1,0,0:0:0:0:
182,192,133297,1,0,0:0:0:0:
36,192,133369,1,0,0:0:0:0:
402,192,133369,1,0,0:0:0:0:
475,192,133369,1,0,0:0:0:0:
329,192,133441,1,0,0:0:0:0:
256,192,133513,1,0,0:0:0:0:
109,192,133513,1,0,0:0:0:0:
402,192,133585,1,0,0:0:0:0:
329,192,133657,1,0,0:0:0:0:
36,192,133657,1,0,0:0:0:0:
182,192,133657,1,0,0:0:0:0:
329,192,133801,1,0,0:0:0:0:
182,192,133801,1,0,0:0:0:0:
36,192,133801,1,0,0:0:0:0:
402,192,133945,1,0,0:0:0:0:
256,192,133945,1,0,0:0:0:0:
109,192,133945,1,0,0:0:0:0:
182,192,134017,1,0,0:0:0:0:
475,192,134089,1,0,0:0:0:0:
329,192,134089,1,0,0:0:0:0:
256,192,134162,1,0,0:0:0:0:
329,192,134234,1,0,0:0:0:0:
36,192,134234,1,0,0:0:0:0:
182,192,134234,1,0,0:0:0:0:
109,192,134306,1,0,0:0:0:0:
475,192,134378,1,0,0:0:0:0:
402,192,134378,1,0,0:0:0:0:
329,192,134450,1,0,0:0:0:0:
182,192,134522,1,0,0:0:0:0:
256,192,134522,1,0,0:0:0:0:
109,192,134522,1,0,0:0:0:0:
402,192,134594,1,0,0:0:0:0:
329,192,134666,1,0,0:0:0:0:
36,192,134666,1,0,0:0:0:0:
109,192,134738,1,0,0:0:0:0:
475,192,134810,1,0,0:0:0:0:
256,192,134810,1,0,0:0:0:0:
182,192,134810,1,0,0:0:0:0:
402,192,134882,1,0,0:0:0:0:
36,192,134954,1,0,0:0:0:0:
329,192,134954,1,0,0:0:0:0:
256,192,135027,1,0,0:0:0:0:
182,192,135099,1,0,0:0:0:0:
109,192,135099,1,0,0:0:0:0:
36,192,135099,1,0,0:0:0:0:
402,192,135171,1,0,0:0:0:0:
182,192,135243,1,0,0:0:0:0:
329,192,135243,1,0,0:0:0:0:
256,192,135315,1,0,0:0:0:0:
402,192,135387,1,0,0:0:0:0:
475,192,135387,1,0,0:0:0:0:
36,192,135387,1,0,0:0:0:0:
109,192,135459,1,0,0:0:0:0:
402,192,135531,1,0,0:0:0:0:
182,192,135531,1,0,0:0:0:0:
329,192,135603,1,0,0:0:0:0:
256,192,135675,1,0,0:0:0:0:
182,192,135675,1,0,0:0:0:0:
109,192,135675,1,0,0:0:0:0:
475,192,135747,1,0,0:0:0:0:
402,192,135747,1,0,0:0:0:0:
329,192,135747,1,0,0:0:0:0:
256,192,135819,1,0,0:0:0:0:
109,192,135819,1,0,0:0:0:0:
182,192,135819,1,0,0:0:0:0:
36,192,135964,1,0,0:0:0:0:
475,192,135964,1,0,0:0:0:0:
402,192,135964,1,0,0:0:0:0:
475,192,136108,1,0,0:0:0:0:
402,192,136108,1,0,0:0:0:0:
36,192,136108,1,0,0:0:0:0:
256,192,136252,1,0,0:0:0:0:
182,192,136252,1,0,0:0:0:0:
109,192,136252,1,0,0:0:0:0:
329,192,136324,1,0,0:0:0:0:
36,192,136396,1,0,0:0:0:0:
402,192,136396,1,0,0:0:0:0:
109,192,136468,1,0,0:0:0:0:
475,192,136540,1,0,0:0:0:0:
182,192,136540,1,0,0:0:0:0:
256,192,136540,1,0,0:0:0:0:
402,192,136612,1,0,0:0:0:0:
182,192,136684,1,0,0:0:0:0:
329,192,136684,1,0,0:0:0:0:
256,192,136756,1,0,0:0:0:0:
475,192,136829,1,0,0:0:0:0:
36,192,136829,1,0,0:0:0:0:
109,192,136829,1,0,0:0:0:0:
402,192,136901,1,0,0:0:0:0:
109,192,136973,1,0,0:0:0:0:
329,192,136973,1,0,0:0:0:0:
256,192,137045,1,0,0:0:0:0:
182,192,137117,1,0,0:0:0:0:
475,192,137117,1,0,0:0:0:0:
36,192,137117,1,0,0:0:0:0:
402,192,137189,1,0,0:0:0:0:
109,192,137261,1,0,0:0:0:0:
329,192,137261,1,0,0:0:0:0:
182,192,137333,1,0,0:0:0:0:
402,192,137405,1,0,0:0:0:0:
256,192,137405,1,0,0:0:0:0:
475,192,137405,1,0,0:0:0:0:
329,192,137477,1,0,0:0:0:0:
109,192,137549,1,0,0:0:0:0:
36,192,137549,1,0,0:0:0:0:
182,192,137621,1,0,0:0:0:0:
402,192,137694,1,0,0:0:0:0:
329,192,137694,1,0,0:0:0:0:
475,192,137694,1,0,0:0:0:0:
256,192,137766,1,0,0:0:0:0:
182,192,137838,1,0,0:0:0:0:
36,192,137838,1,0,0:0:0:0:
402,192,137910,1,0,0:0:0:0:
109,192,137982,1,0,0:0:0:0:
256,192,137982,1,0,0:0:0:0:
329,192,137982,1,0,0:0:0:0:
182,192,138054,1,0,0:0:0:0:
402,192,138126,1,0,0:0:0:0:
329,192,138126,1,0,0:0:0:0:
256,192,138198,1,0,0:0:0:0:
36,192,138270,1,0,0:0:0:0:
182,192,138270,1,0,0:0:0:0:
475,192,138270,1,0,0:0:0:0:
475,192,138414,1,0,0:0:0:0:
36,192,138414,1,0,0:0:0:0:
182,192,138414,1,0,0:0:0:0:
109,192,138559,1,0,0:0:0:0:
329,192,138559,1,0,0:0:0:0:
256,192,138559,1,0,0:0:0:0:
182,192,138631,1,0,0:0:0:0:
475,192,138703,1,0,0:0:0:0:
329,192,138703,1,0,0:0:0:0:
256,192,138775,1,0,0:0:0:0:
402,192,138847,1,0,0:0:0:0:
36,192,138847,1,0,0:0:0:0:
182,192,138847,1,0,0:0:0:0:
329,192,138919,1,0,0:0:0:0:
109,192,138991,1,0,0:0:0:0:
256,192,138991,1,0,0:0:0:0:
182,192,139063,1,0,0:0:0:0:
475,192,139135,1,0,0:0:0:0:
329,192,139135,1,0,0:0:0:0:
402,192,139135,1,0,0:0:0:0:
256,192,139207,1,0,0:0:0:0:
109,192,139279,1,0,0:0:0:0:
36,192,139279,1,0,0:0:0:0:
182,192,139351,1,0,0:0:0:0:
256,192,139423,1,0,0:0:0:0:
402,192,139423,1,0,0:0:0:0:
475,192,139423,1,0,0:0:0:0:
329,192,139496,1,0,0:0:0:0:
182,192,139568,1,0,0:0:0:0:
109,192,139568,1,0,0:0:0:0:
256,192,139640,1,0,0:0:0:0:
475,192,139712,1,0,0:0:0:0:
329,192,139712,1,0,0:0:0:0:
182,192,139712,1,0,0:0:0:0:
475,192,139856,1,0,0:0:0:0:
329,192,139856,1,0,0:0:0:0:
182,192,139856,1,0,0:0:0:0:
402,192,140000,1,0,0:0:0:0:
109,192,140000,1,0,0:0:0:0:
256,192,140000,1,0,0:0:0:0:
402,192,140144,1,0,0:0:0:0:
256,192,140144,1,0,0:0:0:0:
109,192,140144,1,0,0:0:0:0:
182,192,140288,1,0,0:0:0:0:
109,192,140288,1,0,0:0:0:0:
36,192,140288,1,0,0:0:0:0:
475,192,140361,1,0,0:0:0:0:
402,192,140361,1,0,0:0:0:0:
329,192,140361,1,0,0:0:0:0:
36,192,140433,1,0,0:0:0:0:
109,192,140433,1,0,0:0:0:0:
182,192,140433,1,0,0:0:0:0:
402,192,140505,1,0,0:0:0:0:
329,192,140505,1,0,0:0:0:0:
475,192,140505,1,0,0:0:0:0:
36,192,140577,1,0,0:0:0:0:
109,192,140577,1,0,0:0:0:0:
182,192,140577,1,0,0:0:0:0:
475,192,140649,1,0,0:0:0:0:
402,192,140649,1,0,0:0:0:0:
329,192,140649,1,0,0:0:0:0:
36,192,140721,1,0,0:0:0:0:
109,192,140721,1,0,0:0:0:0:
256,192,140721,1,0,0:0:0:0:
182,192,140793,1,0,0:0:0:0:
329,192,140793,1,0,0:0:0:0:
475,192,140865,1,0,0:0:0:0:
402,192,140865,1,0,0:0:0:0:
109,192,140865,1,0,0:0:0:0:
256,192,140865,1,0,0:0:0:0:
36,192,140865,1,0,0:0:0:0:
329,192,140937,1,0,0:0:0:0:
182,192,141009,1,0,0:0:0:0:
36,192,141009,1,0,0:0:0:0:
256,192,141081,1,0,0:0:0:0:
329,192,141153,1,0,0:0:0:0:
475,192,141153,1,0,0:0:0:0:
109,192,141153,1,0,0:0:0:0:
182,192,141225,1,0,0:0:0:0:
402,192,141298,1,0,0:0:0:0:
475,192,141298,1,0,0:0:0:0:
329,192,141370,1,0,0:0:0:0:
36,192,141442,1,0,0:0:0:0:
182,192,141442,1,0,0:0:0:0:
109,192,141442,1,0,0:0:0:0:
256,192,141514,1,0,0:0:0:0:
329,192,141586,1,0,0:0:0:0:
109,192,141586,1,0,0:0:0:0:
402,192,141658,1,0,0:0:0:0:
475,192,141730,1,0,0:0:0:0:
256,192,141730,1,0,0:0:0:0:
36,192,141730,1,0,0:0:0:0:
182,192,141802,1,0,0:0:0:0:
402,192,141874,1,0,0:0:0:0:
109,192,141874,1,0,0:0:0:0:
329,192,141946,1,0,0:0:0:0:
475,192,142018,1,0,0:0:0:0:
182,192,142018,1,0,0:0:0:0:
256,192,142018,1,0,0:0:0:0:
402,192,142090,1,0,0:0:0:0:
329,192,142163,1,0,0:0:0:0:
109,192,142163,1,0,0:0:0:0:
256,192,142235,1,0,0:0:0:0:
182,192,142307,1,0,0:0:0:0:
36,192,142307,1,0,0:0:0:0:
109,192,142307,1,0,0:0:0:0:
475,192,142379,1,0,0:0:0:0:
402,192,142451,1,0,0:0:0:0:
256,192,142451,1,0,0:0:0:0:
329,192,142523,1,0,0:0:0:0:
36,192,142595,1,0,0:0:0:0:
109,192,142595,1,0,0:0:0:0:
475,192,142595,1,0,0:0:0:0:
182,192,142667,1,0,0:0:0:0:
402,192,142739,1,0,0:0:0:0:
256,192,142739,1,0,0:0:0:0:
109,192,142811,1,0,0:0:0:0:
329,192,142883,1,0,0:0:0:0:
475,192,142883,1,0,0:0:0:0:
182,192,142883,1,0,0:0:0:0:
475,192,143028,1,0,0:0:0:0:
329,192,143028,1,0,0:0:0:0:
182,192,143028,1,0,0:0:0:0:
402,192,143172,1,0,0:0:0:0:
256,192,143172,1,0,0:0:0:0:
109,192,143172,1,0,0:0:0:0:
329,192,143244,1,0,0:0:0:0:
182,192,143316,1,0,0:0:0:0:
36,192,143316,1,0,0:0:0:0:
256,192,143388,1,0,0:0:0:0:
329,192,143460,1,0,0:0:0:0:
475,192,143460,1,0,0:0:0:0:
182,192,143460,1,0,0:0:0:0:
402,192,143532,1,0,0:0:0:0:
109,192,143604,1,0,0:0:0:0:
36,192,143604,1,0,0:0:0:0:
182,192,143676,1,0,0:0:0:0:
402,192,143748,1,0,0:0:0:0:
256,192,143748,1,0,0:0:0:0:
329,192,143748,1,0,0:0:0:0:
109,192,143820,1,0,0:0:0:0:
475,192,143892,1,0,0:0:0:0:
182,192,143892,1,0,0:0:0:0:
402,192,143965,1,0,0:0:0:0:
329,192,144037,1,0,0:0:0:0:
256,192,144037,1,0,0:0:0:0:
36,192,144037,1,0,0:0:0:0:
109,192,144109,1,0,0:0:0:0:
182,192,144181,1,0,0:0:0:0:
475,192,144181,1,0,0:0:0:0:
256,192,144253,1,0,0:0:0:0:
475,192,144325,1,0,0:0:0:0:
402,192,144325,1,0,0:0:0:0:
329,192,144325,1,0,0:0:0:0:
109,192,144397,1,0,0:0:0:0:
182,192,144469,1,0,0:0:0:0:
329,192,144469,1,0,0:0:0:0:
256,192,144541,1,0,0:0:0:0:
475,192,144613,1,0,0:0:0:0:
36,192,144613,1,0,0:0:0:0:
109,192,144613,1,0,0:0:0:0:
402,192,144685,1,0,0:0:0:0:
329,192,144757,1,0,0:0:0:0:
109,192,144757,1,0,0:0:0:0:
182,192,144830,1,0,0:0:0:0:
402,192,144902,1,0,0:0:0:0:
329,192,144902,1,0,0:0:0:0:
256,192,144902,1,0,0:0:0:0:
182,192,144974,1,0,0:0:0:0:
109,192,144974,1,0,0:0:0:0:
36,192,144974,1,0,0:0:0:0:
329,192,145046,1,0,0:0:0:0:
402,192,145046,1,0,0:0:0:0:
256,192,145046,1,0,0:0:0:0:
109,192,145190,1,0,0:0:0:0:
36,192,145190,1,0,0:0:0:0:
475,192,145190,1,0,0:0:0:0:
475,192,145334,1,0,0:0:0:0:
109,192,145334,1,0,0:0:0:0:
36,192,145334,1,0,0:0:0:0:
402,192,145478,1,0,0:0:0:0:
329,192,145478,1,0,0:0:0:0:
256,192,145478,1,0,0:0:0:0:
182,192,145550,1,0,0:0:0:0:
109,192,145622,1,0,0:0:0:0:
475,192,145622,1,0,0:0:0:0:
402,192,145694,1,0,0:0:0:0:
256,192,145767,1,0,0:0:0:0:
329,192,145767,1,0,0:0:0:0:
36,192,145767,1,0,0:0:0:0:
109,192,145839,1,0,0:0:0:0:
182,192,145911,1,0,0:0:0:0:
329,192,145911,1,0,0:0:0:0:
256,192,145983,1,0,0:0:0:0:
402,192,146055,1,0,0:0:0:0:
475,192,146055,1,0,0:0:0:0:
36,192,146055,1,0,0:0:0:0:
109,192,146127,1,0,0:0:0:0:
182,192,146199,1,0,0:0:0:0:
402,192,146199,1,0,0:0:0:0:
256,192,146271,1,0,0:0:0:0:
475,192,146343,1,0,0:0:0:0:
36,192,146343,1,0,0:0:0:0:
329,192,146343,1,0,0:0:0:0:
109,192,146415,1,0,0:0:0:0:
182,192,146487,1,0,0:0:0:0:
402,192,146487,1,0,0:0:0:0:
329,192,146559,1,0,0:0:0:0:
36,192,146632,1,0,0:0:0:0:
256,192,146632,1,0,0:0:0:0:
109,192,146632,1,0,0:0:0:0:
182,192,146704,1,0,0:0:0:0:
475,192,146776,1,0,0:0:0:0:
402,192,146776,1,0,0:0:0:0:
329,192,146848,1,0,0:0:0:0:
36,192,146920,1,0,0:0:0:0:
182,192,146920,1,0,0:0:0:0:
109,192,146920,1,0,0:0:0:0:
256,192,146992,1,0,0:0:0:0:
475,192,147064,1,0,0:0:0:0:
329,192,147064,1,0,0:0:0:0:
109,192,147136,1,0,0:0:0:0:
182,192,147208,1,0,0:0:0:0:
256,192,147208,1,0,0:0:0:0:
402,192,147208,1,0,0:0:0:0:
329,192,147280,1,0,0:0:0:0:
182,192,147352,1,0,0:0:0:0:
109,192,147352,1,0,0:0:0:0:
256,192,147424,1,0,0:0:0:0:
36,192,147497,1,0,0:0:0:0:
329,192,147497,1,0,0:0:0:0:
475,192,147497,1,0,0:0:0:0:
329,192,147641,1,0,0:0:0:0:
475,192,147641,1,0,0:0:0:0:
36,192,147641,1,0,0:0:0:0:
256,192,147785,1,0,0:0:0:0:
182,192,147785,1,0,0:0:0:0:
402,192,147785,1,0,0:0:0:0:
329,192,147857,1,0,0:0:0:0:
182,192,147929,1,0,0:0:0:0:
36,192,147929,1,0,0:0:0:0:
256,192,148001,1,0,0:0:0:0:
329,192,148073,1,0,0:0:0:0:
475,192,148073,1,0,0:0:0:0:
109,192,148073,1,0,0:0:0:0:
182,192,148145,1,0,0:0:0:0:
256,192,148217,1,0,0:0:0:0:
402,192,148217,1,0,0:0:0:0:
329,192,148289,1,0,0:0:0:0:
182,192,148361,1,0,0:0:0:0:
36,192,148361,1,0,0:0:0:0:
109,192,148361,1,0,0:0:0:0:
256,192,148434,1,0,0:0:0:0:
475,192,148506,1,0,0:0:0:0:
402,192,148506,1,0,0:0:0:0:
329,192,148578,1,0,0:0:0:0:
36,192,148650,1,0,0:0:0:0:
109,192,148650,1,0,0:0:0:0:
256,192,148650,1,0,0:0:0:0:
182,192,148722,1,0,0:0:0:0:
402,192,148794,1,0,0:0:0:0:
329,192,148794,1,0,0:0:0:0:
256,192,148866,1,0,0:0:0:0:
109,192,148938,1,0,0:0:0:0:
36,192,148938,1,0,0:0:0:0:
475,192,148938,1,0,0:0:0:0:
402,192,148974,1,0,0:0:0:0:
329,192,149010,1,0,0:0:0:0:
256,192,149046,1,0,0:0:0:0:
182,192,149082,1,0,0:0:0:0:
475,192,149226,1,0,0:0:0:0:
402,192,149226,1,0,0:0:0:0:
36,192,149226,1,0,0:0:0:0:
109,192,149262,1,0,0:0:0:0:
182,192,149299,1,0,0:0:0:0:
256,192,149335,1,0,0:0:0:0:
329,192,149371,1,0,0:0:0:0:
475,192,149515,1,0,0:0:0:0:
402,192,149515,1,0,0:0:0:0:
109,192,149515,1,0,0:0:0:0:
182,192,149659,1,0,0:0:0:0:
109,192,149803,1,0,0:0:0:0:
475,192,149803,1,0,0:0:0:0:
402,192,149803,1,0,0:0:0:0:
182,192,149947,1,0,0:0:0:0:
36,192,150091,1,0,0:0:0:0:
109,192,150091,1,0,0:0:0:0:
402,192,150091,1,0,0:0:0:0:
475,192,150091,1,0,0:0:0:0:
256,192,150091,1,0,0:0:0:0:
182,192,150164,1,0,0:0:0:0:
329,192,150236,1,0,0:0:0:0:
475,192,150236,1,0,0:0:0:0:
256,192,150308,1,0,0:0:0:0:
182,192,150380,1,0,0:0:0:0:
36,192,150380,1,0,0:0:0:0:
402,192,150380,1,0,0:0:0:0:
329,192,150452,1,0,0:0:0:0:
109,192,150524,1,0,0:0:0:0:
36,192,150524,1,0,0:0:0:0:
182,192,150596,1,0,0:0:0:0:
475,192,150668,1,0,0:0:0:0:
329,192,150668,1,0,0:0:0:0:
402,192,150668,1,0,0:0:0:0:
256,192,150740,1,0,0:0:0:0:
182,192,150812,1,0,0:0:0:0:
402,192,150812,1,0,0:0:0:0:
109,192,150884,1,0,0:0:0:0:
36,192,150956,1,0,0:0:0:0:
256,192,150956,1,0,0:0:0:0:
475,192,150956,1,0,0:0:0:0:
329,192,151028,1,0,0:0:0:0:
109,192,151101,1,0,0:0:0:0:
402,192,151101,1,0,0:0:0:0:
182,192,151173,1,0,0:0:0:0:
36,192,151245,1,0,0:0:0:0:
329,192,151245,1,0,0:0:0:0:
256,192,151245,1,0,0:0:0:0:
109,192,151317,1,0,0:0:0:0:
182,192,151389,1,0,0:0:0:0:
402,192,151389,1,0,0:0:0:0:
256,192,151461,1,0,0:0:0:0:
329,192,151533,1,0,0:0:0:0:
475,192,151533,1,0,0:0:0:0:
402,192,151533,1,0,0:0:0:0:
36,192,151605,1,0,0:0:0:0:
109,192,151677,1,0,0:0:0:0:
256,192,151677,1,0,0:0:0:0:
182,192,151749,1,0,0:0:0:0:
475,192,151821,1,0,0:0:0:0:
402,192,151821,1,0,0:0:0:0:
36,192,151821,1,0,0:0:0:0:
329,192,151893,1,0,0:0:0:0:
109,192,151966,1,0,0:0:0:0:
256,192,151966,1,0,0:0:0:0:
402,192,152038,1,0,0:0:0:0:
182,192,152110,1,0,0:0:0:0:
36,192,152110,1,0,0:0:0:0:
329,192,152110,1,0,0:0:0:0:
36,192,152254,1,0,0:0:0:0:
182,192,152254,1,0,0:0:0:0:
329,192,152254,1,0,0:0:0:0:
109,192,152398,1,0,0:0:0:0:
256,192,152398,1,0,0:0:0:0:
402,192,152398,1,0,0:0:0:0:
182,192,152470,1,0,0:0:0:0:
329,192,152542,1,0,0:0:0:0:
475,192,152542,1,0,0:0:0:0:
256,192,152614,1,0,0:0:0:0:
182,192,152686,1,0,0:0:0:0:
36,192,152686,1,0,0:0:0:0:
329,192,152686,1,0,0:0:0:0:
109,192,152758,1,0,0:0:0:0:
402,192,152830,1,0,0:0:0:0:
475,192,152830,1,0,0:0:0:0:
329,192,152903,1,0,0:0:0:0:
109,192,152975,1,0,0:0:0:0:
256,192,152975,1,0,0:0:0:0:
182,192,152975,1,0,0:0:0:0:
402,192,153047,1,0,0:0:0:0:
36,192,153119,1,0,0:0:0:0:
329,192,153119,1,0,0:0:0:0:
109,192,153191,1,0,0:0:0:0:
182,192,153263,1,0,0:0:0:0:
256,192,153263,1,0,0:0:0:0:
475,192,153263,1,0,0:0:0:0:
402,192,153335,1,0,0:0:0:0:
329,192,153407,1,0,0:0:0:0:
36,192,153407,1,0,0:0:0:0:
256,192,153479,1,0,0:0:0:0:
36,192,153551,1,0,0:0:0:0:
109,192,153551,1,0,0:0:0:0:
182,192,153551,1,0,0:0:0:0:
402,192,153623,1,0,0:0:0:0:
329,192,153695,1,0,0:0:0:0:
182,192,153695,1,0,0:0:0:0:
256,192,153768,1,0,0:0:0:0:
36,192,153840,1,0,0:0:0:0:
475,192,153840,1,0,0:0:0:0:
402,192,153840,1,0,0:0:0:0:
109,192,153912,1,0,0:0:0:0:
182,192,153984,1,0,0:0:0:0:
402,192,153984,1,0,0:0:0:0:
329,192,154056,1,0,0:0:0:0:
109,192,154128,1,0,0:0:0:0:
182,192,154128,1,0,0:0:0:0:
256,192,154128,1,0,0:0:0:0:
329,192,154200,1,0,0:0:0:0:
402,192,154200,1,0,0:0:0:0:
475,192,154200,1,0,0:0:0:0:
182,192,154272,1,0,0:0:0:0:
109,192,154272,1,0,0:0:0:0:
256,192,154272,1,0,0:0:0:0:
402,192,154416,1,0,0:0:0:0:
475,192,154416,1,0,0:0:0:0:
36,192,154416,1,0,0:0:0:0:
36,192,154560,1,0,0:0:0:0:
402,192,154560,1,0,0:0:0:0:
475,192,154560,1,0,0:0:0:0:
109,192,154705,1,0,0:0:0:0:
182,192,154705,1,0,0:0:0:0:
256,192,154705,1,0,0:0:0:0:
329,192,154777,1,0,0:0:0:0:
402,192,154849,1,0,0:0:0:0:
36,192,154849,1,0,0:0:0:0:
109,192,154921,1,0,0:0:0:0:
256,192,154993,1,0,0:0:0:0:
182,192,154993,1,0,0:0:0:0:
475,192,154993,1,0,0:0:0:0:
402,192,155065,1,0,0:0:0:0:
329,192,155137,1,0,0:0:0:0:
182,192,155137,1,0,0:0:0:0:
256,192,155209,1,0,0:0:0:0:
109,192,155281,1,0,0:0:0:0:
36,192,155281,1,0,0:0:0:0:
475,192,155281,1,0,0:0:0:0:
402,192,155353,1,0,0:0:0:0:
329,192,155425,1,0,0:0:0:0:
109,192,155425,1,0,0:0:0:0:
256,192,155497,1,0,0:0:0:0:
36,192,155570,1,0,0:0:0:0:
475,192,155570,1,0,0:0:0:0:
182,192,155570,1,0,0:0:0:0:
402,192,155642,1,0,0:0:0:0:
329,192,155714,1,0,0:0:0:0:
109,192,155714,1,0,0:0:0:0:
182,192,155786,1,0,0:0:0:0:
475,192,155858,1,0,0:0:0:0:
256,192,155858,1,0,0:0:0:0:
402,192,155858,1,0,0:0:0:0:
329,192,155930,1,0,0:0:0:0:
36,192,156002,1,0,0:0:0:0:
109,192,156002,1,0,0:0:0:0:
182,192,156074,1,0,0:0:0:0:
475,192,156146,1,0,0:0:0:0:
329,192,156146,1,0,0:0:0:0:
402,192,156146,1,0,0:0:0:0:
256,192,156218,1,0,0:0:0:0:
36,192,156290,1,0,0:0:0:0:
182,192,156290,1,0,0:0:0:0:
402,192,156362,1,0,0:0:0:0:
329,192,156435,1,0,0:0:0:0:
256,192,156435,1,0,0:0:0:0:
109,192,156435,1,0,0:0:0:0:
182,192,156507,1,0,0:0:0:0:
329,192,156579,1,0,0:0:0:0:
402,192,156579,1,0,0:0:0:0:
256,192,156651,1,0,0:0:0:0:
475,192,156723,1,0,0:0:0:0:
182,192,156723,1,0,0:0:0:0:
36,192,156723,1,0,0:0:0:0:
182,192,156867,1,0,0:0:0:0:
36,192,156867,1,0,0:0:0:0:
475,192,156867,1,0,0:0:0:0:
256,192,157011,1,0,0:0:0:0:
329,192,157011,1,0,0:0:0:0:
109,192,157011,1,0,0:0:0:0:
182,192,157083,1,0,0:0:0:0:
329,192,157155,1,0,0:0:0:0:
475,192,157155,1,0,0:0:0:0:
256,192,157227,1,0,0:0:0:0:
182,192,157299,1,0,0:0:0:0:
36,192,157299,1,0,0:0:0:0:
402,192,157299,1,0,0:0:0:0:
329,192,157372,1,0,0:0:0:0:
256,192,157444,1,0,0:0:0:0:
109,192,157444,1,0,0:0:0:0:
182,192,157516,1,0,0:0:0:0:
329,192,157588,1,0,0:0:0:0:
475,192,157588,1,0,0:0:0:0:
402,192,157588,1,0,0:0:0:0:
256,192,157660,1,0,0:0:0:0:
36,192,157732,1,0,0:0:0:0:
109,192,157732,1,0,0:0:0:0:
182,192,157804,1,0,0:0:0:0:
475,192,157876,1,0,0:0:0:0:
402,192,157876,1,0,0:0:0:0:
256,192,157876,1,0,0:0:0:0:
329,192,157948,1,0,0:0:0:0:
109,192,158020,1,0,0:0:0:0:
182,192,158020,1,0,0:0:0:0:
256,192,158092,1,0,0:0:0:0:
182,192,158164,1,0,0:0:0:0:
329,192,158164,1,0,0:0:0:0:
475,192,158164,1,0,0:0:0:0:
182,192,158309,1,0,0:0:0:0:
329,192,158309,1,0,0:0:0:0:
475,192,158309,1,0,0:0:0:0:
256,192,158453,1,0,0:0:0:0:
109,192,158453,1,0,0:0:0:0:
402,192,158453,1,0,0:0:0:0:
109,192,158597,1,0,0:0:0:0:
256,192,158597,1,0,0:0:0:0:
402,192,158597,1,0,0:0:0:0:
36,192,158741,1,0,0:0:0:0:
109,192,158741,1,0,0:0:0:0:
182,192,158741,1,0,0:0:0:0:
329,192,158813,1,0,0:0:0:0:
402,192,158813,1,0,0:0:0:0:
475,192,158813,1,0,0:0:0:0:
182,192,158885,1,0,0:0:0:0:
109,192,158885,1,0,0:0:0:0:
36,192,158885,1,0,0:0:0:0:
475,192,158957,1,0,0:0:0:0:
329,192,158957,1,0,0:0:0:0:
402,192,158957,1,0,0:0:0:0:
182,192,159029,1,0,0:0:0:0:
109,192,159029,1,0,0:0:0:0:
36,192,159029,1,0,0:0:0:0:
329,192,159102,1,0,0:0:0:0:
402,192,159102,1,0,0:0:0:0:
475,192,159102,1,0,0:0:0:0:
109,192,159174,1,0,0:0:0:0:
36,192,159174,1,0,0:0:0:0:
256,192,159174,1,0,0:0:0:0:
182,192,159246,1,0,0:0:0:0:
329,192,159246,1,0,0:0:0:0:
256,192,159318,1,0,0:0:0:0:
36,192,159318,1,0,0:0:0:0:
109,192,159318,1,0,0:0:0:0:
475,192,159318,1,0,0:0:0:0:
402,192,159318,1,0,0:0:0:0:
329,192,159390,1,0,0:0:0:0:
36,192,159462,1,0,0:0:0:0:
182,192,159462,1,0,0:0:0:0:
256,192,159534,1,0,0:0:0:0:
109,192,159606,1,0,0:0:0:0:
475,192,159606,1,0,0:0:0:0:
329,192,159606,1,0,0:0:0:0:
182,192,159678,1,0,0:0:0:0:
475,192,159750,1,0,0:0:0:0:
402,192,159750,1,0,0:0:0:0:
329,192,159822,1,0,0:0:0:0:
109,192,159894,1,0,0:0:0:0:
182,192,159894,1,0,0:0:0:0:
36,192,159894,1,0,0:0:0:0:
256,192,159966,1,0,0:0:0:0:
109,192,160039,1,0,0:0:0:0:
329,192,160039,1,0,0:0:0:0:
402,192,160111,1,0,0:0:0:0:
36,192,160183,1,0,0:0:0:0:
256,192,160183,1,0,0:0:0:0:
475,192,160183,1,0,0:0:0:0:
182,192,160255,1,0,0:0:0:0:
109,192,160327,1,0,0:0:0:0:
402,192,160327,1,0,0:0:0:0:
329,192,160399,1,0,0:0:0:0:
256,192,160471,1,0,0:0:0:0:
182,192,160471,1,0,0:0:0:0:
475,192,160471,1,0,0:0:0:0:
402,192,160543,1,0,0:0:0:0:
109,192,160615,1,0,0:0:0:0:
329,192,160615,1,0,0:0:0:0:
256,192,160687,1,0,0:0:0:0:
109,192,160759,1,0,0:0:0:0:
36,192,160759,1,0,0:0:0:0:
182,192,160759,1,0,0:0:0:0:
475,192,160831,1,0,0:0:0:0:
256,192,160904,1,0,0:0:0:0:
402,192,160904,1,0,0:0:0:0:
329,192,160976,1,0,0:0:0:0:
475,192,161048,1,0,0:0:0:0:
109,192,161048,1,0,0:0:0:0:
36,192,161048,1,0,0:0:0:0:
182,192,161120,1,0,0:0:0:0:
256,192,161192,1,0,0:0:0:0:
402,192,161192,1,0,0:0:0:0:
109,192,161264,1,0,0:0:0:0:
182,192,161336,1,0,0:0:0:0:
475,192,161336,1,0,0:0:0:0:
329,192,161336,1,0,0:0:0:0:
182,192,161480,1,0,0:0:0:0:
329,192,161480,1,0,0:0:0:0:
475,192,161480,1,0,0:0:0:0:
109,192,161624,1,0,0:0:0:0:
256,192,161624,1,0,0:0:0:0:
402,192,161624,1,0,0:0:0:0:
329,192,161696,1,0,0:0:0:0:
36,192,161768,1,0,0:0:0:0:
182,192,161768,1,0,0:0:0:0:
256,192,161841,1,0,0:0:0:0:
182,192,161913,1,0,0:0:0:0:
475,192,161913,1,0,0:0:0:0:
329,192,161913,1,0,0:0:0:0:
402,192,161985,1,0,0:0:0:0:
36,192,162057,1,0,0:0:0:0:
109,192,162057,1,0,0:0:0:0:
182,192,162129,1,0,0:0:0:0:
329,192,162201,1,0,0:0:0:0:
256,192,162201,1,0,0:0:0:0:
402,192,162201,1,0,0:0:0:0:
109,192,162273,1,0,0:0:0:0:
182,192,162345,1,0,0:0:0:0:
475,192,162345,1,0,0:0:0:0:
402,192,162417,1,0,0:0:0:0:
36,192,162489,1,0,0:0:0:0:
256,192,162489,1,0,0:0:0:0:
329,192,162489,1,0,0:0:0:0:
109,192,162561,1,0,0:0:0:0:
475,192,162633,1,0,0:0:0:0:
182,192,162633,1,0,0:0:0:0:
256,192,162706,1,0,0:0:0:0:
329,192,162778,1,0,0:0:0:0:
402,192,162778,1,0,0:0:0:0:
475,192,162778,1,0,0:0:0:0:
109,192,162850,1,0,0:0:0:0:
329,192,162922,1,0,0:0:0:0:
182,192,162922,1,0,0:0:0:0:
256,192,162994,1,0,0:0:0:0:
109,192,163066,1,0,0:0:0:0:
36,192,163066,1,0,0:0:0:0:
475,192,163066,1,0,0:0:0:0:
402,192,163138,1,0,0:0:0:0:
109,192,163210,1,0,0:0:0:0:
329,192,163210,1,0,0:0:0:0:
182,192,163282,1,0,0:0:0:0:
256,192,163354,1,0,0:0:0:0:
329,192,163354,1,0,0:0:0:0:
402,192,163354,1,0,0:0:0:0:
36,192,163426,1,0,0:0:0:0:
109,192,163426,1,0,0:0:0:0:
182,192,163426,1,0,0:0:0:0:
256,192,163498,1,0,0:0:0:0:
402,192,163498,1,0,0:0:0:0:
329,192,163498,1,0,0:0:0:0:
475,192,163643,1,0,0:0:0:0:
36,192,163643,1,0,0:0:0:0:
109,192,163643,1,0,0:0:0:0:
36,192,163787,1,0,0:0:0:0:
109,192,163787,1,0,0:0:0:0:
475,192,163787,1,0,0:0:0:0:
256,192,163931,1,0,0:0:0:0:
329,192,163931,1,0,0:0:0:0:
402,192,163931,1,0,0:0:0:0:
182,192,164003,1,0,0:0:0:0:
475,192,164075,1,0,0:0:0:0:
109,192,164075,1,0,0:0:0:0:
402,192,164147,1,0,0:0:0:0:
36,192,164219,1,0,0:0:0:0:
329,192,164219,1,0,0:0:0:0:
256,192,164219,1,0,0:0:0:0:
109,192,164291,1,0,0:0:0:0:
329,192,164363,1,0,0:0:0:0:
182,192,164363,1,0,0:0:0:0:
256,192,164435,1,0,0:0:0:0:
36,192,164508,1,0,0:0:0:0:
475,192,164508,1,0,0:0:0:0:
402,192,164508,1,0,0:0:0:0:
109,192,164580,1,0,0:0:0:0:
402,192,164652,1,0,0:0:0:0:
182,192,164652,1,0,0:0:0:0:
256,192,164724,1,0,0:0:0:0:
329,192,164796,1,0,0:0:0:0:
36,192,164796,1,0,0:0:0:0:
475,192,164796,1,0,0:0:0:0:
109,192,164868,1,0,0:0:0:0:
402,192,164940,1,0,0:0:0:0:
182,192,164940,1,0,0:0:0:0:
329,192,165012,1,0,0:0:0:0:
109,192,165084,1,0,0:0:0:0:
256,192,165084,1,0,0:0:0:0:
36,192,165084,1,0,0:0:0:0:
182,192,165156,1,0,0:0:0:0:
402,192,165228,1,0,0:0:0:0:
475,192,165228,1,0,0:0:0:0:
329,192,165300,1,0,0:0:0:0:
109,192,165373,1,0,0:0:0:0:
182,192,165373,1,0,0:0:0:0:
36,192,165373,1,0,0:0:0:0:
256,192,165445,1,0,0:0:0:0:
329,192,165517,1,0,0:0:0:0:
475,192,165517,1,0,0:0:0:0:
109,192,165589,1,0,0:0:0:0:
402,192,165661,1,0,0:0:0:0:
256,192,165661,1,0,0:0:0:0:
182,192,165661,1,0,0:0:0:0:
329,192,165733,1,0,0:0:0:0:
109,192,165805,1,0,0:0:0:0:
182,192,165805,1,0,0:0:0:0:
256,192,165877,1,0,0:0:0:0:
475,192,165949,1,0,0:0:0:0:
329,192,165949,1,0,0:0:0:0:
36,192,165949,1,0,0:0:0:0:
36,192,166093,1,0,0:0:0:0:
475,192,166093,1,0,0:0:0:0:
329,192,166093,1,0,0:0:0:0:
402,192,166238,1,0,0:0:0:0:
182,192,166238,1,0,0:0:0:0:
256,192,166238,1,0,0:0:0:0:
329,192,166310,1,0,0:0:0:0:
36,192,166382,1,0,0:0:0:0:
182,192,166382,1,0,0:0:0:0:
256,192,166454,1,0,0:0:0:0:
109,192,166526,1,0,0:0:0:0:
475,192,166526,1,0,0:0:0:0:
329,192,166526,1,0,0:0:0:0:
182,192,166598,1,0,0:0:0:0:
402,192,166670,1,0,0:0:0:0:
256,192,166670,1,0,0:0:0:0:
329,192,166742,1,0,0:0:0:0:
36,192,166814,1,0,0:0:0:0:
182,192,166814,1,0,0:0:0:0:
109,192,166814,1,0,0:0:0:0:
256,192,166886,1,0,0:0:0:0:
402,192,166958,1,0,0:0:0:0:
475,192,166958,1,0,0:0:0:0:
329,192,167030,1,0,0:0:0:0:
256,192,167102,1,0,0:0:0:0:
109,192,167102,1,0,0:0:0:0:
36,192,167102,1,0,0:0:0:0:
182,192,167175,1,0,0:0:0:0:
329,192,167247,1,0,0:0:0:0:
402,192,167247,1,0,0:0:0:0:
256,192,167319,1,0,0:0:0:0:
475,192,167391,1,0,0:0:0:0:
36,192,167391,1,0,0:0:0:0:
109,192,167391,1,0,0:0:0:0:
402,192,167427,1,0,0:0:0:0:
329,192,167463,1,0,0:0:0:0:
256,192,167499,1,0,0:0:0:0:
182,192,167535,1,0,0:0:0:0:
36,192,167679,1,0,0:0:0:0:
402,192,167679,1,0,0:0:0:0:
475,192,167679,1,0,0:0:0:0:
109,192,167715,1,0,0:0:0:0:
182,192,167751,1,0,0:0:0:0:
256,192,167787,1,0,0:0:0:0:
329,192,167823,1,0,0:0:0:0:
109,192,167967,1,0,0:0:0:0:
402,192,167967,1,0,0:0:0:0:
475,192,167967,1,0,0:0:0:0:
182,192,168112,1,0,0:0:0:0:
402,192,168256,1,0,0:0:0:0:
475,192,168256,1,0,0:0:0:0:
109,192,168256,1,0,0:0:0:0:
182,192,168400,1,0,0:0:0:0:
36,192,168544,1,0,0:0:0:0:
109,192,168544,1,0,0:0:0:0:
402,192,168544,1,0,0:0:0:0:
475,192,168544,1,0,0:0:0:0:
256,192,168544,1,0,0:0:0:0:
182,192,168616,1,0,0:0:0:0:
329,192,168688,1,0,0:0:0:0:
475,192,168688,1,0,0:0:0:0:
256,192,168760,1,0,0:0:0:0:
182,192,168832,1,0,0:0:0:0:
36,192,168832,1,0,0:0:0:0:
402,192,168832,1,0,0:0:0:0:
329,192,168904,1,0,0:0:0:0:
109,192,168977,1,0,0:0:0:0:
36,192,168977,1,0,0:0:0:0:
182,192,169049,1,0,0:0:0:0:
475,192,169121,1,0,0:0:0:0:
329,192,169121,1,0,0:0:0:0:
402,192,169121,1,0,0:0:0:0:
256,192,169193,1,0,0:0:0:0:
182,192,169265,1,0,0:0:0:0:
402,192,169265,1,0,0:0:0:0:
109,192,169337,1,0,0:0:0:0:
36,192,169409,1,0,0:0:0:0:
256,192,169409,1,0,0:0:0:0:
475,192,169409,1,0,0:0:0:0:
329,192,169481,1,0,0:0:0:0:
109,192,169553,1,0,0:0:0:0:
402,192,169553,1,0,0:0:0:0:
182,192,169625,1,0,0:0:0:0:
36,192,169697,1,0,0:0:0:0:
329,192,169697,1,0,0:0:0:0:
256,192,169697,1,0,0:0:0:0:
109,192,169769,1,0,0:0:0:0:
182,192,169842,1,0,0:0:0:0:
402,192,169842,1,0,0:0:0:0:
256,192,169914,1,0,0:0:0:0:
329,192,169986,1,0,0:0:0:0:
475,192,169986,1,0,0:0:0:0:
402,192,169986,1,0,0:0:0:0:
36,192,170058,1,0,0:0:0:0:
109,192,170130,1,0,0:0:0:0:
256,192,170130,1,0,0:0:0:0:
182,192,170202,1,0,0:0:0:0:
475,192,170274,1,0,0:0:0:0:
402,192,170274,1,0,0:0:0:0:
36,192,170274,1,0,0:0:0:0:
329,192,170346,1,0,0:0:0:0:
109,192,170418,1,0,0:0:0:0:
256,192,170418,1,0,0:0:0:0:
402,192,170490,1,0,0:0:0:0:
182,192,170562,1,0,0:0:0:0:
36,192,170562,1,0,0:0:0:0:
329,192,170562,1,0,0:0:0:0:
36,192,170707,1,0,0:0:0:0:
182,192,170707,1,0,0:0:0:0:
329,192,170707,1,0,0:0:0:0:
109,192,170851,1,0,0:0:0:0:
256,192,170851,1,0,0:0:0:0:
402,192,170851,1,0,0:0:0:0:
182,192,170923,1,0,0:0:0:0:
329,192,170995,1,0,0:0:0:0:
475,192,170995,1,0,0:0:0:0:
256,192,171067,1,0,0:0:0:0:
182,192,171139,1,0,0:0:0:0:
36,192,171139,1,0,0:0:0:0:
329,192,171139,1,0,0:0:0:0:
109,192,171211,1,0,0:0:0:0:
402,192,171283,1,0,0:0:0:0:
475,192,171283,1,0,0:0:0:0:
329,192,171355,1,0,0:0:0:0:
109,192,171427,1,0,0:0:0:0:
256,192,171427,1,0,0:0:0:0:
182,192,171427,1,0,0:0:0:0:
402,192,171499,1,0,0:0:0:0:
36,192,171571,1,0,0:0:0:0:
329,192,171571,1,0,0:0:0:0:
109,192,171644,1,0,0:0:0:0:
182,192,171716,1,0,0:0:0:0:
256,192,171716,1,0,0:0:0:0:
475,192,171716,1,0,0:0:0:0:
402,192,171788,1,0,0:0:0:0:
329,192,171860,1,0,0:0:0:0:
36,192,171860,1,0,0:0:0:0:
256,192,171932,1,0,0:0:0:0:
36,192,172004,1,0,0:0:0:0:
109,192,172004,1,0,0:0:0:0:
182,192,172004,1,0,0:0:0:0:
402,192,172076,1,0,0:0:0:0:
329,192,172148,1,0,0:0:0:0:
182,192,172148,1,0,0:0:0:0:
256,192,172220,1,0,0:0:0:0:
36,192,172292,1,0,0:0:0:0:
475,192,172292,1,0,0:0:0:0:
402,192,172292,1,0,0:0:0:0:
109,192,172364,1,0,0:0:0:0:
182,192,172436,1,0,0:0:0:0:
402,192,172436,1,0,0:0:0:0:
329,192,172509,1,0,0:0:0:0:
109,192,172581,1,0,0:0:0:0:
182,192,172581,1,0,0:0:0:0:
256,192,172581,1,0,0:0:0:0:
329,192,172653,1,0,0:0:0:0:
402,192,172653,1,0,0:0:0:0:
475,192,172653,1,0,0:0:0:0:
182,192,172725,1,0,0:0:0:0:
109,192,172725,1,0,0:0:0:0:
256,192,172725,1,0,0:0:0:0:
402,192,172869,1,0,0:0:0:0:
475,192,172869,1,0,0:0:0:0:
36,192,172869,1,0,0:0:0:0:
36,192,173013,1,0,0:0:0:0:
402,192,173013,1,0,0:0:0:0:
475,192,173013,1,0,0:0:0:0:
109,192,173157,1,0,0:0:0:0:
182,192,173157,1,0,0:0:0:0:
256,192,173157,1,0,0:0:0:0:
329,192,173229,1,0,0:0:0:0:
402,192,173301,1,0,0:0:0:0:
36,192,173301,1,0,0:0:0:0:
109,192,173373,1,0,0:0:0:0:
256,192,173446,1,0,0:0:0:0:
182,192,173446,1,0,0:0:0:0:
475,192,173446,1,0,0:0:0:0:
402,192,173518,1,0,0:0:0:0:
329,192,173590,1,0,0:0:0:0:
182,192,173590,1,0,0:0:0:0:
256,192,173662,1,0,0:0:0:0:
109,192,173734,1,0,0:0:0:0:
36,192,173734,1,0,0:0:0:0:
475,192,173734,1,0,0:0:0:0:
402,192,173806,1,0,0:0:0:0:
329,192,173878,1,0,0:0:0:0:
109,192,173878,1,0,0:0:0:0:
256,192,173950,1,0,0:0:0:0:
36,192,174022,1,0,0:0:0:0:
475,192,174022,1,0,0:0:0:0:
182,192,174022,1,0,0:0:0:0:
402,192,174094,1,0,0:0:0:0:
329,192,174166,1,0,0:0:0:0:
109,192,174166,1,0,0:0:0:0:
182,192,174238,1,0,0:0:0:0:
475,192,174311,1,0,0:0:0:0:
256,192,174311,1,0,0:0:0:0:
402,192,174311,1,0,0:0:0:0:
329,192,174383,1,0,0:0:0:0:
36,192,174455,1,0,0:0:0:0:
109,192,174455,1,0,0:0:0:0:
182,192,174527,1,0,0:0:0:0:
475,192,174599,1,0,0:0:0:0:
329,192,174599,1,0,0:0:0:0:
402,192,174599,1,0,0:0:0:0:
256,192,174671,1,0,0:0:0:0:
36,192,174743,1,0,0:0:0:0:
182,192,174743,1,0,0:0:0:0:
402,192,174815,1,0,0:0:0:0:
329,192,174887,1,0,0:0:0:0:
256,192,174887,1,0,0:0:0:0:
109,192,174887,1,0,0:0:0:0:
182,192,174959,1,0,0:0:0:0:
329,192,175031,1,0,0:0:0:0:
402,192,175031,1,0,0:0:0:0:
256,192,175103,1,0,0:0:0:0:
475,192,175176,1,0,0:0:0:0:
182,192,175176,1,0,0:0:0:0:
36,192,175176,1,0,0:0:0:0:
182,192,175320,1,0,0:0:0:0:
36,192,175320,1,0,0:0:0:0:
475,192,175320,1,0,0:0:0:0:
256,192,175464,1,0,0:0:0:0:
329,192,175464,1,0,0:0:0:0:
109,192,175464,1,0,0:0:0:0:
182,192,175536,1,0,0:0:0:0:
329,192,175608,1,0,0:0:0:0:
475,192,175608,1,0,0:0:0:0:
256,192,175680,1,0,0:0:0:0:
182,192,175752,1,0,0:0:0:0:
36,192,175752,1,0,0:0:0:0:
402,192,175752,1,0,0:0:0:0:
329,192,175824,1,0,0:0:0:0:
256,192,175896,1,0,0:0:0:0:
109,192,175896,1,0,0:0:0:0:
182,192,175968,1,0,0:0:0:0:
329,192,176040,1,0,0:0:0:0:
475,192,176040,1,0,0:0:0:0:
402,192,176040,1,0,0:0:0:0:
256,192,176113,1,0,0:0:0:0:
36,192,176185,1,0,0:0:0:0:
109,192,176185,1,0,0:0:0:0:
182,192,176257,1,0,0:0:0:0:
475,192,176329,1,0,0:0:0:0:
402,192,176329,1,0,0:0:0:0:
256,192,176329,1,0,0:0:0:0:
329,192,176401,1,0,0:0:0:0:
109,192,176473,1,0,0:0:0:0:
182,192,176473,1,0,0:0:0:0:
256,192,176545,1,0,0:0:0:0:
182,192,176617,1,0,0:0:0:0:
329,192,176617,1,0,0:0:0:0:
475,192,176617,1,0,0:0:0:0:
182,192,176761,1,0,0:0:0:0:
329,192,176761,1,0,0:0:0:0:
475,192,176761,1,0,0:0:0:0:
256,192,176905,1,0,0:0:0:0:
109,192,176905,1,0,0:0:0:0:
402,192,176905,1,0,0:0:0:0:
109,192,177050,1,0,0:0:0:0:
256,192,177050,1,0,0:0:0:0:
402,192,177050,1,0,0:0:0:0:
36,192,177194,1,0,0:0:0:0:
109,192,177194,1,0,0:0:0:0:
182,192,177194,1,0,0:0:0:0:
329,192,177266,1,0,0:0:0:0:
402,192,177266,1,0,0:0:0:0:
475,192,177266,1,0,0:0:0:0:
182,192,177338,1,0,0:0:0:0:
109,192,177338,1,0,0:0:0:0:
36,192,177338,1,0,0:0:0:0:
475,192,177410,1,0,0:0:0:0:
329,192,177410,1,0,0:0:0:0:
402,192,177410,1,0,0:0:0:0:
182,192,177482,1,0,0:0:0:0:
109,192,177482,1,0,0:0:0:0:
36,192,177482,1,0,0:0:0:0:
329,192,177554,1,0,0:0:0:0:
402,192,177554,1,0,0:0:0:0:
475,192,177554,1,0,0:0:0:0:
109,192,177626,1,0,0:0:0:0:
36,192,177626,1,0,0:0:0:0:
256,192,177626,1,0,0:0:0:0:
182,192,177698,1,0,0:0:0:0:
329,192,177698,1,0,0:0:0:0:
256,192,177770,1,0,0:0:0:0:
36,192,177770,1,0,0:0:0:0:
109,192,177770,1,0,0:0:0:0:
475,192,177770,1,0,0:0:0:0:
402,192,177770,1,0,0:0:0:0:
329,192,177843,1,0,0:0:0:0:
36,192,177915,1,0,0:0:0:0:
182,192,177915,1,0,0:0:0:0:
256,192,177987,1,0,0:0:0:0:
109,192,178059,1,0,0:0:0:0:
475,192,178059,1,0,0:0:0:0:
329,192,178059,1,0,0:0:0:0:
182,192,178131,1,0,0:0:0:0:
475,192,178203,1,0,0:0:0:0:
402,192,178203,1,0,0:0:0:0:
329,192,178275,1,0,0:0:0:0:
109,192,178347,1,0,0:0:0:0:
182,192,178347,1,0,0:0:0:0:
36,192,178347,1,0,0:0:0:0:
256,192,178419,1,0,0:0:0:0:
109,192,178491,1,0,0:0:0:0:
329,192,178491,1,0,0:0:0:0:
402,192,178563,1,0,0:0:0:0:
36,192,178635,1,0,0:0:0:0:
256,192,178635,1,0,0:0:0:0:
475,192,178635,1,0,0:0:0:0:
182,192,178707,1,0,0:0:0:0:
109,192,178780,1,0,0:0:0:0:
402,192,178780,1,0,0:0:0:0:
329,192,178852,1,0,0:0:0:0:
256,192,178924,1,0,0:0:0:0:
182,192,178924,1,0,0:0:0:0:
475,192,178924,1,0,0:0:0:0:
402,192,178996,1,0,0:0:0:0:
109,192,179068,1,0,0:0:0:0:
329,192,179068,1,0,0:0:0:0:
256,192,179140,1,0,0:0:0:0:
109,192,179212,1,0,0:0:0:0:
36,192,179212,1,0,0:0:0:0:
182,192,179212,1,0,0:0:0:0:
475,192,179284,1,0,0:0:0:0:
256,192,179356,1,0,0:0:0:0:
402,192,179356,1,0,0:0:0:0:
329,192,179428,1,0,0:0:0:0:
475,192,179500,1,0,0:0:0:0:
109,192,179500,1,0,0:0:0:0:
36,192,179500,1,0,0:0:0:0:
182,192,179572,1,0,0:0:0:0:
256,192,179645,1,0,0:0:0:0:
402,192,179645,1,0,0:0:0:0:
109,192,179717,1,0,0:0:0:0:
182,192,179789,1,0,0:0:0:0:
475,192,179789,1,0,0:0:0:0:
329,192,179789,1,0,0:0:0:0:
182,192,179933,1,0,0:0:0:0:
329,192,179933,1,0,0:0:0:0:
475,192,179933,1,0,0:0:0:0:
109,192,180077,1,0,0:0:0:0:
256,192,180077,1,0,0:0:0:0:
402,192,180077,1,0,0:0:0:0:
329,192,180149,1,0,0:0:0:0:
36,192,180221,1,0,0:0:0:0:
182,192,180221,1,0,0:0:0:0:
256,192,180293,1,0,0:0:0:0:
182,192,180365,1,0,0:0:0:0:
475,192,180365,1,0,0:0:0:0:
329,192,180365,1,0,0:0:0:0:
402,192,180437,1,0,0:0:0:0:
36,192,180509,1,0,0:0:0:0:
109,192,180509,1,0,0:0:0:0:
182,192,180582,1,0,0:0:0:0:
329,192,180654,1,0,0:0:0:0:
256,192,180654,1,0,0:0:0:0:
402,192,180654,1,0,0:0:0:0:
109,192,180726,1,0,0:0:0:0:
182,192,180798,1,0,0:0:0:0:
475,192,180798,1,0,0:0:0:0:
402,192,180870,1,0,0:0:0:0:
36,192,180942,1,0,0:0:0:0:
256,192,180942,1,0,0:0:0:0:
329,192,180942,1,0,0:0:0:0:
109,192,181014,1,0,0:0:0:0:
475,192,181086,1,0,0:0:0:0:
182,192,181086,1,0,0:0:0:0:
256,192,181158,1,0,0:0:0:0:
329,192,181230,1,0,0:0:0:0:
402,192,181230,1,0,0:0:0:0:
475,192,181230,1,0,0:0:0:0:
109,192,181302,1,0,0:0:0:0:
329,192,181374,1,0,0:0:0:0:
182,192,181374,1,0,0:0:0:0:
256,192,181447,1,0,0:0:0:0:
109,192,181519,1,0,0:0:0:0:
36,192,181519,1,0,0:0:0:0:
475,192,181519,1,0,0:0:0:0:
402,192,181591,1,0,0:0:0:0:
109,192,181663,1,0,0:0:0:0:
329,192,181663,1,0,0:0:0:0:
182,192,181735,1,0,0:0:0:0:
256,192,181807,1,0,0:0:0:0:
329,192,181807,1,0,0:0:0:0:
402,192,181807,1,0,0:0:0:0:
36,192,181879,1,0,0:0:0:0:
109,192,181879,1,0,0:0:0:0:
182,192,181879,1,0,0:0:0:0:
256,192,181951,1,0,0:0:0:0:
402,192,181951,1,0,0:0:0:0:
329,192,181951,1,0,0:0:0:0:
475,192,182095,1,0,0:0:0:0:
36,192,182095,1,0,0:0:0:0:
109,192,182095,1,0,0:0:0:0:
36,192,182239,1,0,0:0:0:0:
109,192,182239,1,0,0:0:0:0:
475,192,182239,1,0,0:0:0:0:
182,192,182384,5,0,0:0:0:0:
329,192,182384,1,0,0:0:0:0:
402,192,182384,1,0,0:0:0:0:
256,192,182456,1,0,0:0:0:0:
36,192,182528,1,0,0:0:0:0:
109,192,182528,1,0,0:0:0:0:
329,192,182528,1,0,0:0:0:0:
402,192,182600,1,0,0:0:0:0:
475,192,182672,1,0,0:0:0:0:
256,192,182672,1,0,0:0:0:0:
36,192,182672,1,0,0:0:0:0:
182,192,182744,1,0,0:0:0:0:
402,192,182816,1,0,0:0:0:0:
475,192,182816,1,0,0:0:0:0:
109,192,182816,1,0,0:0:0:0:
36,192,182888,1,0,0:0:0:0:
475,192,182960,1,0,0:0:0:0:
402,192,182960,1,0,0:0:0:0:
256,192,182960,1,0,0:0:0:0:
329,192,183032,1,0,0:0:0:0:
36,192,183104,1,0,0:0:0:0:
109,192,183104,1,0,0:0:0:0:
402,192,183104,1,0,0:0:0:0:
475,192,183176,1,0,0:0:0:0:
256,192,183249,1,0,0:0:0:0:
329,192,183249,1,0,0:0:0:0:
36,192,183249,1,0,0:0:0:0:
182,192,183321,1,0,0:0:0:0:
402,192,183393,1,0,0:0:0:0:
329,192,183393,1,0,0:0:0:0:
109,192,183393,1,0,0:0:0:0:
36,192,183465,1,0,0:0:0:0:
182,192,183537,1,0,0:0:0:0:
475,192,183537,1,0,0:0:0:0:
256,192,183537,1,0,0:0:0:0:
402,192,183609,1,0,0:0:0:0:
36,192,183681,1,0,0:0:0:0:
109,192,183681,1,0,0:0:0:0:
329,192,183681,1,0,0:0:0:0:
256,192,183753,1,0,0:0:0:0:
36,192,183825,1,0,0:0:0:0:
402,192,183825,1,0,0:0:0:0:
475,192,183825,1,0,0:0:0:0:
109,192,183897,1,0,0:0:0:0:
475,192,183969,1,0,0:0:0:0:
402,192,183969,1,0,0:0:0:0:
182,192,183969,1,0,0:0:0:0:
256,192,184041,1,0,0:0:0:0:
36,192,184114,1,0,0:0:0:0:
109,192,184114,1,0,0:0:0:0:
475,192,184114,1,0,0:0:0:0:
402,192,184186,1,0,0:0:0:0:
329,192,184258,1,0,0:0:0:0:
109,192,184258,1,0,0:0:0:0:
182,192,184258,1,0,0:0:0:0:
256,192,184330,1,0,0:0:0:0:
36,192,184402,1,0,0:0:0:0:
402,192,184402,1,0,0:0:0:0:
475,192,184402,1,0,0:0:0:0:
109,192,184474,1,0,0:0:0:0:
475,192,184546,1,0,0:0:0:0:
182,192,184546,1,0,0:0:0:0:
402,192,184546,1,0,0:0:0:0:
256,192,184618,1,0,0:0:0:0:
329,192,184690,1,0,0:0:0:0:
402,192,184690,1,0,0:0:0:0:
475,192,184690,1,0,0:0:0:0:
36,192,184834,1,0,0:0:0:0:
109,192,184834,1,0,0:0:0:0:
182,192,184870,1,0,0:0:0:0:
256,192,184906,1,0,0:0:0:0:
329,192,184942,1,0,0:0:0:0:
36,192,184978,1,0,0:0:0:0:
402,192,184978,1,0,0:0:0:0:
475,192,184978,1,0,0:0:0:0:
475,192,185123,1,0,0:0:0:0:
402,192,185123,1,0,0:0:0:0:
329,192,185159,1,0,0:0:0:0:
256,192,185195,1,0,0:0:0:0:
182,192,185231,1,0,0:0:0:0:
475,192,185267,1,0,0:0:0:0:
109,192,185267,1,0,0:0:0:0:
36,192,185267,1,0,0:0:0:0:
109,192,185411,1,0,0:0:0:0:
36,192,185411,1,0,0:0:0:0:
182,192,185447,1,0,0:0:0:0:
256,192,185483,1,0,0:0:0:0:
329,192,185519,1,0,0:0:0:0:
402,192,185555,1,0,0:0:0:0:
475,192,185555,1,0,0:0:0:0:
36,192,185555,1,0,0:0:0:0:
475,192,185699,1,0,0:0:0:0:
402,192,185699,1,0,0:0:0:0:
329,192,185735,1,0,0:0:0:0:
256,192,185771,1,0,0:0:0:0:
182,192,185807,1,0,0:0:0:0:
36,192,185843,128,0,186132:0:0:0:0:
475,192,185843,128,0,186132:0:0:0:0:
402,192,185843,1,0,0:0:0:0:
109,192,185843,1,0,0:0:0:0:
182,192,185988,1,0,0:0:0:0:
329,192,185988,1,0,0:0:0:0:
402,192,186132,128,0,186420:0:0:0:0:
109,192,186132,128,0,186420:0:0:0:0:
256,192,186132,1,0,0:0:0:0:
182,192,186276,1,0,0:0:0:0:
329,192,186276,1,0,0:0:0:0:
36,192,186420,1,0,0:0:0:0:
256,192,186420,1,0,0:0:0:0:
475,192,186420,1,0,0:0:0:0:
182,192,186492,1,0,0:0:0:0:
329,192,186564,1,0,0:0:0:0:
402,192,186564,1,0,0:0:0:0:
182,192,186636,1,0,0:0:0:0:
256,192,186708,1,0,0:0:0:0:
36,192,186708,1,0,0:0:0:0:
475,192,186708,1,0,0:0:0:0:
329,192,186781,1,0,0:0:0:0:
182,192,186853,1,0,0:0:0:0:
109,192,186853,1,0,0:0:0:0:
329,192,186925,1,0,0:0:0:0:
256,192,186997,1,0,0:0:0:0:
36,192,186997,1,0,0:0:0:0:
475,192,186997,1,0,0:0:0:0:
256,192,187573,1,0,0:0:0:0:
256,192,188150,1,0,0:0:0:0:
109,192,188655,128,0,189087:0:0:0:0:
256,192,188691,128,0,189123:0:0:0:0:
402,192,188727,128,0,189159:0:0:0:0:
36,192,189303,1,0,0:0:0:0:
475,192,189303,1,0,0:0:0:0:
256,192,189303,1,0,0:0:0:0:
182,192,189303,128,0,190481:0:0:0:0:
329,192,189303,128,0,190481:0:0:0:0:
109,192,190481,1,0,0:0:0:0:
256,192,190481,1,0,0:0:0:0:
402,192,190481,1,0,0:0:0:0:
329,192,191055,128,0,191342:0:0:0:0:
109,192,191486,128,0,191629:0:0:0:0:
402,192,191629,1,0,0:0:0:0:
256,192,191629,1,0,0:0:0:0:
475,192,191917,128,0,193356:0:0:0:0:
36,192,192204,1,0,0:0:0:0:
109,192,192491,1,0,0:0:0:0:
402,192,192778,1,0,0:0:0:0:
182,192,192778,1,0,0:0:0:0:
36,192,192778,1,0,0:0:0:0:
329,192,193260,1,0,0:0:0:0:
256,192,193356,1,0,0:0:0:0:
36,192,193501,1,0,0:0:0:0:
182,192,193645,1,0,0:0:0:0:
329,192,193935,128,0,195528:0:0:0:0:
475,192,193935,128,0,195528:0:0:0:0:
182,192,194513,1,0,0:0:0:0:
109,192,194803,1,0,0:0:0:0:
36,192,195092,1,0,0:0:0:0:
182,192,195092,1,0,0:0:0:0:
256,192,195092,1,0,0:0:0:0:
109,192,195673,128,0,196037:0:0:0:0:
329,192,196037,128,0,196546:0:0:0:0:
182,192,196255,128,0,197902:0:0:0:0:
36,192,196255,1,0,0:0:0:0:
109,192,196546,128,0,197902:0:0:0:0:
475,192,196837,1,0,0:0:0:0:
402,192,197128,1,0,0:0:0:0:
329,192,197419,1,0,0:0:0:0:
36,192,197419,1,0,0:0:0:0:
475,192,197419,1,0,0:0:0:0:
402,192,197902,1,0,0:0:0:0:
256,192,197999,1,0,0:0:0:0:
329,192,198289,1,0,0:0:0:0:
36,192,198579,128,0,200026:0:0:0:0:
256,192,198579,128,0,200026:0:0:0:0:
109,192,199159,1,0,0:0:0:0:
182,192,199449,1,0,0:0:0:0:
329,192,199740,1,0,0:0:0:0:
402,192,199740,1,0,0:0:0:0:
475,192,199740,1,0,0:0:0:0:
402,192,200313,128,0,200564:0:0:0:0:
329,192,200564,128,0,200887:0:0:0:0:
109,192,200887,128,0,201747:0:0:0:0:
182,192,200887,1,0,0:0:0:0:
36,192,201138,128,0,201747:0:0:0:0:
256,192,201460,1,0,0:0:0:0:
329,192,201747,1,0,0:0:0:0:
402,192,202034,1,0,0:0:0:0:
475,192,202034,1,0,0:0:0:0:
256,192,202034,128,0,202321:0:0:0:0:
329,192,202465,128,0,202897:0:0:0:0:
36,192,202609,1,0,0:0:0:0:
182,192,202897,128,0,203185:0:0:0:0:
256,192,203185,128,0,204337:0:0:0:0:
475,192,203185,128,0,204049:0:0:0:0:
402,192,203761,1,0,0:0:0:0:
109,192,204049,128,0,204337:0:0:0:0:
36,192,204337,1,0,0:0:0:0:
182,192,204337,128,0,205482:0:0:0:0:
329,192,204337,128,0,205482:0:0:0:0:
402,192,204909,1,0,0:0:0:0:
256,192,205195,1,0,0:0:0:0:
109,192,205482,128,0,206627:0:0:0:0:
402,192,205482,1,0,0:0:0:0:
182,192,205768,128,0,206054:0:0:0:0:
256,192,206054,128,0,206340:0:0:0:0:
329,192,206340,128,0,206627:0:0:0:0:
402,192,206340,1,0,0:0:0:0:
36,192,206627,1,0,0:0:0:0:
256,192,206627,1,0,0:0:0:0:
475,192,206627,128,0,207204:0:0:0:0:
329,192,207039,1,0,0:0:0:0:
256,192,207204,128,0,207781:0:0:0:0:
475,192,207348,128,0,207492:0:0:0:0:
402,192,207420,128,0,207564:0:0:0:0:
329,192,207492,128,0,207637:0:0:0:0:
182,192,207564,128,0,207709:0:0:0:0:
109,192,207637,128,0,207781:0:0:0:0:
36,192,207709,128,0,207781:0:0:0:0:
182,192,207781,128,0,209223:0:0:0:0:
329,192,207781,128,0,209223:0:0:0:0:
475,192,207781,128,0,209223:0:0:0:0:
256,192,208358,1,0,0:0:0:0:
402,192,208647,1,0,0:0:0:0:
36,192,208935,1,0,0:0:0:0:
256,192,208935,1,0,0:0:0:0:
109,192,208935,1,0,0:0:0:0:
109,192,209511,128,0,209799:0:0:0:0:
256,192,209511,128,0,209799:0:0:0:0:
36,192,209799,128,0,210088:0:0:0:0:
182,192,209799,128,0,210088:0:0:0:0:
329,192,210088,128,0,211241:0:0:0:0:
109,192,210088,1,0,0:0:0:0:
402,192,210376,128,0,211723:0:0:0:0:
475,192,210376,128,0,211723:0:0:0:0:
109,192,210664,1,0,0:0:0:0:
182,192,210953,1,0,0:0:0:0:
256,192,211241,1,0,0:0:0:0:
109,192,211241,1,0,0:0:0:0:
36,192,211241,1,0,0:0:0:0:
329,192,211723,1,0,0:0:0:0:
182,192,211820,1,0,0:0:0:0:
402,192,211965,1,0,0:0:0:0:
109,192,212110,1,0,0:0:0:0:
36,192,212399,128,0,213558:0:0:0:0:
256,192,212399,128,0,213558:0:0:0:0:
475,192,212399,128,0,213558:0:0:0:0:
402,192,212979,1,0,0:0:0:0:
109,192,213269,1,0,0:0:0:0:
182,192,213558,1,0,0:0:0:0:
329,192,213558,1,0,0:0:0:0:
402,192,213558,1,0,0:0:0:0:
109,192,213845,128,0,214347:0:0:0:0:
402,192,213845,128,0,214347:0:0:0:0:
36,192,214132,1,0,0:0:0:0:
182,192,214347,128,0,214563:0:0:0:0:
329,192,214347,128,0,214563:0:0:0:0:
256,192,214419,1,0,0:0:0:0:
36,192,214563,128,0,214706:0:0:0:0:
475,192,214563,128,0,214706:0:0:0:0:
256,192,214706,128,0,215855:0:0:0:0:
402,192,214706,1,0,0:0:0:0:
109,192,214850,128,0,216336:0:0:0:0:
182,192,214850,128,0,216336:0:0:0:0:
475,192,215281,1,0,0:0:0:0:
402,192,215568,1,0,0:0:0:0:
329,192,215855,1,0,0:0:0:0:
475,192,215855,1,0,0:0:0:0:
36,192,215855,1,0,0:0:0:0:
402,192,216336,1,0,0:0:0:0:
329,192,216432,1,0,0:0:0:0:
256,192,216721,1,0,0:0:0:0:
182,192,217009,128,0,218597:0:0:0:0:
475,192,217009,128,0,218597:0:0:0:0:
256,192,217587,1,0,0:0:0:0:
329,192,217876,1,0,0:0:0:0:
402,192,218164,1,0,0:0:0:0:
256,192,218164,1,0,0:0:0:0:
36,192,218164,1,0,0:0:0:0:
109,192,218814,128,0,218958:0:0:0:0:
329,192,218814,128,0,218958:0:0:0:0:
256,192,219079,128,0,219175:0:0:0:0:
402,192,219079,128,0,219175:0:0:0:0:
36,192,219320,128,0,220476:0:0:0:0:
182,192,219320,128,0,220476:0:0:0:0:
475,192,219898,1,0,0:0:0:0:
402,192,220187,1,0,0:0:0:0:
109,192,220476,1,0,0:0:0:0:
329,192,220476,128,0,220762:0:0:0:0:
475,192,220476,128,0,220762:0:0:0:0:
256,192,220857,128,0,221335:0:0:0:0:
402,192,220857,128,0,221335:0:0:0:0:
36,192,221585,128,0,223197:0:0:0:0:
329,192,221585,128,0,223197:0:0:0:0:
109,192,222194,1,0,0:0:0:0:
182,192,222480,1,0,0:0:0:0:
256,192,222767,1,0,0:0:0:0:
402,192,223197,1,0,0:0:0:0:
182,192,223340,1,0,0:0:0:0:
182,192,223914,128,0,225635:0:0:0:0:
329,192,223914,128,0,225635:0:0:0:0:
256,192,223914,128,0,225635:0:0:0:0:
36,192,225491,1,0,0:0:0:0:
475,192,225635,1,0,0:0:0:0:
36,192,226208,1,0,0:0:0:0:
109,192,226208,1,0,0:0:0:0:
256,192,226208,1,0,0:0:0:0:
329,192,226208,1,0,0:0:0:0:
475,192,226208,1,0,0:0:0:0:
182,192,226280,1,0,0:0:0:0:
256,192,226352,1,0,0:0:0:0:
402,192,226352,1,0,0:0:0:0:
36,192,226352,1,0,0:0:0:0:
109,192,226424,1,0,0:0:0:0:
182,192,226496,1,0,0:0:0:0:
329,192,226496,1,0,0:0:0:0:
36,192,226496,1,0,0:0:0:0:
475,192,226568,1,0,0:0:0:0:
256,192,226640,1,0,0:0:0:0:
402,192,226640,1,0,0:0:0:0:
109,192,226640,1,0,0:0:0:0:
182,192,226712,1,0,0:0:0:0:
329,192,226784,1,0,0:0:0:0:
36,192,226784,1,0,0:0:0:0:
109,192,226784,1,0,0:0:0:0:
256,192,226856,1,0,0:0:0:0:
475,192,226928,1,0,0:0:0:0:
402,192,226928,1,0,0:0:0:0:
36,192,226928,1,0,0:0:0:0:
109,192,227000,1,0,0:0:0:0:
182,192,227072,1,0,0:0:0:0:
256,192,227072,1,0,0:0:0:0:
475,192,227072,1,0,0:0:0:0:
329,192,227145,1,0,0:0:0:0:
402,192,227217,1,0,0:0:0:0:
36,192,227217,1,0,0:0:0:0:
256,192,227217,1,0,0:0:0:0:
109,192,227289,1,0,0:0:0:0:
182,192,227361,1,0,0:0:0:0:
475,192,227361,1,0,0:0:0:0:
256,192,227361,1,0,0:0:0:0:
402,192,227361,1,0,0:0:0:0:
329,192,227433,1,0,0:0:0:0:
36,192,227505,1,0,0:0:0:0:
182,192,227505,1,0,0:0:0:0:
475,192,227505,1,0,0:0:0:0:
256,192,227577,1,0,0:0:0:0:
329,192,227649,1,0,0:0:0:0:
402,192,227649,1,0,0:0:0:0:
109,192,227649,1,0,0:0:0:0:
475,192,227721,1,0,0:0:0:0:
182,192,227793,1,0,0:0:0:0:
329,192,227793,1,0,0:0:0:0:
36,192,227793,1,0,0:0:0:0:
256,192,227865,1,0,0:0:0:0:
182,192,227937,1,0,0:0:0:0:
109,192,227937,1,0,0:0:0:0:
36,192,227937,1,0,0:0:0:0:
402,192,228010,1,0,0:0:0:0:
256,192,228082,1,0,0:0:0:0:
475,192,228082,1,0,0:0:0:0:
109,192,228082,1,0,0:0:0:0:
329,192,228154,1,0,0:0:0:0:
36,192,228226,1,0,0:0:0:0:
182,192,228226,1,0,0:0:0:0:
402,192,228226,1,0,0:0:0:0:
475,192,228226,1,0,0:0:0:0:
402,192,228370,1,0,0:0:0:0:
36,192,228370,1,0,0:0:0:0:
182,192,228370,1,0,0:0:0:0:
475,192,228370,1,0,0:0:0:0:
475,192,228514,1,0,0:0:0:0:
109,192,228514,1,0,0:0:0:0:
256,192,228514,1,0,0:0:0:0:
329,192,228586,1,0,0:0:0:0:
402,192,228658,1,0,0:0:0:0:
36,192,228658,1,0,0:0:0:0:
475,192,228658,1,0,0:0:0:0:
182,192,228730,1,0,0:0:0:0:
256,192,228802,1,0,0:0:0:0:
329,192,228802,1,0,0:0:0:0:
109,192,228802,1,0,0:0:0:0:
475,192,228874,1,0,0:0:0:0:
402,192,228947,1,0,0:0:0:0:
256,192,228947,1,0,0:0:0:0:
36,192,228947,1,0,0:0:0:0:
182,192,229019,1,0,0:0:0:0:
109,192,229091,1,0,0:0:0:0:
36,192,229091,1,0,0:0:0:0:
329,192,229091,1,0,0:0:0:0:
402,192,229163,1,0,0:0:0:0:
475,192,229235,1,0,0:0:0:0:
256,192,229235,1,0,0:0:0:0:
109,192,229235,1,0,0:0:0:0:
329,192,229307,1,0,0:0:0:0:
402,192,229379,1,0,0:0:0:0:
182,192,229379,1,0,0:0:0:0:
36,192,229379,1,0,0:0:0:0:
109,192,229451,1,0,0:0:0:0:
475,192,229523,1,0,0:0:0:0:
256,192,229523,1,0,0:0:0:0:
329,192,229523,1,0,0:0:0:0:
182,192,229595,1,0,0:0:0:0:
402,192,229667,1,0,0:0:0:0:
329,192,229667,1,0,0:0:0:0:
36,192,229667,1,0,0:0:0:0:
36,192,229812,1,0,0:0:0:0:
329,192,229812,1,0,0:0:0:0:
402,192,229812,1,0,0:0:0:0:
475,192,229956,1,0,0:0:0:0:
402,192,229980,1,0,0:0:0:0:
329,192,230004,1,0,0:0:0:0:
256,192,230028,1,0,0:0:0:0:
182,192,230052,1,0,0:0:0:0:
109,192,230076,1,0,0:0:0:0:
36,192,230100,1,0,0:0:0:0:
329,192,230244,1,0,0:0:0:0:
402,192,230244,1,0,0:0:0:0:
475,192,230244,1,0,0:0:0:0:
182,192,230316,1,0,0:0:0:0:
109,192,230316,1,0,0:0:0:0:
36,192,230316,1,0,0:0:0:0:
329,192,230388,1,0,0:0:0:0:
402,192,230388,1,0,0:0:0:0:
475,192,230388,1,0,0:0:0:0:
36,192,230532,1,0,0:0:0:0:
109,192,230532,1,0,0:0:0:0:
182,192,230532,1,0,0:0:0:0:
256,192,230532,1,0,0:0:0:0:
36,192,230677,1,0,0:0:0:0:
109,192,230677,1,0,0:0:0:0:
182,192,230677,1,0,0:0:0:0:
256,192,230677,1,0,0:0:0:0:
329,192,230821,1,0,0:0:0:0:
475,192,230821,1,0,0:0:0:0:
36,192,230821,1,0,0:0:0:0:
109,192,230893,1,0,0:0:0:0:
182,192,230965,1,0,0:0:0:0:
329,192,230965,1,0,0:0:0:0:
402,192,230965,1,0,0:0:0:0:
256,192,231037,1,0,0:0:0:0:
402,192,231109,1,0,0:0:0:0:
475,192,231109,1,0,0:0:0:0:
109,192,231109,1,0,0:0:0:0:
329,192,231181,1,0,0:0:0:0:
256,192,231253,1,0,0:0:0:0:
36,192,231253,1,0,0:0:0:0:
475,192,231253,1,0,0:0:0:0:
182,192,231325,1,0,0:0:0:0:
475,192,231397,1,0,0:0:0:0:
402,192,231397,1,0,0:0:0:0:
109,192,231397,1,0,0:0:0:0:
329,192,231469,1,0,0:0:0:0:
256,192,231541,1,0,0:0:0:0:
36,192,231541,1,0,0:0:0:0:
402,192,231541,1,0,0:0:0:0:
109,192,231614,1,0,0:0:0:0:
182,192,231686,1,0,0:0:0:0:
475,192,231686,1,0,0:0:0:0:
256,192,231686,1,0,0:0:0:0:
402,192,231758,1,0,0:0:0:0:
36,192,231830,1,0,0:0:0:0:
109,192,231830,1,0,0:0:0:0:
329,192,231830,1,0,0:0:0:0:
182,192,231902,1,0,0:0:0:0:
256,192,231974,1,0,0:0:0:0:
475,192,231974,1,0,0:0:0:0:
329,192,231974,1,0,0:0:0:0:
402,192,231974,1,0,0:0:0:0:
182,192,232046,1,0,0:0:0:0:
109,192,232118,1,0,0:0:0:0:
36,192,232118,1,0,0:0:0:0:
475,192,232118,1,0,0:0:0:0:
402,192,232190,1,0,0:0:0:0:
329,192,232262,1,0,0:0:0:0:
256,192,232262,1,0,0:0:0:0:
36,192,232262,1,0,0:0:0:0:
182,192,232334,1,0,0:0:0:0:
475,192,232406,1,0,0:0:0:0:
109,192,232406,1,0,0:0:0:0:
256,192,232406,1,0,0:0:0:0:
402,192,232479,1,0,0:0:0:0:
329,192,232551,1,0,0:0:0:0:
182,192,232551,1,0,0:0:0:0:
36,192,232551,1,0,0:0:0:0:
256,192,232623,1,0,0:0:0:0:
475,192,232695,1,0,0:0:0:0:
109,192,232695,1,0,0:0:0:0:
329,192,232695,1,0,0:0:0:0:
182,192,232767,1,0,0:0:0:0:
256,192,232839,1,0,0:0:0:0:
402,192,232839,1,0,0:0:0:0:
36,192,232839,1,0,0:0:0:0:
109,192,232839,1,0,0:0:0:0:
256,192,232983,1,0,0:0:0:0:
402,192,232983,1,0,0:0:0:0:
36,192,232983,1,0,0:0:0:0:
109,192,232983,1,0,0:0:0:0:
109,192,233127,1,0,0:0:0:0:
329,192,233127,1,0,0:0:0:0:
475,192,233127,1,0,0:0:0:0:
182,192,233199,1,0,0:0:0:0:
256,192,233271,1,0,0:0:0:0:
402,192,233271,1,0,0:0:0:0:
475,192,233271,1,0,0:0:0:0:
36,192,233343,1,0,0:0:0:0:
109,192,233416,1,0,0:0:0:0:
256,192,233416,1,0,0:0:0:0:
475,192,233416,1,0,0:0:0:0:
329,192,233488,1,0,0:0:0:0:
402,192,233560,1,0,0:0:0:0:
182,192,233560,1,0,0:0:0:0:
36,192,233560,1,0,0:0:0:0:
256,192,233632,1,0,0:0:0:0:
329,192,233704,1,0,0:0:0:0:
109,192,233704,1,0,0:0:0:0:
36,192,233704,1,0,0:0:0:0:
475,192,233776,1,0,0:0:0:0:
402,192,233848,1,0,0:0:0:0:
256,192,233848,1,0,0:0:0:0:
109,192,233848,1,0,0:0:0:0:
182,192,233920,1,0,0:0:0:0:
329,192,233992,1,0,0:0:0:0:
475,192,233992,1,0,0:0:0:0:
109,192,233992,1,0,0:0:0:0:
256,192,234064,1,0,0:0:0:0:
182,192,234136,1,0,0:0:0:0:
36,192,234136,1,0,0:0:0:0:
402,192,234136,1,0,0:0:0:0:
256,192,234208,1,0,0:0:0:0:
329,192,234281,1,0,0:0:0:0:
402,192,234281,1,0,0:0:0:0:
475,192,234281,1,0,0:0:0:0:
329,192,234353,1,0,0:0:0:0:
402,192,234353,1,0,0:0:0:0:
36,192,234425,1,0,0:0:0:0:
182,192,234425,1,0,0:0:0:0:
109,192,234425,1,0,0:0:0:0:
109,192,234497,1,0,0:0:0:0:
182,192,234497,1,0,0:0:0:0:
475,192,234569,1,0,0:0:0:0:
402,192,234605,1,0,0:0:0:0:
329,192,234641,1,0,0:0:0:0:
256,192,234677,1,0,0:0:0:0:
475,192,234713,1,0,0:0:0:0:
402,192,234749,1,0,0:0:0:0:
329,192,234785,1,0,0:0:0:0:
36,192,234857,1,0,0:0:0:0:
109,192,234857,1,0,0:0:0:0:
182,192,234857,1,0,0:0:0:0:
329,192,234929,1,0,0:0:0:0:
256,192,234929,1,0,0:0:0:0:
402,192,234929,1,0,0:0:0:0:
36,192,235001,1,0,0:0:0:0:
109,192,235001,1,0,0:0:0:0:
182,192,235001,1,0,0:0:0:0:
182,192,235146,1,0,0:0:0:0:
256,192,235146,1,0,0:0:0:0:
329,192,235146,1,0,0:0:0:0:
402,192,235146,1,0,0:0:0:0:
256,192,235290,1,0,0:0:0:0:
329,192,235290,1,0,0:0:0:0:
182,192,235290,1,0,0:0:0:0:
402,192,235290,1,0,0:0:0:0:
36,192,235434,1,0,0:0:0:0:
109,192,235434,1,0,0:0:0:0:
402,192,235434,1,0,0:0:0:0:
475,192,235434,1,0,0:0:0:0:
256,192,235434,1,0,0:0:0:0:
182,192,235506,1,0,0:0:0:0:
329,192,235578,1,0,0:0:0:0:
475,192,235578,1,0,0:0:0:0:
109,192,235578,1,0,0:0:0:0:
256,192,235650,1,0,0:0:0:0:
36,192,235722,1,0,0:0:0:0:
182,192,235722,1,0,0:0:0:0:
329,192,235722,1,0,0:0:0:0:
109,192,235794,1,0,0:0:0:0:
256,192,235866,1,0,0:0:0:0:
475,192,235866,1,0,0:0:0:0:
182,192,235866,1,0,0:0:0:0:
402,192,235938,1,0,0:0:0:0:
329,192,236010,1,0,0:0:0:0:
36,192,236010,1,0,0:0:0:0:
109,192,236010,1,0,0:0:0:0:
182,192,236083,1,0,0:0:0:0:
256,192,236155,1,0,0:0:0:0:
475,192,236155,1,0,0:0:0:0:
109,192,236155,1,0,0:0:0:0:
329,192,236227,1,0,0:0:0:0:
402,192,236299,1,0,0:0:0:0:
182,192,236299,1,0,0:0:0:0:
36,192,236299,1,0,0:0:0:0:
475,192,236371,1,0,0:0:0:0:
109,192,236443,1,0,0:0:0:0:
329,192,236443,1,0,0:0:0:0:
36,192,236443,1,0,0:0:0:0:
256,192,236515,1,0,0:0:0:0:
36,192,236587,1,0,0:0:0:0:
182,192,236587,1,0,0:0:0:0:
329,192,236587,1,0,0:0:0:0:
475,192,236587,1,0,0:0:0:0:
109,192,236659,1,0,0:0:0:0:
256,192,236731,1,0,0:0:0:0:
402,192,236731,1,0,0:0:0:0:
475,192,236731,1,0,0:0:0:0:
329,192,236803,1,0,0:0:0:0:
182,192,236875,1,0,0:0:0:0:
475,192,236875,1,0,0:0:0:0:
36,192,236875,1,0,0:0:0:0:
256,192,236948,1,0,0:0:0:0:
329,192,237020,1,0,0:0:0:0:
402,192,237020,1,0,0:0:0:0:
36,192,237020,1,0,0:0:0:0:
109,192,237092,1,0,0:0:0:0:
182,192,237164,1,0,0:0:0:0:
256,192,237164,1,0,0:0:0:0:
329,192,237164,1,0,0:0:0:0:
402,192,237236,1,0,0:0:0:0:
36,192,237308,1,0,0:0:0:0:
256,192,237308,1,0,0:0:0:0:
475,192,237308,1,0,0:0:0:0:
182,192,237380,1,0,0:0:0:0:
109,192,237452,1,0,0:0:0:0:
475,192,237452,1,0,0:0:0:0:
329,192,237452,1,0,0:0:0:0:
402,192,237452,1,0,0:0:0:0:
109,192,237596,1,0,0:0:0:0:
475,192,237596,1,0,0:0:0:0:
329,192,237596,1,0,0:0:0:0:
402,192,237596,1,0,0:0:0:0:
36,192,237740,1,0,0:0:0:0:
256,192,237740,1,0,0:0:0:0:
402,192,237740,1,0,0:0:0:0:
182,192,237812,1,0,0:0:0:0:
329,192,237885,1,0,0:0:0:0:
475,192,237885,1,0,0:0:0:0:
109,192,237885,1,0,0:0:0:0:
256,192,237957,1,0,0:0:0:0:
182,192,238029,1,0,0:0:0:0:
109,192,238029,1,0,0:0:0:0:
36,192,238029,1,0,0:0:0:0:
329,192,238101,1,0,0:0:0:0:
402,192,238101,1,0,0:0:0:0:
182,192,238173,1,0,0:0:0:0:
109,192,238173,1,0,0:0:0:0:
329,192,238317,1,0,0:0:0:0:
475,192,238317,1,0,0:0:0:0:
402,192,238317,1,0,0:0:0:0:
36,192,238389,1,0,0:0:0:0:
182,192,238389,1,0,0:0:0:0:
329,192,238461,1,0,0:0:0:0:
475,192,238461,1,0,0:0:0:0:
109,192,238605,1,0,0:0:0:0:
402,192,238605,1,0,0:0:0:0:
256,192,238605,1,0,0:0:0:0:
182,192,238677,1,0,0:0:0:0:
329,192,238677,1,0,0:0:0:0:
109,192,238750,1,0,0:0:0:0:
402,192,238750,1,0,0:0:0:0:
36,192,238894,1,0,0:0:0:0:
256,192,238894,1,0,0:0:0:0:
475,192,238894,1,0,0:0:0:0:
329,192,238894,1,0,0:0:0:0:
182,192,238966,1,0,0:0:0:0:
402,192,239038,1,0,0:0:0:0:
109,192,239038,1,0,0:0:0:0:
36,192,239038,1,0,0:0:0:0:
329,192,239110,1,0,0:0:0:0:
256,192,239182,1,0,0:0:0:0:
182,192,239182,1,0,0:0:0:0:
475,192,239182,1,0,0:0:0:0:
36,192,239254,1,0,0:0:0:0:
329,192,239326,1,0,0:0:0:0:
402,192,239326,1,0,0:0:0:0:
475,192,239326,1,0,0:0:0:0:
182,192,239398,1,0,0:0:0:0:
36,192,239470,1,0,0:0:0:0:
256,192,239470,1,0,0:0:0:0:
402,192,239470,1,0,0:0:0:0:
109,192,239542,1,0,0:0:0:0:
329,192,239542,1,0,0:0:0:0:
475,192,239542,1,0,0:0:0:0:
256,192,239615,1,0,0:0:0:0:
182,192,239615,1,0,0:0:0:0:
402,192,239615,1,0,0:0:0:0:
36,192,239759,1,0,0:0:0:0:
182,192,239759,1,0,0:0:0:0:
329,192,239759,1,0,0:0:0:0:
475,192,239759,1,0,0:0:0:0:
36,192,239903,1,0,0:0:0:0:
182,192,239903,1,0,0:0:0:0:
329,192,239903,1,0,0:0:0:0:
475,192,239903,1,0,0:0:0:0:
109,192,240047,1,0,0:0:0:0:
256,192,240047,1,0,0:0:0:0:
402,192,240047,1,0,0:0:0:0:
329,192,240119,1,0,0:0:0:0:
475,192,240191,1,0,0:0:0:0:
182,192,240191,1,0,0:0:0:0:
36,192,240191,1,0,0:0:0:0:
256,192,240263,1,0,0:0:0:0:
402,192,240335,1,0,0:0:0:0:
36,192,240335,1,0,0:0:0:0:
329,192,240335,1,0,0:0:0:0:
109,192,240407,1,0,0:0:0:0:
256,192,240479,1,0,0:0:0:0:
402,192,240479,1,0,0:0:0:0:
329,192,240479,1,0,0:0:0:0:
182,192,240552,1,0,0:0:0:0:
109,192,240624,1,0,0:0:0:0:
36,192,240624,1,0,0:0:0:0:
475,192,240624,1,0,0:0:0:0:
329,192,240696,1,0,0:0:0:0:
402,192,240768,1,0,0:0:0:0:
182,192,240768,1,0,0:0:0:0:
36,192,240768,1,0,0:0:0:0:
256,192,240840,1,0,0:0:0:0:
329,192,240912,1,0,0:0:0:0:
475,192,240912,1,0,0:0:0:0:
109,192,240912,1,0,0:0:0:0:
182,192,240984,1,0,0:0:0:0:
256,192,241056,1,0,0:0:0:0:
402,192,241056,1,0,0:0:0:0:
475,192,241056,1,0,0:0:0:0:
36,192,241128,1,0,0:0:0:0:
109,192,241200,1,0,0:0:0:0:
182,192,241200,1,0,0:0:0:0:
329,192,241200,1,0,0:0:0:0:
475,192,241200,1,0,0:0:0:0:
256,192,241272,1,0,0:0:0:0:
402,192,241344,1,0,0:0:0:0:
475,192,241344,1,0,0:0:0:0:
36,192,241344,1,0,0:0:0:0:
329,192,241417,1,0,0:0:0:0:
256,192,241489,1,0,0:0:0:0:
36,192,241489,1,0,0:0:0:0:
109,192,241489,1,0,0:0:0:0:
402,192,241561,1,0,0:0:0:0:
329,192,241633,1,0,0:0:0:0:
182,192,241633,1,0,0:0:0:0:
109,192,241633,1,0,0:0:0:0:
475,192,241705,1,0,0:0:0:0:
402,192,241777,1,0,0:0:0:0:
256,192,241777,1,0,0:0:0:0:
36,192,241777,1,0,0:0:0:0:
182,192,241849,1,0,0:0:0:0:
329,192,241921,1,0,0:0:0:0:
475,192,241921,1,0,0:0:0:0:
402,192,241921,1,0,0:0:0:0:
256,192,241993,1,0,0:0:0:0:
36,192,242065,1,0,0:0:0:0:
329,192,242065,1,0,0:0:0:0:
182,192,242065,1,0,0:0:0:0:
109,192,242065,1,0,0:0:0:0:
329,192,242209,1,0,0:0:0:0:
36,192,242209,1,0,0:0:0:0:
182,192,242209,1,0,0:0:0:0:
109,192,242209,1,0,0:0:0:0:
256,192,242354,1,0,0:0:0:0:
402,192,242354,1,0,0:0:0:0:
475,192,242354,1,0,0:0:0:0:
402,192,242498,1,0,0:0:0:0:
256,192,242498,1,0,0:0:0:0:
475,192,242498,1,0,0:0:0:0:
36,192,242642,1,0,0:0:0:0:
109,192,242666,1,0,0:0:0:0:
182,192,242690,1,0,0:0:0:0:
256,192,242714,1,0,0:0:0:0:
329,192,242738,1,0,0:0:0:0:
402,192,242762,1,0,0:0:0:0:
475,192,242786,1,0,0:0:0:0:
256,192,242930,128,0,243219:0:0:0:0:
329,192,242966,128,0,243219:0:0:0:0:
402,192,243002,128,0,243219:0:0:0:0:
475,192,243038,128,0,243219:0:0:0:0:
36,192,243219,1,0,0:0:0:0:
109,192,243219,1,0,0:0:0:0:
182,192,243219,1,0,0:0:0:0:
109,192,243363,1,0,0:0:0:0:
36,192,243363,1,0,0:0:0:0:
402,192,243507,1,0,0:0:0:0:
475,192,243507,1,0,0:0:0:0:
329,192,243555,1,0,0:0:0:0:
256,192,243555,1,0,0:0:0:0:
182,192,243603,1,0,0:0:0:0:
109,192,243603,1,0,0:0:0:0:
36,192,243651,1,0,0:0:0:0:
475,192,243651,1,0,0:0:0:0:
109,192,243795,1,0,0:0:0:0:
36,192,243795,1,0,0:0:0:0:
182,192,243843,1,0,0:0:0:0:
256,192,243843,1,0,0:0:0:0:
402,192,243891,1,0,0:0:0:0:
329,192,243891,1,0,0:0:0:0:
36,192,243939,1,0,0:0:0:0:
475,192,243939,1,0,0:0:0:0:
402,192,244084,1,0,0:0:0:0:
475,192,244084,1,0,0:0:0:0:
182,192,244120,1,0,0:0:0:0:
256,192,244156,1,0,0:0:0:0:
329,192,244156,1,0,0:0:0:0:
402,192,244192,1,0,0:0:0:0:
36,192,244228,1,0,0:0:0:0:
109,192,244228,1,0,0:0:0:0:
109,192,244372,1,0,0:0:0:0:
36,192,244372,1,0,0:0:0:0:
329,192,244408,1,0,0:0:0:0:
256,192,244444,1,0,0:0:0:0:
182,192,244444,1,0,0:0:0:0:
109,192,244480,1,0,0:0:0:0:
402,192,244516,1,0,0:0:0:0:
475,192,244516,1,0,0:0:0:0:
256,192,244660,1,0,0:0:0:0:
475,192,244660,1,0,0:0:0:0:
402,192,244660,1,0,0:0:0:0:
36,192,244660,1,0,0:0:0:0:
109,192,244660,1,0,0:0:0:0:
329,192,244732,1,0,0:0:0:0:
475,192,244804,1,0,0:0:0:0:
109,192,244804,1,0,0:0:0:0:
256,192,244804,1,0,0:0:0:0:
402,192,244876,1,0,0:0:0:0:
475,192,244948,1,0,0:0:0:0:
182,192,244948,1,0,0:0:0:0:
329,192,244948,1,0,0:0:0:0:
36,192,245021,1,0,0:0:0:0:
402,192,245093,1,0,0:0:0:0:
109,192,245093,1,0,0:0:0:0:
256,192,245093,1,0,0:0:0:0:
329,192,245165,1,0,0:0:0:0:
402,192,245237,1,0,0:0:0:0:
475,192,245237,1,0,0:0:0:0:
182,192,245237,1,0,0:0:0:0:
256,192,245309,1,0,0:0:0:0:
475,192,245381,1,0,0:0:0:0:
109,192,245381,1,0,0:0:0:0:
36,192,245381,1,0,0:0:0:0:
402,192,245453,1,0,0:0:0:0:
36,192,245525,1,0,0:0:0:0:
256,192,245525,1,0,0:0:0:0:
329,192,245525,1,0,0:0:0:0:
182,192,245597,1,0,0:0:0:0:
256,192,245669,1,0,0:0:0:0:
475,192,245669,1,0,0:0:0:0:
109,192,245669,1,0,0:0:0:0:
402,192,245741,1,0,0:0:0:0:
256,192,245813,1,0,0:0:0:0:
109,192,245813,1,0,0:0:0:0:
329,192,245813,1,0,0:0:0:0:
36,192,245813,1,0,0:0:0:0:
182,192,245886,1,0,0:0:0:0:
36,192,245958,1,0,0:0:0:0:
329,192,245958,1,0,0:0:0:0:
475,192,245958,1,0,0:0:0:0:
256,192,246030,1,0,0:0:0:0:
402,192,246102,1,0,0:0:0:0:
109,192,246102,1,0,0:0:0:0:
182,192,246102,1,0,0:0:0:0:
36,192,246174,1,0,0:0:0:0:
475,192,246246,1,0,0:0:0:0:
182,192,246246,1,0,0:0:0:0:
329,192,246246,1,0,0:0:0:0:
256,192,246318,1,0,0:0:0:0:
475,192,246390,1,0,0:0:0:0:
402,192,246390,1,0,0:0:0:0:
329,192,246390,1,0,0:0:0:0:
109,192,246462,1,0,0:0:0:0:
402,192,246534,1,0,0:0:0:0:
36,192,246534,1,0,0:0:0:0:
256,192,246534,1,0,0:0:0:0:
182,192,246606,1,0,0:0:0:0:
109,192,246678,1,0,0:0:0:0:
329,192,246678,1,0,0:0:0:0:
475,192,246678,1,0,0:0:0:0:
36,192,246678,1,0,0:0:0:0:
329,192,246823,1,0,0:0:0:0:
475,192,246823,1,0,0:0:0:0:
109,192,246823,1,0,0:0:0:0:
36,192,246823,1,0,0:0:0:0:
256,192,246967,1,0,0:0:0:0:
402,192,246967,1,0,0:0:0:0:
36,192,246967,1,0,0:0:0:0:
182,192,247039,1,0,0:0:0:0:
36,192,247111,1,0,0:0:0:0:
475,192,247111,1,0,0:0:0:0:
109,192,247111,1,0,0:0:0:0:
329,192,247183,1,0,0:0:0:0:
402,192,247255,1,0,0:0:0:0:
182,192,247255,1,0,0:0:0:0:
256,192,247255,1,0,0:0:0:0:
36,192,247327,1,0,0:0:0:0:
475,192,247399,1,0,0:0:0:0:
256,192,247399,1,0,0:0:0:0:
109,192,247399,1,0,0:0:0:0:
329,192,247471,1,0,0:0:0:0:
182,192,247543,1,0,0:0:0:0:
475,192,247543,1,0,0:0:0:0:
402,192,247543,1,0,0:0:0:0:
109,192,247615,1,0,0:0:0:0:
402,192,247688,1,0,0:0:0:0:
256,192,247688,1,0,0:0:0:0:
36,192,247688,1,0,0:0:0:0:
182,192,247760,1,0,0:0:0:0:
475,192,247832,1,0,0:0:0:0:
329,192,247832,1,0,0:0:0:0:
109,192,247832,1,0,0:0:0:0:
402,192,247904,1,0,0:0:0:0:
182,192,247976,1,0,0:0:0:0:
256,192,247976,1,0,0:0:0:0:
36,192,247976,1,0,0:0:0:0:
329,192,248048,1,0,0:0:0:0:
475,192,248120,1,0,0:0:0:0:
182,192,248120,1,0,0:0:0:0:
109,192,248120,1,0,0:0:0:0:
109,192,248264,1,0,0:0:0:0:
182,192,248264,1,0,0:0:0:0:
475,192,248264,1,0,0:0:0:0:
109,192,248408,1,0,0:0:0:0:
182,192,248408,1,0,0:0:0:0:
329,192,248480,1,0,0:0:0:0:
402,192,248480,1,0,0:0:0:0:
182,192,248553,1,0,0:0:0:0:
109,192,248553,1,0,0:0:0:0:
329,192,248625,1,0,0:0:0:0:
402,192,248625,1,0,0:0:0:0:
36,192,248697,1,0,0:0:0:0:
109,192,248697,1,0,0:0:0:0:
182,192,248697,1,0,0:0:0:0:
475,192,248769,1,0,0:0:0:0:
402,192,248769,1,0,0:0:0:0:
329,192,248769,1,0,0:0:0:0:
36,192,248841,1,0,0:0:0:0:
109,192,248841,1,0,0:0:0:0:
182,192,248841,1,0,0:0:0:0:
329,192,248985,1,0,0:0:0:0:
402,192,248985,1,0,0:0:0:0:
475,192,248985,1,0,0:0:0:0:
256,192,248985,1,0,0:0:0:0:
329,192,249129,1,0,0:0:0:0:
402,192,249129,1,0,0:0:0:0:
475,192,249129,1,0,0:0:0:0:
256,192,249129,1,0,0:0:0:0:
475,192,249273,1,0,0:0:0:0:
36,192,249273,1,0,0:0:0:0:
182,192,249273,1,0,0:0:0:0:
402,192,249345,1,0,0:0:0:0:
329,192,249417,1,0,0:0:0:0:
182,192,249417,1,0,0:0:0:0:
109,192,249417,1,0,0:0:0:0:
256,192,249490,1,0,0:0:0:0:
109,192,249562,1,0,0:0:0:0:
36,192,249562,1,0,0:0:0:0:
402,192,249562,1,0,0:0:0:0:
182,192,249634,1,0,0:0:0:0:
256,192,249706,1,0,0:0:0:0:
475,192,249706,1,0,0:0:0:0:
36,192,249706,1,0,0:0:0:0:
329,192,249778,1,0,0:0:0:0:
36,192,249850,1,0,0:0:0:0:
109,192,249850,1,0,0:0:0:0:
402,192,249850,1,0,0:0:0:0:
182,192,249922,1,0,0:0:0:0:
256,192,249994,1,0,0:0:0:0:
475,192,249994,1,0,0:0:0:0:
109,192,249994,1,0,0:0:0:0:
402,192,250066,1,0,0:0:0:0:
329,192,250138,1,0,0:0:0:0:
36,192,250138,1,0,0:0:0:0:
256,192,250138,1,0,0:0:0:0:
109,192,250210,1,0,0:0:0:0:
475,192,250282,1,0,0:0:0:0:
402,192,250282,1,0,0:0:0:0:
182,192,250282,1,0,0:0:0:0:
329,192,250355,1,0,0:0:0:0:
256,192,250427,1,0,0:0:0:0:
36,192,250427,1,0,0:0:0:0:
182,192,250427,1,0,0:0:0:0:
109,192,250427,1,0,0:0:0:0:
329,192,250499,1,0,0:0:0:0:
402,192,250571,1,0,0:0:0:0:
475,192,250571,1,0,0:0:0:0:
36,192,250571,1,0,0:0:0:0:
109,192,250643,1,0,0:0:0:0:
182,192,250715,1,0,0:0:0:0:
256,192,250715,1,0,0:0:0:0:
475,192,250715,1,0,0:0:0:0:
329,192,250787,1,0,0:0:0:0:
36,192,250859,1,0,0:0:0:0:
402,192,250859,1,0,0:0:0:0:
256,192,250859,1,0,0:0:0:0:
109,192,250931,1,0,0:0:0:0:
182,192,251003,1,0,0:0:0:0:
329,192,251003,1,0,0:0:0:0:
475,192,251003,1,0,0:0:0:0:
256,192,251075,1,0,0:0:0:0:
36,192,251147,1,0,0:0:0:0:
402,192,251147,1,0,0:0:0:0:
182,192,251147,1,0,0:0:0:0:
329,192,251220,1,0,0:0:0:0:
256,192,251292,1,0,0:0:0:0:
109,192,251292,1,0,0:0:0:0:
475,192,251292,1,0,0:0:0:0:
402,192,251292,1,0,0:0:0:0:
256,192,251436,1,0,0:0:0:0:
109,192,251436,1,0,0:0:0:0:
475,192,251436,1,0,0:0:0:0:
402,192,251436,1,0,0:0:0:0:
402,192,251580,1,0,0:0:0:0:
182,192,251580,1,0,0:0:0:0:
36,192,251580,1,0,0:0:0:0:
329,192,251652,1,0,0:0:0:0:
256,192,251724,1,0,0:0:0:0:
109,192,251724,1,0,0:0:0:0:
36,192,251724,1,0,0:0:0:0:
475,192,251796,1,0,0:0:0:0:
402,192,251868,1,0,0:0:0:0:
256,192,251868,1,0,0:0:0:0:
36,192,251868,1,0,0:0:0:0:
182,192,251940,1,0,0:0:0:0:
109,192,252012,1,0,0:0:0:0:
329,192,252012,1,0,0:0:0:0:
475,192,252012,1,0,0:0:0:0:
256,192,252084,1,0,0:0:0:0:
182,192,252157,1,0,0:0:0:0:
402,192,252157,1,0,0:0:0:0:
475,192,252157,1,0,0:0:0:0:
36,192,252229,1,0,0:0:0:0:
109,192,252301,1,0,0:0:0:0:
256,192,252301,1,0,0:0:0:0:
402,192,252301,1,0,0:0:0:0:
329,192,252373,1,0,0:0:0:0:
182,192,252445,1,0,0:0:0:0:
36,192,252445,1,0,0:0:0:0:
402,192,252445,1,0,0:0:0:0:
256,192,252517,1,0,0:0:0:0:
329,192,252589,1,0,0:0:0:0:
475,192,252589,1,0,0:0:0:0:
109,192,252589,1,0,0:0:0:0:
256,192,252661,1,0,0:0:0:0:
36,192,252733,1,0,0:0:0:0:
109,192,252733,1,0,0:0:0:0:
182,192,252733,1,0,0:0:0:0:
36,192,252877,1,0,0:0:0:0:
182,192,252877,1,0,0:0:0:0:
109,192,252877,1,0,0:0:0:0:
475,192,253022,1,0,0:0:0:0:
402,192,253046,1,0,0:0:0:0:
329,192,253070,1,0,0:0:0:0:
256,192,253094,1,0,0:0:0:0:
182,192,253118,1,0,0:0:0:0:
109,192,253142,1,0,0:0:0:0:
36,192,253166,1,0,0:0:0:0:
182,192,253310,1,0,0:0:0:0:
109,192,253310,1,0,0:0:0:0:
36,192,253310,1,0,0:0:0:0:
402,192,253382,1,0,0:0:0:0:
256,192,253382,1,0,0:0:0:0:
329,192,253382,1,0,0:0:0:0:
182,192,253454,1,0,0:0:0:0:
109,192,253454,1,0,0:0:0:0:
36,192,253454,1,0,0:0:0:0:
475,192,253526,1,0,0:0:0:0:
402,192,253526,1,0,0:0:0:0:
256,192,253598,1,0,0:0:0:0:
182,192,253598,1,0,0:0:0:0:
109,192,253598,1,0,0:0:0:0:
329,192,253670,1,0,0:0:0:0:
402,192,253670,1,0,0:0:0:0:
182,192,253742,1,0,0:0:0:0:
256,192,253742,1,0,0:0:0:0:
109,192,253742,1,0,0:0:0:0:
109,192,253887,1,0,0:0:0:0:
36,192,253887,1,0,0:0:0:0:
475,192,253887,1,0,0:0:0:0:
402,192,253887,1,0,0:0:0:0:
256,192,253887,1,0,0:0:0:0:
329,192,253959,1,0,0:0:0:0:
182,192,254031,1,0,0:0:0:0:
36,192,254031,1,0,0:0:0:0:
402,192,254031,1,0,0:0:0:0:
256,192,254103,1,0,0:0:0:0:
475,192,254175,1,0,0:0:0:0:
329,192,254175,1,0,0:0:0:0:
182,192,254175,1,0,0:0:0:0:
402,192,254247,1,0,0:0:0:0:
256,192,254319,1,0,0:0:0:0:
36,192,254319,1,0,0:0:0:0:
329,192,254319,1,0,0:0:0:0:
109,192,254391,1,0,0:0:0:0:
182,192,254463,1,0,0:0:0:0:
475,192,254463,1,0,0:0:0:0:
402,192,254463,1,0,0:0:0:0:
329,192,254535,1,0,0:0:0:0:
256,192,254607,1,0,0:0:0:0:
36,192,254607,1,0,0:0:0:0:
402,192,254607,1,0,0:0:0:0:
182,192,254679,1,0,0:0:0:0:
109,192,254751,1,0,0:0:0:0:
329,192,254751,1,0,0:0:0:0:
475,192,254751,1,0,0:0:0:0:
36,192,254824,1,0,0:0:0:0:
402,192,254896,1,0,0:0:0:0:
182,192,254896,1,0,0:0:0:0:
475,192,254896,1,0,0:0:0:0:
256,192,254968,1,0,0:0:0:0:
475,192,255040,1,0,0:0:0:0:
329,192,255040,1,0,0:0:0:0:
182,192,255040,1,0,0:0:0:0:
36,192,255040,1,0,0:0:0:0:
402,192,255112,1,0,0:0:0:0:
256,192,255184,1,0,0:0:0:0:
109,192,255184,1,0,0:0:0:0:
36,192,255184,1,0,0:0:0:0:
182,192,255256,1,0,0:0:0:0:
329,192,255328,1,0,0:0:0:0:
36,192,255328,1,0,0:0:0:0:
475,192,255328,1,0,0:0:0:0:
256,192,255400,1,0,0:0:0:0:
182,192,255472,1,0,0:0:0:0:
109,192,255472,1,0,0:0:0:0:
475,192,255472,1,0,0:0:0:0:
402,192,255544,1,0,0:0:0:0:
329,192,255616,1,0,0:0:0:0:
256,192,255616,1,0,0:0:0:0:
182,192,255616,1,0,0:0:0:0:
109,192,255689,1,0,0:0:0:0:
475,192,255761,1,0,0:0:0:0:
256,192,255761,1,0,0:0:0:0:
36,192,255761,1,0,0:0:0:0:
329,192,255833,1,0,0:0:0:0:
402,192,255905,1,0,0:0:0:0:
36,192,255905,1,0,0:0:0:0:
182,192,255905,1,0,0:0:0:0:
109,192,255905,1,0,0:0:0:0:
402,192,256049,1,0,0:0:0:0:
36,192,256049,1,0,0:0:0:0:
182,192,256049,1,0,0:0:0:0:
109,192,256049,1,0,0:0:0:0:
475,192,256193,1,0,0:0:0:0:
256,192,256193,1,0,0:0:0:0:
109,192,256193,1,0,0:0:0:0:
329,192,256265,1,0,0:0:0:0:
182,192,256337,1,0,0:0:0:0:
36,192,256337,1,0,0:0:0:0:
402,192,256337,1,0,0:0:0:0:
256,192,256409,1,0,0:0:0:0:
329,192,256481,1,0,0:0:0:0:
402,192,256481,1,0,0:0:0:0:
475,192,256481,1,0,0:0:0:0:
109,192,256553,1,0,0:0:0:0:
256,192,256626,1,0,0:0:0:0:
329,192,256626,1,0,0:0:0:0:
402,192,256626,1,0,0:0:0:0:
475,192,256698,1,0,0:0:0:0:
182,192,256770,1,0,0:0:0:0:
36,192,256770,1,0,0:0:0:0:
109,192,256770,1,0,0:0:0:0:
329,192,256842,1,0,0:0:0:0:
182,192,256914,1,0,0:0:0:0:
36,192,256914,1,0,0:0:0:0:
475,192,256914,1,0,0:0:0:0:
256,192,256986,1,0,0:0:0:0:
402,192,257058,1,0,0:0:0:0:
109,192,257058,1,0,0:0:0:0:
329,192,257058,1,0,0:0:0:0:
182,192,257130,1,0,0:0:0:0:
475,192,257202,1,0,0:0:0:0:
36,192,257202,1,0,0:0:0:0:
402,192,257202,1,0,0:0:0:0:
109,192,257274,1,0,0:0:0:0:
475,192,257346,1,0,0:0:0:0:
256,192,257346,1,0,0:0:0:0:
36,192,257346,1,0,0:0:0:0:
182,192,257346,1,0,0:0:0:0:
329,192,257418,1,0,0:0:0:0:
109,192,257491,1,0,0:0:0:0:
402,192,257491,1,0,0:0:0:0:
475,192,257491,1,0,0:0:0:0:
182,192,257563,1,0,0:0:0:0:
256,192,257635,1,0,0:0:0:0:
329,192,257635,1,0,0:0:0:0:
36,192,257635,1,0,0:0:0:0:
475,192,257707,1,0,0:0:0:0:
182,192,257779,1,0,0:0:0:0:
109,192,257779,1,0,0:0:0:0:
36,192,257779,1,0,0:0:0:0:
329,192,257851,1,0,0:0:0:0:
109,192,257923,1,0,0:0:0:0:
475,192,257923,1,0,0:0:0:0:
256,192,257923,1,0,0:0:0:0:
36,192,257995,1,0,0:0:0:0:
182,192,257995,1,0,0:0:0:0:
402,192,257995,1,0,0:0:0:0:
109,192,258067,1,0,0:0:0:0:
256,192,258067,1,0,0:0:0:0:
329,192,258067,1,0,0:0:0:0:
182,192,258211,1,0,0:0:0:0:
329,192,258211,1,0,0:0:0:0:
475,192,258211,1,0,0:0:0:0:
36,192,258211,1,0,0:0:0:0:
182,192,258356,1,0,0:0:0:0:
329,192,258356,1,0,0:0:0:0:
475,192,258356,1,0,0:0:0:0:
36,192,258356,1,0,0:0:0:0:
109,192,258500,1,0,0:0:0:0:
256,192,258500,1,0,0:0:0:0:
402,192,258500,1,0,0:0:0:0:
36,192,258500,1,0,0:0:0:0:
182,192,258572,1,0,0:0:0:0:
329,192,258644,1,0,0:0:0:0:
36,192,258644,1,0,0:0:0:0:
475,192,258644,1,0,0:0:0:0:
402,192,258644,1,0,0:0:0:0:
256,192,258716,1,0,0:0:0:0:
182,192,258788,1,0,0:0:0:0:
475,192,258788,1,0,0:0:0:0:
109,192,258788,1,0,0:0:0:0:
36,192,258788,1,0,0:0:0:0:
402,192,258860,1,0,0:0:0:0:
109,192,258932,1,0,0:0:0:0:
256,192,258932,1,0,0:0:0:0:
36,192,258932,1,0,0:0:0:0:
475,192,258932,1,0,0:0:0:0:
329,192,259004,1,0,0:0:0:0:
36,192,259076,1,0,0:0:0:0:
475,192,259076,1,0,0:0:0:0:
402,192,259076,1,0,0:0:0:0:
256,192,259076,1,0,0:0:0:0:
182,192,259148,1,0,0:0:0:0:
329,192,259220,1,0,0:0:0:0:
109,192,259220,1,0,0:0:0:0:
475,192,259220,1,0,0:0:0:0:
402,192,259220,1,0,0:0:0:0:
256,192,259293,1,0,0:0:0:0:
402,192,259365,1,0,0:0:0:0:
36,192,259365,1,0,0:0:0:0:
182,192,259365,1,0,0:0:0:0:
109,192,259365,1,0,0:0:0:0:
329,192,259437,1,0,0:0:0:0:
109,192,259509,1,0,0:0:0:0:
256,192,259509,1,0,0:0:0:0:
182,192,259509,1,0,0:0:0:0:
36,192,259509,1,0,0:0:0:0:
475,192,259581,1,0,0:0:0:0:
182,192,259653,1,0,0:0:0:0:
36,192,259653,1,0,0:0:0:0:
402,192,259653,1,0,0:0:0:0:
329,192,259653,1,0,0:0:0:0:
109,192,259653,1,0,0:0:0:0:
256,192,259725,1,0,0:0:0:0:
36,192,259797,1,0,0:0:0:0:
109,192,259797,1,0,0:0:0:0:
329,192,259797,1,0,0:0:0:0:
475,192,259797,1,0,0:0:0:0:
182,192,259869,1,0,0:0:0:0:
475,192,259941,1,0,0:0:0:0:
256,192,259941,1,0,0:0:0:0:
402,192,259941,1,0,0:0:0:0:
329,192,259941,1,0,0:0:0:0:
109,192,260013,1,0,0:0:0:0:
329,192,260085,1,0,0:0:0:0:
182,192,260085,1,0,0:0:0:0:
402,192,260085,1,0,0:0:0:0:
475,192,260085,1,0,0:0:0:0:
36,192,260158,1,0,0:0:0:0:
475,192,260230,1,0,0:0:0:0:
256,192,260230,1,0,0:0:0:0:
109,192,260230,1,0,0:0:0:0:
182,192,260230,1,0,0:0:0:0:
329,192,260302,1,0,0:0:0:0:
36,192,260374,1,0,0:0:0:0:
182,192,260374,1,0,0:0:0:0:
402,192,260374,1,0,0:0:0:0:
109,192,260374,1,0,0:0:0:0:
256,192,260446,1,0,0:0:0:0:
329,192,260518,1,0,0:0:0:0:
182,192,260518,1,0,0:0:0:0:
475,192,260518,1,0,0:0:0:0:
402,192,260518,1,0,0:0:0:0:
329,192,260662,1,0,0:0:0:0:
475,192,260662,1,0,0:0:0:0:
182,192,260662,1,0,0:0:0:0:
402,192,260662,1,0,0:0:0:0:
36,192,260806,1,0,0:0:0:0:
109,192,260806,1,0,0:0:0:0:
256,192,260806,1,0,0:0:0:0:
329,192,260950,1,0,0:0:0:0:
109,192,260950,1,0,0:0:0:0:
256,192,261095,128,0,261815:0:0:0:0:
36,192,261095,1,0,0:0:0:0:
475,192,261095,1,0,0:0:0:0:
402,192,261239,1,0,0:0:0:0:
182,192,261239,1,0,0:0:0:0:
109,192,261383,1,0,0:0:0:0:
329,192,261383,1,0,0:0:0:0:
475,192,261383,1,0,0:0:0:0:
36,192,261527,1,0,0:0:0:0:
182,192,261527,1,0,0:0:0:0:
402,192,261671,1,0,0:0:0:0:
475,192,261671,1,0,0:0:0:0:
109,192,261671,1,0,0:0:0:0:
182,192,261815,1,0,0:0:0:0:
329,192,261815,1,0,0:0:0:0:
402,192,261815,1,0,0:0:0:0:
475,192,261960,1,0,0:0:0:0:
36,192,261960,128,0,262969:0:0:0:0:
109,192,261960,1,0,0:0:0:0:
182,192,262104,1,0,0:0:0:0:
256,192,262248,1,0,0:0:0:0:
475,192,262248,1,0,0:0:0:0:
329,192,262392,1,0,0:0:0:0:
109,192,262536,1,0,0:0:0:0:
402,192,262536,1,0,0:0:0:0:
256,192,262680,1,0,0:0:0:0:
402,192,262825,1,0,0:0:0:0:
475,192,262825,1,0,0:0:0:0:
182,192,262969,1,0,0:0:0:0:
329,192,263113,1,0,0:0:0:0:
475,192,263113,1,0,0:0:0:0:
256,192,263113,1,0,0:0:0:0:
36,192,263113,1,0,0:0:0:0:
109,192,263113,1,0,0:0:0:0:
182,192,263185,1,0,0:0:0:0:
36,192,263257,1,0,0:0:0:0:
402,192,263257,1,0,0:0:0:0:
256,192,263257,1,0,0:0:0:0:
109,192,263329,1,0,0:0:0:0:
36,192,263401,1,0,0:0:0:0:
329,192,263401,1,0,0:0:0:0:
182,192,263401,1,0,0:0:0:0:
475,192,263473,1,0,0:0:0:0:
109,192,263545,1,0,0:0:0:0:
402,192,263545,1,0,0:0:0:0:
256,192,263545,1,0,0:0:0:0:
182,192,263617,1,0,0:0:0:0:
109,192,263689,1,0,0:0:0:0:
36,192,263689,1,0,0:0:0:0:
329,192,263689,1,0,0:0:0:0:
256,192,263762,1,0,0:0:0:0:
36,192,263834,1,0,0:0:0:0:
402,192,263834,1,0,0:0:0:0:
475,192,263834,1,0,0:0:0:0:
109,192,263906,1,0,0:0:0:0:
475,192,263978,1,0,0:0:0:0:
256,192,263978,1,0,0:0:0:0:
182,192,263978,1,0,0:0:0:0:
329,192,264050,1,0,0:0:0:0:
256,192,264122,1,0,0:0:0:0:
36,192,264122,1,0,0:0:0:0:
402,192,264122,1,0,0:0:0:0:
109,192,264194,1,0,0:0:0:0:
256,192,264266,1,0,0:0:0:0:
402,192,264266,1,0,0:0:0:0:
182,192,264266,1,0,0:0:0:0:
475,192,264266,1,0,0:0:0:0:
329,192,264338,1,0,0:0:0:0:
475,192,264410,1,0,0:0:0:0:
182,192,264410,1,0,0:0:0:0:
36,192,264410,1,0,0:0:0:0:
256,192,264482,1,0,0:0:0:0:
109,192,264554,1,0,0:0:0:0:
402,192,264554,1,0,0:0:0:0:
329,192,264554,1,0,0:0:0:0:
475,192,264627,1,0,0:0:0:0:
36,192,264699,1,0,0:0:0:0:
329,192,264699,1,0,0:0:0:0:
182,192,264699,1,0,0:0:0:0:
256,192,264771,1,0,0:0:0:0:
36,192,264843,1,0,0:0:0:0:
109,192,264843,1,0,0:0:0:0:
182,192,264843,1,0,0:0:0:0:
402,192,264915,1,0,0:0:0:0:
109,192,264987,1,0,0:0:0:0:
475,192,264987,1,0,0:0:0:0:
256,192,264987,1,0,0:0:0:0:
329,192,265059,1,0,0:0:0:0:
402,192,265131,1,0,0:0:0:0:
182,192,265131,1,0,0:0:0:0:
36,192,265131,1,0,0:0:0:0:
475,192,265131,1,0,0:0:0:0:
182,192,265275,1,0,0:0:0:0:
36,192,265275,1,0,0:0:0:0:
402,192,265275,1,0,0:0:0:0:
475,192,265275,1,0,0:0:0:0:
256,192,265419,1,0,0:0:0:0:
109,192,265419,1,0,0:0:0:0:
475,192,265419,1,0,0:0:0:0:
329,192,265491,1,0,0:0:0:0:
475,192,265564,1,0,0:0:0:0:
36,192,265564,1,0,0:0:0:0:
402,192,265564,1,0,0:0:0:0:
182,192,265636,1,0,0:0:0:0:
109,192,265708,1,0,0:0:0:0:
329,192,265708,1,0,0:0:0:0:
256,192,265708,1,0,0:0:0:0:
475,192,265780,1,0,0:0:0:0:
36,192,265852,1,0,0:0:0:0:
256,192,265852,1,0,0:0:0:0:
402,192,265852,1,0,0:0:0:0:
182,192,265924,1,0,0:0:0:0:
329,192,265996,1,0,0:0:0:0:
36,192,265996,1,0,0:0:0:0:
109,192,265996,1,0,0:0:0:0:
402,192,266068,1,0,0:0:0:0:
109,192,266140,1,0,0:0:0:0:
256,192,266140,1,0,0:0:0:0:
475,192,266140,1,0,0:0:0:0:
329,192,266212,1,0,0:0:0:0:
36,192,266284,1,0,0:0:0:0:
182,192,266284,1,0,0:0:0:0:
402,192,266284,1,0,0:0:0:0:
109,192,266356,1,0,0:0:0:0:
329,192,266429,1,0,0:0:0:0:
256,192,266429,1,0,0:0:0:0:
475,192,266429,1,0,0:0:0:0:
182,192,266501,1,0,0:0:0:0:
36,192,266573,1,0,0:0:0:0:
329,192,266573,1,0,0:0:0:0:
402,192,266573,1,0,0:0:0:0:
402,192,266717,1,0,0:0:0:0:
329,192,266717,1,0,0:0:0:0:
36,192,266717,1,0,0:0:0:0:
475,192,266861,1,0,0:0:0:0:
402,192,266885,1,0,0:0:0:0:
329,192,266909,1,0,0:0:0:0:
256,192,266933,1,0,0:0:0:0:
182,192,266957,1,0,0:0:0:0:
109,192,266981,1,0,0:0:0:0:
36,192,267005,1,0,0:0:0:0:
475,192,267149,1,0,0:0:0:0:
402,192,267149,1,0,0:0:0:0:
329,192,267149,1,0,0:0:0:0:
36,192,267221,1,0,0:0:0:0:
109,192,267221,1,0,0:0:0:0:
182,192,267221,1,0,0:0:0:0:
475,192,267294,1,0,0:0:0:0:
402,192,267294,1,0,0:0:0:0:
329,192,267294,1,0,0:0:0:0:
182,192,267438,1,0,0:0:0:0:
109,192,267438,1,0,0:0:0:0:
36,192,267438,1,0,0:0:0:0:
256,192,267438,1,0,0:0:0:0:
182,192,267582,1,0,0:0:0:0:
109,192,267582,1,0,0:0:0:0:
36,192,267582,1,0,0:0:0:0:
256,192,267582,1,0,0:0:0:0:
36,192,267726,1,0,0:0:0:0:
475,192,267726,1,0,0:0:0:0:
329,192,267726,1,0,0:0:0:0:
109,192,267798,1,0,0:0:0:0:
402,192,267870,1,0,0:0:0:0:
329,192,267870,1,0,0:0:0:0:
182,192,267870,1,0,0:0:0:0:
256,192,267942,1,0,0:0:0:0:
109,192,268014,1,0,0:0:0:0:
475,192,268014,1,0,0:0:0:0:
402,192,268014,1,0,0:0:0:0:
329,192,268086,1,0,0:0:0:0:
475,192,268158,1,0,0:0:0:0:
36,192,268158,1,0,0:0:0:0:
256,192,268158,1,0,0:0:0:0:
182,192,268231,1,0,0:0:0:0:
109,192,268303,1,0,0:0:0:0:
402,192,268303,1,0,0:0:0:0:
475,192,268303,1,0,0:0:0:0:
329,192,268375,1,0,0:0:0:0:
402,192,268447,1,0,0:0:0:0:
36,192,268447,1,0,0:0:0:0:
256,192,268447,1,0,0:0:0:0:
109,192,268519,1,0,0:0:0:0:
256,192,268591,1,0,0:0:0:0:
475,192,268591,1,0,0:0:0:0:
182,192,268591,1,0,0:0:0:0:
402,192,268663,1,0,0:0:0:0:
329,192,268735,1,0,0:0:0:0:
109,192,268735,1,0,0:0:0:0:
36,192,268735,1,0,0:0:0:0:
182,192,268807,1,0,0:0:0:0:
329,192,268879,1,0,0:0:0:0:
402,192,268879,1,0,0:0:0:0:
256,192,268879,1,0,0:0:0:0:
475,192,268879,1,0,0:0:0:0:
182,192,268951,1,0,0:0:0:0:
475,192,269023,1,0,0:0:0:0:
36,192,269023,1,0,0:0:0:0:
109,192,269023,1,0,0:0:0:0:
402,192,269096,1,0,0:0:0:0:
36,192,269168,1,0,0:0:0:0:
256,192,269168,1,0,0:0:0:0:
329,192,269168,1,0,0:0:0:0:
182,192,269240,1,0,0:0:0:0:
256,192,269312,1,0,0:0:0:0:
109,192,269312,1,0,0:0:0:0:
475,192,269312,1,0,0:0:0:0:
402,192,269384,1,0,0:0:0:0:
36,192,269456,1,0,0:0:0:0:
182,192,269456,1,0,0:0:0:0:
329,192,269456,1,0,0:0:0:0:
256,192,269528,1,0,0:0:0:0:
329,192,269600,1,0,0:0:0:0:
109,192,269600,1,0,0:0:0:0:
475,192,269600,1,0,0:0:0:0:
182,192,269672,1,0,0:0:0:0:
36,192,269744,1,0,0:0:0:0:
402,192,269744,1,0,0:0:0:0:
256,192,269744,1,0,0:0:0:0:
109,192,269744,1,0,0:0:0:0:
36,192,269888,1,0,0:0:0:0:
402,192,269888,1,0,0:0:0:0:
256,192,269888,1,0,0:0:0:0:
109,192,269888,1,0,0:0:0:0:
475,192,270033,1,0,0:0:0:0:
329,192,270033,1,0,0:0:0:0:
109,192,270033,1,0,0:0:0:0:
182,192,270105,1,0,0:0:0:0:
475,192,270177,1,0,0:0:0:0:
402,192,270177,1,0,0:0:0:0:
256,192,270177,1,0,0:0:0:0:
36,192,270249,1,0,0:0:0:0:
475,192,270321,1,0,0:0:0:0:
256,192,270321,1,0,0:0:0:0:
109,192,270321,1,0,0:0:0:0:
329,192,270393,1,0,0:0:0:0:
36,192,270465,1,0,0:0:0:0:
182,192,270465,1,0,0:0:0:0:
402,192,270465,1,0,0:0:0:0:
256,192,270537,1,0,0:0:0:0:
36,192,270609,1,0,0:0:0:0:
109,192,270609,1,0,0:0:0:0:
329,192,270609,1,0,0:0:0:0:
475,192,270681,1,0,0:0:0:0:
109,192,270753,1,0,0:0:0:0:
256,192,270753,1,0,0:0:0:0:
402,192,270753,1,0,0:0:0:0:
182,192,270825,1,0,0:0:0:0:
109,192,270898,1,0,0:0:0:0:
475,192,270898,1,0,0:0:0:0:
329,192,270898,1,0,0:0:0:0:
256,192,270970,1,0,0:0:0:0:
402,192,271042,1,0,0:0:0:0:
36,192,271042,1,0,0:0:0:0:
182,192,271042,1,0,0:0:0:0:
256,192,271114,1,0,0:0:0:0:
475,192,271186,1,0,0:0:0:0:
402,192,271186,1,0,0:0:0:0:
329,192,271186,1,0,0:0:0:0:
402,192,271258,1,0,0:0:0:0:
329,192,271258,1,0,0:0:0:0:
182,192,271330,1,0,0:0:0:0:
36,192,271330,1,0,0:0:0:0:
109,192,271330,1,0,0:0:0:0:
182,192,271402,1,0,0:0:0:0:
109,192,271402,1,0,0:0:0:0:
475,192,271474,1,0,0:0:0:0:
402,192,271510,1,0,0:0:0:0:
329,192,271546,1,0,0:0:0:0:
256,192,271582,1,0,0:0:0:0:
475,192,271618,1,0,0:0:0:0:
402,192,271654,1,0,0:0:0:0:
329,192,271690,1,0,0:0:0:0:
182,192,271763,1,0,0:0:0:0:
109,192,271763,1,0,0:0:0:0:
36,192,271763,1,0,0:0:0:0:
402,192,271835,1,0,0:0:0:0:
256,192,271835,1,0,0:0:0:0:
329,192,271835,1,0,0:0:0:0:
182,192,271907,1,0,0:0:0:0:
109,192,271907,1,0,0:0:0:0:
36,192,271907,1,0,0:0:0:0:
329,192,272051,1,0,0:0:0:0:
256,192,272051,1,0,0:0:0:0:
182,192,272051,1,0,0:0:0:0:
402,192,272051,1,0,0:0:0:0:
182,192,272195,1,0,0:0:0:0:
329,192,272195,1,0,0:0:0:0:
256,192,272195,1,0,0:0:0:0:
402,192,272195,1,0,0:0:0:0:
475,192,272339,1,0,0:0:0:0:
256,192,272339,1,0,0:0:0:0:
402,192,272339,1,0,0:0:0:0:
36,192,272339,1,0,0:0:0:0:
109,192,272339,1,0,0:0:0:0:
182,192,272411,1,0,0:0:0:0:
109,192,272483,1,0,0:0:0:0:
475,192,272483,1,0,0:0:0:0:
329,192,272483,1,0,0:0:0:0:
256,192,272555,1,0,0:0:0:0:
329,192,272627,1,0,0:0:0:0:
182,192,272627,1,0,0:0:0:0:
36,192,272627,1,0,0:0:0:0:
109,192,272700,1,0,0:0:0:0:
182,192,272772,1,0,0:0:0:0:
475,192,272772,1,0,0:0:0:0:
256,192,272772,1,0,0:0:0:0:
402,192,272844,1,0,0:0:0:0:
109,192,272916,1,0,0:0:0:0:
36,192,272916,1,0,0:0:0:0:
329,192,272916,1,0,0:0:0:0:
182,192,272988,1,0,0:0:0:0:
109,192,273060,1,0,0:0:0:0:
475,192,273060,1,0,0:0:0:0:
256,192,273060,1,0,0:0:0:0:
329,192,273132,1,0,0:0:0:0:
36,192,273204,1,0,0:0:0:0:
182,192,273204,1,0,0:0:0:0:
402,192,273204,1,0,0:0:0:0:
475,192,273276,1,0,0:0:0:0:
36,192,273348,1,0,0:0:0:0:
329,192,273348,1,0,0:0:0:0:
109,192,273348,1,0,0:0:0:0:
256,192,273420,1,0,0:0:0:0:
329,192,273492,1,0,0:0:0:0:
475,192,273492,1,0,0:0:0:0:
36,192,273492,1,0,0:0:0:0:
182,192,273492,1,0,0:0:0:0:
109,192,273565,1,0,0:0:0:0:
475,192,273637,1,0,0:0:0:0:
402,192,273637,1,0,0:0:0:0:
256,192,273637,1,0,0:0:0:0:
329,192,273709,1,0,0:0:0:0:
36,192,273781,1,0,0:0:0:0:
475,192,273781,1,0,0:0:0:0:
182,192,273781,1,0,0:0:0:0:
256,192,273853,1,0,0:0:0:0:
36,192,273925,1,0,0:0:0:0:
402,192,273925,1,0,0:0:0:0:
329,192,273925,1,0,0:0:0:0:
109,192,273997,1,0,0:0:0:0:
329,192,274069,1,0,0:0:0:0:
256,192,274069,1,0,0:0:0:0:
182,192,274069,1,0,0:0:0:0:
402,192,274141,1,0,0:0:0:0:
475,192,274213,1,0,0:0:0:0:
256,192,274213,1,0,0:0:0:0:
36,192,274213,1,0,0:0:0:0:
182,192,274285,1,0,0:0:0:0:
329,192,274357,1,0,0:0:0:0:
475,192,274357,1,0,0:0:0:0:
109,192,274357,1,0,0:0:0:0:
402,192,274357,1,0,0:0:0:0:
329,192,274502,1,0,0:0:0:0:
475,192,274502,1,0,0:0:0:0:
109,192,274502,1,0,0:0:0:0:
402,192,274502,1,0,0:0:0:0:
402,192,274646,1,0,0:0:0:0:
256,192,274646,1,0,0:0:0:0:
36,192,274646,1,0,0:0:0:0:
182,192,274718,1,0,0:0:0:0:
109,192,274790,1,0,0:0:0:0:
475,192,274790,1,0,0:0:0:0:
329,192,274790,1,0,0:0:0:0:
256,192,274862,1,0,0:0:0:0:
36,192,274934,1,0,0:0:0:0:
109,192,274934,1,0,0:0:0:0:
182,192,274934,1,0,0:0:0:0:
402,192,275006,1,0,0:0:0:0:
329,192,275006,1,0,0:0:0:0:
109,192,275078,1,0,0:0:0:0:
182,192,275078,1,0,0:0:0:0:
402,192,275222,1,0,0:0:0:0:
475,192,275222,1,0,0:0:0:0:
329,192,275222,1,0,0:0:0:0:
182,192,275294,1,0,0:0:0:0:
36,192,275294,1,0,0:0:0:0:
475,192,275367,1,0,0:0:0:0:
329,192,275367,1,0,0:0:0:0:
256,192,275511,1,0,0:0:0:0:
402,192,275511,1,0,0:0:0:0:
109,192,275511,1,0,0:0:0:0:
329,192,275583,1,0,0:0:0:0:
182,192,275583,1,0,0:0:0:0:
402,192,275655,1,0,0:0:0:0:
109,192,275655,1,0,0:0:0:0:
475,192,275799,1,0,0:0:0:0:
329,192,275799,1,0,0:0:0:0:
36,192,275799,1,0,0:0:0:0:
256,192,275799,1,0,0:0:0:0:
182,192,275871,1,0,0:0:0:0:
36,192,275943,1,0,0:0:0:0:
109,192,275943,1,0,0:0:0:0:
402,192,275943,1,0,0:0:0:0:
329,192,276015,1,0,0:0:0:0:
475,192,276087,1,0,0:0:0:0:
182,192,276087,1,0,0:0:0:0:
256,192,276087,1,0,0:0:0:0:
36,192,276159,1,0,0:0:0:0:
475,192,276232,1,0,0:0:0:0:
402,192,276232,1,0,0:0:0:0:
329,192,276232,1,0,0:0:0:0:
182,192,276304,1,0,0:0:0:0:
402,192,276376,1,0,0:0:0:0:
256,192,276376,1,0,0:0:0:0:
36,192,276376,1,0,0:0:0:0:
475,192,276448,1,0,0:0:0:0:
329,192,276448,1,0,0:0:0:0:
109,192,276448,1,0,0:0:0:0:
182,192,276520,1,0,0:0:0:0:
402,192,276520,1,0,0:0:0:0:
256,192,276520,1,0,0:0:0:0:
329,192,276664,1,0,0:0:0:0:
182,192,276664,1,0,0:0:0:0:
36,192,276664,1,0,0:0:0:0:
475,192,276664,1,0,0:0:0:0:
329,192,276808,1,0,0:0:0:0:
182,192,276808,1,0,0:0:0:0:
36,192,276808,1,0,0:0:0:0:
475,192,276808,1,0,0:0:0:0:
402,192,276952,1,0,0:0:0:0:
256,192,276952,1,0,0:0:0:0:
109,192,276952,1,0,0:0:0:0:
329,192,277024,1,0,0:0:0:0:
36,192,277096,1,0,0:0:0:0:
182,192,277096,1,0,0:0:0:0:
475,192,277096,1,0,0:0:0:0:
256,192,277169,1,0,0:0:0:0:
329,192,277241,1,0,0:0:0:0:
36,192,277241,1,0,0:0:0:0:
402,192,277241,1,0,0:0:0:0:
109,192,277313,1,0,0:0:0:0:
329,192,277385,1,0,0:0:0:0:
402,192,277385,1,0,0:0:0:0:
256,192,277385,1,0,0:0:0:0:
182,192,277457,1,0,0:0:0:0:
475,192,277529,1,0,0:0:0:0:
36,192,277529,1,0,0:0:0:0:
109,192,277529,1,0,0:0:0:0:
329,192,277601,1,0,0:0:0:0:
36,192,277673,1,0,0:0:0:0:
182,192,277673,1,0,0:0:0:0:
402,192,277673,1,0,0:0:0:0:
256,192,277745,1,0,0:0:0:0:
109,192,277817,1,0,0:0:0:0:
475,192,277817,1,0,0:0:0:0:
329,192,277817,1,0,0:0:0:0:
182,192,277889,1,0,0:0:0:0:
475,192,277961,1,0,0:0:0:0:
402,192,277961,1,0,0:0:0:0:
256,192,277961,1,0,0:0:0:0:
36,192,278034,1,0,0:0:0:0:
329,192,278106,1,0,0:0:0:0:
475,192,278106,1,0,0:0:0:0:
109,192,278106,1,0,0:0:0:0:
182,192,278106,1,0,0:0:0:0:
256,192,278178,1,0,0:0:0:0:
36,192,278250,1,0,0:0:0:0:
475,192,278250,1,0,0:0:0:0:
402,192,278250,1,0,0:0:0:0:
329,192,278322,1,0,0:0:0:0:
109,192,278394,1,0,0:0:0:0:
36,192,278394,1,0,0:0:0:0:
256,192,278394,1,0,0:0:0:0:
402,192,278466,1,0,0:0:0:0:
109,192,278538,1,0,0:0:0:0:
182,192,278538,1,0,0:0:0:0:
329,192,278538,1,0,0:0:0:0:
475,192,278610,1,0,0:0:0:0:
36,192,278682,1,0,0:0:0:0:
256,192,278682,1,0,0:0:0:0:
402,192,278682,1,0,0:0:0:0:
182,192,278754,1,0,0:0:0:0:
402,192,278826,1,0,0:0:0:0:
475,192,278826,1,0,0:0:0:0:
329,192,278826,1,0,0:0:0:0:
256,192,278899,1,0,0:0:0:0:
182,192,278971,1,0,0:0:0:0:
329,192,278971,1,0,0:0:0:0:
36,192,278971,1,0,0:0:0:0:
109,192,278971,1,0,0:0:0:0:
182,192,279115,1,0,0:0:0:0:
36,192,279115,1,0,0:0:0:0:
329,192,279115,1,0,0:0:0:0:
109,192,279115,1,0,0:0:0:0:
475,192,279259,1,0,0:0:0:0:
402,192,279259,1,0,0:0:0:0:
256,192,279259,1,0,0:0:0:0:
475,192,279403,1,0,0:0:0:0:
256,192,279403,1,0,0:0:0:0:
402,192,279403,1,0,0:0:0:0:
36,192,279547,1,0,0:0:0:0:
109,192,279571,1,0,0:0:0:0:
182,192,279595,1,0,0:0:0:0:
256,192,279619,1,0,0:0:0:0:
329,192,279643,1,0,0:0:0:0:
402,192,279667,1,0,0:0:0:0:
475,192,279691,1,0,0:0:0:0:
256,192,279836,128,0,280124:0:0:0:0:
329,192,279872,128,0,280124:0:0:0:0:
402,192,279908,128,0,280124:0:0:0:0:
475,192,279944,128,0,280124:0:0:0:0:
182,192,280124,1,0,0:0:0:0:
109,192,280124,1,0,0:0:0:0:
36,192,280124,1,0,0:0:0:0:
36,192,280268,1,0,0:0:0:0:
109,192,280268,1,0,0:0:0:0:
475,192,280412,1,0,0:0:0:0:
402,192,280412,1,0,0:0:0:0:
256,192,280460,1,0,0:0:0:0:
329,192,280460,1,0,0:0:0:0:
109,192,280508,1,0,0:0:0:0:
182,192,280508,1,0,0:0:0:0:
475,192,280556,1,0,0:0:0:0:
36,192,280556,1,0,0:0:0:0:
36,192,280701,1,0,0:0:0:0:
109,192,280701,1,0,0:0:0:0:
256,192,280749,1,0,0:0:0:0:
182,192,280749,1,0,0:0:0:0:
329,192,280797,1,0,0:0:0:0:
402,192,280797,1,0,0:0:0:0:
475,192,280845,1,0,0:0:0:0:
36,192,280845,1,0,0:0:0:0:
402,192,280989,1,0,0:0:0:0:
475,192,280989,1,0,0:0:0:0:
182,192,281025,1,0,0:0:0:0:
256,192,281061,1,0,0:0:0:0:
329,192,281061,1,0,0:0:0:0:
402,192,281097,1,0,0:0:0:0:
36,192,281133,1,0,0:0:0:0:
109,192,281133,1,0,0:0:0:0:
36,192,281277,1,0,0:0:0:0:
109,192,281277,1,0,0:0:0:0:
329,192,281313,1,0,0:0:0:0:
256,192,281349,1,0,0:0:0:0:
182,192,281349,1,0,0:0:0:0:
109,192,281385,1,0,0:0:0:0:
475,192,281421,1,0,0:0:0:0:
402,192,281421,1,0,0:0:0:0:
36,192,281566,1,0,0:0:0:0:
109,192,281566,1,0,0:0:0:0:
402,192,281566,1,0,0:0:0:0:
256,192,281566,1,0,0:0:0:0:
475,192,281566,1,0,0:0:0:0:
329,192,281638,1,0,0:0:0:0:
256,192,281710,1,0,0:0:0:0:
109,192,281710,1,0,0:0:0:0:
475,192,281710,1,0,0:0:0:0:
402,192,281782,1,0,0:0:0:0:
329,192,281854,1,0,0:0:0:0:
182,192,281854,1,0,0:0:0:0:
475,192,281854,1,0,0:0:0:0:
36,192,281926,1,0,0:0:0:0:
256,192,281998,1,0,0:0:0:0:
109,192,281998,1,0,0:0:0:0:
402,192,281998,1,0,0:0:0:0:
329,192,282070,1,0,0:0:0:0:
182,192,282142,1,0,0:0:0:0:
475,192,282142,1,0,0:0:0:0:
402,192,282142,1,0,0:0:0:0:
256,192,282214,1,0,0:0:0:0:
36,192,282286,1,0,0:0:0:0:
109,192,282286,1,0,0:0:0:0:
475,192,282286,1,0,0:0:0:0:
402,192,282358,1,0,0:0:0:0:
329,192,282430,1,0,0:0:0:0:
256,192,282430,1,0,0:0:0:0:
36,192,282430,1,0,0:0:0:0:
182,192,282503,1,0,0:0:0:0:
109,192,282575,1,0,0:0:0:0:
475,192,282575,1,0,0:0:0:0:
256,192,282575,1,0,0:0:0:0:
402,192,282647,1,0,0:0:0:0:
329,192,282719,1,0,0:0:0:0:
36,192,282719,1,0,0:0:0:0:
256,192,282719,1,0,0:0:0:0:
109,192,282719,1,0,0:0:0:0:
182,192,282791,1,0,0:0:0:0:
475,192,282863,1,0,0:0:0:0:
329,192,282863,1,0,0:0:0:0:
36,192,282863,1,0,0:0:0:0:
256,192,282935,1,0,0:0:0:0:
182,192,283007,1,0,0:0:0:0:
109,192,283007,1,0,0:0:0:0:
402,192,283007,1,0,0:0:0:0:
36,192,283079,1,0,0:0:0:0:
329,192,283151,1,0,0:0:0:0:
182,192,283151,1,0,0:0:0:0:
475,192,283151,1,0,0:0:0:0:
256,192,283223,1,0,0:0:0:0:
329,192,283295,1,0,0:0:0:0:
402,192,283295,1,0,0:0:0:0:
475,192,283295,1,0,0:0:0:0:
109,192,283368,1,0,0:0:0:0:
256,192,283440,1,0,0:0:0:0:
36,192,283440,1,0,0:0:0:0:
402,192,283440,1,0,0:0:0:0:
182,192,283512,1,0,0:0:0:0:
475,192,283584,1,0,0:0:0:0:
329,192,283584,1,0,0:0:0:0:
109,192,283584,1,0,0:0:0:0:
36,192,283584,1,0,0:0:0:0:
109,192,283728,1,0,0:0:0:0:
475,192,283728,1,0,0:0:0:0:
329,192,283728,1,0,0:0:0:0:
36,192,283728,1,0,0:0:0:0:
36,192,283872,1,0,0:0:0:0:
402,192,283872,1,0,0:0:0:0:
256,192,283872,1,0,0:0:0:0:
182,192,283944,1,0,0:0:0:0:
109,192,284016,1,0,0:0:0:0:
475,192,284016,1,0,0:0:0:0:
36,192,284016,1,0,0:0:0:0:
329,192,284088,1,0,0:0:0:0:
256,192,284160,1,0,0:0:0:0:
182,192,284160,1,0,0:0:0:0:
402,192,284160,1,0,0:0:0:0:
36,192,284232,1,0,0:0:0:0:
109,192,284305,1,0,0:0:0:0:
256,192,284305,1,0,0:0:0:0:
475,192,284305,1,0,0:0:0:0:
329,192,284377,1,0,0:0:0:0:
402,192,284449,1,0,0:0:0:0:
475,192,284449,1,0,0:0:0:0:
182,192,284449,1,0,0:0:0:0:
109,192,284521,1,0,0:0:0:0:
36,192,284593,1,0,0:0:0:0:
256,192,284593,1,0,0:0:0:0:
402,192,284593,1,0,0:0:0:0:
182,192,284665,1,0,0:0:0:0:
109,192,284737,1,0,0:0:0:0:
329,192,284737,1,0,0:0:0:0:
475,192,284737,1,0,0:0:0:0:
402,192,284809,1,0,0:0:0:0:
36,192,284881,1,0,0:0:0:0:
256,192,284881,1,0,0:0:0:0:
182,192,284881,1,0,0:0:0:0:
329,192,284953,1,0,0:0:0:0:
109,192,285025,1,0,0:0:0:0:
182,192,285025,1,0,0:0:0:0:
475,192,285025,1,0,0:0:0:0:
475,192,285170,1,0,0:0:0:0:
182,192,285170,1,0,0:0:0:0:
109,192,285170,1,0,0:0:0:0:
182,192,285314,1,0,0:0:0:0:
109,192,285314,1,0,0:0:0:0:
402,192,285386,1,0,0:0:0:0:
329,192,285386,1,0,0:0:0:0:
109,192,285458,1,0,0:0:0:0:
182,192,285458,1,0,0:0:0:0:
402,192,285530,1,0,0:0:0:0:
329,192,285530,1,0,0:0:0:0:
182,192,285602,1,0,0:0:0:0:
109,192,285602,1,0,0:0:0:0:
36,192,285602,1,0,0:0:0:0:
329,192,285674,1,0,0:0:0:0:
402,192,285674,1,0,0:0:0:0:
475,192,285674,1,0,0:0:0:0:
182,192,285746,1,0,0:0:0:0:
109,192,285746,1,0,0:0:0:0:
36,192,285746,1,0,0:0:0:0:
475,192,285890,1,0,0:0:0:0:
402,192,285890,1,0,0:0:0:0:
329,192,285890,1,0,0:0:0:0:
256,192,285890,1,0,0:0:0:0:
475,192,286035,1,0,0:0:0:0:
402,192,286035,1,0,0:0:0:0:
329,192,286035,1,0,0:0:0:0:
256,192,286035,1,0,0:0:0:0:
182,192,286179,1,0,0:0:0:0:
36,192,286179,1,0,0:0:0:0:
475,192,286179,1,0,0:0:0:0:
402,192,286251,1,0,0:0:0:0:
109,192,286323,1,0,0:0:0:0:
182,192,286323,1,0,0:0:0:0:
329,192,286323,1,0,0:0:0:0:
256,192,286395,1,0,0:0:0:0:
402,192,286467,1,0,0:0:0:0:
36,192,286467,1,0,0:0:0:0:
109,192,286467,1,0,0:0:0:0:
182,192,286539,1,0,0:0:0:0:
36,192,286611,1,0,0:0:0:0:
475,192,286611,1,0,0:0:0:0:
256,192,286611,1,0,0:0:0:0:
329,192,286683,1,0,0:0:0:0:
402,192,286755,1,0,0:0:0:0:
109,192,286755,1,0,0:0:0:0:
36,192,286755,1,0,0:0:0:0:
182,192,286827,1,0,0:0:0:0:
109,192,286899,1,0,0:0:0:0:
475,192,286899,1,0,0:0:0:0:
256,192,286899,1,0,0:0:0:0:
402,192,286972,1,0,0:0:0:0:
256,192,287044,1,0,0:0:0:0:
36,192,287044,1,0,0:0:0:0:
329,192,287044,1,0,0:0:0:0:
109,192,287116,1,0,0:0:0:0:
182,192,287188,1,0,0:0:0:0:
402,192,287188,1,0,0:0:0:0:
475,192,287188,1,0,0:0:0:0:
329,192,287260,1,0,0:0:0:0:
182,192,287332,1,0,0:0:0:0:
109,192,287332,1,0,0:0:0:0:
256,192,287332,1,0,0:0:0:0:
36,192,287332,1,0,0:0:0:0:
329,192,287404,1,0,0:0:0:0:
36,192,287476,1,0,0:0:0:0:
475,192,287476,1,0,0:0:0:0:
402,192,287476,1,0,0:0:0:0:
109,192,287548,1,0,0:0:0:0:
475,192,287620,1,0,0:0:0:0:
256,192,287620,1,0,0:0:0:0:
182,192,287620,1,0,0:0:0:0:
329,192,287692,1,0,0:0:0:0:
256,192,287764,1,0,0:0:0:0:
402,192,287764,1,0,0:0:0:0:
36,192,287764,1,0,0:0:0:0:
109,192,287837,1,0,0:0:0:0:
475,192,287909,1,0,0:0:0:0:
329,192,287909,1,0,0:0:0:0:
182,192,287909,1,0,0:0:0:0:
256,192,287981,1,0,0:0:0:0:
182,192,288053,1,0,0:0:0:0:
402,192,288053,1,0,0:0:0:0:
36,192,288053,1,0,0:0:0:0:
329,192,288125,1,0,0:0:0:0:
475,192,288197,1,0,0:0:0:0:
109,192,288197,1,0,0:0:0:0:
256,192,288197,1,0,0:0:0:0:
402,192,288197,1,0,0:0:0:0:
475,192,288341,1,0,0:0:0:0:
109,192,288341,1,0,0:0:0:0:
256,192,288341,1,0,0:0:0:0:
402,192,288341,1,0,0:0:0:0:
36,192,288485,1,0,0:0:0:0:
182,192,288485,1,0,0:0:0:0:
402,192,288485,1,0,0:0:0:0:
329,192,288557,1,0,0:0:0:0:
36,192,288629,1,0,0:0:0:0:
109,192,288629,1,0,0:0:0:0:
256,192,288629,1,0,0:0:0:0:
475,192,288701,1,0,0:0:0:0:
36,192,288774,1,0,0:0:0:0:
256,192,288774,1,0,0:0:0:0:
402,192,288774,1,0,0:0:0:0:
182,192,288846,1,0,0:0:0:0:
475,192,288918,1,0,0:0:0:0:
329,192,288918,1,0,0:0:0:0:
109,192,288918,1,0,0:0:0:0:
256,192,288990,1,0,0:0:0:0:
475,192,289062,1,0,0:0:0:0:
402,192,289062,1,0,0:0:0:0:
182,192,289062,1,0,0:0:0:0:
36,192,289134,1,0,0:0:0:0:
402,192,289206,1,0,0:0:0:0:
256,192,289206,1,0,0:0:0:0:
109,192,289206,1,0,0:0:0:0:
329,192,289278,1,0,0:0:0:0:
402,192,289350,1,0,0:0:0:0:
36,192,289350,1,0,0:0:0:0:
182,192,289350,1,0,0:0:0:0:
256,192,289422,1,0,0:0:0:0:
109,192,289494,1,0,0:0:0:0:
475,192,289494,1,0,0:0:0:0:
329,192,289494,1,0,0:0:0:0:
256,192,289566,1,0,0:0:0:0:
182,192,289639,1,0,0:0:0:0:
109,192,289639,1,0,0:0:0:0:
36,192,289639,1,0,0:0:0:0:
109,192,289783,1,0,0:0:0:0:
182,192,289783,1,0,0:0:0:0:
36,192,289783,1,0,0:0:0:0:
475,192,289927,1,0,0:0:0:0:
402,192,289951,1,0,0:0:0:0:
329,192,289975,1,0,0:0:0:0:
256,192,289999,1,0,0:0:0:0:
182,192,290023,1,0,0:0:0:0:
109,192,290047,1,0,0:0:0:0:
36,192,290071,1,0,0:0:0:0:
36,192,290215,1,0,0:0:0:0:
109,192,290215,1,0,0:0:0:0:
182,192,290215,1,0,0:0:0:0:
329,192,290287,1,0,0:0:0:0:
256,192,290287,1,0,0:0:0:0:
402,192,290287,1,0,0:0:0:0:
36,192,290359,1,0,0:0:0:0:
109,192,290359,1,0,0:0:0:0:
182,192,290359,1,0,0:0:0:0:
402,192,290431,1,0,0:0:0:0:
475,192,290431,1,0,0:0:0:0:
109,192,290504,1,0,0:0:0:0:
182,192,290504,1,0,0:0:0:0:
256,192,290504,1,0,0:0:0:0:
402,192,290576,1,0,0:0:0:0:
329,192,290576,1,0,0:0:0:0:
109,192,290648,1,0,0:0:0:0:
256,192,290648,1,0,0:0:0:0:
182,192,290648,1,0,0:0:0:0:
402,192,290792,1,0,0:0:0:0:
256,192,290792,1,0,0:0:0:0:
475,192,290792,1,0,0:0:0:0:
109,192,290792,1,0,0:0:0:0:
36,192,290792,1,0,0:0:0:0:
329,192,290864,1,0,0:0:0:0:
402,192,290936,1,0,0:0:0:0:
36,192,290936,1,0,0:0:0:0:
182,192,290936,1,0,0:0:0:0:
256,192,291008,1,0,0:0:0:0:
182,192,291080,1,0,0:0:0:0:
329,192,291080,1,0,0:0:0:0:
475,192,291080,1,0,0:0:0:0:
402,192,291152,1,0,0:0:0:0:
329,192,291224,1,0,0:0:0:0:
36,192,291224,1,0,0:0:0:0:
256,192,291224,1,0,0:0:0:0:
109,192,291296,1,0,0:0:0:0:
402,192,291368,1,0,0:0:0:0:
475,192,291368,1,0,0:0:0:0:
182,192,291368,1,0,0:0:0:0:
329,192,291441,1,0,0:0:0:0:
402,192,291513,1,0,0:0:0:0:
36,192,291513,1,0,0:0:0:0:
256,192,291513,1,0,0:0:0:0:
182,192,291585,1,0,0:0:0:0:
475,192,291657,1,0,0:0:0:0:
329,192,291657,1,0,0:0:0:0:
109,192,291657,1,0,0:0:0:0:
36,192,291729,1,0,0:0:0:0:
475,192,291801,1,0,0:0:0:0:
182,192,291801,1,0,0:0:0:0:
402,192,291801,1,0,0:0:0:0:
256,192,291873,1,0,0:0:0:0:
182,192,291945,1,0,0:0:0:0:
36,192,291945,1,0,0:0:0:0:
475,192,291945,1,0,0:0:0:0:
329,192,291945,1,0,0:0:0:0:
402,192,292017,1,0,0:0:0:0:
36,192,292089,1,0,0:0:0:0:
109,192,292089,1,0,0:0:0:0:
256,192,292089,1,0,0:0:0:0:
182,192,292161,1,0,0:0:0:0:
475,192,292233,1,0,0:0:0:0:
36,192,292233,1,0,0:0:0:0:
329,192,292233,1,0,0:0:0:0:
256,192,292306,1,0,0:0:0:0:
475,192,292378,1,0,0:0:0:0:
109,192,292378,1,0,0:0:0:0:
182,192,292378,1,0,0:0:0:0:
402,192,292450,1,0,0:0:0:0:
182,192,292522,1,0,0:0:0:0:
256,192,292522,1,0,0:0:0:0:
329,192,292522,1,0,0:0:0:0:
109,192,292594,1,0,0:0:0:0:
36,192,292666,1,0,0:0:0:0:
256,192,292666,1,0,0:0:0:0:
475,192,292666,1,0,0:0:0:0:
329,192,292738,1,0,0:0:0:0:
182,192,292810,1,0,0:0:0:0:
36,192,292810,1,0,0:0:0:0:
402,192,292810,1,0,0:0:0:0:
109,192,292810,1,0,0:0:0:0:
182,192,292954,1,0,0:0:0:0:
36,192,292954,1,0,0:0:0:0:
402,192,292954,1,0,0:0:0:0:
109,192,292954,1,0,0:0:0:0:
109,192,293098,1,0,0:0:0:0:
256,192,293098,1,0,0:0:0:0:
475,192,293098,1,0,0:0:0:0:
329,192,293170,1,0,0:0:0:0:
402,192,293243,1,0,0:0:0:0:
36,192,293243,1,0,0:0:0:0:
182,192,293243,1,0,0:0:0:0:
256,192,293315,1,0,0:0:0:0:
475,192,293387,1,0,0:0:0:0:
402,192,293387,1,0,0:0:0:0:
329,192,293387,1,0,0:0:0:0:
109,192,293459,1,0,0:0:0:0:
402,192,293531,1,0,0:0:0:0:
329,192,293531,1,0,0:0:0:0:
256,192,293531,1,0,0:0:0:0:
475,192,293603,1,0,0:0:0:0:
109,192,293675,5,0,0:0:0:0:
36,192,293675,1,0,0:0:0:0:
182,192,293675,1,0,0:0:0:0:
329,192,293747,1,0,0:0:0:0:
475,192,293819,1,0,0:0:0:0:
36,192,293819,1,0,0:0:0:0:
182,192,293819,1,0,0:0:0:0:
256,192,293891,1,0,0:0:0:0:
329,192,293963,1,0,0:0:0:0:
109,192,293963,1,0,0:0:0:0:
402,192,293963,1,0,0:0:0:0:
182,192,294035,1,0,0:0:0:0:
402,192,294108,1,0,0:0:0:0:
36,192,294108,1,0,0:0:0:0:
475,192,294108,1,0,0:0:0:0:
109,192,294180,1,0,0:0:0:0:
36,192,294252,1,0,0:0:0:0:
182,192,294252,1,0,0:0:0:0:
475,192,294252,1,0,0:0:0:0:
256,192,294252,1,0,0:0:0:0:
329,192,294324,1,0,0:0:0:0:
475,192,294396,1,0,0:0:0:0:
402,192,294396,1,0,0:0:0:0:
109,192,294396,1,0,0:0:0:0:
182,192,294468,1,0,0:0:0:0:
36,192,294540,1,0,0:0:0:0:
329,192,294540,1,0,0:0:0:0:
256,192,294540,1,0,0:0:0:0:
475,192,294612,1,0,0:0:0:0:
36,192,294684,1,0,0:0:0:0:
109,192,294684,1,0,0:0:0:0:
182,192,294684,1,0,0:0:0:0:
329,192,294756,1,0,0:0:0:0:
109,192,294828,5,0,0:0:0:0:
475,192,294828,1,0,0:0:0:0:
256,192,294828,1,0,0:0:0:0:
36,192,294900,1,0,0:0:0:0:
182,192,294900,1,0,0:0:0:0:
402,192,294900,1,0,0:0:0:0:
109,192,294973,1,0,0:0:0:0:
256,192,294973,1,0,0:0:0:0:
329,192,294973,1,0,0:0:0:0:
182,192,295117,1,0,0:0:0:0:
329,192,295117,1,0,0:0:0:0:
475,192,295117,1,0,0:0:0:0:
36,192,295117,1,0,0:0:0:0:
182,192,295261,1,0,0:0:0:0:
329,192,295261,1,0,0:0:0:0:
475,192,295261,1,0,0:0:0:0:
36,192,295261,1,0,0:0:0:0:
402,192,295405,5,0,0:0:0:0:
256,192,295405,1,0,0:0:0:0:
109,192,295405,1,0,0:0:0:0:
109,192,295549,1,0,0:0:0:0:
256,192,295549,1,0,0:0:0:0:
402,192,295549,1,0,0:0:0:0:
402,192,295693,1,0,0:0:0:0:
256,192,295693,1,0,0:0:0:0:
109,192,295693,1,0,0:0:0:0:
256,192,295837,1,0,0:0:0:0:
402,192,295837,1,0,0:0:0:0:
109,192,295837,1,0,0:0:0:0:
402,192,295982,1,0,0:0:0:0:
256,192,295982,1,0,0:0:0:0:
109,192,295982,1,0,0:0:0:0:
402,192,296126,1,0,0:0:0:0:
256,192,296126,1,0,0:0:0:0:
109,192,296126,1,0,0:0:0:0:
36,192,296270,1,0,0:0:0:0:
182,192,296270,1,0,0:0:0:0:
329,192,296270,1,0,0:0:0:0:
36,192,296414,1,0,0:0:0:0:
182,192,296414,1,0,0:0:0:0:
329,192,296414,1,0,0:0:0:0:
36,192,296558,1,0,0:0:0:0:
182,192,296558,1,0,0:0:0:0:
329,192,296558,1,0,0:0:0:0:
475,192,296558,1,0,0:0:0:0:
182,192,296702,1,0,0:0:0:0:
329,192,296702,1,0,0:0:0:0:
475,192,296702,1,0,0:0:0:0:
182,192,296847,1,0,0:0:0:0:
329,192,296847,1,0,0:0:0:0:
475,192,296847,1,0,0:0:0:0:
182,192,296991,1,0,0:0:0:0:
329,192,296991,1,0,0:0:0:0:
475,192,296991,1,0,0:0:0:0:
182,192,297135,1,0,0:0:0:0:
329,192,297135,1,0,0:0:0:0:
36,192,297135,1,0,0:0:0:0:
329,192,297279,1,0,0:0:0:0:
182,192,297279,1,0,0:0:0:0:
36,192,297279,1,0,0:0:0:0:
329,192,297423,1,0,0:0:0:0:
182,192,297423,1,0,0:0:0:0:
36,192,297423,1,0,0:0:0:0:
329,192,297567,1,0,0:0:0:0:
182,192,297567,1,0,0:0:0:0:
36,192,297567,1,0,0:0:0:0:
256,192,297712,1,0,0:0:0:0:
109,192,297712,1,0,0:0:0:0:
402,192,297712,1,0,0:0:0:0:
109,192,297856,1,0,0:0:0:0:
256,192,297856,1,0,0:0:0:0:
402,192,297856,1,0,0:0:0:0:
109,192,298000,1,0,0:0:0:0:
256,192,298000,1,0,0:0:0:0:
402,192,298000,1,0,0:0:0:0:
109,192,298144,1,0,0:0:0:0:
256,192,298144,1,0,0:0:0:0:
402,192,298144,1,0,0:0:0:0:
109,192,298288,1,0,0:0:0:0:
256,192,298288,1,0,0:0:0:0:
402,192,298288,1,0,0:0:0:0:
109,192,298432,1,0,0:0:0:0:
256,192,298432,1,0,0:0:0:0:
402,192,298432,1,0,0:0:0:0:
475,192,298577,1,0,0:0:0:0:
329,192,298577,1,0,0:0:0:0:
182,192,298577,1,0,0:0:0:0:
475,192,298721,1,0,0:0:0:0:
329,192,298721,1,0,0:0:0:0:
182,192,298721,1,0,0:0:0:0:
109,192,298865,1,0,0:0:0:0:
256,192,298865,1,0,0:0:0:0:
402,192,298865,1,0,0:0:0:0:
329,192,299009,1,0,0:0:0:0:
182,192,299009,1,0,0:0:0:0:
36,192,299009,1,0,0:0:0:0:
402,192,299153,1,0,0:0:0:0:
256,192,299153,1,0,0:0:0:0:
109,192,299153,1,0,0:0:0:0:
475,192,299297,1,0,0:0:0:0:
329,192,299297,1,0,0:0:0:0:
182,192,299297,1,0,0:0:0:0:
402,192,299369,1,0,0:0:0:0:
256,192,299369,1,0,0:0:0:0:
109,192,299369,1,0,0:0:0:0:
182,192,299442,1,0,0:0:0:0:
329,192,299442,1,0,0:0:0:0:
475,192,299442,1,0,0:0:0:0:
329,192,299586,1,0,0:0:0:0:
182,192,299586,1,0,0:0:0:0:
36,192,299586,1,0,0:0:0:0:
256,192,299658,1,0,0:0:0:0:
109,192,299658,1,0,0:0:0:0:
402,192,299658,1,0,0:0:0:0:
329,192,299730,1,0,0:0:0:0:
182,192,299730,1,0,0:0:0:0:
36,192,299730,1,0,0:0:0:0:
475,192,299874,1,0,0:0:0:0:
329,192,299874,1,0,0:0:0:0:
182,192,299874,1,0,0:0:0:0:
402,192,300018,1,0,0:0:0:0:
109,192,300018,1,0,0:0:0:0:
256,192,300451,128,0,301171:0:0:0:0:
109,192,301171,1,0,0:0:0:0:
182,192,301171,1,0,0:0:0:0:
329,192,301171,1,0,0:0:0:0:
402,192,301171,1,0,0:0:0:0:
475,192,301171,1,0,0:0:0:0:
256,192,301316,1,0,0:0:0:0:
36,192,301316,1,0,0:0:0:0:
109,192,301388,1,0,0:0:0:0:
475,192,301460,1,0,0:0:0:0:
329,192,301460,1,0,0:0:0:0:
182,192,301460,1,0,0:0:0:0:
402,192,301604,1,0,0:0:0:0:
256,192,301604,1,0,0:0:0:0:
329,192,301676,1,0,0:0:0:0:
182,192,301748,1,0,0:0:0:0:
109,192,301748,1,0,0:0:0:0:
36,192,301748,1,0,0:0:0:0:
475,192,301892,1,0,0:0:0:0:
329,192,301892,1,0,0:0:0:0:
109,192,301964,1,0,0:0:0:0:
402,192,302036,1,0,0:0:0:0:
256,192,302036,1,0,0:0:0:0:
182,192,302036,1,0,0:0:0:0:
329,192,302181,1,0,0:0:0:0:
36,192,302181,1,0,0:0:0:0:
256,192,302253,1,0,0:0:0:0:
475,192,302325,1,0,0:0:0:0:
402,192,302325,1,0,0:0:0:0:
109,192,302325,1,0,0:0:0:0:
256,192,302469,1,0,0:0:0:0:
182,192,302469,1,0,0:0:0:0:
109,192,302541,1,0,0:0:0:0:
329,192,302613,1,0,0:0:0:0:
402,192,302613,1,0,0:0:0:0:
36,192,302613,1,0,0:0:0:0:
109,192,302757,1,0,0:0:0:0:
256,192,302757,1,0,0:0:0:0:
182,192,302829,1,0,0:0:0:0:
329,192,302901,1,0,0:0:0:0:
402,192,302901,1,0,0:0:0:0:
475,192,302901,1,0,0:0:0:0:
256,192,303046,1,0,0:0:0:0:
36,192,303046,1,0,0:0:0:0:
475,192,303118,1,0,0:0:0:0:
182,192,303190,1,0,0:0:0:0:
402,192,303190,1,0,0:0:0:0:
329,192,303190,1,0,0:0:0:0:
402,192,303334,1,0,0:0:0:0:
329,192,303334,1,0,0:0:0:0:
182,192,303334,1,0,0:0:0:0:
109,192,303478,1,0,0:0:0:0:
36,192,303478,1,0,0:0:0:0:
256,192,303478,1,0,0:0:0:0:
475,192,303622,1,0,0:0:0:0:
329,192,303622,1,0,0:0:0:0:
256,192,303694,1,0,0:0:0:0:
109,192,303694,1,0,0:0:0:0:
402,192,303766,1,0,0:0:0:0:
182,192,303766,1,0,0:0:0:0:
36,192,303766,1,0,0:0:0:0:
256,192,303911,1,0,0:0:0:0:
109,192,303911,1,0,0:0:0:0:
475,192,303983,1,0,0:0:0:0:
36,192,303983,1,0,0:0:0:0:
329,192,304055,1,0,0:0:0:0:
402,192,304055,1,0,0:0:0:0:
182,192,304055,1,0,0:0:0:0:
475,192,304199,1,0,0:0:0:0:
256,192,304199,1,0,0:0:0:0:
329,192,304271,1,0,0:0:0:0:
402,192,304271,1,0,0:0:0:0:
36,192,304343,1,0,0:0:0:0:
182,192,304343,1,0,0:0:0:0:
109,192,304343,1,0,0:0:0:0:
329,192,304487,1,0,0:0:0:0:
256,192,304487,1,0,0:0:0:0:
182,192,304559,1,0,0:0:0:0:
36,192,304559,1,0,0:0:0:0:
402,192,304631,1,0,0:0:0:0:
475,192,304631,1,0,0:0:0:0:
109,192,304631,1,0,0:0:0:0:
329,192,304775,1,0,0:0:0:0:
36,192,304775,1,0,0:0:0:0:
256,192,304775,1,0,0:0:0:0:
109,192,304848,1,0,0:0:0:0:
256,192,304920,1,0,0:0:0:0:
182,192,304920,1,0,0:0:0:0:
475,192,304920,1,0,0:0:0:0:
402,192,304992,1,0,0:0:0:0:
36,192,305064,1,0,0:0:0:0:
109,192,305064,1,0,0:0:0:0:
182,192,305136,1,0,0:0:0:0:
475,192,305208,1,0,0:0:0:0:
402,192,305208,1,0,0:0:0:0:
329,192,305208,1,0,0:0:0:0:
36,192,305208,1,0,0:0:0:0:
256,192,305280,1,0,0:0:0:0:
182,192,305280,1,0,0:0:0:0:
109,192,305280,1,0,0:0:0:0:
329,192,305352,1,0,0:0:0:0:
402,192,305352,1,0,0:0:0:0:
475,192,305352,1,0,0:0:0:0:
182,192,305496,1,0,0:0:0:0:
109,192,305496,1,0,0:0:0:0:
36,192,305496,1,0,0:0:0:0:
256,192,305496,1,0,0:0:0:0:
182,192,305640,1,0,0:0:0:0:
109,192,305640,1,0,0:0:0:0:
36,192,305640,1,0,0:0:0:0:
475,192,305785,1,0,0:0:0:0:
402,192,305785,1,0,0:0:0:0:
256,192,305785,1,0,0:0:0:0:
329,192,305929,1,0,0:0:0:0:
182,192,305929,1,0,0:0:0:0:
36,192,306001,1,0,0:0:0:0:
109,192,306073,1,0,0:0:0:0:
402,192,306073,1,0,0:0:0:0:
256,192,306073,1,0,0:0:0:0:
329,192,306217,1,0,0:0:0:0:
36,192,306217,1,0,0:0:0:0:
475,192,306289,1,0,0:0:0:0:
256,192,306361,1,0,0:0:0:0:
182,192,306361,1,0,0:0:0:0:
109,192,306361,1,0,0:0:0:0:
475,192,306505,1,0,0:0:0:0:
402,192,306505,1,0,0:0:0:0:
256,192,306578,1,0,0:0:0:0:
329,192,306650,1,0,0:0:0:0:
182,192,306650,1,0,0:0:0:0:
36,192,306650,1,0,0:0:0:0:
475,192,306794,1,0,0:0:0:0:
256,192,306794,1,0,0:0:0:0:
402,192,306866,1,0,0:0:0:0:
329,192,306938,1,0,0:0:0:0:
109,192,306938,1,0,0:0:0:0:
182,192,306938,1,0,0:0:0:0:
256,192,307082,1,0,0:0:0:0:
402,192,307082,1,0,0:0:0:0:
329,192,307154,1,0,0:0:0:0:
182,192,307226,1,0,0:0:0:0:
109,192,307226,1,0,0:0:0:0:
36,192,307226,1,0,0:0:0:0:
475,192,307370,1,0,0:0:0:0:
329,192,307370,1,0,0:0:0:0:
182,192,307442,1,0,0:0:0:0:
256,192,307515,1,0,0:0:0:0:
36,192,307515,1,0,0:0:0:0:
402,192,307515,1,0,0:0:0:0:
329,192,307659,1,0,0:0:0:0:
109,192,307659,1,0,0:0:0:0:
402,192,307731,1,0,0:0:0:0:
256,192,307803,1,0,0:0:0:0:
182,192,307803,1,0,0:0:0:0:
475,192,307803,1,0,0:0:0:0:
475,192,307947,1,0,0:0:0:0:
256,192,307947,1,0,0:0:0:0:
182,192,307947,1,0,0:0:0:0:
109,192,308091,1,0,0:0:0:0:
36,192,308091,1,0,0:0:0:0:
329,192,308091,1,0,0:0:0:0:
402,192,308235,1,0,0:0:0:0:
475,192,308235,1,0,0:0:0:0:
182,192,308307,1,0,0:0:0:0:
36,192,308307,1,0,0:0:0:0:
256,192,308380,1,0,0:0:0:0:
329,192,308380,1,0,0:0:0:0:
109,192,308380,1,0,0:0:0:0:
475,192,308524,1,0,0:0:0:0:
36,192,308524,1,0,0:0:0:0:
329,192,308596,1,0,0:0:0:0:
109,192,308596,1,0,0:0:0:0:
402,192,308668,1,0,0:0:0:0:
256,192,308668,1,0,0:0:0:0:
182,192,308668,1,0,0:0:0:0:
329,192,308812,1,0,0:0:0:0:
109,192,308812,1,0,0:0:0:0:
256,192,308884,1,0,0:0:0:0:
36,192,308884,1,0,0:0:0:0:
475,192,308956,1,0,0:0:0:0:
402,192,308956,1,0,0:0:0:0:
182,192,308956,1,0,0:0:0:0:
256,192,309100,1,0,0:0:0:0:
36,192,309100,1,0,0:0:0:0:
402,192,309172,1,0,0:0:0:0:
475,192,309172,1,0,0:0:0:0:
182,192,309245,1,0,0:0:0:0:
109,192,309245,1,0,0:0:0:0:
329,192,309245,1,0,0:0:0:0:
402,192,309389,1,0,0:0:0:0:
475,192,309389,1,0,0:0:0:0:
256,192,309389,1,0,0:0:0:0:
36,192,309461,1,0,0:0:0:0:
182,192,309533,1,0,0:0:0:0:
109,192,309533,1,0,0:0:0:0:
256,192,309533,1,0,0:0:0:0:
475,192,309605,1,0,0:0:0:0:
402,192,309677,1,0,0:0:0:0:
329,192,309677,1,0,0:0:0:0:
256,192,309749,1,0,0:0:0:0:
182,192,309821,1,0,0:0:0:0:
109,192,309821,1,0,0:0:0:0:
36,192,309821,1,0,0:0:0:0:
475,192,309821,1,0,0:0:0:0:
256,192,309893,1,0,0:0:0:0:
329,192,309893,1,0,0:0:0:0:
402,192,309893,1,0,0:0:0:0:
182,192,309965,1,0,0:0:0:0:
109,192,309965,1,0,0:0:0:0:
36,192,309965,1,0,0:0:0:0:
475,192,310109,1,0,0:0:0:0:
402,192,310109,1,0,0:0:0:0:
329,192,310109,1,0,0:0:0:0:
256,192,310109,1,0,0:0:0:0:
475,192,310254,1,0,0:0:0:0:
402,192,310254,1,0,0:0:0:0:
329,192,310254,1,0,0:0:0:0:
256,192,310398,1,0,0:0:0:0:
182,192,310398,1,0,0:0:0:0:
109,192,310398,1,0,0:0:0:0:
36,192,310398,1,0,0:0:0:0:
402,192,310398,1,0,0:0:0:0:
329,192,310542,1,0,0:0:0:0:
475,192,310542,1,0,0:0:0:0:
182,192,310614,1,0,0:0:0:0:
402,192,310686,1,0,0:0:0:0:
256,192,310686,1,0,0:0:0:0:
36,192,310686,1,0,0:0:0:0:
109,192,310686,1,0,0:0:0:0:
329,192,310830,1,0,0:0:0:0:
182,192,310830,1,0,0:0:0:0:
475,192,310902,1,0,0:0:0:0:
256,192,310974,1,0,0:0:0:0:
402,192,310974,1,0,0:0:0:0:
109,192,310974,1,0,0:0:0:0:
329,192,311119,1,0,0:0:0:0:
182,192,311119,1,0,0:0:0:0:
256,192,311191,1,0,0:0:0:0:
475,192,311263,1,0,0:0:0:0:
402,192,311263,1,0,0:0:0:0:
36,192,311263,1,0,0:0:0:0:
109,192,311263,1,0,0:0:0:0:
329,192,311407,1,0,0:0:0:0:
182,192,311407,1,0,0:0:0:0:
402,192,311479,1,0,0:0:0:0:
256,192,311551,1,0,0:0:0:0:
36,192,311551,1,0,0:0:0:0:
109,192,311551,1,0,0:0:0:0:
475,192,311695,1,0,0:0:0:0:
402,192,311695,1,0,0:0:0:0:
36,192,311767,1,0,0:0:0:0:
329,192,311839,1,0,0:0:0:0:
256,192,311839,1,0,0:0:0:0:
182,192,311839,1,0,0:0:0:0:
109,192,311839,1,0,0:0:0:0:
402,192,311984,1,0,0:0:0:0:
36,192,311984,1,0,0:0:0:0:
256,192,312056,1,0,0:0:0:0:
329,192,312128,1,0,0:0:0:0:
182,192,312128,1,0,0:0:0:0:
475,192,312128,1,0,0:0:0:0:
256,192,312272,1,0,0:0:0:0:
109,192,312272,1,0,0:0:0:0:
475,192,312344,1,0,0:0:0:0:
182,192,312416,1,0,0:0:0:0:
36,192,312416,1,0,0:0:0:0:
329,192,312416,1,0,0:0:0:0:
402,192,312416,1,0,0:0:0:0:
329,192,312560,1,0,0:0:0:0:
182,192,312560,1,0,0:0:0:0:
36,192,312560,1,0,0:0:0:0:
475,192,312704,1,0,0:0:0:0:
402,192,312704,1,0,0:0:0:0:
256,192,312704,1,0,0:0:0:0:
182,192,312849,1,0,0:0:0:0:
36,192,312849,1,0,0:0:0:0:
402,192,312921,1,0,0:0:0:0:
475,192,312993,1,0,0:0:0:0:
329,192,312993,1,0,0:0:0:0:
109,192,312993,1,0,0:0:0:0:
256,192,312993,1,0,0:0:0:0:
402,192,313137,1,0,0:0:0:0:
182,192,313137,1,0,0:0:0:0:
109,192,313209,1,0,0:0:0:0:
329,192,313281,1,0,0:0:0:0:
256,192,313281,1,0,0:0:0:0:
36,192,313281,1,0,0:0:0:0:
402,192,313425,1,0,0:0:0:0:
109,192,313425,1,0,0:0:0:0:
329,192,313497,1,0,0:0:0:0:
182,192,313569,1,0,0:0:0:0:
256,192,313569,1,0,0:0:0:0:
475,192,313569,1,0,0:0:0:0:
36,192,313569,1,0,0:0:0:0:
329,192,313714,1,0,0:0:0:0:
402,192,313714,1,0,0:0:0:0:
256,192,313786,1,0,0:0:0:0:
182,192,313858,1,0,0:0:0:0:
109,192,313858,1,0,0:0:0:0:
36,192,313858,1,0,0:0:0:0:
329,192,314002,1,0,0:0:0:0:
256,192,314002,1,0,0:0:0:0:
36,192,314074,1,0,0:0:0:0:
402,192,314146,1,0,0:0:0:0:
475,192,314146,1,0,0:0:0:0:
182,192,314146,1,0,0:0:0:0:
109,192,314146,1,0,0:0:0:0:
329,192,314290,1,0,0:0:0:0:
256,192,314290,1,0,0:0:0:0:
182,192,314362,1,0,0:0:0:0:
402,192,314434,1,0,0:0:0:0:
475,192,314434,1,0,0:0:0:0:
36,192,314434,1,0,0:0:0:0:
329,192,314506,1,0,0:0:0:0:
256,192,314506,1,0,0:0:0:0:
182,192,314506,1,0,0:0:0:0:
109,192,314578,1,0,0:0:0:0:
36,192,314578,1,0,0:0:0:0:
402,192,314578,1,0,0:0:0:0:
256,192,314723,1,0,0:0:0:0:
402,192,314723,1,0,0:0:0:0:
475,192,314723,1,0,0:0:0:0:
36,192,314723,1,0,0:0:0:0:
475,192,314867,1,0,0:0:0:0:
256,192,314867,1,0,0:0:0:0:
36,192,314867,1,0,0:0:0:0:
329,192,315011,1,0,0:0:0:0:
109,192,315011,1,0,0:0:0:0:
182,192,315011,1,0,0:0:0:0:
402,192,315155,1,0,0:0:0:0:
256,192,315155,1,0,0:0:0:0:
329,192,315227,1,0,0:0:0:0:
182,192,315299,1,0,0:0:0:0:
109,192,315299,1,0,0:0:0:0:
36,192,315299,1,0,0:0:0:0:
475,192,315299,1,0,0:0:0:0:
402,192,315443,1,0,0:0:0:0:
329,192,315443,1,0,0:0:0:0:
36,192,315516,1,0,0:0:0:0:
256,192,315588,1,0,0:0:0:0:
182,192,315588,1,0,0:0:0:0:
109,192,315588,1,0,0:0:0:0:
475,192,315732,1,0,0:0:0:0:
329,192,315732,1,0,0:0:0:0:
182,192,315804,1,0,0:0:0:0:
256,192,315876,1,0,0:0:0:0:
36,192,315876,1,0,0:0:0:0:
109,192,315876,1,0,0:0:0:0:
402,192,315876,1,0,0:0:0:0:
329,192,316020,1,0,0:0:0:0:
182,192,316020,1,0,0:0:0:0:
402,192,316092,1,0,0:0:0:0:
109,192,316164,1,0,0:0:0:0:
256,192,316164,1,0,0:0:0:0:
475,192,316164,1,0,0:0:0:0:
402,192,316308,1,0,0:0:0:0:
182,192,316308,1,0,0:0:0:0:
475,192,316380,1,0,0:0:0:0:
329,192,316453,1,0,0:0:0:0:
256,192,316453,1,0,0:0:0:0:
36,192,316453,1,0,0:0:0:0:
109,192,316453,1,0,0:0:0:0:
475,192,316597,1,0,0:0:0:0:
182,192,316597,1,0,0:0:0:0:
109,192,316669,1,0,0:0:0:0:
256,192,316741,1,0,0:0:0:0:
402,192,316741,1,0,0:0:0:0:
329,192,316741,1,0,0:0:0:0:
182,192,316885,1,0,0:0:0:0:
36,192,316885,1,0,0:0:0:0:
109,192,316957,1,0,0:0:0:0:
475,192,317029,1,0,0:0:0:0:
402,192,317029,1,0,0:0:0:0:
256,192,317029,1,0,0:0:0:0:
329,192,317029,1,0,0:0:0:0:
402,192,317173,1,0,0:0:0:0:
329,192,317173,1,0,0:0:0:0:
475,192,317173,1,0,0:0:0:0:
182,192,317318,1,0,0:0:0:0:
109,192,317318,1,0,0:0:0:0:
36,192,317318,1,0,0:0:0:0:
475,192,317462,1,0,0:0:0:0:
256,192,317462,1,0,0:0:0:0:
109,192,317534,1,0,0:0:0:0:
329,192,317606,1,0,0:0:0:0:
402,192,317606,1,0,0:0:0:0:
36,192,317606,1,0,0:0:0:0:
182,192,317606,1,0,0:0:0:0:
256,192,317750,1,0,0:0:0:0:
109,192,317750,1,0,0:0:0:0:
36,192,317822,1,0,0:0:0:0:
182,192,317894,1,0,0:0:0:0:
329,192,317894,1,0,0:0:0:0:
475,192,317894,1,0,0:0:0:0:
402,192,318038,1,0,0:0:0:0:
256,192,318038,1,0,0:0:0:0:
475,192,318110,1,0,0:0:0:0:
182,192,318183,1,0,0:0:0:0:
109,192,318183,1,0,0:0:0:0:
36,192,318183,1,0,0:0:0:0:
329,192,318183,1,0,0:0:0:0:
475,192,318327,1,0,0:0:0:0:
402,192,318327,1,0,0:0:0:0:
36,192,318399,1,0,0:0:0:0:
256,192,318471,1,0,0:0:0:0:
182,192,318471,1,0,0:0:0:0:
109,192,318471,1,0,0:0:0:0:
329,192,318615,1,0,0:0:0:0:
402,192,318615,1,0,0:0:0:0:
256,192,318687,1,0,0:0:0:0:
109,192,318759,1,0,0:0:0:0:
36,192,318759,1,0,0:0:0:0:
475,192,318759,1,0,0:0:0:0:
109,192,318903,1,0,0:0:0:0:
36,192,318903,1,0,0:0:0:0:
475,192,318903,1,0,0:0:0:0:
182,192,319047,1,0,0:0:0:0:
329,192,319047,1,0,0:0:0:0:
256,192,319047,1,0,0:0:0:0:
402,192,319047,1,0,0:0:0:0:
109,192,319192,1,0,0:0:0:0:
475,192,319192,1,0,0:0:0:0:
182,192,319336,1,0,0:0:0:0:
36,192,319336,1,0,0:0:0:0:
256,192,319336,1,0,0:0:0:0:
402,192,319480,1,0,0:0:0:0:
329,192,319516,1,0,0:0:0:0:
256,192,319552,1,0,0:0:0:0:
182,192,319588,1,0,0:0:0:0:
109,192,319624,1,0,0:0:0:0:
36,192,319624,1,0,0:0:0:0:
329,192,319624,1,0,0:0:0:0:
402,192,319624,1,0,0:0:0:0:
475,192,319624,1,0,0:0:0:0:
36,192,319768,1,0,0:0:0:0:
256,192,319768,1,0,0:0:0:0:
109,192,319840,1,0,0:0:0:0:
182,192,319912,1,0,0:0:0:0:
329,192,319912,1,0,0:0:0:0:
475,192,319912,1,0,0:0:0:0:
256,192,320057,1,0,0:0:0:0:
402,192,320057,1,0,0:0:0:0:
329,192,320129,1,0,0:0:0:0:
36,192,320201,1,0,0:0:0:0:
109,192,320201,1,0,0:0:0:0:
182,192,320201,1,0,0:0:0:0:
329,192,320345,1,0,0:0:0:0:
475,192,320345,1,0,0:0:0:0:
109,192,320417,1,0,0:0:0:0:
182,192,320489,1,0,0:0:0:0:
256,192,320489,1,0,0:0:0:0:
402,192,320489,1,0,0:0:0:0:
36,192,320633,1,0,0:0:0:0:
329,192,320633,1,0,0:0:0:0:
256,192,320705,1,0,0:0:0:0:
109,192,320777,1,0,0:0:0:0:
402,192,320777,1,0,0:0:0:0:
475,192,320777,1,0,0:0:0:0:
182,192,320922,1,0,0:0:0:0:
256,192,320922,1,0,0:0:0:0:
109,192,320994,1,0,0:0:0:0:
36,192,321066,1,0,0:0:0:0:
402,192,321066,1,0,0:0:0:0:
329,192,321066,1,0,0:0:0:0:
256,192,321210,1,0,0:0:0:0:
109,192,321210,1,0,0:0:0:0:
182,192,321282,1,0,0:0:0:0:
475,192,321354,1,0,0:0:0:0:
402,192,321354,1,0,0:0:0:0:
329,192,321354,1,0,0:0:0:0:
36,192,321498,1,0,0:0:0:0:
256,192,321498,1,0,0:0:0:0:
475,192,321570,1,0,0:0:0:0:
329,192,321642,1,0,0:0:0:0:
402,192,321642,1,0,0:0:0:0:
182,192,321642,1,0,0:0:0:0:
182,192,321787,1,0,0:0:0:0:
329,192,321787,1,0,0:0:0:0:
402,192,321787,1,0,0:0:0:0:
256,192,321931,1,0,0:0:0:0:
36,192,321931,1,0,0:0:0:0:
109,192,321931,1,0,0:0:0:0:
329,192,322075,1,0,0:0:0:0:
475,192,322075,1,0,0:0:0:0:
256,192,322147,1,0,0:0:0:0:
109,192,322147,1,0,0:0:0:0:
36,192,322219,1,0,0:0:0:0:
182,192,322219,1,0,0:0:0:0:
402,192,322219,1,0,0:0:0:0:
109,192,322363,1,0,0:0:0:0:
256,192,322363,1,0,0:0:0:0:
475,192,322435,1,0,0:0:0:0:
36,192,322435,1,0,0:0:0:0:
182,192,322507,1,0,0:0:0:0:
402,192,322507,1,0,0:0:0:0:
329,192,322507,1,0,0:0:0:0:
256,192,322652,1,0,0:0:0:0:
475,192,322652,1,0,0:0:0:0:
329,192,322724,1,0,0:0:0:0:
402,192,322724,1,0,0:0:0:0:
109,192,322796,1,0,0:0:0:0:
182,192,322796,1,0,0:0:0:0:
36,192,322796,1,0,0:0:0:0:
256,192,322940,1,0,0:0:0:0:
329,192,322940,1,0,0:0:0:0:
182,192,323012,1,0,0:0:0:0:
36,192,323012,1,0,0:0:0:0:
109,192,323084,1,0,0:0:0:0:
475,192,323084,1,0,0:0:0:0:
402,192,323084,1,0,0:0:0:0:
36,192,323228,1,0,0:0:0:0:
329,192,323228,1,0,0:0:0:0:
256,192,323228,1,0,0:0:0:0:
109,192,323300,1,0,0:0:0:0:
475,192,323372,1,0,0:0:0:0:
182,192,323372,1,0,0:0:0:0:
256,192,323372,1,0,0:0:0:0:
402,192,323444,1,0,0:0:0:0:
109,192,323516,1,0,0:0:0:0:
36,192,323516,1,0,0:0:0:0:
182,192,323589,1,0,0:0:0:0:
329,192,323661,1,0,0:0:0:0:
402,192,323661,1,0,0:0:0:0:
475,192,323661,1,0,0:0:0:0:
36,192,323661,1,0,0:0:0:0:
109,192,323733,1,0,0:0:0:0:
182,192,323733,1,0,0:0:0:0:
256,192,323733,1,0,0:0:0:0:
475,192,323805,1,0,0:0:0:0:
402,192,323805,1,0,0:0:0:0:
329,192,323805,1,0,0:0:0:0:
36,192,323949,1,0,0:0:0:0:
109,192,323949,1,0,0:0:0:0:
182,192,323949,1,0,0:0:0:0:
256,192,323949,1,0,0:0:0:0:
36,192,324093,1,0,0:0:0:0:
109,192,324093,1,0,0:0:0:0:
182,192,324093,1,0,0:0:0:0:
256,192,324237,1,0,0:0:0:0:
402,192,324237,1,0,0:0:0:0:
475,192,324237,1,0,0:0:0:0:
182,192,324381,1,0,0:0:0:0:
329,192,324381,1,0,0:0:0:0:
36,192,324454,1,0,0:0:0:0:
256,192,324526,1,0,0:0:0:0:
402,192,324526,1,0,0:0:0:0:
109,192,324526,1,0,0:0:0:0:
36,192,324670,1,0,0:0:0:0:
329,192,324670,1,0,0:0:0:0:
475,192,324742,1,0,0:0:0:0:
109,192,324814,1,0,0:0:0:0:
182,192,324814,1,0,0:0:0:0:
256,192,324814,1,0,0:0:0:0:
402,192,324958,1,0,0:0:0:0:
475,192,324958,1,0,0:0:0:0:
256,192,325030,1,0,0:0:0:0:
36,192,325102,1,0,0:0:0:0:
182,192,325102,1,0,0:0:0:0:
329,192,325102,1,0,0:0:0:0:
256,192,325246,1,0,0:0:0:0:
475,192,325246,1,0,0:0:0:0:
402,192,325319,1,0,0:0:0:0:
182,192,325391,1,0,0:0:0:0:
109,192,325391,1,0,0:0:0:0:
329,192,325391,1,0,0:0:0:0:
402,192,325535,1,0,0:0:0:0:
256,192,325535,1,0,0:0:0:0:
329,192,325607,1,0,0:0:0:0:
36,192,325679,1,0,0:0:0:0:
109,192,325679,1,0,0:0:0:0:
182,192,325679,1,0,0:0:0:0:
329,192,325823,1,0,0:0:0:0:
475,192,325823,1,0,0:0:0:0:
182,192,325895,1,0,0:0:0:0:
402,192,325967,1,0,0:0:0:0:
36,192,325967,1,0,0:0:0:0:
256,192,325967,1,0,0:0:0:0:
109,192,326111,1,0,0:0:0:0:
329,192,326111,1,0,0:0:0:0:
402,192,326183,1,0,0:0:0:0:
475,192,326256,1,0,0:0:0:0:
182,192,326256,1,0,0:0:0:0:
256,192,326256,1,0,0:0:0:0:
182,192,326400,1,0,0:0:0:0:
256,192,326400,1,0,0:0:0:0:
475,192,326400,1,0,0:0:0:0:
329,192,326544,1,0,0:0:0:0:
36,192,326544,1,0,0:0:0:0:
109,192,326544,1,0,0:0:0:0:
475,192,326688,1,0,0:0:0:0:
402,192,326688,1,0,0:0:0:0:
182,192,326760,1,0,0:0:0:0:
36,192,326760,1,0,0:0:0:0:
109,192,326832,1,0,0:0:0:0:
329,192,326832,1,0,0:0:0:0:
256,192,326832,1,0,0:0:0:0:
36,192,326976,1,0,0:0:0:0:
475,192,326976,1,0,0:0:0:0:
329,192,327048,1,0,0:0:0:0:
109,192,327048,1,0,0:0:0:0:
182,192,327121,1,0,0:0:0:0:
256,192,327121,1,0,0:0:0:0:
402,192,327121,1,0,0:0:0:0:
109,192,327265,1,0,0:0:0:0:
329,192,327265,1,0,0:0:0:0:
256,192,327337,1,0,0:0:0:0:
36,192,327337,1,0,0:0:0:0:
182,192,327409,1,0,0:0:0:0:
402,192,327409,1,0,0:0:0:0:
475,192,327409,1,0,0:0:0:0:
36,192,327553,1,0,0:0:0:0:
256,192,327553,1,0,0:0:0:0:
402,192,327625,1,0,0:0:0:0:
475,192,327625,1,0,0:0:0:0:
329,192,327697,1,0,0:0:0:0:
109,192,327697,1,0,0:0:0:0:
182,192,327697,1,0,0:0:0:0:
475,192,327841,1,0,0:0:0:0:
402,192,327841,1,0,0:0:0:0:
256,192,327841,1,0,0:0:0:0:
36,192,327913,1,0,0:0:0:0:
256,192,327985,1,0,0:0:0:0:
109,192,327985,1,0,0:0:0:0:
182,192,327985,1,0,0:0:0:0:
475,192,328058,1,0,0:0:0:0:
329,192,328130,1,0,0:0:0:0:
402,192,328130,1,0,0:0:0:0:
256,192,328202,1,0,0:0:0:0:
36,192,328274,1,0,0:0:0:0:
109,192,328274,1,0,0:0:0:0:
182,192,328274,1,0,0:0:0:0:
475,192,328274,1,0,0:0:0:0:
402,192,328346,1,0,0:0:0:0:
329,192,328346,1,0,0:0:0:0:
256,192,328346,1,0,0:0:0:0:
36,192,328418,1,0,0:0:0:0:
109,192,328418,1,0,0:0:0:0:
182,192,328418,1,0,0:0:0:0:
329,192,328562,1,0,0:0:0:0:
402,192,328562,1,0,0:0:0:0:
475,192,328562,1,0,0:0:0:0:
256,192,328562,1,0,0:0:0:0:
329,192,328706,1,0,0:0:0:0:
402,192,328706,1,0,0:0:0:0:
475,192,328706,1,0,0:0:0:0:
109,192,328850,1,0,0:0:0:0:
36,192,328850,1,0,0:0:0:0:
256,192,328850,1,0,0:0:0:0:
182,192,328850,1,0,0:0:0:0:
402,192,328850,1,0,0:0:0:0:
475,192,328995,1,0,0:0:0:0:
329,192,328995,1,0,0:0:0:0:
182,192,329067,1,0,0:0:0:0:
36,192,329139,1,0,0:0:0:0:
109,192,329139,1,0,0:0:0:0:
402,192,329139,1,0,0:0:0:0:
256,192,329139,1,0,0:0:0:0:
182,192,329283,1,0,0:0:0:0:
329,192,329283,1,0,0:0:0:0:
475,192,329355,1,0,0:0:0:0:
109,192,329427,1,0,0:0:0:0:
402,192,329427,1,0,0:0:0:0:
256,192,329427,1,0,0:0:0:0:
182,192,329571,1,0,0:0:0:0:
329,192,329571,1,0,0:0:0:0:
256,192,329643,1,0,0:0:0:0:
36,192,329715,1,0,0:0:0:0:
109,192,329715,1,0,0:0:0:0:
475,192,329715,1,0,0:0:0:0:
402,192,329715,1,0,0:0:0:0:
182,192,329860,1,0,0:0:0:0:
329,192,329860,1,0,0:0:0:0:
402,192,329932,1,0,0:0:0:0:
109,192,330004,1,0,0:0:0:0:
36,192,330004,1,0,0:0:0:0:
256,192,330004,1,0,0:0:0:0:
402,192,330148,1,0,0:0:0:0:
475,192,330148,1,0,0:0:0:0:
36,192,330220,1,0,0:0:0:0:
182,192,330292,1,0,0:0:0:0:
109,192,330292,1,0,0:0:0:0:
329,192,330292,1,0,0:0:0:0:
256,192,330292,1,0,0:0:0:0:
36,192,330436,1,0,0:0:0:0:
402,192,330436,1,0,0:0:0:0:
256,192,330508,1,0,0:0:0:0:
475,192,330580,1,0,0:0:0:0:
182,192,330580,1,0,0:0:0:0:
329,192,330580,1,0,0:0:0:0:
109,192,330725,1,0,0:0:0:0:
256,192,330725,1,0,0:0:0:0:
475,192,330797,1,0,0:0:0:0:
329,192,330869,1,0,0:0:0:0:
402,192,330869,1,0,0:0:0:0:
182,192,330869,1,0,0:0:0:0:
36,192,330869,1,0,0:0:0:0:
36,192,331013,1,0,0:0:0:0:
182,192,331013,1,0,0:0:0:0:
329,192,331013,1,0,0:0:0:0:
256,192,331157,1,0,0:0:0:0:
402,192,331157,1,0,0:0:0:0:
475,192,331157,1,0,0:0:0:0:
36,192,331301,1,0,0:0:0:0:
182,192,331301,1,0,0:0:0:0:
402,192,331373,1,0,0:0:0:0:
109,192,331445,1,0,0:0:0:0:
256,192,331445,1,0,0:0:0:0:
475,192,331445,1,0,0:0:0:0:
329,192,331445,1,0,0:0:0:0:
182,192,331590,1,0,0:0:0:0:
402,192,331590,1,0,0:0:0:0:
109,192,331662,1,0,0:0:0:0:
36,192,331734,1,0,0:0:0:0:
256,192,331734,1,0,0:0:0:0:
329,192,331734,1,0,0:0:0:0:
109,192,331878,1,0,0:0:0:0:
402,192,331878,1,0,0:0:0:0:
329,192,331950,1,0,0:0:0:0:
475,192,332022,1,0,0:0:0:0:
36,192,332022,1,0,0:0:0:0:
182,192,332022,1,0,0:0:0:0:
256,192,332022,1,0,0:0:0:0:
402,192,332166,1,0,0:0:0:0:
329,192,332166,1,0,0:0:0:0:
256,192,332238,1,0,0:0:0:0:
36,192,332310,1,0,0:0:0:0:
109,192,332310,1,0,0:0:0:0:
182,192,332310,1,0,0:0:0:0:
256,192,332454,1,0,0:0:0:0:
329,192,332454,1,0,0:0:0:0:
36,192,332527,1,0,0:0:0:0:
182,192,332599,1,0,0:0:0:0:
109,192,332599,1,0,0:0:0:0:
402,192,332599,1,0,0:0:0:0:
475,192,332599,1,0,0:0:0:0:
256,192,332743,1,0,0:0:0:0:
329,192,332743,1,0,0:0:0:0:
182,192,332815,1,0,0:0:0:0:
36,192,332887,1,0,0:0:0:0:
475,192,332887,1,0,0:0:0:0:
402,192,332887,1,0,0:0:0:0:
182,192,332959,1,0,0:0:0:0:
256,192,332959,1,0,0:0:0:0:
329,192,332959,1,0,0:0:0:0:
402,192,333031,1,0,0:0:0:0:
36,192,333031,1,0,0:0:0:0:
109,192,333031,1,0,0:0:0:0:
475,192,333175,1,0,0:0:0:0:
36,192,333175,1,0,0:0:0:0:
256,192,333175,1,0,0:0:0:0:
402,192,333175,1,0,0:0:0:0:
36,192,333319,1,0,0:0:0:0:
256,192,333319,1,0,0:0:0:0:
475,192,333319,1,0,0:0:0:0:
182,192,333464,1,0,0:0:0:0:
109,192,333464,1,0,0:0:0:0:
329,192,333464,1,0,0:0:0:0:
256,192,333608,1,0,0:0:0:0:
402,192,333608,1,0,0:0:0:0:
329,192,333680,1,0,0:0:0:0:
36,192,333752,1,0,0:0:0:0:
475,192,333752,1,0,0:0:0:0:
182,192,333752,1,0,0:0:0:0:
109,192,333752,1,0,0:0:0:0:
329,192,333896,1,0,0:0:0:0:
402,192,333896,1,0,0:0:0:0:
36,192,333968,1,0,0:0:0:0:
109,192,334040,1,0,0:0:0:0:
182,192,334040,1,0,0:0:0:0:
256,192,334040,1,0,0:0:0:0:
329,192,334184,1,0,0:0:0:0:
475,192,334184,1,0,0:0:0:0:
182,192,334257,1,0,0:0:0:0:
109,192,334329,1,0,0:0:0:0:
402,192,334329,1,0,0:0:0:0:
256,192,334329,1,0,0:0:0:0:
36,192,334329,1,0,0:0:0:0:
182,192,334473,1,0,0:0:0:0:
329,192,334473,1,0,0:0:0:0:
402,192,334545,1,0,0:0:0:0:
475,192,334617,5,0,0:0:0:0:
256,192,334617,1,0,0:0:0:0:
109,192,334617,1,0,0:0:0:0:
182,192,334761,1,0,0:0:0:0:
402,192,334761,1,0,0:0:0:0:
475,192,334833,1,0,0:0:0:0:
36,192,334905,1,0,0:0:0:0:
109,192,334905,1,0,0:0:0:0:
329,192,334905,1,0,0:0:0:0:
256,192,334905,1,0,0:0:0:0:
182,192,335049,1,0,0:0:0:0:
475,192,335049,1,0,0:0:0:0:
109,192,335121,1,0,0:0:0:0:
329,192,335194,1,0,0:0:0:0:
402,192,335194,1,0,0:0:0:0:
256,192,335194,1,0,0:0:0:0:
36,192,335338,1,0,0:0:0:0:
182,192,335338,1,0,0:0:0:0:
109,192,335410,1,0,0:0:0:0:
256,192,335482,1,0,0:0:0:0:
329,192,335482,1,0,0:0:0:0:
475,192,335482,1,0,0:0:0:0:
402,192,335482,1,0,0:0:0:0:
475,192,335626,1,0,0:0:0:0:
329,192,335626,1,0,0:0:0:0:
402,192,335626,1,0,0:0:0:0:
36,192,335770,1,0,0:0:0:0:
109,192,335770,1,0,0:0:0:0:
182,192,335770,1,0,0:0:0:0:
256,192,335770,1,0,0:0:0:0:
475,192,335770,1,0,0:0:0:0:
329,192,335914,1,0,0:0:0:0:
256,192,336059,1,0,0:0:0:0:
182,192,336203,1,0,0:0:0:0:
256,192,336347,1,0,0:0:0:0:
402,192,336491,1,0,0:0:0:0:
256,192,336635,1,0,0:0:0:0:
109,192,336779,1,0,0:0:0:0:
256,192,336924,1,0,0:0:0:0:
36,192,336924,1,0,0:0:0:0:
402,192,336924,1,0,0:0:0:0:
475,192,337068,1,0,0:0:0:0:
182,192,337212,1,0,0:0:0:0:
109,192,337212,1,0,0:0:0:0:
256,192,337284,1,0,0:0:0:0:
329,192,337356,1,0,0:0:0:0:
402,192,337428,1,0,0:0:0:0:
109,192,337500,1,0,0:0:0:0:
36,192,337500,1,0,0:0:0:0:
475,192,337572,1,0,0:0:0:0:
329,192,337572,1,0,0:0:0:0:
109,192,337644,1,0,0:0:0:0:
36,192,337644,1,0,0:0:0:0:
402,192,337788,1,0,0:0:0:0:
475,192,337788,1,0,0:0:0:0:
256,192,337788,1,0,0:0:0:0:
109,192,337933,1,0,0:0:0:0:
329,192,337933,1,0,0:0:0:0:
182,192,337933,1,0,0:0:0:0:
475,192,338077,1,0,0:0:0:0:
36,192,338077,1,0,0:0:0:0:
402,192,338077,1,0,0:0:0:0:
256,192,338077,1,0,0:0:0:0:
109,192,338077,1,0,0:0:0:0:
329,192,338149,1,0,0:0:0:0:
182,192,338221,1,0,0:0:0:0:
36,192,338221,1,0,0:0:0:0:
256,192,338293,1,0,0:0:0:0:
109,192,338365,1,0,0:0:0:0:
402,192,338365,1,0,0:0:0:0:
475,192,338365,1,0,0:0:0:0:
182,192,338437,1,0,0:0:0:0:
256,192,338509,1,0,0:0:0:0:
36,192,338509,1,0,0:0:0:0:
329,192,338581,1,0,0:0:0:0:
36,192,338653,1,0,0:0:0:0:
475,192,338653,1,0,0:0:0:0:
402,192,338653,1,0,0:0:0:0:
182,192,338726,1,0,0:0:0:0:
109,192,338798,1,0,0:0:0:0:
329,192,338798,1,0,0:0:0:0:
256,192,338870,1,0,0:0:0:0:
182,192,338942,1,0,0:0:0:0:
36,192,338942,1,0,0:0:0:0:
402,192,338942,1,0,0:0:0:0:
329,192,339014,1,0,0:0:0:0:
109,192,339086,1,0,0:0:0:0:
256,192,339086,1,0,0:0:0:0:
36,192,339158,1,0,0:0:0:0:
475,192,339230,1,0,0:0:0:0:
402,192,339230,1,0,0:0:0:0:
182,192,339230,1,0,0:0:0:0:
329,192,339302,1,0,0:0:0:0:
256,192,339374,1,0,0:0:0:0:
475,192,339374,1,0,0:0:0:0:
182,192,339446,1,0,0:0:0:0:
402,192,339518,1,0,0:0:0:0:
36,192,339518,1,0,0:0:0:0:
109,192,339518,1,0,0:0:0:0:
329,192,339590,1,0,0:0:0:0:
36,192,339663,1,0,0:0:0:0:
256,192,339663,1,0,0:0:0:0:
109,192,339735,1,0,0:0:0:0:
475,192,339807,1,0,0:0:0:0:
402,192,339807,1,0,0:0:0:0:
182,192,339807,1,0,0:0:0:0:
329,192,339879,1,0,0:0:0:0:
256,192,339951,1,0,0:0:0:0:
36,192,339951,1,0,0:0:0:0:
109,192,340023,1,0,0:0:0:0:
182,192,340095,1,0,0:0:0:0:
329,192,340095,1,0,0:0:0:0:
475,192,340095,1,0,0:0:0:0:
329,192,340239,1,0,0:0:0:0:
182,192,340239,1,0,0:0:0:0:
475,192,340239,1,0,0:0:0:0:
36,192,340383,1,0,0:0:0:0:
256,192,340383,1,0,0:0:0:0:
109,192,340383,1,0,0:0:0:0:
329,192,340455,1,0,0:0:0:0:
402,192,340528,1,0,0:0:0:0:
182,192,340528,1,0,0:0:0:0:
256,192,340600,1,0,0:0:0:0:
475,192,340600,1,0,0:0:0:0:
329,192,340672,1,0,0:0:0:0:
109,192,340672,1,0,0:0:0:0:
36,192,340672,1,0,0:0:0:0:
182,192,340744,1,0,0:0:0:0:
402,192,340816,1,0,0:0:0:0:
475,192,340816,1,0,0:0:0:0:
329,192,340888,1,0,0:0:0:0:
182,192,340888,1,0,0:0:0:0:
256,192,340960,1,0,0:0:0:0:
36,192,340960,1,0,0:0:0:0:
475,192,340960,1,0,0:0:0:0:
109,192,341032,1,0,0:0:0:0:
182,192,341104,1,0,0:0:0:0:
402,192,341104,1,0,0:0:0:0:
256,192,341176,1,0,0:0:0:0:
36,192,341176,1,0,0:0:0:0:
329,192,341248,1,0,0:0:0:0:
402,192,341248,1,0,0:0:0:0:
475,192,341248,1,0,0:0:0:0:
109,192,341320,1,0,0:0:0:0:
182,192,341393,1,0,0:0:0:0:
36,192,341393,1,0,0:0:0:0:
256,192,341465,1,0,0:0:0:0:
329,192,341465,1,0,0:0:0:0:
109,192,341537,1,0,0:0:0:0:
475,192,341537,1,0,0:0:0:0:
402,192,341537,1,0,0:0:0:0:
329,192,341609,1,0,0:0:0:0:
256,192,341681,1,0,0:0:0:0:
36,192,341681,1,0,0:0:0:0:
402,192,341681,1,0,0:0:0:0:
182,192,341753,1,0,0:0:0:0:
36,192,341825,1,0,0:0:0:0:
109,192,341825,1,0,0:0:0:0:
475,192,341825,1,0,0:0:0:0:
402,192,341897,1,0,0:0:0:0:
329,192,341969,1,0,0:0:0:0:
182,192,341969,1,0,0:0:0:0:
256,192,342041,1,0,0:0:0:0:
329,192,342113,1,0,0:0:0:0:
475,192,342113,1,0,0:0:0:0:
402,192,342113,1,0,0:0:0:0:
182,192,342185,1,0,0:0:0:0:
36,192,342185,1,0,0:0:0:0:
109,192,342185,1,0,0:0:0:0:
329,192,342257,1,0,0:0:0:0:
475,192,342257,1,0,0:0:0:0:
402,192,342257,1,0,0:0:0:0:
182,192,342402,1,0,0:0:0:0:
109,192,342402,1,0,0:0:0:0:
36,192,342402,1,0,0:0:0:0:
256,192,342402,1,0,0:0:0:0:
182,192,342546,1,0,0:0:0:0:
109,192,342546,1,0,0:0:0:0:
36,192,342546,1,0,0:0:0:0:
475,192,342690,1,0,0:0:0:0:
256,192,342690,1,0,0:0:0:0:
36,192,342690,1,0,0:0:0:0:
402,192,342762,1,0,0:0:0:0:
329,192,342834,1,0,0:0:0:0:
182,192,342834,1,0,0:0:0:0:
109,192,342906,1,0,0:0:0:0:
256,192,342978,1,0,0:0:0:0:
475,192,342978,1,0,0:0:0:0:
36,192,342978,1,0,0:0:0:0:
329,192,343050,1,0,0:0:0:0:
402,192,343122,1,0,0:0:0:0:
109,192,343122,1,0,0:0:0:0:
182,192,343195,1,0,0:0:0:0:
256,192,343267,1,0,0:0:0:0:
36,192,343267,1,0,0:0:0:0:
329,192,343267,1,0,0:0:0:0:
402,192,343339,1,0,0:0:0:0:
475,192,343411,1,0,0:0:0:0:
109,192,343411,1,0,0:0:0:0:
182,192,343483,1,0,0:0:0:0:
475,192,343555,1,0,0:0:0:0:
256,192,343555,1,0,0:0:0:0:
36,192,343555,1,0,0:0:0:0:
402,192,343627,1,0,0:0:0:0:
329,192,343699,1,0,0:0:0:0:
256,192,343699,1,0,0:0:0:0:
182,192,343771,1,0,0:0:0:0:
36,192,343843,1,0,0:0:0:0:
402,192,343843,1,0,0:0:0:0:
109,192,343843,1,0,0:0:0:0:
329,192,343915,1,0,0:0:0:0:
256,192,343987,1,0,0:0:0:0:
36,192,343987,1,0,0:0:0:0:
182,192,344059,1,0,0:0:0:0:
109,192,344132,1,0,0:0:0:0:
475,192,344132,1,0,0:0:0:0:
402,192,344132,1,0,0:0:0:0:
329,192,344204,1,0,0:0:0:0:
256,192,344276,1,0,0:0:0:0:
36,192,344276,1,0,0:0:0:0:
109,192,344348,1,0,0:0:0:0:
182,192,344420,1,0,0:0:0:0:
329,192,344420,1,0,0:0:0:0:
475,192,344420,1,0,0:0:0:0:
256,192,344492,1,0,0:0:0:0:
109,192,344564,1,0,0:0:0:0:
36,192,344564,1,0,0:0:0:0:
182,192,344636,1,0,0:0:0:0:
475,192,344708,1,0,0:0:0:0:
402,192,344708,1,0,0:0:0:0:
329,192,344708,1,0,0:0:0:0:
475,192,344852,1,0,0:0:0:0:
402,192,344852,1,0,0:0:0:0:
329,192,344852,1,0,0:0:0:0:
182,192,344997,1,0,0:0:0:0:
36,192,344997,1,0,0:0:0:0:
475,192,344997,1,0,0:0:0:0:
256,192,345069,1,0,0:0:0:0:
329,192,345141,1,0,0:0:0:0:
402,192,345141,1,0,0:0:0:0:
182,192,345213,1,0,0:0:0:0:
475,192,345213,1,0,0:0:0:0:
329,192,345285,1,0,0:0:0:0:
109,192,345285,1,0,0:0:0:0:
36,192,345285,1,0,0:0:0:0:
256,192,345357,1,0,0:0:0:0:
182,192,345429,1,0,0:0:0:0:
475,192,345429,1,0,0:0:0:0:
402,192,345501,1,0,0:0:0:0:
256,192,345501,1,0,0:0:0:0:
36,192,345573,1,0,0:0:0:0:
109,192,345573,1,0,0:0:0:0:
329,192,345573,1,0,0:0:0:0:
182,192,345645,1,0,0:0:0:0:
256,192,345717,1,0,0:0:0:0:
36,192,345717,1,0,0:0:0:0:
109,192,345789,1,0,0:0:0:0:
402,192,345789,1,0,0:0:0:0:
182,192,345862,1,0,0:0:0:0:
329,192,345862,1,0,0:0:0:0:
475,192,345862,1,0,0:0:0:0:
402,192,345934,1,0,0:0:0:0:
256,192,346006,1,0,0:0:0:0:
36,192,346006,1,0,0:0:0:0:
182,192,346078,1,0,0:0:0:0:
475,192,346078,1,0,0:0:0:0:
36,192,346150,1,0,0:0:0:0:
109,192,346150,1,0,0:0:0:0:
329,192,346150,1,0,0:0:0:0:
402,192,346222,1,0,0:0:0:0:
256,192,346294,1,0,0:0:0:0:
475,192,346294,1,0,0:0:0:0:
182,192,346294,1,0,0:0:0:0:
329,192,346366,1,0,0:0:0:0:
109,192,346438,1,0,0:0:0:0:
402,192,346438,1,0,0:0:0:0:
475,192,346438,1,0,0:0:0:0:
182,192,346510,1,0,0:0:0:0:
256,192,346582,1,0,0:0:0:0:
36,192,346582,1,0,0:0:0:0:
329,192,346654,1,0,0:0:0:0:
182,192,346726,1,0,0:0:0:0:
109,192,346726,1,0,0:0:0:0:
36,192,346726,1,0,0:0:0:0:
475,192,346799,1,0,0:0:0:0:
402,192,346799,1,0,0:0:0:0:
329,192,346799,1,0,0:0:0:0:
182,192,346871,1,0,0:0:0:0:
109,192,346871,1,0,0:0:0:0:
36,192,346871,1,0,0:0:0:0:
475,192,347015,1,0,0:0:0:0:
402,192,347015,1,0,0:0:0:0:
329,192,347015,1,0,0:0:0:0:
256,192,347015,1,0,0:0:0:0:
475,192,347159,1,0,0:0:0:0:
402,192,347159,1,0,0:0:0:0:
329,192,347159,1,0,0:0:0:0:
36,192,347303,1,0,0:0:0:0:
109,192,347303,1,0,0:0:0:0:
475,192,347303,1,0,0:0:0:0:
402,192,347303,1,0,0:0:0:0:
256,192,347303,1,0,0:0:0:0:
182,192,347375,1,0,0:0:0:0:
329,192,347447,1,0,0:0:0:0:
475,192,347447,1,0,0:0:0:0:
256,192,347519,1,0,0:0:0:0:
402,192,347591,1,0,0:0:0:0:
109,192,347591,1,0,0:0:0:0:
36,192,347591,1,0,0:0:0:0:
329,192,347664,1,0,0:0:0:0:
256,192,347736,1,0,0:0:0:0:
475,192,347736,1,0,0:0:0:0:
182,192,347808,1,0,0:0:0:0:
475,192,347880,1,0,0:0:0:0:
36,192,347880,1,0,0:0:0:0:
109,192,347880,1,0,0:0:0:0:
329,192,347952,1,0,0:0:0:0:
402,192,348024,1,0,0:0:0:0:
182,192,348024,1,0,0:0:0:0:
256,192,348096,1,0,0:0:0:0:
329,192,348168,1,0,0:0:0:0:
475,192,348168,1,0,0:0:0:0:
109,192,348168,1,0,0:0:0:0:
182,192,348240,1,0,0:0:0:0:
402,192,348312,1,0,0:0:0:0:
256,192,348312,1,0,0:0:0:0:
475,192,348384,1,0,0:0:0:0:
36,192,348456,1,0,0:0:0:0:
109,192,348456,1,0,0:0:0:0:
329,192,348456,1,0,0:0:0:0:
182,192,348528,1,0,0:0:0:0:
256,192,348601,1,0,0:0:0:0:
36,192,348601,1,0,0:0:0:0:
329,192,348673,1,0,0:0:0:0:
109,192,348745,1,0,0:0:0:0:
475,192,348745,1,0,0:0:0:0:
402,192,348745,1,0,0:0:0:0:
182,192,348817,1,0,0:0:0:0:
475,192,348889,1,0,0:0:0:0:
256,192,348889,1,0,0:0:0:0:
402,192,348961,1,0,0:0:0:0:
36,192,349033,1,0,0:0:0:0:
109,192,349033,1,0,0:0:0:0:
329,192,349033,1,0,0:0:0:0:
182,192,349105,1,0,0:0:0:0:
256,192,349177,1,0,0:0:0:0:
475,192,349177,1,0,0:0:0:0:
402,192,349249,1,0,0:0:0:0:
329,192,349321,1,0,0:0:0:0:
182,192,349321,1,0,0:0:0:0:
36,192,349321,1,0,0:0:0:0:
182,192,349466,1,0,0:0:0:0:
329,192,349466,1,0,0:0:0:0:
36,192,349466,1,0,0:0:0:0:
475,192,349610,1,0,0:0:0:0:
256,192,349610,1,0,0:0:0:0:
402,192,349610,1,0,0:0:0:0:
182,192,349682,1,0,0:0:0:0:
109,192,349754,1,0,0:0:0:0:
329,192,349754,1,0,0:0:0:0:
256,192,349826,1,0,0:0:0:0:
182,192,349898,1,0,0:0:0:0:
402,192,349898,1,0,0:0:0:0:
475,192,349898,1,0,0:0:0:0:
329,192,349970,1,0,0:0:0:0:
109,192,350042,1,0,0:0:0:0:
36,192,350042,1,0,0:0:0:0:
182,192,350114,1,0,0:0:0:0:
256,192,350186,1,0,0:0:0:0:
475,192,350186,1,0,0:0:0:0:
36,192,350186,1,0,0:0:0:0:
402,192,350258,1,0,0:0:0:0:
329,192,350331,1,0,0:0:0:0:
109,192,350331,1,0,0:0:0:0:
256,192,350403,1,0,0:0:0:0:
182,192,350475,1,0,0:0:0:0:
109,192,350475,1,0,0:0:0:0:
36,192,350475,1,0,0:0:0:0:
402,192,350547,1,0,0:0:0:0:
329,192,350619,1,0,0:0:0:0:
475,192,350619,1,0,0:0:0:0:
256,192,350691,1,0,0:0:0:0:
402,192,350763,1,0,0:0:0:0:
36,192,350763,1,0,0:0:0:0:
109,192,350763,1,0,0:0:0:0:
182,192,350835,1,0,0:0:0:0:
256,192,350907,1,0,0:0:0:0:
475,192,350907,1,0,0:0:0:0:
329,192,350979,1,0,0:0:0:0:
475,192,351051,1,0,0:0:0:0:
402,192,351051,1,0,0:0:0:0:
36,192,351051,1,0,0:0:0:0:
109,192,351123,1,0,0:0:0:0:
182,192,351195,1,0,0:0:0:0:
329,192,351195,1,0,0:0:0:0:
256,192,351268,1,0,0:0:0:0:
182,192,351340,1,0,0:0:0:0:
36,192,351340,1,0,0:0:0:0:
109,192,351340,1,0,0:0:0:0:
329,192,351412,1,0,0:0:0:0:
475,192,351412,1,0,0:0:0:0:
402,192,351412,1,0,0:0:0:0:
182,192,351484,1,0,0:0:0:0:
36,192,351484,1,0,0:0:0:0:
109,192,351484,1,0,0:0:0:0:
329,192,351628,1,0,0:0:0:0:
402,192,351628,1,0,0:0:0:0:
475,192,351628,1,0,0:0:0:0:
329,192,351772,1,0,0:0:0:0:
402,192,351772,1,0,0:0:0:0:
475,192,351772,1,0,0:0:0:0:
36,192,351916,1,0,0:0:0:0:
256,192,351916,1,0,0:0:0:0:
475,192,351916,1,0,0:0:0:0:
109,192,351988,1,0,0:0:0:0:
182,192,352060,1,0,0:0:0:0:
329,192,352060,1,0,0:0:0:0:
402,192,352133,1,0,0:0:0:0:
256,192,352205,1,0,0:0:0:0:
36,192,352205,1,0,0:0:0:0:
475,192,352205,1,0,0:0:0:0:
182,192,352277,1,0,0:0:0:0:
109,192,352349,1,0,0:0:0:0:
402,192,352349,1,0,0:0:0:0:
329,192,352421,1,0,0:0:0:0:
256,192,352493,1,0,0:0:0:0:
475,192,352493,1,0,0:0:0:0:
182,192,352493,1,0,0:0:0:0:
109,192,352565,1,0,0:0:0:0:
36,192,352637,1,0,0:0:0:0:
402,192,352637,1,0,0:0:0:0:
329,192,352709,1,0,0:0:0:0:
36,192,352781,1,0,0:0:0:0:
256,192,352781,1,0,0:0:0:0:
475,192,352781,1,0,0:0:0:0:
109,192,352853,1,0,0:0:0:0:
182,192,352925,1,0,0:0:0:0:
256,192,352925,1,0,0:0:0:0:
329,192,352998,1,0,0:0:0:0:
475,192,353070,1,0,0:0:0:0:
109,192,353070,1,0,0:0:0:0:
402,192,353070,1,0,0:0:0:0:
182,192,353142,1,0,0:0:0:0:
256,192,353214,1,0,0:0:0:0:
475,192,353214,1,0,0:0:0:0:
329,192,353286,1,0,0:0:0:0:
402,192,353358,1,0,0:0:0:0:
36,192,353358,1,0,0:0:0:0:
109,192,353358,1,0,0:0:0:0:
182,192,353430,1,0,0:0:0:0:
256,192,353502,1,0,0:0:0:0:
475,192,353502,1,0,0:0:0:0:
402,192,353574,1,0,0:0:0:0:
329,192,353646,1,0,0:0:0:0:
182,192,353646,1,0,0:0:0:0:
36,192,353646,1,0,0:0:0:0:
256,192,353718,1,0,0:0:0:0:
402,192,353790,1,0,0:0:0:0:
475,192,353790,1,0,0:0:0:0:
329,192,353862,1,0,0:0:0:0:
36,192,353935,1,0,0:0:0:0:
109,192,353935,1,0,0:0:0:0:
182,192,353935,1,0,0:0:0:0:
36,192,354079,1,0,0:0:0:0:
109,192,354079,1,0,0:0:0:0:
182,192,354079,1,0,0:0:0:0:
329,192,354223,1,0,0:0:0:0:
475,192,354223,1,0,0:0:0:0:
36,192,354223,1,0,0:0:0:0:
256,192,354295,1,0,0:0:0:0:
182,192,354367,1,0,0:0:0:0:
109,192,354367,1,0,0:0:0:0:
329,192,354439,1,0,0:0:0:0:
182,192,354511,1,0,0:0:0:0:
402,192,354511,1,0,0:0:0:0:
475,192,354511,1,0,0:0:0:0:
256,192,354583,1,0,0:0:0:0:
329,192,354655,1,0,0:0:0:0:
36,192,354655,1,0,0:0:0:0:
109,192,354727,1,0,0:0:0:0:
475,192,354800,1,0,0:0:0:0:
402,192,354800,1,0,0:0:0:0:
182,192,354800,1,0,0:0:0:0:
329,192,354872,1,0,0:0:0:0:
256,192,354944,1,0,0:0:0:0:
402,192,355016,1,0,0:0:0:0:
329,192,355088,1,0,0:0:0:0:
182,192,355088,1,0,0:0:0:0:
36,192,355088,1,0,0:0:0:0:
109,192,355160,1,0,0:0:0:0:
256,192,355232,1,0,0:0:0:0:
475,192,355232,1,0,0:0:0:0:
329,192,355304,1,0,0:0:0:0:
475,192,355376,1,0,0:0:0:0:
402,192,355376,1,0,0:0:0:0:
182,192,355376,1,0,0:0:0:0:
109,192,355448,1,0,0:0:0:0:
256,192,355520,1,0,0:0:0:0:
36,192,355520,1,0,0:0:0:0:
182,192,355592,1,0,0:0:0:0:
402,192,355664,1,0,0:0:0:0:
109,192,355664,1,0,0:0:0:0:
36,192,355664,1,0,0:0:0:0:
329,192,355737,1,0,0:0:0:0:
256,192,355809,1,0,0:0:0:0:
475,192,355809,1,0,0:0:0:0:
182,192,355881,1,0,0:0:0:0:
329,192,355953,1,0,0:0:0:0:
402,192,355953,1,0,0:0:0:0:
475,192,355953,1,0,0:0:0:0:
36,192,356025,1,0,0:0:0:0:
109,192,356025,1,0,0:0:0:0:
182,192,356025,1,0,0:0:0:0:
329,192,356097,1,0,0:0:0:0:
402,192,356097,1,0,0:0:0:0:
475,192,356097,1,0,0:0:0:0:
36,192,356241,1,0,0:0:0:0:
109,192,356241,1,0,0:0:0:0:
182,192,356241,1,0,0:0:0:0:
36,192,356385,1,0,0:0:0:0:
109,192,356385,1,0,0:0:0:0:
182,192,356385,1,0,0:0:0:0:
475,192,356529,1,0,0:0:0:0:
402,192,356529,1,0,0:0:0:0:
36,192,356529,1,0,0:0:0:0:
109,192,356529,1,0,0:0:0:0:
256,192,356529,1,0,0:0:0:0:
329,192,356602,1,0,0:0:0:0:
182,192,356674,1,0,0:0:0:0:
36,192,356674,1,0,0:0:0:0:
256,192,356746,1,0,0:0:0:0:
109,192,356818,1,0,0:0:0:0:
402,192,356818,1,0,0:0:0:0:
475,192,356818,1,0,0:0:0:0:
182,192,356890,1,0,0:0:0:0:
256,192,356962,1,0,0:0:0:0:
36,192,356962,1,0,0:0:0:0:
329,192,357034,1,0,0:0:0:0:
36,192,357106,1,0,0:0:0:0:
475,192,357106,1,0,0:0:0:0:
402,192,357106,1,0,0:0:0:0:
182,192,357178,1,0,0:0:0:0:
109,192,357250,1,0,0:0:0:0:
329,192,357250,1,0,0:0:0:0:
256,192,357322,1,0,0:0:0:0:
182,192,357394,1,0,0:0:0:0:
36,192,357394,1,0,0:0:0:0:
402,192,357394,1,0,0:0:0:0:
329,192,357467,1,0,0:0:0:0:
109,192,357539,1,0,0:0:0:0:
256,192,357539,1,0,0:0:0:0:
36,192,357611,1,0,0:0:0:0:
475,192,357683,1,0,0:0:0:0:
402,192,357683,1,0,0:0:0:0:
182,192,357683,1,0,0:0:0:0:
329,192,357755,1,0,0:0:0:0:
256,192,357827,1,0,0:0:0:0:
475,192,357827,1,0,0:0:0:0:
182,192,357899,1,0,0:0:0:0:
402,192,357971,1,0,0:0:0:0:
36,192,357971,1,0,0:0:0:0:
109,192,357971,1,0,0:0:0:0:
329,192,358043,1,0,0:0:0:0:
36,192,358115,1,0,0:0:0:0:
256,192,358115,1,0,0:0:0:0:
109,192,358187,1,0,0:0:0:0:
475,192,358259,1,0,0:0:0:0:
402,192,358259,1,0,0:0:0:0:
182,192,358259,1,0,0:0:0:0:
329,192,358331,1,0,0:0:0:0:
256,192,358404,1,0,0:0:0:0:
36,192,358404,1,0,0:0:0:0:
109,192,358476,1,0,0:0:0:0:
182,192,358548,1,0,0:0:0:0:
329,192,358548,1,0,0:0:0:0:
475,192,358548,1,0,0:0:0:0:
329,192,358692,1,0,0:0:0:0:
182,192,358692,1,0,0:0:0:0:
475,192,358692,1,0,0:0:0:0:
36,192,358836,1,0,0:0:0:0:
256,192,358836,1,0,0:0:0:0:
109,192,358836,1,0,0:0:0:0:
329,192,358908,1,0,0:0:0:0:
402,192,358980,1,0,0:0:0:0:
182,192,358980,1,0,0:0:0:0:
256,192,359052,1,0,0:0:0:0:
475,192,359052,1,0,0:0:0:0:
329,192,359124,1,0,0:0:0:0:
109,192,359124,1,0,0:0:0:0:
36,192,359124,1,0,0:0:0:0:
182,192,359196,1,0,0:0:0:0:
402,192,359269,1,0,0:0:0:0:
475,192,359269,1,0,0:0:0:0:
329,192,359341,1,0,0:0:0:0:
182,192,359341,1,0,0:0:0:0:
256,192,359413,1,0,0:0:0:0:
36,192,359413,1,0,0:0:0:0:
475,192,359413,1,0,0:0:0:0:
109,192,359485,1,0,0:0:0:0:
182,192,359557,1,0,0:0:0:0:
402,192,359557,1,0,0:0:0:0:
256,192,359629,1,0,0:0:0:0:
36,192,359629,1,0,0:0:0:0:
329,192,359701,1,0,0:0:0:0:
402,192,359701,1,0,0:0:0:0:
475,192,359701,1,0,0:0:0:0:
109,192,359773,1,0,0:0:0:0:
182,192,359845,1,0,0:0:0:0:
36,192,359845,1,0,0:0:0:0:
256,192,359917,1,0,0:0:0:0:
329,192,359917,1,0,0:0:0:0:
109,192,359989,1,0,0:0:0:0:
475,192,359989,1,0,0:0:0:0:
402,192,359989,1,0,0:0:0:0:
329,192,360061,1,0,0:0:0:0:
256,192,360133,1,0,0:0:0:0:
36,192,360133,1,0,0:0:0:0:
402,192,360133,1,0,0:0:0:0:
182,192,360206,1,0,0:0:0:0:
36,192,360278,1,0,0:0:0:0:
109,192,360278,1,0,0:0:0:0:
475,192,360278,1,0,0:0:0:0:
402,192,360350,1,0,0:0:0:0:
329,192,360422,1,0,0:0:0:0:
182,192,360422,1,0,0:0:0:0:
256,192,360494,1,0,0:0:0:0:
329,192,360566,1,0,0:0:0:0:
475,192,360566,1,0,0:0:0:0:
402,192,360566,1,0,0:0:0:0:
182,192,360638,1,0,0:0:0:0:
36,192,360638,1,0,0:0:0:0:
109,192,360638,1,0,0:0:0:0:
329,192,360710,1,0,0:0:0:0:
475,192,360710,1,0,0:0:0:0:
402,192,360710,1,0,0:0:0:0:
182,192,360854,1,0,0:0:0:0:
109,192,360854,1,0,0:0:0:0:
36,192,360854,1,0,0:0:0:0:
256,192,360854,1,0,0:0:0:0:
182,192,360998,1,0,0:0:0:0:
109,192,360998,1,0,0:0:0:0:
36,192,360998,1,0,0:0:0:0:
475,192,361143,1,0,0:0:0:0:
256,192,361143,1,0,0:0:0:0:
36,192,361143,1,0,0:0:0:0:
402,192,361215,1,0,0:0:0:0:
329,192,361287,1,0,0:0:0:0:
182,192,361287,1,0,0:0:0:0:
109,192,361359,1,0,0:0:0:0:
256,192,361431,1,0,0:0:0:0:
475,192,361431,1,0,0:0:0:0:
36,192,361431,1,0,0:0:0:0:
329,192,361503,1,0,0:0:0:0:
402,192,361575,1,0,0:0:0:0:
109,192,361575,1,0,0:0:0:0:
182,192,361647,1,0,0:0:0:0:
256,192,361719,1,0,0:0:0:0:
36,192,361719,1,0,0:0:0:0:
329,192,361719,1,0,0:0:0:0:
402,192,361791,1,0,0:0:0:0:
475,192,361863,1,0,0:0:0:0:
109,192,361863,1,0,0:0:0:0:
182,192,361936,1,0,0:0:0:0:
475,192,362008,1,0,0:0:0:0:
256,192,362008,1,0,0:0:0:0:
36,192,362008,1,0,0:0:0:0:
402,192,362080,1,0,0:0:0:0:
329,192,362152,1,0,0:0:0:0:
256,192,362152,1,0,0:0:0:0:
182,192,362224,1,0,0:0:0:0:
36,192,362296,1,0,0:0:0:0:
402,192,362296,1,0,0:0:0:0:
109,192,362296,1,0,0:0:0:0:
329,192,362368,1,0,0:0:0:0:
256,192,362440,1,0,0:0:0:0:
36,192,362440,1,0,0:0:0:0:
182,192,362512,1,0,0:0:0:0:
109,192,362584,1,0,0:0:0:0:
475,192,362584,1,0,0:0:0:0:
402,192,362584,1,0,0:0:0:0:
329,192,362656,1,0,0:0:0:0:
256,192,362728,1,0,0:0:0:0:
36,192,362728,1,0,0:0:0:0:
109,192,362800,1,0,0:0:0:0:
182,192,362873,1,0,0:0:0:0:
329,192,362873,1,0,0:0:0:0:
475,192,362873,1,0,0:0:0:0:
256,192,362945,1,0,0:0:0:0:
109,192,363017,1,0,0:0:0:0:
36,192,363017,1,0,0:0:0:0:
182,192,363089,1,0,0:0:0:0:
475,192,363161,1,0,0:0:0:0:
402,192,363161,1,0,0:0:0:0:
329,192,363161,1,0,0:0:0:0:
475,192,363305,1,0,0:0:0:0:
402,192,363305,1,0,0:0:0:0:
329,192,363305,1,0,0:0:0:0:
182,192,363449,1,0,0:0:0:0:
36,192,363449,1,0,0:0:0:0:
475,192,363449,1,0,0:0:0:0:
256,192,363521,1,0,0:0:0:0:
329,192,363593,1,0,0:0:0:0:
402,192,363593,1,0,0:0:0:0:
182,192,363665,1,0,0:0:0:0:
475,192,363665,1,0,0:0:0:0:
329,192,363738,1,0,0:0:0:0:
109,192,363738,1,0,0:0:0:0:
36,192,363738,1,0,0:0:0:0:
256,192,363810,1,0,0:0:0:0:
182,192,363882,1,0,0:0:0:0:
475,192,363882,1,0,0:0:0:0:
402,192,363954,1,0,0:0:0:0:
256,192,363954,1,0,0:0:0:0:
36,192,364026,1,0,0:0:0:0:
109,192,364026,1,0,0:0:0:0:
329,192,364026,1,0,0:0:0:0:
182,192,364098,1,0,0:0:0:0:
256,192,364170,1,0,0:0:0:0:
36,192,364170,1,0,0:0:0:0:
109,192,364242,1,0,0:0:0:0:
402,192,364242,1,0,0:0:0:0:
182,192,364314,1,0,0:0:0:0:
329,192,364314,1,0,0:0:0:0:
475,192,364314,1,0,0:0:0:0:
402,192,364386,1,0,0:0:0:0:
256,192,364458,1,0,0:0:0:0:
36,192,364458,1,0,0:0:0:0:
182,192,364530,1,0,0:0:0:0:
475,192,364530,1,0,0:0:0:0:
36,192,364603,1,0,0:0:0:0:
109,192,364603,1,0,0:0:0:0:
329,192,364603,1,0,0:0:0:0:
402,192,364675,1,0,0:0:0:0:
256,192,364747,1,0,0:0:0:0:
475,192,364747,1,0,0:0:0:0:
182,192,364747,1,0,0:0:0:0:
329,192,364819,1,0,0:0:0:0:
109,192,364891,1,0,0:0:0:0:
402,192,364891,1,0,0:0:0:0:
475,192,364891,1,0,0:0:0:0:
182,192,364963,1,0,0:0:0:0:
256,192,365035,1,0,0:0:0:0:
36,192,365035,1,0,0:0:0:0:
329,192,365107,1,0,0:0:0:0:
182,192,365179,1,0,0:0:0:0:
109,192,365179,1,0,0:0:0:0:
36,192,365179,1,0,0:0:0:0:
475,192,365251,1,0,0:0:0:0:
402,192,365251,1,0,0:0:0:0:
329,192,365251,1,0,0:0:0:0:
182,192,365323,1,0,0:0:0:0:
109,192,365323,1,0,0:0:0:0:
36,192,365323,1,0,0:0:0:0:
475,192,365467,1,0,0:0:0:0:
402,192,365467,1,0,0:0:0:0:
329,192,365467,1,0,0:0:0:0:
256,192,365467,1,0,0:0:0:0:
475,192,365612,1,0,0:0:0:0:
402,192,365612,1,0,0:0:0:0:
329,192,365612,1,0,0:0:0:0:
36,192,365756,1,0,0:0:0:0:
109,192,365756,1,0,0:0:0:0:
475,192,365756,1,0,0:0:0:0:
402,192,365756,1,0,0:0:0:0:
256,192,365756,1,0,0:0:0:0:
182,192,365828,1,0,0:0:0:0:
329,192,365900,1,0,0:0:0:0:
475,192,365900,1,0,0:0:0:0:
109,192,365900,1,0,0:0:0:0:
256,192,365972,1,0,0:0:0:0:
402,192,366044,1,0,0:0:0:0:
109,192,366044,1,0,0:0:0:0:
36,192,366044,1,0,0:0:0:0:
329,192,366116,1,0,0:0:0:0:
256,192,366188,1,0,0:0:0:0:
475,192,366188,1,0,0:0:0:0:
402,192,366188,1,0,0:0:0:0:
182,192,366260,1,0,0:0:0:0:
475,192,366332,1,0,0:0:0:0:
36,192,366332,1,0,0:0:0:0:
109,192,366332,1,0,0:0:0:0:
329,192,366405,1,0,0:0:0:0:
402,192,366477,1,0,0:0:0:0:
182,192,366477,1,0,0:0:0:0:
36,192,366477,1,0,0:0:0:0:
256,192,366549,1,0,0:0:0:0:
329,192,366621,1,0,0:0:0:0:
475,192,366621,1,0,0:0:0:0:
109,192,366621,1,0,0:0:0:0:
182,192,366693,1,0,0:0:0:0:
402,192,366765,1,0,0:0:0:0:
256,192,366765,1,0,0:0:0:0:
36,192,366765,1,0,0:0:0:0:
475,192,366837,1,0,0:0:0:0:
36,192,366909,1,0,0:0:0:0:
109,192,366909,1,0,0:0:0:0:
329,192,366909,1,0,0:0:0:0:
182,192,366981,1,0,0:0:0:0:
256,192,367053,1,0,0:0:0:0:
36,192,367053,1,0,0:0:0:0:
402,192,367053,1,0,0:0:0:0:
329,192,367125,1,0,0:0:0:0:
109,192,367197,1,0,0:0:0:0:
475,192,367197,1,0,0:0:0:0:
402,192,367197,1,0,0:0:0:0:
182,192,367269,1,0,0:0:0:0:
475,192,367342,1,0,0:0:0:0:
256,192,367342,1,0,0:0:0:0:
36,192,367342,1,0,0:0:0:0:
402,192,367414,1,0,0:0:0:0:
36,192,367486,1,0,0:0:0:0:
109,192,367486,1,0,0:0:0:0:
329,192,367486,1,0,0:0:0:0:
182,192,367558,1,0,0:0:0:0:
256,192,367630,1,0,0:0:0:0:
475,192,367630,1,0,0:0:0:0:
109,192,367630,1,0,0:0:0:0:
402,192,367702,1,0,0:0:0:0:
329,192,367774,1,0,0:0:0:0:
182,192,367774,1,0,0:0:0:0:
36,192,367774,1,0,0:0:0:0:
182,192,367918,1,0,0:0:0:0:
329,192,367918,1,0,0:0:0:0:
36,192,367918,1,0,0:0:0:0:
475,192,368062,1,0,0:0:0:0:
256,192,368062,1,0,0:0:0:0:
402,192,368062,1,0,0:0:0:0:
182,192,368134,1,0,0:0:0:0:
109,192,368207,1,0,0:0:0:0:
329,192,368207,1,0,0:0:0:0:
36,192,368207,1,0,0:0:0:0:
256,192,368279,1,0,0:0:0:0:
182,192,368351,1,0,0:0:0:0:
109,192,368351,1,0,0:0:0:0:
475,192,368351,1,0,0:0:0:0:
402,192,368423,1,0,0:0:0:0:
109,192,368495,1,0,0:0:0:0:
36,192,368495,1,0,0:0:0:0:
329,192,368495,1,0,0:0:0:0:
182,192,368567,1,0,0:0:0:0:
256,192,368639,1,0,0:0:0:0:
475,192,368639,1,0,0:0:0:0:
36,192,368639,1,0,0:0:0:0:
402,192,368711,1,0,0:0:0:0:
329,192,368783,1,0,0:0:0:0:
109,192,368783,1,0,0:0:0:0:
182,192,368783,1,0,0:0:0:0:
256,192,368855,1,0,0:0:0:0:
329,192,368927,1,0,0:0:0:0:
109,192,368927,1,0,0:0:0:0:
36,192,368927,1,0,0:0:0:0:
402,192,368999,1,0,0:0:0:0:
256,192,369072,1,0,0:0:0:0:
475,192,369072,1,0,0:0:0:0:
109,192,369072,1,0,0:0:0:0:
182,192,369144,1,0,0:0:0:0:
402,192,369216,1,0,0:0:0:0:
36,192,369216,1,0,0:0:0:0:
329,192,369216,1,0,0:0:0:0:
256,192,369288,1,0,0:0:0:0:
109,192,369360,1,0,0:0:0:0:
475,192,369360,1,0,0:0:0:0:
182,192,369360,1,0,0:0:0:0:
402,192,369432,1,0,0:0:0:0:
329,192,369504,1,0,0:0:0:0:
256,192,369504,1,0,0:0:0:0:
36,192,369504,1,0,0:0:0:0:
109,192,369576,1,0,0:0:0:0:
182,192,369648,1,0,0:0:0:0:
475,192,369648,1,0,0:0:0:0:
402,192,369648,1,0,0:0:0:0:
256,192,369720,1,0,0:0:0:0:
182,192,369792,1,0,0:0:0:0:
36,192,369792,1,0,0:0:0:0:
109,192,369792,1,0,0:0:0:0:
329,192,369864,1,0,0:0:0:0:
475,192,369864,1,0,0:0:0:0:
402,192,369864,1,0,0:0:0:0:
182,192,369936,1,0,0:0:0:0:
36,192,369936,1,0,0:0:0:0:
109,192,369936,1,0,0:0:0:0:
329,192,370081,1,0,0:0:0:0:
402,192,370081,1,0,0:0:0:0:
475,192,370081,1,0,0:0:0:0:
329,192,370225,1,0,0:0:0:0:
402,192,370225,1,0,0:0:0:0:
475,192,370225,1,0,0:0:0:0:
36,192,370369,1,0,0:0:0:0:
256,192,370369,1,0,0:0:0:0:
475,192,370369,1,0,0:0:0:0:
402,192,370369,1,0,0:0:0:0:
182,192,370441,1,0,0:0:0:0:
109,192,370513,1,0,0:0:0:0:
36,192,370513,1,0,0:0:0:0:
329,192,370513,1,0,0:0:0:0:
256,192,370585,1,0,0:0:0:0:
182,192,370657,1,0,0:0:0:0:
402,192,370657,1,0,0:0:0:0:
36,192,370657,1,0,0:0:0:0:
475,192,370657,1,0,0:0:0:0:
329,192,370729,1,0,0:0:0:0:
256,192,370801,1,0,0:0:0:0:
109,192,370801,1,0,0:0:0:0:
475,192,370801,1,0,0:0:0:0:
402,192,370874,1,0,0:0:0:0:
256,192,370946,1,0,0:0:0:0:
182,192,370946,1,0,0:0:0:0:
329,192,370946,1,0,0:0:0:0:
36,192,370946,1,0,0:0:0:0:
109,192,371018,1,0,0:0:0:0:
402,192,371090,1,0,0:0:0:0:
475,192,371090,1,0,0:0:0:0:
36,192,371090,1,0,0:0:0:0:
329,192,371162,1,0,0:0:0:0:
256,192,371234,1,0,0:0:0:0:
475,192,371234,1,0,0:0:0:0:
402,192,371234,1,0,0:0:0:0:
109,192,371234,1,0,0:0:0:0:
36,192,371306,1,0,0:0:0:0:
182,192,371378,1,0,0:0:0:0:
329,192,371378,1,0,0:0:0:0:
256,192,371378,1,0,0:0:0:0:
109,192,371450,1,0,0:0:0:0:
475,192,371522,5,0,0:0:0:0:
402,192,371522,1,0,0:0:0:0:
329,192,371522,1,0,0:0:0:0:
36,192,371522,1,0,0:0:0:0:
256,192,371594,1,0,0:0:0:0:
475,192,371666,1,0,0:0:0:0:
182,192,371666,1,0,0:0:0:0:
109,192,371666,1,0,0:0:0:0:
402,192,371738,1,0,0:0:0:0:
36,192,371811,1,0,0:0:0:0:
109,192,371811,1,0,0:0:0:0:
329,192,371811,1,0,0:0:0:0:
256,192,371811,1,0,0:0:0:0:
182,192,371883,1,0,0:0:0:0:
475,192,371955,1,0,0:0:0:0:
109,192,371955,1,0,0:0:0:0:
402,192,371955,1,0,0:0:0:0:
329,192,372027,1,0,0:0:0:0:
182,192,372099,1,0,0:0:0:0:
36,192,372099,1,0,0:0:0:0:
402,192,372099,1,0,0:0:0:0:
475,192,372099,1,0,0:0:0:0:
256,192,372171,1,0,0:0:0:0:
109,192,372243,1,0,0:0:0:0:
329,192,372243,1,0,0:0:0:0:
475,192,372243,1,0,0:0:0:0:
402,192,372315,1,0,0:0:0:0:
36,192,372387,1,0,0:0:0:0:
182,192,372387,1,0,0:0:0:0:
256,192,372387,1,0,0:0:0:0:
36,192,372531,1,0,0:0:0:0:
182,192,372531,1,0,0:0:0:0:
256,192,372531,1,0,0:0:0:0:
329,192,372676,5,0,0:0:0:0:
402,192,372676,1,0,0:0:0:0:
475,192,372676,1,0,0:0:0:0:
109,192,372676,1,0,0:0:0:0:
256,192,372748,1,0,0:0:0:0:
182,192,372820,1,0,0:0:0:0:
36,192,372820,1,0,0:0:0:0:
475,192,372820,1,0,0:0:0:0:
109,192,372892,1,0,0:0:0:0:
402,192,372964,1,0,0:0:0:0:
329,192,372964,1,0,0:0:0:0:
256,192,372964,1,0,0:0:0:0:
36,192,372964,1,0,0:0:0:0:
182,192,373036,1,0,0:0:0:0:
475,192,373108,1,0,0:0:0:0:
402,192,373108,1,0,0:0:0:0:
109,192,373108,1,0,0:0:0:0:
329,192,373180,1,0,0:0:0:0:
475,192,373252,1,0,0:0:0:0:
256,192,373252,1,0,0:0:0:0:
182,192,373252,1,0,0:0:0:0:
36,192,373252,1,0,0:0:0:0:
402,192,373324,1,0,0:0:0:0:
329,192,373396,1,0,0:0:0:0:
182,192,373396,1,0,0:0:0:0:
109,192,373396,1,0,0:0:0:0:
256,192,373468,1,0,0:0:0:0:
402,192,373541,1,0,0:0:0:0:
475,192,373541,1,0,0:0:0:0:
36,192,373541,1,0,0:0:0:0:
329,192,373541,1,0,0:0:0:0:
109,192,373613,1,0,0:0:0:0:
182,192,373685,1,0,0:0:0:0:
402,192,373685,1,0,0:0:0:0:
475,192,373685,1,0,0:0:0:0:
329,192,373757,1,0,0:0:0:0:
182,192,373829,5,0,0:0:0:0:
256,192,373829,1,0,0:0:0:0:
109,192,373829,1,0,0:0:0:0:
36,192,373829,1,0,0:0:0:0:
475,192,373901,1,0,0:0:0:0:
36,192,373973,1,0,0:0:0:0:
109,192,373973,1,0,0:0:0:0:
402,192,373973,1,0,0:0:0:0:
329,192,373973,1,0,0:0:0:0:
182,192,374045,1,0,0:0:0:0:
256,192,374117,1,0,0:0:0:0:
109,192,374117,1,0,0:0:0:0:
402,192,374117,1,0,0:0:0:0:
475,192,374117,1,0,0:0:0:0:
329,192,374189,1,0,0:0:0:0:
109,192,374261,1,0,0:0:0:0:
475,192,374261,1,0,0:0:0:0:
36,192,374261,1,0,0:0:0:0:
402,192,374261,1,0,0:0:0:0:
256,192,374333,1,0,0:0:0:0:
182,192,374333,1,0,0:0:0:0:
475,192,374405,1,0,0:0:0:0:
402,192,374405,1,0,0:0:0:0:
329,192,374405,1,0,0:0:0:0:
182,192,374478,1,0,0:0:0:0:
109,192,374478,1,0,0:0:0:0:
36,192,374478,1,0,0:0:0:0:
475,192,374550,1,0,0:0:0:0:
402,192,374550,1,0,0:0:0:0:
329,192,374550,1,0,0:0:0:0:
182,192,374622,1,0,0:0:0:0:
256,192,374622,1,0,0:0:0:0:
475,192,374694,1,0,0:0:0:0:
402,192,374694,1,0,0:0:0:0:
36,192,374694,1,0,0:0:0:0:
109,192,374694,1,0,0:0:0:0:
109,192,374838,1,0,0:0:0:0:
256,192,374838,1,0,0:0:0:0:
36,192,374838,1,0,0:0:0:0:
329,192,374910,1,0,0:0:0:0:
182,192,374910,1,0,0:0:0:0:
109,192,374982,1,0,0:0:0:0:
256,192,374982,1,0,0:0:0:0:
36,192,374982,1,0,0:0:0:0:
475,192,374982,1,0,0:0:0:0:
402,192,374982,1,0,0:0:0:0:
