osu file format v14

[General]
AudioFilename: DJ Sharpnel - Ivaltek2.mp3
AudioLeadIn: 0
PreviewTime: 75212
Countdown: 0
SampleSet: None
StackLeniency: 0.7
Mode: 3
LetterboxInBreaks: 1
EpilepsyWarning: 1
SpecialStyle: 0
WidescreenStoryboard: 1

[Editor]
DistanceSpacing: 1.4
BeatDivisor: 4
GridSize: 8
TimelineZoom: 2

[Metadata]
Title:IVALTEK
TitleUnicode:IVALTEK
Artist:DJ Sharpnel
ArtistUnicode:DJ Sharpnel
Creator:Hydria
Version:Distorted Lyrics
Source:Final Fantasy XII
Tags:j-core happy hardcore kiss me goodbye gladiool gladi pheon
BeatmapID:866208
BeatmapSetID:398377

[Difficulty]
HPDrainRate:8.4
CircleSize:4
OverallDifficulty:8.8
ApproachRate:8
SliderMultiplier:1.8
SliderTickRate:2

[Events]
//Background and Video events
0,0,"background ivaltek.jpg",0,0
//Break Periods
//Storyboard Layer 0 (Background)
//Storyboard Layer 1 (Fail)
//Storyboard Layer 2 (Pass)
//Storyboard Layer 3 (Foreground)
Sprite,Foreground,Centre,"SB\black.png",320,240 F,0,1,606,0,1 F,0,606,19059,1 F,0,19059,19347,1,0.8816 F,0,38376,,1 F,0,75282,,0 F,0,150249,,1 F,0,153709,,1
Animation,Foreground,Centre,"SB\noise.jpg",320,240,3,70,LoopForever S,0,38380,,0.8016 F,0,38380,61445,0,0.666657 M,0,57553,,320,240 M,0,57553,,320,240 S,0,57553,72257,0.8207999,0.8016 M,0,57625,,303,264 S,0,57625,,0.8847999 M,0,57697,,320,240 S,0,57697,,0.8016 F,2,61445,75285,0.666657,0 M,0,62094,,320,240 S,0,62094,,0.8016 M,0,62166,,312,233 S,0,62166,,0.8207999 M,0,62238,,320,240 S,0,62238,,0.8016 M,0,66996,,320,240 S,0,66996,,0.8016 M,0,67068,,324,240 S,0,67068,,0.8207999 M,0,67140,,320,240 S,0,67140,,0.8016 M,0,72257,,320,240 M,0,72330,72402,318,234,320,240 S,0,72330,72402,0.8079998,0.8016
Sprite,Foreground,Centre,"SB\normal.jpg",320,240 S,0,38380,,0.8015999 F,0,38380,52219,0.4064001,0.5304 F,0,52219,56832,0.5304,0.4607999 M,0,55391,,320,240 S,0,55391,,0.8015999 M,0,55463,,299,226 S,0,55463,,0.8783998 M,0,55535,,320,240 S,0,55535,,0.8015999 F,0,56832,72978,0.4607999,0
Sprite,Foreground,Centre,"SB\white.png",320,240 F,0,38380,41839,1,0 F,0,75285,76438,1,0
Animation,Foreground,Centre,"SB\noise.jpg",320,240,3,30,LoopForever F,0,79321,,1 S,0,79321,,0.8655999 F,0,79538,,0 F,0,79610,,1 F,0,79826,,0 F,0,83646,,1 F,0,83862,,0 F,0,83935,,1 F,0,84151,,0 F,0,87106,,1 F,0,87247,,0 F,0,87394,,1 F,0,87539,,0 F,0,87683,,1 F,0,87827,,0 F,0,92584,,1 F,0,92800,,0 F,0,92873,,1 F,0,93089,,0 F,0,93161,,1 F,0,93377,,0 F,0,93449,,1 F,0,93665,,0 F,0,97486,,1 F,0,97918,,0 F,0,102387,,1 F,0,102531,,0 F,0,116227,,1 F,0,116443,,0 F,0,116515,,1 F,0,116731,,0 F,0,120552,,1 F,0,120768,,0 F,0,120840,,1 F,0,121056,,0 F,0,124011,,1 F,0,124156,,0 F,0,124300,,1 F,0,124444,,0 F,0,124588,,1 F,0,124732,,0 F,0,129490,,1 F,0,129706,,0 F,0,129778,,1 F,0,129994,,0 F,0,130066,,1 F,0,130282,,0 F,0,130355,,1 F,0,130571,,0 F,0,134391,,1 F,0,134824,,0 F,0,139293,,1 F,0,139437,,0
Sprite,Foreground,Centre,"SB\white.png",320,240 F,0,79321,,1 S,0,79321,,1 F,0,79357,,0 F,0,79393,,1 F,0,79429,,0 F,0,79466,,1 F,0,79502,,0 F,0,79610,,1 F,0,79646,,0 F,0,79646,,0 F,0,79682,,1 F,0,79718,,0 F,0,79754,,1 F,0,79790,,0 F,0,83646,,1 F,0,83682,,0 F,0,83718,,1 F,0,83754,,0 F,0,83790,,1 F,0,83826,,0 F,0,83935,,1 F,0,83971,,0 F,0,84007,,1 F,0,84043,,0 F,0,84079,,1 F,0,84115,,0 F,0,87106,,1 F,0,87142,,0 F,0,87178,,1 F,0,87214,,0 F,0,87394,,1 F,0,87430,,0 F,0,87466,,1 F,0,87503,,0 F,0,87683,,1 F,0,87719,,0 F,0,87755,,1 F,0,87791,,0 F,0,92584,,1 F,0,92620,,0 F,0,92656,,1 F,0,92692,,0 F,0,92728,,1 F,0,92764,,0 F,0,92873,,1 F,0,92909,,0 F,0,92945,,1 F,0,92981,,0 F,0,93017,,1 F,0,93053,,0 F,0,93161,,1 F,0,93197,,0 F,0,93233,,1 F,0,93269,,0 F,0,93305,,1 F,0,93341,,0 F,0,93449,,1 F,0,93485,,0 F,0,93521,,1 F,0,93557,,0 F,0,93593,,1 F,0,93629,,0 F,0,97486,,1 F,0,97522,,0 F,0,97558,,1 F,0,97594,,0 F,0,97630,,1 F,0,97666,,0 F,0,97702,,1 F,0,97738,,0 F,0,97774,,1 F,0,97810,,0 F,0,97846,,1 F,0,97882,,0 F,0,102387,,1 F,0,102423,,0 F,0,102459,,1 F,0,102495,,0 F,0,112190,113343,1,0 F,0,116227,,1 F,0,116263,,0 F,0,116299,,1 F,0,116335,,0 F,0,116371,,1 F,0,116407,,0 F,0,116515,,1 F,0,116551,,0 F,0,116587,,1 F,0,116623,,0 F,0,116659,,1 F,0,116695,,0 F,0,120552,,1 F,0,120588,,0 F,0,120624,,1 F,0,120660,,0 F,0,120696,,1 F,0,120732,,0 F,0,120840,,1 F,0,120876,,0 F,0,120912,,1 F,0,120948,,0 F,0,120984,,1 F,0,121020,,0 F,0,124011,,1 F,0,124047,,0 F,0,124083,,1 F,0,124120,,0 F,0,124300,,1 F,0,124336,,0 F,0,124372,,1 F,0,124408,,0 F,0,124588,,1 F,0,124624,,0 F,0,124660,,1 F,0,124696,,0 F,0,129490,,1 F,0,129526,,0 F,0,129562,,1 F,0,129598,,0 F,0,129634,,1 F,0,129670,,0 F,0,129778,,1 F,0,129814,,0 F,0,129850,,1 F,0,129886,,0 F,0,129922,,1 F,0,129958,,0 F,0,130066,,1 F,0,130102,,0 F,0,130138,,1 F,0,130174,,0 F,0,130210,,1 F,0,130246,,0 F,0,130355,,1 F,0,130391,,0 F,0,130427,,1 F,0,130463,,0 F,0,130499,,1 F,0,130535,,0 F,0,134391,,1 F,0,134427,,0 F,0,134463,,1 F,0,134499,,0 F,0,134535,,1 F,0,134571,,0 F,0,134607,,1 F,0,134643,,0 F,0,134679,,1 F,0,134715,,0 F,0,134751,,1 F,0,134787,,0 F,0,139293,,1 F,0,139329,,0 F,0,139365,,1 F,0,139401,,0 F,0,149096,150249,0,1 F,0,150249,151402,1,0
Sprite,Foreground,Centre,"SB\black.png",320,240 F,0,78745,79285,0,0.6816 F,0,79321,,0 F,0,83358,83610,0,0.6112 F,0,83646,,0 F,0,86818,87070,0,0.6048001 F,0,87106,,0 F,0,91431,92548,0,0.912 F,0,92584,,0 F,0,97197,97450,0,0.72 F,0,97486,,0 F,0,101811,102351,0,0.5792 F,0,102387,,0 F,0,109884,112154,0,0.6847999 F,0,112190,,0 F,0,115650,116191,0,0.72 F,0,116227,,0 F,0,120263,120515,0,0.6432 F,0,120552,,0 F,0,123723,123975,0,0.5376 F,0,123975,,0.5376 F,0,124011,,0 F,0,124011,,0 F,0,128336,129454,0,0.9119999 F,0,129490,,0 F,0,134103,134355,0,0.7135999 F,0,134391,,0 F,0,138716,139256,0,0.6336 F,0,139293,,0
//Storyboard Sound Samples

[TimingPoints]
895,288.322921672273,4,1,1,60,1,0
9833,-100,4,2,0,60,0,0
18194,-100,4,1,0,60,0,0
18771,-100,4,1,0,60,0,0
19347,-100,4,1,0,60,0,0
19924,-100,4,1,0,60,0,0
20500,-100,4,1,0,60,0,0
21077,-100,4,1,0,60,0,0
21654,-100,4,1,0,60,0,0
22230,-100,4,1,0,60,0,0
22591,-100,4,1,0,60,0,0
23384,-100,4,1,0,60,0,0
23960,-100,4,1,0,60,0,0
24537,-100,4,1,0,60,0,0
28862,-100,4,1,0,60,0,0
29727,-100,4,1,0,60,0,0
30303,-100,4,1,0,60,0,0
30880,-100,4,1,0,60,0,0
31457,-100,4,1,0,60,0,0
32033,-100,4,1,0,60,0,0
32610,-100,4,1,0,60,0,0
33187,-100,4,1,0,60,0,0
33763,-100,4,1,0,60,0,0
35493,-100,4,1,0,60,0,0
37728,-100,4,2,0,60,0,0
38380,288.322921672273,4,1,0,60,1,0
38380,-100,4,2,1,60,0,0
75285,-100,4,1,1,60,0,1
92008,-100,4,1,1,60,0,1
92584,-100,4,1,1,60,0,1
109884,-100,4,1,1,60,0,0
112190,-100,4,1,1,60,0,1
128913,-100,4,1,1,60,0,1
129490,-100,4,1,1,60,0,1
150249,-100,4,1,1,60,0,0

[Colours]
Combo1 : 255,255,0
Combo2 : 255,0,0
Combo3 : 0,0,160
Combo4 : 255,255,255

[HitObjects]
320,192,895,5,0,0:0:0:0:
448,192,895,1,0,0:0:0:0:
64,192,1039,1,0,0:0:0:0:
64,192,1183,1,0,0:0:0:0:
192,192,1327,1,0,0:0:0:0:
448,192,1471,1,0,0:0:0:0:
64,192,1471,1,0,0:0:0:0:
320,192,1615,1,0,0:0:0:0:
64,192,1759,1,0,0:0:0:0:
192,192,1904,1,0,0:0:0:0:
448,192,2048,1,0,0:0:0:0:
192,192,2048,1,0,0:0:0:0:
320,192,2192,1,0,0:0:0:0:
320,192,2336,1,0,0:0:0:0:
64,192,2480,1,0,0:0:0:0:
192,192,2624,1,0,0:0:0:0:
448,192,2624,1,0,0:0:0:0:
64,192,2769,1,0,0:0:0:0:
192,192,2913,1,0,0:0:0:0:
448,192,3057,1,0,0:0:0:0:
448,192,3201,1,0,0:0:0:0:
64,192,3201,1,0,0:0:0:0:
192,192,3345,1,0,0:0:0:0:
192,192,3489,1,0,0:0:0:0:
320,192,3634,1,0,0:0:0:0:
64,192,3778,1,0,0:0:0:0:
448,192,3778,1,0,0:0:0:0:
192,192,3922,1,0,0:0:0:0:
448,192,4066,1,0,0:0:0:0:
320,192,4210,1,0,0:0:0:0:
320,192,4354,1,0,0:0:0:0:
192,192,4354,1,0,0:0:0:0:
64,192,4499,1,0,0:0:0:0:
448,192,4643,1,0,0:0:0:0:
448,192,4787,1,0,0:0:0:0:
320,192,4931,1,0,0:0:0:0:
64,192,4931,1,0,0:0:0:0:
192,192,5075,1,0,0:0:0:0:
448,192,5219,1,0,0:0:0:0:
64,192,5364,1,0,0:0:0:0:
64,192,5508,1,0,0:0:0:0:
448,192,5508,1,0,0:0:0:0:
320,192,5652,1,0,0:0:0:0:
320,192,5796,1,0,0:0:0:0:
192,192,5940,1,0,0:0:0:0:
64,192,6084,1,0,0:0:0:0:
448,192,6084,1,0,0:0:0:0:
320,192,6228,1,0,0:0:0:0:
64,192,6373,1,0,0:0:0:0:
64,192,6517,1,0,0:0:0:0:
192,192,6661,1,0,0:0:0:0:
448,192,6661,1,0,0:0:0:0:
448,192,6805,1,0,0:0:0:0:
320,192,6949,1,0,0:0:0:0:
192,192,7093,1,0,0:0:0:0:
64,192,7238,1,0,0:0:0:0:
448,192,7238,1,0,0:0:0:0:
320,192,7382,1,0,0:0:0:0:
192,192,7526,1,0,0:0:0:0:
64,192,7670,1,0,0:0:0:0:
64,192,7814,1,0,0:0:0:0:
320,192,7814,1,0,0:0:0:0:
320,192,7958,1,0,0:0:0:0:
192,192,8103,1,0,0:0:0:0:
64,192,8247,1,0,0:0:0:0:
448,192,8391,1,0,0:0:0:0:
320,192,8391,1,0,0:0:0:0:
192,192,8535,1,0,0:0:0:0:
320,192,8679,1,0,0:0:0:0:
192,192,8823,1,0,0:0:0:0:
192,192,8968,1,0,0:0:0:0:
448,192,8968,1,0,0:0:0:0:
448,192,9112,1,0,0:0:0:0:
320,192,9256,1,0,0:0:0:0:
192,192,9400,1,0,0:0:0:0:
64,192,9544,1,0,0:0:0:0:
320,192,9544,1,0,0:0:0:0:
448,192,9688,1,0,0:0:0:0:
320,192,9833,1,0,0:0:0:0:
192,192,9977,1,0,0:0:0:0:
192,192,10121,1,0,0:0:0:0:
64,192,10121,1,0,0:0:0:0:
64,192,10265,1,0,0:0:0:0:
320,192,10409,1,0,0:0:0:0:
448,192,10553,1,0,0:0:0:0:
192,192,10697,1,0,0:0:0:0:
64,192,10697,1,0,0:0:0:0:
320,192,10842,1,0,0:0:0:0:
192,192,10986,1,0,0:0:0:0:
448,192,11130,1,0,0:0:0:0:
448,192,11274,1,0,0:0:0:0:
320,192,11274,1,0,0:0:0:0:
320,192,11418,1,0,0:0:0:0:
64,192,11562,1,0,0:0:0:0:
192,192,11707,1,0,0:0:0:0:
320,192,11851,1,0,0:0:0:0:
448,192,11851,1,0,0:0:0:0:
192,192,11995,1,0,0:0:0:0:
64,192,12139,1,0,0:0:0:0:
320,192,12283,1,0,0:0:0:0:
320,192,12427,1,0,0:0:0:0:
192,192,12427,1,0,0:0:0:0:
192,192,12572,1,0,0:0:0:0:
448,192,12716,1,0,0:0:0:0:
320,192,12860,1,0,0:0:0:0:
64,192,13004,1,0,0:0:0:0:
448,192,13004,1,0,0:0:0:0:
192,192,13148,1,0,0:0:0:0:
320,192,13292,1,0,0:0:0:0:
448,192,13437,1,0,0:0:0:0:
448,192,13581,1,0,0:0:0:0:
64,192,13581,1,0,0:0:0:0:
64,192,13725,1,0,0:0:0:0:
320,192,13869,1,0,0:0:0:0:
192,192,14013,1,0,0:0:0:0:
448,192,14157,1,0,0:0:0:0:
64,192,14157,1,0,0:0:0:0:
320,192,14302,1,0,0:0:0:0:
192,192,14446,1,0,0:0:0:0:
448,192,14590,1,0,0:0:0:0:
448,192,14734,1,0,0:0:0:0:
192,192,14734,1,0,0:0:0:0:
192,192,14878,1,0,0:0:0:0:
64,192,15022,1,0,0:0:0:0:
320,192,15166,1,0,0:0:0:0:
192,192,15311,1,0,0:0:0:0:
448,192,15311,1,0,0:0:0:0:
64,192,15455,1,0,0:0:0:0:
448,192,15599,1,0,0:0:0:0:
320,192,15743,1,0,0:0:0:0:
320,192,15887,1,0,0:0:0:0:
64,192,15887,1,0,0:0:0:0:
64,192,16031,1,0,0:0:0:0:
192,192,16176,1,0,0:0:0:0:
320,192,16320,1,0,0:0:0:0:
448,192,16464,1,0,0:0:0:0:
64,192,16464,1,0,0:0:0:0:
192,192,16608,1,0,0:0:0:0:
320,192,16752,1,0,0:0:0:0:
448,192,16896,1,0,0:0:0:0:
448,192,17041,1,0,0:0:0:0:
320,192,17041,1,0,0:0:0:0:
320,192,17185,1,0,0:0:0:0:
192,192,17329,1,0,0:0:0:0:
64,192,17473,1,0,0:0:0:0:
192,192,17617,1,0,0:0:0:0:
448,192,17617,1,0,0:0:0:0:
320,192,17761,1,0,0:0:0:0:
64,192,17906,1,0,0:0:0:0:
192,192,18050,1,0,0:0:0:0:
320,192,18194,1,0,0:0:0:0:
448,192,18194,1,0,0:0:0:0:
64,192,18194,1,0,0:0:0:0:
64,192,18482,1,0,0:0:0:0:
192,192,18482,1,0,0:0:0:0:
64,192,18626,1,0,0:0:0:0:
192,192,18626,1,0,0:0:0:0:
64,192,18771,1,0,0:0:0:0:
320,192,18771,1,0,0:0:0:0:
448,192,18771,1,0,0:0:0:0:
448,192,19059,1,0,0:0:0:0:
192,192,19059,1,0,0:0:0:0:
320,192,19203,1,0,0:0:0:0:
192,192,19275,1,0,0:0:0:0:
64,192,19347,1,0,0:0:0:0:
448,192,19347,1,0,0:0:0:0:
64,192,19635,1,0,0:0:0:0:
320,192,19635,1,0,0:0:0:0:
192,192,19780,1,0,0:0:0:0:
64,192,19780,1,0,0:0:0:0:
192,192,19924,1,0,0:0:0:0:
448,192,19924,1,0,0:0:0:0:
320,192,20212,1,0,0:0:0:0:
192,192,20212,1,0,0:0:0:0:
448,192,20356,1,0,0:0:0:0:
320,192,20428,1,0,0:0:0:0:
192,192,20500,1,0,0:0:0:0:
64,192,20500,1,0,0:0:0:0:
64,192,20789,1,0,0:0:0:0:
192,192,20789,1,0,0:0:0:0:
192,192,20933,1,0,0:0:0:0:
320,192,20933,1,0,0:0:0:0:
64,192,21077,1,0,0:0:0:0:
448,192,21077,1,0,0:0:0:0:
448,192,21365,1,0,0:0:0:0:
192,192,21365,1,0,0:0:0:0:
320,192,21510,1,0,0:0:0:0:
192,192,21582,1,0,0:0:0:0:
64,192,21654,1,0,0:0:0:0:
448,192,21654,1,0,0:0:0:0:
64,192,21942,1,0,0:0:0:0:
320,192,21942,1,0,0:0:0:0:
192,192,22086,1,0,0:0:0:0:
320,192,22086,1,0,0:0:0:0:
192,192,22230,1,0,0:0:0:0:
448,192,22230,1,0,0:0:0:0:
448,192,22519,1,0,0:0:0:0:
64,192,22519,1,0,0:0:0:0:
320,192,22663,1,0,0:0:0:0:
192,192,22735,1,0,0:0:0:0:
64,192,22807,1,0,0:0:0:0:
448,192,22807,1,0,0:0:0:0:
64,192,23095,1,0,0:0:0:0:
320,192,23095,1,0,0:0:0:0:
192,192,23240,1,0,0:0:0:0:
320,192,23240,1,0,0:0:0:0:
192,192,23384,1,0,0:0:0:0:
448,192,23384,1,0,0:0:0:0:
320,192,23672,1,0,0:0:0:0:
192,192,23672,1,0,0:0:0:0:
64,192,23816,1,0,0:0:0:0:
192,192,23888,1,0,0:0:0:0:
320,192,23960,1,0,0:0:0:0:
448,192,23960,1,0,0:0:0:0:
448,192,24249,1,0,0:0:0:0:
64,192,24249,1,0,0:0:0:0:
320,192,24393,1,0,0:0:0:0:
64,192,24393,1,0,0:0:0:0:
192,192,24537,1,0,0:0:0:0:
448,192,24537,1,0,0:0:0:0:
64,192,24825,1,0,0:0:0:0:
320,192,24825,1,0,0:0:0:0:
192,192,24969,1,0,0:0:0:0:
320,192,25042,1,0,0:0:0:0:
448,192,25114,1,0,0:0:0:0:
64,192,25114,1,0,0:0:0:0:
320,192,25258,1,0,0:0:0:0:
64,192,25402,1,0,0:0:0:0:
192,192,25402,1,0,0:0:0:0:
192,192,25546,1,0,0:0:0:0:
448,192,25546,1,0,0:0:0:0:
64,192,25690,1,0,0:0:0:0:
448,192,25690,128,0,25979:0:0:0:0:
320,192,25979,1,0,0:0:0:0:
192,192,25979,1,0,0:0:0:0:
64,192,26123,1,0,0:0:0:0:
192,192,26195,1,0,0:0:0:0:
320,192,26267,1,0,0:0:0:0:
448,192,26267,1,0,0:0:0:0:
192,192,26411,1,0,0:0:0:0:
64,192,26555,1,0,0:0:0:0:
448,192,26555,1,0,0:0:0:0:
320,192,26699,1,0,0:0:0:0:
192,192,26699,1,0,0:0:0:0:
192,192,26844,1,0,0:0:0:0:
64,192,26844,1,0,0:0:0:0:
192,192,27132,1,0,0:0:0:0:
448,192,27132,1,0,0:0:0:0:
320,192,27276,1,0,0:0:0:0:
192,192,27348,1,0,0:0:0:0:
448,192,27420,1,0,0:0:0:0:
64,192,27420,1,0,0:0:0:0:
448,192,27564,1,0,0:0:0:0:
320,192,27709,1,0,0:0:0:0:
192,192,27709,1,0,0:0:0:0:
192,192,27853,1,0,0:0:0:0:
64,192,27853,1,0,0:0:0:0:
64,192,27997,1,0,0:0:0:0:
448,192,27997,1,0,0:0:0:0:
448,192,28141,1,0,0:0:0:0:
192,192,28285,1,0,0:0:0:0:
320,192,28285,1,0,0:0:0:0:
64,192,28429,1,0,0:0:0:0:
192,192,28501,1,0,0:0:0:0:
320,192,28574,1,0,0:0:0:0:
448,192,28574,1,0,0:0:0:0:
448,192,28718,1,0,0:0:0:0:
192,192,28862,1,0,0:0:0:0:
64,192,28862,1,0,0:0:0:0:
64,192,29006,1,0,0:0:0:0:
192,192,29150,1,0,0:0:0:0:
320,192,29150,1,0,0:0:0:0:
448,192,29150,1,0,0:0:0:0:
64,192,29438,1,0,0:0:0:0:
448,192,29438,1,0,0:0:0:0:
320,192,29583,1,0,0:0:0:0:
192,192,29655,1,0,0:0:0:0:
64,192,29727,1,0,0:0:0:0:
448,192,29727,1,0,0:0:0:0:
448,192,29871,1,0,0:0:0:0:
320,192,30015,1,0,0:0:0:0:
192,192,30015,1,0,0:0:0:0:
192,192,30159,1,0,0:0:0:0:
64,192,30303,1,0,0:0:0:0:
448,192,30303,1,0,0:0:0:0:
320,192,30303,1,0,0:0:0:0:
192,192,30592,1,0,0:0:0:0:
448,192,30592,1,0,0:0:0:0:
320,192,30736,1,0,0:0:0:0:
192,192,30808,1,0,0:0:0:0:
64,192,30880,1,0,0:0:0:0:
448,192,30880,1,0,0:0:0:0:
64,192,31024,1,0,0:0:0:0:
320,192,31168,1,0,0:0:0:0:
448,192,31168,1,0,0:0:0:0:
448,192,31313,1,0,0:0:0:0:
64,192,31457,1,0,0:0:0:0:
192,192,31457,1,0,0:0:0:0:
320,192,31457,1,0,0:0:0:0:
448,192,31745,1,0,0:0:0:0:
320,192,31745,1,0,0:0:0:0:
64,192,31889,1,0,0:0:0:0:
192,192,31961,1,0,0:0:0:0:
448,192,32033,1,0,0:0:0:0:
320,192,32033,1,0,0:0:0:0:
320,192,32178,1,0,0:0:0:0:
64,192,32322,1,0,0:0:0:0:
192,192,32322,1,0,0:0:0:0:
64,192,32466,5,0,0:0:0:0:
192,192,32610,1,0,0:0:0:0:
320,192,32610,1,0,0:0:0:0:
448,192,32610,1,0,0:0:0:0:
64,192,32898,1,0,0:0:0:0:
448,192,32898,1,0,0:0:0:0:
192,192,33043,1,0,0:0:0:0:
320,192,33115,1,0,0:0:0:0:
448,192,33187,1,0,0:0:0:0:
64,192,33187,1,0,0:0:0:0:
192,192,33259,1,0,0:0:0:0:
320,192,33331,1,0,0:0:0:0:
448,192,33331,1,0,0:0:0:0:
64,192,33403,1,0,0:0:0:0:
192,192,33475,1,0,0:0:0:0:
320,192,33475,1,0,0:0:0:0:
448,192,33547,1,0,0:0:0:0:
64,192,33619,1,0,0:0:0:0:
192,192,33619,1,0,0:0:0:0:
320,192,33691,1,0,0:0:0:0:
448,192,33763,1,0,0:0:0:0:
64,192,33763,1,0,0:0:0:0:
192,192,33835,1,0,0:0:0:0:
320,192,33907,1,0,0:0:0:0:
448,192,33907,1,0,0:0:0:0:
192,192,33980,1,0,0:0:0:0:
64,192,34052,1,0,0:0:0:0:
448,192,34052,1,0,0:0:0:0:
320,192,34124,1,0,0:0:0:0:
192,192,34196,1,0,0:0:0:0:
64,192,34196,1,0,0:0:0:0:
448,192,34268,1,0,0:0:0:0:
320,192,34340,1,0,0:0:0:0:
64,192,34340,1,0,0:0:0:0:
192,192,34412,1,0,0:0:0:0:
448,192,34484,1,0,0:0:0:0:
320,192,34484,1,0,0:0:0:0:
64,192,34556,1,0,0:0:0:0:
192,192,34628,1,0,0:0:0:0:
448,192,34628,1,0,0:0:0:0:
320,192,34700,1,0,0:0:0:0:
192,192,34772,1,0,0:0:0:0:
64,192,34772,1,0,0:0:0:0:
448,192,34845,1,0,0:0:0:0:
320,192,34917,1,0,0:0:0:0:
192,192,34917,1,0,0:0:0:0:
64,192,34989,1,0,0:0:0:0:
192,192,35061,1,0,0:0:0:0:
448,192,35061,1,0,0:0:0:0:
320,192,35133,1,0,0:0:0:0:
192,192,35205,1,0,0:0:0:0:
448,192,35205,1,0,0:0:0:0:
64,192,35277,1,0,0:0:0:0:
192,192,35349,1,0,0:0:0:0:
320,192,35421,1,0,0:0:0:0:
448,192,35493,1,0,0:0:0:0:
448,192,35589,1,0,0:0:0:0:
448,192,35685,1,0,0:0:0:0:
448,192,35782,128,0,36070:0:0:0:0:
64,192,36070,128,0,36358:0:0:0:0:
320,192,36358,128,0,36647:0:0:0:0:
448,192,36647,128,0,36743:0:0:0:0:
64,192,36839,128,0,36935:0:0:0:0:
192,192,36935,128,0,37800:0:0:0:0:
320,192,37800,128,0,38304:0:0:0:0:
64,192,38376,128,0,42921:0:0:0:0:
448,192,38380,128,0,40037:0:0:0:0:
320,192,38380,128,0,40902:0:0:0:0:
192,192,38380,128,0,40470:0:0:0:0:
448,192,40109,128,0,44651:0:0:0:0:
192,192,40542,128,0,47606:0:0:0:0:
320,192,40974,128,0,45083:0:0:0:0:
64,192,42993,128,0,45588:0:0:0:0:
448,192,44723,128,0,50129:0:0:0:0:
320,192,45155,128,0,49408:0:0:0:0:
64,192,45660,128,0,49624:0:0:0:0:
192,192,47678,128,0,49480:0:0:0:0:
320,192,49480,128,0,49552:0:0:0:0:
192,192,49624,128,0,51426:0:0:0:0:
320,192,49624,128,0,50994:0:0:0:0:
64,192,49696,128,0,51859:0:0:0:0:
448,192,50201,128,0,52219:0:0:0:0:
320,192,51066,128,0,53300:0:0:0:0:
192,192,51498,128,0,53012:0:0:0:0:
64,192,51931,128,0,59355:0:0:0:0:
448,192,52291,128,0,56760:0:0:0:0:
192,192,53084,128,0,58490:0:0:0:0:
320,192,53372,128,0,61373:0:0:0:0:
448,192,56832,128,0,58778:0:0:0:0:
192,192,58562,128,0,62815:0:0:0:0:
448,192,58850,128,0,68077:0:0:0:0:
64,192,59427,128,0,62959:0:0:0:0:
320,192,61445,128,0,63319:0:0:0:0:
192,192,62887,128,0,63608:0:0:0:0:
64,192,63031,128,0,63896:0:0:0:0:
320,192,63392,128,0,65986:0:0:0:0:
192,192,63680,128,0,67788:0:0:0:0:
64,192,63968,128,0,68293:0:0:0:0:
320,192,66059,128,0,70311:0:0:0:0:
192,192,67861,128,0,69446:0:0:0:0:
448,192,68149,128,0,69879:0:0:0:0:
64,192,68365,128,0,72978:0:0:0:0:
192,192,69518,128,0,70744:0:0:0:0:
448,192,69951,128,0,75213:0:0:0:0:
320,192,70383,128,0,75213:0:0:0:0:
192,192,70816,128,0,75213:0:0:0:0:
64,192,73050,128,0,75213:0:0:0:0:
192,192,75285,5,0,0:0:0:0:
64,192,75285,1,0,0:0:0:0:
448,192,75285,1,0,0:0:0:0:
320,192,75357,1,0,0:0:0:0:
64,192,75429,1,0,0:0:0:0:
192,192,75429,1,0,0:0:0:0:
448,192,75501,1,0,0:0:0:0:
320,192,75573,1,0,0:0:0:0:
64,192,75573,1,0,0:0:0:0:
192,192,75645,1,0,0:0:0:0:
320,192,75717,1,0,0:0:0:0:
448,192,75717,1,0,0:0:0:0:
64,192,75789,1,0,0:0:0:0:
192,192,75861,1,0,0:0:0:0:
448,192,75861,1,0,0:0:0:0:
320,192,75934,1,0,0:0:0:0:
192,192,76006,1,0,0:0:0:0:
64,192,76006,1,0,0:0:0:0:
448,192,76078,1,0,0:0:0:0:
320,192,76150,1,0,0:0:0:0:
192,192,76150,1,0,0:0:0:0:
64,192,76222,1,0,0:0:0:0:
320,192,76294,1,0,0:0:0:0:
448,192,76294,1,0,0:0:0:0:
192,192,76366,1,0,0:0:0:0:
64,192,76438,1,0,0:0:0:0:
448,192,76438,1,0,0:0:0:0:
320,192,76510,1,0,0:0:0:0:
192,192,76582,1,0,0:0:0:0:
64,192,76582,1,0,0:0:0:0:
448,192,76654,1,0,0:0:0:0:
320,192,76726,1,0,0:0:0:0:
192,192,76726,1,0,0:0:0:0:
64,192,76799,1,0,0:0:0:0:
448,192,76871,1,0,0:0:0:0:
320,192,76871,1,0,0:0:0:0:
192,192,76943,1,0,0:0:0:0:
64,192,77015,1,0,0:0:0:0:
320,192,77015,1,0,0:0:0:0:
448,192,77015,1,0,0:0:0:0:
192,192,77087,1,0,0:0:0:0:
64,192,77159,1,0,0:0:0:0:
448,192,77231,1,0,0:0:0:0:
320,192,77303,1,0,0:0:0:0:
64,192,77303,1,0,0:0:0:0:
192,192,77375,1,0,0:0:0:0:
320,192,77447,1,0,0:0:0:0:
448,192,77447,1,0,0:0:0:0:
64,192,77447,1,0,0:0:0:0:
192,192,77519,1,0,0:0:0:0:
320,192,77591,1,0,0:0:0:0:
448,192,77591,1,0,0:0:0:0:
64,192,77663,1,0,0:0:0:0:
192,192,77736,1,0,0:0:0:0:
448,192,77736,1,0,0:0:0:0:
320,192,77808,1,0,0:0:0:0:
64,192,77880,1,0,0:0:0:0:
192,192,77880,1,0,0:0:0:0:
448,192,77880,1,0,0:0:0:0:
320,192,77952,1,0,0:0:0:0:
192,192,78024,1,0,0:0:0:0:
64,192,78024,1,0,0:0:0:0:
448,192,78096,1,0,0:0:0:0:
320,192,78168,1,0,0:0:0:0:
64,192,78168,1,0,0:0:0:0:
192,192,78240,1,0,0:0:0:0:
320,192,78312,1,0,0:0:0:0:
448,192,78312,1,0,0:0:0:0:
64,192,78384,1,0,0:0:0:0:
192,192,78456,1,0,0:0:0:0:
320,192,78456,1,0,0:0:0:0:
448,192,78528,1,0,0:0:0:0:
64,192,78601,1,0,0:0:0:0:
192,192,78601,1,0,0:0:0:0:
320,192,78673,1,0,0:0:0:0:
448,192,78745,1,0,0:0:0:0:
64,192,78745,1,0,0:0:0:0:
64,192,78889,1,0,0:0:0:0:
448,192,78889,1,0,0:0:0:0:
320,192,79033,1,0,0:0:0:0:
192,192,79069,1,0,0:0:0:0:
64,192,79105,1,0,0:0:0:0:
448,192,79141,1,0,0:0:0:0:
320,192,79177,1,0,0:0:0:0:
192,192,79213,1,0,0:0:0:0:
64,192,79249,1,0,0:0:0:0:
320,192,79321,1,0,0:0:0:0:
448,192,79357,1,0,0:0:0:0:
192,192,79393,1,0,0:0:0:0:
320,192,79429,1,0,0:0:0:0:
64,192,79466,1,0,0:0:0:0:
448,192,79466,1,0,0:0:0:0:
192,192,79502,1,0,0:0:0:0:
320,192,79610,1,0,0:0:0:0:
192,192,79646,1,0,0:0:0:0:
448,192,79682,1,0,0:0:0:0:
64,192,79682,1,0,0:0:0:0:
320,192,79718,1,0,0:0:0:0:
192,192,79754,1,0,0:0:0:0:
320,192,79826,1,0,0:0:0:0:
64,192,79898,1,0,0:0:0:0:
448,192,79898,1,0,0:0:0:0:
192,192,79970,1,0,0:0:0:0:
320,192,80042,1,0,0:0:0:0:
64,192,80042,1,0,0:0:0:0:
448,192,80114,1,0,0:0:0:0:
192,192,80186,1,0,0:0:0:0:
320,192,80186,1,0,0:0:0:0:
448,192,80258,1,0,0:0:0:0:
192,192,80330,1,0,0:0:0:0:
64,192,80330,1,0,0:0:0:0:
320,192,80403,1,0,0:0:0:0:
448,192,80475,1,0,0:0:0:0:
64,192,80475,1,0,0:0:0:0:
192,192,80547,1,0,0:0:0:0:
320,192,80619,1,0,0:0:0:0:
448,192,80619,1,0,0:0:0:0:
64,192,80691,1,0,0:0:0:0:
192,192,80763,1,0,0:0:0:0:
320,192,80763,1,0,0:0:0:0:
448,192,80835,1,0,0:0:0:0:
320,192,80907,1,0,0:0:0:0:
64,192,80907,1,0,0:0:0:0:
192,192,80979,1,0,0:0:0:0:
64,192,81051,1,0,0:0:0:0:
448,192,81051,1,0,0:0:0:0:
320,192,81123,1,0,0:0:0:0:
192,192,81195,1,0,0:0:0:0:
64,192,81195,1,0,0:0:0:0:
448,192,81268,1,0,0:0:0:0:
320,192,81340,1,0,0:0:0:0:
192,192,81340,1,0,0:0:0:0:
64,192,81412,1,0,0:0:0:0:
320,192,81484,1,0,0:0:0:0:
448,192,81484,1,0,0:0:0:0:
192,192,81556,1,0,0:0:0:0:
64,192,81628,1,0,0:0:0:0:
448,192,81628,1,0,0:0:0:0:
320,192,81628,1,0,0:0:0:0:
192,192,81700,1,0,0:0:0:0:
64,192,81772,1,0,0:0:0:0:
448,192,81772,1,0,0:0:0:0:
320,192,81844,1,0,0:0:0:0:
192,192,81916,1,0,0:0:0:0:
64,192,81916,1,0,0:0:0:0:
320,192,81988,1,0,0:0:0:0:
448,192,82060,1,0,0:0:0:0:
192,192,82060,1,0,0:0:0:0:
64,192,82060,1,0,0:0:0:0:
320,192,82133,1,0,0:0:0:0:
448,192,82205,1,0,0:0:0:0:
192,192,82205,1,0,0:0:0:0:
64,192,82277,1,0,0:0:0:0:
320,192,82349,1,0,0:0:0:0:
448,192,82349,1,0,0:0:0:0:
192,192,82421,1,0,0:0:0:0:
64,192,82493,1,0,0:0:0:0:
320,192,82493,1,0,0:0:0:0:
448,192,82493,1,0,0:0:0:0:
192,192,82565,1,0,0:0:0:0:
64,192,82637,1,0,0:0:0:0:
320,192,82637,1,0,0:0:0:0:
448,192,82709,1,0,0:0:0:0:
192,192,82781,1,0,0:0:0:0:
64,192,82781,1,0,0:0:0:0:
320,192,82853,1,0,0:0:0:0:
448,192,82925,1,0,0:0:0:0:
64,192,82925,1,0,0:0:0:0:
192,192,82997,1,0,0:0:0:0:
320,192,83070,1,0,0:0:0:0:
448,192,83070,1,0,0:0:0:0:
64,192,83142,1,0,0:0:0:0:
192,192,83214,1,0,0:0:0:0:
448,192,83214,1,0,0:0:0:0:
320,192,83286,1,0,0:0:0:0:
192,192,83358,1,0,0:0:0:0:
64,192,83358,1,0,0:0:0:0:
320,192,83430,1,0,0:0:0:0:
192,192,83502,1,0,0:0:0:0:
64,192,83502,1,0,0:0:0:0:
320,192,83574,1,0,0:0:0:0:
448,192,83646,1,0,0:0:0:0:
320,192,83682,1,0,0:0:0:0:
192,192,83718,1,0,0:0:0:0:
64,192,83754,1,0,0:0:0:0:
448,192,83790,1,0,0:0:0:0:
320,192,83826,1,0,0:0:0:0:
64,192,83935,1,0,0:0:0:0:
448,192,83971,1,0,0:0:0:0:
320,192,84007,1,0,0:0:0:0:
192,192,84007,1,0,0:0:0:0:
64,192,84043,1,0,0:0:0:0:
448,192,84079,1,0,0:0:0:0:
64,192,84223,1,0,0:0:0:0:
192,192,84223,1,0,0:0:0:0:
448,192,84223,1,0,0:0:0:0:
64,192,84367,1,0,0:0:0:0:
448,192,84367,1,0,0:0:0:0:
320,192,84367,1,0,0:0:0:0:
192,192,84511,1,0,0:0:0:0:
64,192,84511,1,0,0:0:0:0:
320,192,84583,1,0,0:0:0:0:
192,192,84655,1,0,0:0:0:0:
64,192,84655,1,0,0:0:0:0:
448,192,84727,1,0,0:0:0:0:
320,192,84799,1,0,0:0:0:0:
192,192,84799,1,0,0:0:0:0:
64,192,84872,1,0,0:0:0:0:
192,192,84944,1,0,0:0:0:0:
448,192,84944,1,0,0:0:0:0:
320,192,85016,1,0,0:0:0:0:
64,192,85088,1,0,0:0:0:0:
192,192,85088,1,0,0:0:0:0:
448,192,85160,1,0,0:0:0:0:
320,192,85232,1,0,0:0:0:0:
64,192,85232,1,0,0:0:0:0:
192,192,85304,1,0,0:0:0:0:
320,192,85376,1,0,0:0:0:0:
448,192,85376,1,0,0:0:0:0:
64,192,85448,1,0,0:0:0:0:
192,192,85520,1,0,0:0:0:0:
320,192,85520,1,0,0:0:0:0:
448,192,85592,1,0,0:0:0:0:
64,192,85664,1,0,0:0:0:0:
192,192,85664,1,0,0:0:0:0:
320,192,85737,1,0,0:0:0:0:
448,192,85809,1,0,0:0:0:0:
64,192,85809,1,0,0:0:0:0:
192,192,85881,1,0,0:0:0:0:
320,192,85953,1,0,0:0:0:0:
448,192,85953,1,0,0:0:0:0:
64,192,86025,1,0,0:0:0:0:
192,192,86097,1,0,0:0:0:0:
448,192,86097,1,0,0:0:0:0:
320,192,86169,1,0,0:0:0:0:
192,192,86241,1,0,0:0:0:0:
64,192,86241,1,0,0:0:0:0:
448,192,86241,1,0,0:0:0:0:
320,192,86313,1,0,0:0:0:0:
192,192,86385,1,0,0:0:0:0:
64,192,86385,1,0,0:0:0:0:
448,192,86457,1,0,0:0:0:0:
192,192,86529,1,0,0:0:0:0:
320,192,86529,1,0,0:0:0:0:
64,192,86529,1,0,0:0:0:0:
448,192,86602,1,0,0:0:0:0:
320,192,86674,1,0,0:0:0:0:
64,192,86674,1,0,0:0:0:0:
192,192,86746,1,0,0:0:0:0:
320,192,86818,1,0,0:0:0:0:
448,192,86818,1,0,0:0:0:0:
64,192,86890,1,0,0:0:0:0:
192,192,86962,1,0,0:0:0:0:
448,192,86962,1,0,0:0:0:0:
320,192,87034,1,0,0:0:0:0:
192,192,87106,1,0,0:0:0:0:
64,192,87106,1,0,0:0:0:0:
448,192,87178,1,0,0:0:0:0:
320,192,87178,1,0,0:0:0:0:
192,192,87250,1,0,0:0:0:0:
64,192,87250,1,0,0:0:0:0:
448,192,87322,1,0,0:0:0:0:
320,192,87394,1,0,0:0:0:0:
192,192,87394,1,0,0:0:0:0:
64,192,87466,1,0,0:0:0:0:
448,192,87466,1,0,0:0:0:0:
320,192,87539,1,0,0:0:0:0:
192,192,87539,1,0,0:0:0:0:
64,192,87611,1,0,0:0:0:0:
320,192,87683,1,0,0:0:0:0:
448,192,87683,1,0,0:0:0:0:
192,192,87755,1,0,0:0:0:0:
64,192,87755,1,0,0:0:0:0:
320,192,87827,1,0,0:0:0:0:
448,192,87827,1,0,0:0:0:0:
64,192,87899,1,0,0:0:0:0:
320,192,87971,1,0,0:0:0:0:
192,192,87971,1,0,0:0:0:0:
448,192,87971,1,0,0:0:0:0:
64,192,88043,1,0,0:0:0:0:
192,192,88115,1,0,0:0:0:0:
448,192,88115,1,0,0:0:0:0:
320,192,88187,1,0,0:0:0:0:
192,192,88259,1,0,0:0:0:0:
64,192,88259,1,0,0:0:0:0:
448,192,88331,1,0,0:0:0:0:
64,192,88404,1,0,0:0:0:0:
192,192,88404,1,0,0:0:0:0:
320,192,88404,1,0,0:0:0:0:
448,192,88476,1,0,0:0:0:0:
320,192,88548,1,0,0:0:0:0:
192,192,88596,1,0,0:0:0:0:
64,192,88644,1,0,0:0:0:0:
448,192,88692,1,0,0:0:0:0:
320,192,88740,1,0,0:0:0:0:
64,192,88788,1,0,0:0:0:0:
448,192,88836,1,0,0:0:0:0:
192,192,88836,1,0,0:0:0:0:
320,192,88908,1,0,0:0:0:0:
192,192,88980,1,0,0:0:0:0:
64,192,88980,1,0,0:0:0:0:
448,192,89052,1,0,0:0:0:0:
192,192,89124,1,0,0:0:0:0:
320,192,89124,1,0,0:0:0:0:
64,192,89196,1,0,0:0:0:0:
320,192,89268,1,0,0:0:0:0:
448,192,89268,1,0,0:0:0:0:
192,192,89341,1,0,0:0:0:0:
64,192,89413,1,0,0:0:0:0:
448,192,89413,1,0,0:0:0:0:
320,192,89485,1,0,0:0:0:0:
192,192,89557,1,0,0:0:0:0:
64,192,89557,1,0,0:0:0:0:
448,192,89629,1,0,0:0:0:0:
320,192,89701,1,0,0:0:0:0:
64,192,89701,1,0,0:0:0:0:
192,192,89773,1,0,0:0:0:0:
320,192,89845,1,0,0:0:0:0:
448,192,89845,1,0,0:0:0:0:
64,192,89917,1,0,0:0:0:0:
192,192,89989,1,0,0:0:0:0:
320,192,89989,1,0,0:0:0:0:
448,192,89989,1,0,0:0:0:0:
64,192,90061,1,0,0:0:0:0:
448,192,90133,1,0,0:0:0:0:
192,192,90133,1,0,0:0:0:0:
320,192,90206,1,0,0:0:0:0:
64,192,90278,1,0,0:0:0:0:
192,192,90278,1,0,0:0:0:0:
448,192,90278,1,0,0:0:0:0:
320,192,90350,1,0,0:0:0:0:
192,192,90422,1,0,0:0:0:0:
64,192,90422,1,0,0:0:0:0:
448,192,90494,1,0,0:0:0:0:
320,192,90566,1,0,0:0:0:0:
64,192,90566,1,0,0:0:0:0:
192,192,90638,1,0,0:0:0:0:
320,192,90710,1,0,0:0:0:0:
448,192,90710,1,0,0:0:0:0:
64,192,90782,1,0,0:0:0:0:
192,192,90854,1,0,0:0:0:0:
320,192,90854,1,0,0:0:0:0:
448,192,90926,1,0,0:0:0:0:
64,192,90998,1,0,0:0:0:0:
192,192,90998,1,0,0:0:0:0:
320,192,91071,1,0,0:0:0:0:
448,192,91143,1,0,0:0:0:0:
64,192,91143,1,0,0:0:0:0:
192,192,91215,1,0,0:0:0:0:
320,192,91287,1,0,0:0:0:0:
448,192,91287,1,0,0:0:0:0:
64,192,91359,1,0,0:0:0:0:
192,192,91431,1,0,0:0:0:0:
320,192,91431,1,0,0:0:0:0:
192,192,91575,1,0,0:0:0:0:
320,192,91575,1,0,0:0:0:0:
448,192,91719,1,0,0:0:0:0:
320,192,91755,1,0,0:0:0:0:
192,192,91791,1,0,0:0:0:0:
64,192,91827,1,0,0:0:0:0:
448,192,91863,1,0,0:0:0:0:
320,192,91899,1,0,0:0:0:0:
192,192,92008,1,0,0:0:0:0:
64,192,92044,1,0,0:0:0:0:
448,192,92080,1,0,0:0:0:0:
320,192,92116,1,0,0:0:0:0:
192,192,92152,1,0,0:0:0:0:
64,192,92188,1,0,0:0:0:0:
448,192,92224,1,0,0:0:0:0:
320,192,92260,1,0,0:0:0:0:
192,192,92296,1,0,0:0:0:0:
448,192,92368,1,0,0:0:0:0:
320,192,92404,1,0,0:0:0:0:
192,192,92476,1,0,0:0:0:0:
64,192,92512,1,0,0:0:0:0:
320,192,92584,1,0,0:0:0:0:
192,192,92620,1,0,0:0:0:0:
64,192,92656,1,0,0:0:0:0:
448,192,92656,1,0,0:0:0:0:
320,192,92692,1,0,0:0:0:0:
192,192,92728,1,0,0:0:0:0:
192,192,92873,1,0,0:0:0:0:
320,192,92909,1,0,0:0:0:0:
448,192,92945,1,0,0:0:0:0:
64,192,92945,1,0,0:0:0:0:
192,192,92981,1,0,0:0:0:0:
320,192,93017,1,0,0:0:0:0:
320,192,93161,1,0,0:0:0:0:
192,192,93197,1,0,0:0:0:0:
64,192,93233,1,0,0:0:0:0:
448,192,93233,1,0,0:0:0:0:
320,192,93269,1,0,0:0:0:0:
192,192,93305,1,0,0:0:0:0:
192,192,93449,1,0,0:0:0:0:
320,192,93485,1,0,0:0:0:0:
448,192,93521,1,0,0:0:0:0:
64,192,93521,1,0,0:0:0:0:
192,192,93557,1,0,0:0:0:0:
320,192,93593,1,0,0:0:0:0:
64,192,93738,1,0,0:0:0:0:
320,192,93738,1,0,0:0:0:0:
448,192,93738,1,0,0:0:0:0:
192,192,93810,1,0,0:0:0:0:
64,192,93882,1,0,0:0:0:0:
448,192,93882,1,0,0:0:0:0:
320,192,93954,1,0,0:0:0:0:
192,192,94026,1,0,0:0:0:0:
64,192,94026,1,0,0:0:0:0:
448,192,94098,1,0,0:0:0:0:
320,192,94170,1,0,0:0:0:0:
192,192,94170,1,0,0:0:0:0:
64,192,94242,1,0,0:0:0:0:
192,192,94314,1,0,0:0:0:0:
448,192,94314,1,0,0:0:0:0:
320,192,94386,1,0,0:0:0:0:
64,192,94458,1,0,0:0:0:0:
448,192,94458,1,0,0:0:0:0:
320,192,94530,1,0,0:0:0:0:
192,192,94602,1,0,0:0:0:0:
64,192,94602,1,0,0:0:0:0:
448,192,94675,1,0,0:0:0:0:
320,192,94747,1,0,0:0:0:0:
192,192,94747,1,0,0:0:0:0:
64,192,94819,1,0,0:0:0:0:
320,192,94891,1,0,0:0:0:0:
448,192,94891,1,0,0:0:0:0:
192,192,94963,1,0,0:0:0:0:
64,192,95035,1,0,0:0:0:0:
448,192,95035,1,0,0:0:0:0:
320,192,95107,1,0,0:0:0:0:
192,192,95179,1,0,0:0:0:0:
64,192,95179,1,0,0:0:0:0:
448,192,95251,1,0,0:0:0:0:
320,192,95323,1,0,0:0:0:0:
64,192,95323,1,0,0:0:0:0:
192,192,95395,1,0,0:0:0:0:
64,192,95467,1,0,0:0:0:0:
448,192,95467,1,0,0:0:0:0:
320,192,95467,1,0,0:0:0:0:
192,192,95540,1,0,0:0:0:0:
320,192,95612,1,0,0:0:0:0:
448,192,95612,1,0,0:0:0:0:
64,192,95684,1,0,0:0:0:0:
448,192,95756,1,0,0:0:0:0:
192,192,95756,1,0,0:0:0:0:
320,192,95756,1,0,0:0:0:0:
64,192,95828,1,0,0:0:0:0:
192,192,95900,1,0,0:0:0:0:
448,192,95900,1,0,0:0:0:0:
320,192,95972,1,0,0:0:0:0:
192,192,96044,1,0,0:0:0:0:
64,192,96044,1,0,0:0:0:0:
448,192,96116,1,0,0:0:0:0:
320,192,96188,1,0,0:0:0:0:
64,192,96188,1,0,0:0:0:0:
192,192,96260,1,0,0:0:0:0:
64,192,96332,1,0,0:0:0:0:
448,192,96332,1,0,0:0:0:0:
320,192,96332,1,0,0:0:0:0:
192,192,96404,1,0,0:0:0:0:
64,192,96477,1,0,0:0:0:0:
448,192,96477,1,0,0:0:0:0:
320,192,96549,1,0,0:0:0:0:
192,192,96621,1,0,0:0:0:0:
64,192,96621,1,0,0:0:0:0:
448,192,96693,1,0,0:0:0:0:
320,192,96765,1,0,0:0:0:0:
192,192,96765,1,0,0:0:0:0:
64,192,96837,1,0,0:0:0:0:
192,192,96909,1,0,0:0:0:0:
448,192,96909,1,0,0:0:0:0:
64,192,96981,1,0,0:0:0:0:
320,192,97053,1,0,0:0:0:0:
448,192,97053,1,0,0:0:0:0:
192,192,97125,1,0,0:0:0:0:
320,192,97197,1,0,0:0:0:0:
64,192,97197,1,0,0:0:0:0:
64,192,97342,1,0,0:0:0:0:
320,192,97342,1,0,0:0:0:0:
448,192,97486,1,0,0:0:0:0:
64,192,97486,1,0,0:0:0:0:
320,192,97522,1,0,0:0:0:0:
192,192,97558,1,0,0:0:0:0:
64,192,97594,1,0,0:0:0:0:
320,192,97630,1,0,0:0:0:0:
448,192,97630,1,0,0:0:0:0:
192,192,97666,1,0,0:0:0:0:
64,192,97702,1,0,0:0:0:0:
448,192,97738,1,0,0:0:0:0:
320,192,97774,1,0,0:0:0:0:
192,192,97774,1,0,0:0:0:0:
64,192,97846,1,0,0:0:0:0:
192,192,97918,1,0,0:0:0:0:
448,192,97918,1,0,0:0:0:0:
320,192,97990,1,0,0:0:0:0:
192,192,98062,1,0,0:0:0:0:
64,192,98062,1,0,0:0:0:0:
320,192,98207,1,0,0:0:0:0:
448,192,98207,1,0,0:0:0:0:
448,192,98351,1,0,0:0:0:0:
64,192,98351,1,0,0:0:0:0:
192,192,98423,1,0,0:0:0:0:
64,192,98495,1,0,0:0:0:0:
320,192,98495,1,0,0:0:0:0:
192,192,98567,1,0,0:0:0:0:
320,192,98639,1,0,0:0:0:0:
448,192,98639,1,0,0:0:0:0:
64,192,98711,1,0,0:0:0:0:
192,192,98783,1,0,0:0:0:0:
448,192,98783,1,0,0:0:0:0:
320,192,98855,1,0,0:0:0:0:
192,192,98927,1,0,0:0:0:0:
64,192,98927,1,0,0:0:0:0:
448,192,98999,1,0,0:0:0:0:
320,192,99071,1,0,0:0:0:0:
192,192,99071,1,0,0:0:0:0:
64,192,99144,1,0,0:0:0:0:
320,192,99216,1,0,0:0:0:0:
448,192,99216,1,0,0:0:0:0:
192,192,99288,1,0,0:0:0:0:
64,192,99360,1,0,0:0:0:0:
448,192,99360,1,0,0:0:0:0:
320,192,99432,1,0,0:0:0:0:
192,192,99504,1,0,0:0:0:0:
64,192,99504,1,0,0:0:0:0:
448,192,99576,1,0,0:0:0:0:
320,192,99648,1,0,0:0:0:0:
64,192,99648,1,0,0:0:0:0:
192,192,99720,1,0,0:0:0:0:
64,192,99792,1,0,0:0:0:0:
448,192,99792,1,0,0:0:0:0:
320,192,99792,1,0,0:0:0:0:
192,192,99864,1,0,0:0:0:0:
448,192,99936,1,0,0:0:0:0:
320,192,99936,1,0,0:0:0:0:
64,192,100009,1,0,0:0:0:0:
192,192,100081,1,0,0:0:0:0:
448,192,100081,1,0,0:0:0:0:
320,192,100153,1,0,0:0:0:0:
192,192,100225,1,0,0:0:0:0:
64,192,100225,1,0,0:0:0:0:
448,192,100297,1,0,0:0:0:0:
320,192,100297,1,0,0:0:0:0:
192,192,100369,1,0,0:0:0:0:
64,192,100369,1,0,0:0:0:0:
320,192,100441,1,0,0:0:0:0:
448,192,100513,1,0,0:0:0:0:
64,192,100513,1,0,0:0:0:0:
192,192,100513,1,0,0:0:0:0:
320,192,100585,1,0,0:0:0:0:
64,192,100657,1,0,0:0:0:0:
448,192,100657,1,0,0:0:0:0:
192,192,100729,1,0,0:0:0:0:
320,192,100801,1,0,0:0:0:0:
448,192,100801,1,0,0:0:0:0:
64,192,100873,1,0,0:0:0:0:
192,192,100873,1,0,0:0:0:0:
320,192,100946,1,0,0:0:0:0:
448,192,100946,1,0,0:0:0:0:
64,192,101018,1,0,0:0:0:0:
192,192,101090,1,0,0:0:0:0:
448,192,101090,1,0,0:0:0:0:
320,192,101162,1,0,0:0:0:0:
192,192,101234,1,0,0:0:0:0:
64,192,101234,1,0,0:0:0:0:
448,192,101306,1,0,0:0:0:0:
320,192,101378,1,0,0:0:0:0:
192,192,101378,1,0,0:0:0:0:
64,192,101450,1,0,0:0:0:0:
320,192,101522,1,0,0:0:0:0:
448,192,101522,1,0,0:0:0:0:
192,192,101594,1,0,0:0:0:0:
64,192,101666,1,0,0:0:0:0:
448,192,101666,1,0,0:0:0:0:
320,192,101738,1,0,0:0:0:0:
192,192,101811,1,0,0:0:0:0:
64,192,101811,1,0,0:0:0:0:
64,192,101955,1,0,0:0:0:0:
192,192,101955,1,0,0:0:0:0:
448,192,102099,1,0,0:0:0:0:
320,192,102135,1,0,0:0:0:0:
64,192,102171,1,0,0:0:0:0:
192,192,102207,1,0,0:0:0:0:
448,192,102243,1,0,0:0:0:0:
320,192,102279,1,0,0:0:0:0:
192,192,102387,1,0,0:0:0:0:
320,192,102423,1,0,0:0:0:0:
64,192,102459,1,0,0:0:0:0:
192,192,102495,1,0,0:0:0:0:
320,192,102531,1,0,0:0:0:0:
448,192,102531,1,0,0:0:0:0:
192,192,102603,1,0,0:0:0:0:
64,192,102676,1,0,0:0:0:0:
448,192,102676,1,0,0:0:0:0:
64,192,102820,1,0,0:0:0:0:
448,192,102820,1,0,0:0:0:0:
448,192,102964,1,0,0:0:0:0:
192,192,102964,1,0,0:0:0:0:
320,192,103036,1,0,0:0:0:0:
64,192,103108,1,0,0:0:0:0:
192,192,103180,1,0,0:0:0:0:
320,192,103252,1,0,0:0:0:0:
448,192,103252,1,0,0:0:0:0:
64,192,103324,1,0,0:0:0:0:
192,192,103396,1,0,0:0:0:0:
448,192,103396,1,0,0:0:0:0:
320,192,103468,1,0,0:0:0:0:
64,192,103540,1,0,0:0:0:0:
192,192,103540,1,0,0:0:0:0:
448,192,103613,1,0,0:0:0:0:
320,192,103685,1,0,0:0:0:0:
64,192,103685,1,0,0:0:0:0:
192,192,103757,1,0,0:0:0:0:
320,192,103829,1,0,0:0:0:0:
448,192,103829,1,0,0:0:0:0:
64,192,103901,1,0,0:0:0:0:
192,192,103973,1,0,0:0:0:0:
320,192,103973,1,0,0:0:0:0:
448,192,104045,1,0,0:0:0:0:
192,192,104117,1,0,0:0:0:0:
64,192,104117,1,0,0:0:0:0:
320,192,104189,1,0,0:0:0:0:
448,192,104261,1,0,0:0:0:0:
64,192,104261,1,0,0:0:0:0:
192,192,104333,1,0,0:0:0:0:
320,192,104405,1,0,0:0:0:0:
448,192,104405,1,0,0:0:0:0:
64,192,104478,1,0,0:0:0:0:
192,192,104550,1,0,0:0:0:0:
448,192,104550,1,0,0:0:0:0:
320,192,104622,1,0,0:0:0:0:
64,192,104694,1,0,0:0:0:0:
448,192,104694,1,0,0:0:0:0:
192,192,104694,1,0,0:0:0:0:
320,192,104766,1,0,0:0:0:0:
192,192,104838,1,0,0:0:0:0:
64,192,104838,1,0,0:0:0:0:
448,192,104910,1,0,0:0:0:0:
64,192,104982,1,0,0:0:0:0:
320,192,104982,1,0,0:0:0:0:
192,192,104982,1,0,0:0:0:0:
64,192,105126,1,0,0:0:0:0:
192,192,105126,1,0,0:0:0:0:
448,192,105126,1,0,0:0:0:0:
64,192,105270,1,0,0:0:0:0:
448,192,105270,1,0,0:0:0:0:
320,192,105342,1,0,0:0:0:0:
192,192,105415,1,0,0:0:0:0:
64,192,105415,1,0,0:0:0:0:
448,192,105487,1,0,0:0:0:0:
320,192,105559,1,0,0:0:0:0:
192,192,105559,1,0,0:0:0:0:
64,192,105631,1,0,0:0:0:0:
320,192,105703,1,0,0:0:0:0:
448,192,105703,1,0,0:0:0:0:
64,192,105775,1,0,0:0:0:0:
192,192,105847,1,0,0:0:0:0:
448,192,105847,1,0,0:0:0:0:
320,192,105919,1,0,0:0:0:0:
192,192,105991,1,0,0:0:0:0:
64,192,105991,1,0,0:0:0:0:
448,192,106063,1,0,0:0:0:0:
320,192,106135,1,0,0:0:0:0:
64,192,106135,1,0,0:0:0:0:
192,192,106207,1,0,0:0:0:0:
320,192,106280,1,0,0:0:0:0:
448,192,106280,1,0,0:0:0:0:
64,192,106352,1,0,0:0:0:0:
448,192,106424,1,0,0:0:0:0:
192,192,106424,1,0,0:0:0:0:
320,192,106424,1,0,0:0:0:0:
64,192,106496,1,0,0:0:0:0:
192,192,106568,1,0,0:0:0:0:
448,192,106568,1,0,0:0:0:0:
320,192,106640,1,0,0:0:0:0:
192,192,106712,1,0,0:0:0:0:
64,192,106712,1,0,0:0:0:0:
320,192,106784,1,0,0:0:0:0:
448,192,106856,1,0,0:0:0:0:
64,192,106856,1,0,0:0:0:0:
192,192,106856,1,0,0:0:0:0:
320,192,106928,1,0,0:0:0:0:
64,192,107000,1,0,0:0:0:0:
448,192,107000,1,0,0:0:0:0:
192,192,107072,1,0,0:0:0:0:
320,192,107072,1,0,0:0:0:0:
448,192,107145,1,0,0:0:0:0:
64,192,107145,1,0,0:0:0:0:
320,192,107217,1,0,0:0:0:0:
192,192,107289,1,0,0:0:0:0:
64,192,107289,1,0,0:0:0:0:
448,192,107289,1,0,0:0:0:0:
64,192,107433,1,0,0:0:0:0:
320,192,107433,1,0,0:0:0:0:
192,192,107433,1,0,0:0:0:0:
448,192,107577,1,0,0:0:0:0:
192,192,107577,1,0,0:0:0:0:
320,192,107577,1,0,0:0:0:0:
64,192,107649,1,0,0:0:0:0:
192,192,107721,1,0,0:0:0:0:
448,192,107721,1,0,0:0:0:0:
320,192,107793,1,0,0:0:0:0:
192,192,107865,1,0,0:0:0:0:
64,192,107865,1,0,0:0:0:0:
448,192,107937,1,0,0:0:0:0:
320,192,108009,1,0,0:0:0:0:
192,192,108009,1,0,0:0:0:0:
64,192,108082,1,0,0:0:0:0:
320,192,108154,1,0,0:0:0:0:
448,192,108154,1,0,0:0:0:0:
192,192,108226,1,0,0:0:0:0:
64,192,108298,1,0,0:0:0:0:
448,192,108298,1,0,0:0:0:0:
320,192,108370,1,0,0:0:0:0:
192,192,108442,1,0,0:0:0:0:
64,192,108442,1,0,0:0:0:0:
448,192,108514,1,0,0:0:0:0:
64,192,108586,1,0,0:0:0:0:
320,192,108586,1,0,0:0:0:0:
192,192,108658,1,0,0:0:0:0:
320,192,108730,1,0,0:0:0:0:
448,192,108730,1,0,0:0:0:0:
64,192,108802,1,0,0:0:0:0:
192,192,108874,1,0,0:0:0:0:
320,192,108874,1,0,0:0:0:0:
448,192,108947,1,0,0:0:0:0:
64,192,109019,1,0,0:0:0:0:
192,192,109019,1,0,0:0:0:0:
320,192,109091,1,0,0:0:0:0:
448,192,109163,1,0,0:0:0:0:
64,192,109163,1,0,0:0:0:0:
192,192,109235,1,0,0:0:0:0:
320,192,109307,1,0,0:0:0:0:
448,192,109307,1,0,0:0:0:0:
64,192,109379,1,0,0:0:0:0:
192,192,109451,1,0,0:0:0:0:
448,192,109451,1,0,0:0:0:0:
64,192,109523,1,0,0:0:0:0:
320,192,109595,1,0,0:0:0:0:
192,192,109595,1,0,0:0:0:0:
448,192,109667,1,0,0:0:0:0:
192,192,109739,1,0,0:0:0:0:
64,192,109739,1,0,0:0:0:0:
320,192,109812,1,0,0:0:0:0:
64,192,109884,1,0,0:0:0:0:
448,192,109884,1,0,0:0:0:0:
192,192,109884,1,0,0:0:0:0:
320,192,109956,1,0,0:0:0:0:
64,192,110028,1,0,0:0:0:0:
448,192,110028,1,0,0:0:0:0:
192,192,110100,1,0,0:0:0:0:
320,192,110172,1,0,0:0:0:0:
64,192,110172,1,0,0:0:0:0:
448,192,110244,1,0,0:0:0:0:
192,192,110316,1,0,0:0:0:0:
320,192,110316,1,0,0:0:0:0:
64,192,110388,1,0,0:0:0:0:
320,192,110460,1,0,0:0:0:0:
448,192,110460,1,0,0:0:0:0:
192,192,110532,1,0,0:0:0:0:
448,192,110604,1,0,0:0:0:0:
64,192,110604,1,0,0:0:0:0:
320,192,110676,1,0,0:0:0:0:
192,192,110749,1,0,0:0:0:0:
64,192,110749,1,0,0:0:0:0:
320,192,110821,1,0,0:0:0:0:
448,192,110893,1,0,0:0:0:0:
64,192,110893,1,0,0:0:0:0:
192,192,110965,1,0,0:0:0:0:
320,192,111037,1,0,0:0:0:0:
448,192,111037,1,0,0:0:0:0:
64,192,111109,1,0,0:0:0:0:
192,192,111181,1,0,0:0:0:0:
448,192,111253,1,0,0:0:0:0:
320,192,111325,1,0,0:0:0:0:
192,192,111397,1,0,0:0:0:0:
64,192,111469,1,0,0:0:0:0:
448,192,111541,1,0,0:0:0:0:
320,192,111614,1,0,0:0:0:0:
192,192,111686,1,0,0:0:0:0:
320,192,111758,1,0,0:0:0:0:
64,192,111830,1,0,0:0:0:0:
192,192,111902,1,0,0:0:0:0:
448,192,111902,1,0,0:0:0:0:
320,192,112046,1,0,0:0:0:0:
64,192,112046,1,0,0:0:0:0:
192,192,112118,1,0,0:0:0:0:
320,192,112190,5,0,0:0:0:0:
448,192,112190,1,0,0:0:0:0:
64,192,112190,1,0,0:0:0:0:
192,192,112262,1,0,0:0:0:0:
448,192,112334,1,0,0:0:0:0:
320,192,112334,1,0,0:0:0:0:
64,192,112406,1,0,0:0:0:0:
192,192,112478,1,0,0:0:0:0:
448,192,112478,1,0,0:0:0:0:
320,192,112551,1,0,0:0:0:0:
192,192,112623,1,0,0:0:0:0:
64,192,112623,1,0,0:0:0:0:
448,192,112695,1,0,0:0:0:0:
320,192,112767,1,0,0:0:0:0:
64,192,112767,1,0,0:0:0:0:
192,192,112839,1,0,0:0:0:0:
320,192,112911,1,0,0:0:0:0:
448,192,112911,1,0,0:0:0:0:
64,192,112983,1,0,0:0:0:0:
192,192,113055,1,0,0:0:0:0:
320,192,113055,1,0,0:0:0:0:
448,192,113127,1,0,0:0:0:0:
192,192,113199,1,0,0:0:0:0:
64,192,113199,1,0,0:0:0:0:
320,192,113271,1,0,0:0:0:0:
448,192,113343,1,0,0:0:0:0:
64,192,113343,1,0,0:0:0:0:
192,192,113416,1,0,0:0:0:0:
320,192,113488,1,0,0:0:0:0:
448,192,113488,1,0,0:0:0:0:
64,192,113560,1,0,0:0:0:0:
192,192,113632,1,0,0:0:0:0:
320,192,113632,1,0,0:0:0:0:
448,192,113704,1,0,0:0:0:0:
64,192,113776,1,0,0:0:0:0:
192,192,113776,1,0,0:0:0:0:
320,192,113848,1,0,0:0:0:0:
448,192,113920,1,0,0:0:0:0:
192,192,113920,1,0,0:0:0:0:
64,192,113920,1,0,0:0:0:0:
320,192,113992,1,0,0:0:0:0:
448,192,114064,1,0,0:0:0:0:
64,192,114136,1,0,0:0:0:0:
192,192,114208,1,0,0:0:0:0:
448,192,114208,1,0,0:0:0:0:
320,192,114281,1,0,0:0:0:0:
192,192,114353,1,0,0:0:0:0:
64,192,114353,1,0,0:0:0:0:
448,192,114353,1,0,0:0:0:0:
320,192,114425,1,0,0:0:0:0:
192,192,114497,1,0,0:0:0:0:
64,192,114497,1,0,0:0:0:0:
448,192,114569,1,0,0:0:0:0:
320,192,114641,1,0,0:0:0:0:
64,192,114641,1,0,0:0:0:0:
192,192,114713,1,0,0:0:0:0:
448,192,114785,1,0,0:0:0:0:
320,192,114785,1,0,0:0:0:0:
64,192,114785,1,0,0:0:0:0:
192,192,114857,1,0,0:0:0:0:
320,192,114929,1,0,0:0:0:0:
448,192,114929,1,0,0:0:0:0:
64,192,115001,1,0,0:0:0:0:
192,192,115073,1,0,0:0:0:0:
448,192,115073,1,0,0:0:0:0:
320,192,115145,1,0,0:0:0:0:
192,192,115218,1,0,0:0:0:0:
64,192,115218,1,0,0:0:0:0:
448,192,115290,1,0,0:0:0:0:
320,192,115362,1,0,0:0:0:0:
192,192,115362,1,0,0:0:0:0:
64,192,115434,1,0,0:0:0:0:
448,192,115506,1,0,0:0:0:0:
320,192,115506,1,0,0:0:0:0:
192,192,115578,1,0,0:0:0:0:
64,192,115650,1,0,0:0:0:0:
448,192,115650,1,0,0:0:0:0:
448,192,115794,1,0,0:0:0:0:
64,192,115794,1,0,0:0:0:0:
192,192,115938,1,0,0:0:0:0:
320,192,115974,1,0,0:0:0:0:
448,192,116010,1,0,0:0:0:0:
64,192,116046,1,0,0:0:0:0:
192,192,116083,1,0,0:0:0:0:
320,192,116119,1,0,0:0:0:0:
448,192,116155,1,0,0:0:0:0:
192,192,116227,1,0,0:0:0:0:
64,192,116263,1,0,0:0:0:0:
320,192,116299,1,0,0:0:0:0:
192,192,116335,1,0,0:0:0:0:
448,192,116371,1,0,0:0:0:0:
64,192,116371,1,0,0:0:0:0:
320,192,116407,1,0,0:0:0:0:
192,192,116515,1,0,0:0:0:0:
320,192,116551,1,0,0:0:0:0:
64,192,116587,1,0,0:0:0:0:
448,192,116587,1,0,0:0:0:0:
192,192,116623,1,0,0:0:0:0:
320,192,116659,1,0,0:0:0:0:
192,192,116731,1,0,0:0:0:0:
448,192,116803,1,0,0:0:0:0:
64,192,116803,1,0,0:0:0:0:
320,192,116875,1,0,0:0:0:0:
192,192,116947,1,0,0:0:0:0:
448,192,116947,1,0,0:0:0:0:
64,192,117020,1,0,0:0:0:0:
320,192,117092,1,0,0:0:0:0:
192,192,117092,1,0,0:0:0:0:
64,192,117164,1,0,0:0:0:0:
320,192,117236,1,0,0:0:0:0:
448,192,117236,1,0,0:0:0:0:
192,192,117308,1,0,0:0:0:0:
64,192,117380,1,0,0:0:0:0:
448,192,117380,1,0,0:0:0:0:
320,192,117452,1,0,0:0:0:0:
192,192,117524,1,0,0:0:0:0:
64,192,117524,1,0,0:0:0:0:
448,192,117596,1,0,0:0:0:0:
320,192,117668,1,0,0:0:0:0:
192,192,117668,1,0,0:0:0:0:
64,192,117740,1,0,0:0:0:0:
192,192,117812,1,0,0:0:0:0:
448,192,117812,1,0,0:0:0:0:
320,192,117885,1,0,0:0:0:0:
448,192,117957,1,0,0:0:0:0:
64,192,117957,1,0,0:0:0:0:
192,192,118029,1,0,0:0:0:0:
320,192,118101,1,0,0:0:0:0:
448,192,118101,1,0,0:0:0:0:
64,192,118173,1,0,0:0:0:0:
192,192,118245,1,0,0:0:0:0:
320,192,118245,1,0,0:0:0:0:
448,192,118317,1,0,0:0:0:0:
192,192,118389,1,0,0:0:0:0:
64,192,118389,1,0,0:0:0:0:
320,192,118461,1,0,0:0:0:0:
448,192,118533,1,0,0:0:0:0:
64,192,118533,1,0,0:0:0:0:
192,192,118533,1,0,0:0:0:0:
320,192,118605,1,0,0:0:0:0:
448,192,118677,1,0,0:0:0:0:
64,192,118677,1,0,0:0:0:0:
192,192,118750,1,0,0:0:0:0:
320,192,118822,1,0,0:0:0:0:
448,192,118822,1,0,0:0:0:0:
192,192,118894,1,0,0:0:0:0:
64,192,118966,1,0,0:0:0:0:
320,192,118966,1,0,0:0:0:0:
448,192,118966,1,0,0:0:0:0:
192,192,119038,1,0,0:0:0:0:
64,192,119110,1,0,0:0:0:0:
320,192,119110,1,0,0:0:0:0:
448,192,119182,1,0,0:0:0:0:
192,192,119254,1,0,0:0:0:0:
64,192,119254,1,0,0:0:0:0:
320,192,119326,1,0,0:0:0:0:
448,192,119398,1,0,0:0:0:0:
192,192,119398,1,0,0:0:0:0:
64,192,119398,1,0,0:0:0:0:
320,192,119470,1,0,0:0:0:0:
448,192,119542,1,0,0:0:0:0:
192,192,119542,1,0,0:0:0:0:
64,192,119614,1,0,0:0:0:0:
320,192,119687,1,0,0:0:0:0:
448,192,119687,1,0,0:0:0:0:
192,192,119759,1,0,0:0:0:0:
64,192,119831,1,0,0:0:0:0:
448,192,119831,1,0,0:0:0:0:
320,192,119903,1,0,0:0:0:0:
192,192,119975,1,0,0:0:0:0:
64,192,119975,1,0,0:0:0:0:
448,192,120047,1,0,0:0:0:0:
320,192,120119,1,0,0:0:0:0:
64,192,120119,1,0,0:0:0:0:
192,192,120191,1,0,0:0:0:0:
320,192,120263,1,0,0:0:0:0:
448,192,120263,1,0,0:0:0:0:
192,192,120335,1,0,0:0:0:0:
320,192,120407,1,0,0:0:0:0:
448,192,120407,1,0,0:0:0:0:
192,192,120479,1,0,0:0:0:0:
64,192,120552,1,0,0:0:0:0:
192,192,120588,1,0,0:0:0:0:
320,192,120624,1,0,0:0:0:0:
448,192,120660,1,0,0:0:0:0:
64,192,120696,1,0,0:0:0:0:
192,192,120732,1,0,0:0:0:0:
448,192,120840,1,0,0:0:0:0:
64,192,120876,1,0,0:0:0:0:
192,192,120912,1,0,0:0:0:0:
320,192,120912,1,0,0:0:0:0:
448,192,120948,1,0,0:0:0:0:
64,192,120984,1,0,0:0:0:0:
448,192,121128,1,0,0:0:0:0:
320,192,121128,1,0,0:0:0:0:
64,192,121128,1,0,0:0:0:0:
448,192,121272,1,0,0:0:0:0:
64,192,121272,1,0,0:0:0:0:
192,192,121272,1,0,0:0:0:0:
320,192,121417,1,0,0:0:0:0:
448,192,121417,1,0,0:0:0:0:
192,192,121489,1,0,0:0:0:0:
320,192,121561,1,0,0:0:0:0:
448,192,121561,1,0,0:0:0:0:
64,192,121633,1,0,0:0:0:0:
192,192,121705,1,0,0:0:0:0:
320,192,121705,1,0,0:0:0:0:
448,192,121777,1,0,0:0:0:0:
320,192,121849,1,0,0:0:0:0:
64,192,121849,1,0,0:0:0:0:
192,192,121921,1,0,0:0:0:0:
448,192,121993,1,0,0:0:0:0:
320,192,121993,1,0,0:0:0:0:
64,192,122065,1,0,0:0:0:0:
192,192,122137,1,0,0:0:0:0:
448,192,122137,1,0,0:0:0:0:
320,192,122209,1,0,0:0:0:0:
192,192,122281,1,0,0:0:0:0:
64,192,122281,1,0,0:0:0:0:
448,192,122354,1,0,0:0:0:0:
320,192,122426,1,0,0:0:0:0:
192,192,122426,1,0,0:0:0:0:
64,192,122498,1,0,0:0:0:0:
448,192,122570,1,0,0:0:0:0:
320,192,122570,1,0,0:0:0:0:
192,192,122642,1,0,0:0:0:0:
64,192,122714,1,0,0:0:0:0:
448,192,122714,1,0,0:0:0:0:
320,192,122786,1,0,0:0:0:0:
192,192,122858,1,0,0:0:0:0:
64,192,122858,1,0,0:0:0:0:
448,192,122930,1,0,0:0:0:0:
320,192,123002,1,0,0:0:0:0:
64,192,123002,1,0,0:0:0:0:
192,192,123074,1,0,0:0:0:0:
320,192,123146,1,0,0:0:0:0:
448,192,123146,1,0,0:0:0:0:
64,192,123146,1,0,0:0:0:0:
192,192,123219,1,0,0:0:0:0:
320,192,123291,1,0,0:0:0:0:
448,192,123291,1,0,0:0:0:0:
64,192,123363,1,0,0:0:0:0:
320,192,123435,1,0,0:0:0:0:
192,192,123435,1,0,0:0:0:0:
448,192,123435,1,0,0:0:0:0:
64,192,123507,1,0,0:0:0:0:
192,192,123579,1,0,0:0:0:0:
448,192,123579,1,0,0:0:0:0:
320,192,123651,1,0,0:0:0:0:
192,192,123723,1,0,0:0:0:0:
64,192,123723,1,0,0:0:0:0:
448,192,123795,1,0,0:0:0:0:
320,192,123867,1,0,0:0:0:0:
64,192,123867,1,0,0:0:0:0:
192,192,123939,1,0,0:0:0:0:
320,192,124011,1,0,0:0:0:0:
448,192,124011,1,0,0:0:0:0:
64,192,124083,1,0,0:0:0:0:
192,192,124083,1,0,0:0:0:0:
320,192,124156,1,0,0:0:0:0:
448,192,124156,1,0,0:0:0:0:
64,192,124228,1,0,0:0:0:0:
192,192,124300,1,0,0:0:0:0:
320,192,124300,1,0,0:0:0:0:
448,192,124372,1,0,0:0:0:0:
64,192,124372,1,0,0:0:0:0:
192,192,124444,1,0,0:0:0:0:
320,192,124444,1,0,0:0:0:0:
448,192,124516,1,0,0:0:0:0:
192,192,124588,1,0,0:0:0:0:
64,192,124588,1,0,0:0:0:0:
320,192,124660,1,0,0:0:0:0:
448,192,124660,1,0,0:0:0:0:
192,192,124732,1,0,0:0:0:0:
64,192,124732,1,0,0:0:0:0:
448,192,124804,1,0,0:0:0:0:
192,192,124876,1,0,0:0:0:0:
320,192,124876,1,0,0:0:0:0:
64,192,124876,1,0,0:0:0:0:
448,192,124948,1,0,0:0:0:0:
320,192,125021,1,0,0:0:0:0:
64,192,125021,1,0,0:0:0:0:
192,192,125093,1,0,0:0:0:0:
320,192,125165,1,0,0:0:0:0:
448,192,125165,1,0,0:0:0:0:
64,192,125237,1,0,0:0:0:0:
448,192,125309,1,0,0:0:0:0:
320,192,125309,1,0,0:0:0:0:
192,192,125309,1,0,0:0:0:0:
64,192,125381,1,0,0:0:0:0:
192,192,125453,1,0,0:0:0:0:
320,192,125501,1,0,0:0:0:0:
448,192,125549,1,0,0:0:0:0:
64,192,125597,1,0,0:0:0:0:
192,192,125645,1,0,0:0:0:0:
448,192,125693,1,0,0:0:0:0:
64,192,125741,1,0,0:0:0:0:
320,192,125741,1,0,0:0:0:0:
192,192,125813,1,0,0:0:0:0:
320,192,125886,1,0,0:0:0:0:
448,192,125886,1,0,0:0:0:0:
64,192,125958,1,0,0:0:0:0:
320,192,126030,1,0,0:0:0:0:
192,192,126030,1,0,0:0:0:0:
448,192,126102,1,0,0:0:0:0:
192,192,126174,1,0,0:0:0:0:
64,192,126174,1,0,0:0:0:0:
320,192,126246,1,0,0:0:0:0:
448,192,126318,1,0,0:0:0:0:
64,192,126318,1,0,0:0:0:0:
192,192,126390,1,0,0:0:0:0:
320,192,126462,1,0,0:0:0:0:
448,192,126462,1,0,0:0:0:0:
64,192,126534,1,0,0:0:0:0:
192,192,126606,1,0,0:0:0:0:
448,192,126606,1,0,0:0:0:0:
320,192,126678,1,0,0:0:0:0:
192,192,126750,1,0,0:0:0:0:
64,192,126750,1,0,0:0:0:0:
448,192,126823,1,0,0:0:0:0:
320,192,126895,1,0,0:0:0:0:
192,192,126895,1,0,0:0:0:0:
64,192,126895,1,0,0:0:0:0:
448,192,126967,1,0,0:0:0:0:
64,192,127039,1,0,0:0:0:0:
320,192,127039,1,0,0:0:0:0:
192,192,127111,1,0,0:0:0:0:
448,192,127183,1,0,0:0:0:0:
320,192,127183,1,0,0:0:0:0:
64,192,127183,1,0,0:0:0:0:
192,192,127255,1,0,0:0:0:0:
320,192,127327,1,0,0:0:0:0:
448,192,127327,1,0,0:0:0:0:
64,192,127399,1,0,0:0:0:0:
192,192,127471,1,0,0:0:0:0:
448,192,127471,1,0,0:0:0:0:
320,192,127543,1,0,0:0:0:0:
192,192,127615,1,0,0:0:0:0:
64,192,127615,1,0,0:0:0:0:
448,192,127688,1,0,0:0:0:0:
320,192,127760,1,0,0:0:0:0:
192,192,127760,1,0,0:0:0:0:
64,192,127832,1,0,0:0:0:0:
448,192,127904,1,0,0:0:0:0:
320,192,127904,1,0,0:0:0:0:
192,192,127976,1,0,0:0:0:0:
64,192,128048,1,0,0:0:0:0:
448,192,128048,1,0,0:0:0:0:
320,192,128120,1,0,0:0:0:0:
192,192,128192,1,0,0:0:0:0:
64,192,128192,1,0,0:0:0:0:
448,192,128264,1,0,0:0:0:0:
320,192,128336,1,0,0:0:0:0:
192,192,128336,1,0,0:0:0:0:
320,192,128480,1,0,0:0:0:0:
192,192,128480,1,0,0:0:0:0:
64,192,128625,1,0,0:0:0:0:
192,192,128661,1,0,0:0:0:0:
320,192,128697,1,0,0:0:0:0:
448,192,128733,1,0,0:0:0:0:
64,192,128769,1,0,0:0:0:0:
192,192,128805,1,0,0:0:0:0:
320,192,128913,1,0,0:0:0:0:
448,192,128949,1,0,0:0:0:0:
64,192,128985,1,0,0:0:0:0:
192,192,129021,1,0,0:0:0:0:
320,192,129057,1,0,0:0:0:0:
448,192,129093,1,0,0:0:0:0:
64,192,129129,1,0,0:0:0:0:
192,192,129165,1,0,0:0:0:0:
320,192,129201,1,0,0:0:0:0:
64,192,129273,1,0,0:0:0:0:
192,192,129309,1,0,0:0:0:0:
320,192,129381,1,0,0:0:0:0:
448,192,129417,1,0,0:0:0:0:
192,192,129490,1,0,0:0:0:0:
320,192,129526,1,0,0:0:0:0:
448,192,129562,1,0,0:0:0:0:
64,192,129562,1,0,0:0:0:0:
192,192,129598,1,0,0:0:0:0:
320,192,129634,1,0,0:0:0:0:
320,192,129778,1,0,0:0:0:0:
192,192,129814,1,0,0:0:0:0:
64,192,129850,1,0,0:0:0:0:
448,192,129850,1,0,0:0:0:0:
320,192,129886,1,0,0:0:0:0:
192,192,129922,1,0,0:0:0:0:
192,192,130066,1,0,0:0:0:0:
320,192,130102,1,0,0:0:0:0:
448,192,130138,1,0,0:0:0:0:
64,192,130138,1,0,0:0:0:0:
192,192,130174,1,0,0:0:0:0:
320,192,130210,1,0,0:0:0:0:
320,192,130355,1,0,0:0:0:0:
192,192,130391,1,0,0:0:0:0:
64,192,130427,1,0,0:0:0:0:
448,192,130427,1,0,0:0:0:0:
320,192,130463,1,0,0:0:0:0:
192,192,130499,1,0,0:0:0:0:
448,192,130643,1,0,0:0:0:0:
192,192,130643,1,0,0:0:0:0:
64,192,130643,1,0,0:0:0:0:
320,192,130715,1,0,0:0:0:0:
448,192,130787,1,0,0:0:0:0:
64,192,130787,1,0,0:0:0:0:
192,192,130859,1,0,0:0:0:0:
320,192,130931,1,0,0:0:0:0:
448,192,130931,1,0,0:0:0:0:
64,192,131003,1,0,0:0:0:0:
192,192,131075,1,0,0:0:0:0:
320,192,131075,1,0,0:0:0:0:
448,192,131147,1,0,0:0:0:0:
320,192,131219,1,0,0:0:0:0:
64,192,131219,1,0,0:0:0:0:
192,192,131292,1,0,0:0:0:0:
448,192,131364,1,0,0:0:0:0:
64,192,131364,1,0,0:0:0:0:
192,192,131436,1,0,0:0:0:0:
320,192,131508,1,0,0:0:0:0:
448,192,131508,1,0,0:0:0:0:
64,192,131580,1,0,0:0:0:0:
192,192,131652,1,0,0:0:0:0:
320,192,131652,1,0,0:0:0:0:
448,192,131724,1,0,0:0:0:0:
192,192,131796,1,0,0:0:0:0:
64,192,131796,1,0,0:0:0:0:
320,192,131868,1,0,0:0:0:0:
448,192,131940,1,0,0:0:0:0:
64,192,131940,1,0,0:0:0:0:
192,192,132012,1,0,0:0:0:0:
320,192,132084,1,0,0:0:0:0:
448,192,132084,1,0,0:0:0:0:
64,192,132157,1,0,0:0:0:0:
192,192,132229,1,0,0:0:0:0:
448,192,132229,1,0,0:0:0:0:
320,192,132301,1,0,0:0:0:0:
448,192,132373,1,0,0:0:0:0:
64,192,132373,1,0,0:0:0:0:
192,192,132373,1,0,0:0:0:0:
320,192,132445,1,0,0:0:0:0:
192,192,132517,1,0,0:0:0:0:
64,192,132517,1,0,0:0:0:0:
448,192,132589,1,0,0:0:0:0:
64,192,132661,1,0,0:0:0:0:
320,192,132661,1,0,0:0:0:0:
192,192,132661,1,0,0:0:0:0:
448,192,132733,1,0,0:0:0:0:
320,192,132805,1,0,0:0:0:0:
64,192,132805,1,0,0:0:0:0:
192,192,132877,1,0,0:0:0:0:
320,192,132949,1,0,0:0:0:0:
448,192,132949,1,0,0:0:0:0:
64,192,133021,1,0,0:0:0:0:
192,192,133094,1,0,0:0:0:0:
448,192,133094,1,0,0:0:0:0:
320,192,133166,1,0,0:0:0:0:
448,192,133238,1,0,0:0:0:0:
64,192,133238,1,0,0:0:0:0:
192,192,133238,1,0,0:0:0:0:
320,192,133310,1,0,0:0:0:0:
448,192,133382,1,0,0:0:0:0:
64,192,133382,1,0,0:0:0:0:
192,192,133454,1,0,0:0:0:0:
320,192,133526,1,0,0:0:0:0:
448,192,133526,1,0,0:0:0:0:
64,192,133598,1,0,0:0:0:0:
192,192,133670,1,0,0:0:0:0:
320,192,133670,1,0,0:0:0:0:
448,192,133742,1,0,0:0:0:0:
320,192,133814,1,0,0:0:0:0:
64,192,133814,1,0,0:0:0:0:
448,192,133886,1,0,0:0:0:0:
192,192,133959,1,0,0:0:0:0:
64,192,133959,1,0,0:0:0:0:
320,192,134031,1,0,0:0:0:0:
192,192,134103,1,0,0:0:0:0:
448,192,134103,1,0,0:0:0:0:
448,192,134247,1,0,0:0:0:0:
192,192,134247,1,0,0:0:0:0:
64,192,134391,1,0,0:0:0:0:
448,192,134391,1,0,0:0:0:0:
192,192,134427,1,0,0:0:0:0:
320,192,134463,1,0,0:0:0:0:
448,192,134499,1,0,0:0:0:0:
192,192,134535,1,0,0:0:0:0:
64,192,134535,1,0,0:0:0:0:
320,192,134571,1,0,0:0:0:0:
448,192,134607,1,0,0:0:0:0:
64,192,134643,1,0,0:0:0:0:
192,192,134679,1,0,0:0:0:0:
320,192,134679,1,0,0:0:0:0:
448,192,134751,1,0,0:0:0:0:
320,192,134824,1,0,0:0:0:0:
64,192,134824,1,0,0:0:0:0:
192,192,134896,1,0,0:0:0:0:
320,192,134968,1,0,0:0:0:0:
448,192,134968,1,0,0:0:0:0:
192,192,135112,1,0,0:0:0:0:
64,192,135112,1,0,0:0:0:0:
64,192,135256,1,0,0:0:0:0:
448,192,135256,1,0,0:0:0:0:
320,192,135328,1,0,0:0:0:0:
448,192,135400,1,0,0:0:0:0:
192,192,135400,1,0,0:0:0:0:
320,192,135472,1,0,0:0:0:0:
192,192,135544,1,0,0:0:0:0:
64,192,135544,1,0,0:0:0:0:
448,192,135616,1,0,0:0:0:0:
320,192,135688,1,0,0:0:0:0:
64,192,135688,1,0,0:0:0:0:
192,192,135761,1,0,0:0:0:0:
320,192,135833,1,0,0:0:0:0:
448,192,135833,1,0,0:0:0:0:
64,192,135905,1,0,0:0:0:0:
192,192,135977,1,0,0:0:0:0:
320,192,135977,1,0,0:0:0:0:
448,192,136049,1,0,0:0:0:0:
192,192,136121,1,0,0:0:0:0:
64,192,136121,1,0,0:0:0:0:
320,192,136193,1,0,0:0:0:0:
448,192,136265,1,0,0:0:0:0:
64,192,136265,1,0,0:0:0:0:
192,192,136337,1,0,0:0:0:0:
320,192,136409,1,0,0:0:0:0:
448,192,136409,1,0,0:0:0:0:
64,192,136481,1,0,0:0:0:0:
192,192,136553,1,0,0:0:0:0:
448,192,136553,1,0,0:0:0:0:
320,192,136626,1,0,0:0:0:0:
448,192,136698,1,0,0:0:0:0:
64,192,136698,1,0,0:0:0:0:
192,192,136698,1,0,0:0:0:0:
320,192,136770,1,0,0:0:0:0:
64,192,136842,1,0,0:0:0:0:
192,192,136842,1,0,0:0:0:0:
448,192,136914,1,0,0:0:0:0:
320,192,136986,1,0,0:0:0:0:
64,192,136986,1,0,0:0:0:0:
192,192,137058,1,0,0:0:0:0:
320,192,137130,1,0,0:0:0:0:
448,192,137130,1,0,0:0:0:0:
64,192,137202,1,0,0:0:0:0:
192,192,137202,1,0,0:0:0:0:
320,192,137274,1,0,0:0:0:0:
448,192,137274,1,0,0:0:0:0:
192,192,137346,1,0,0:0:0:0:
64,192,137418,1,0,0:0:0:0:
448,192,137418,1,0,0:0:0:0:
320,192,137418,1,0,0:0:0:0:
192,192,137491,1,0,0:0:0:0:
448,192,137563,1,0,0:0:0:0:
64,192,137563,1,0,0:0:0:0:
320,192,137635,1,0,0:0:0:0:
192,192,137707,1,0,0:0:0:0:
64,192,137707,1,0,0:0:0:0:
448,192,137779,1,0,0:0:0:0:
320,192,137779,1,0,0:0:0:0:
192,192,137851,1,0,0:0:0:0:
64,192,137851,1,0,0:0:0:0:
448,192,137923,1,0,0:0:0:0:
320,192,137995,1,0,0:0:0:0:
64,192,137995,1,0,0:0:0:0:
192,192,138067,1,0,0:0:0:0:
320,192,138139,1,0,0:0:0:0:
448,192,138139,1,0,0:0:0:0:
64,192,138211,1,0,0:0:0:0:
192,192,138283,1,0,0:0:0:0:
320,192,138283,1,0,0:0:0:0:
448,192,138355,1,0,0:0:0:0:
192,192,138428,1,0,0:0:0:0:
64,192,138428,1,0,0:0:0:0:
320,192,138500,1,0,0:0:0:0:
448,192,138572,1,0,0:0:0:0:
64,192,138572,1,0,0:0:0:0:
192,192,138644,1,0,0:0:0:0:
320,192,138716,1,0,0:0:0:0:
448,192,138716,1,0,0:0:0:0:
448,192,138860,1,0,0:0:0:0:
320,192,138860,1,0,0:0:0:0:
64,192,139004,1,0,0:0:0:0:
192,192,139040,1,0,0:0:0:0:
448,192,139076,1,0,0:0:0:0:
320,192,139112,1,0,0:0:0:0:
64,192,139148,1,0,0:0:0:0:
192,192,139184,1,0,0:0:0:0:
320,192,139293,1,0,0:0:0:0:
192,192,139329,1,0,0:0:0:0:
448,192,139365,1,0,0:0:0:0:
320,192,139401,1,0,0:0:0:0:
192,192,139437,1,0,0:0:0:0:
64,192,139437,1,0,0:0:0:0:
320,192,139509,1,0,0:0:0:0:
448,192,139581,1,0,0:0:0:0:
64,192,139581,1,0,0:0:0:0:
448,192,139725,1,0,0:0:0:0:
64,192,139725,1,0,0:0:0:0:
64,192,139869,1,0,0:0:0:0:
320,192,139869,1,0,0:0:0:0:
192,192,139941,1,0,0:0:0:0:
448,192,140013,1,0,0:0:0:0:
320,192,140085,1,0,0:0:0:0:
192,192,140157,1,0,0:0:0:0:
64,192,140157,1,0,0:0:0:0:
448,192,140230,1,0,0:0:0:0:
320,192,140302,1,0,0:0:0:0:
64,192,140302,1,0,0:0:0:0:
192,192,140374,1,0,0:0:0:0:
448,192,140446,1,0,0:0:0:0:
320,192,140446,1,0,0:0:0:0:
64,192,140518,1,0,0:0:0:0:
192,192,140590,1,0,0:0:0:0:
448,192,140590,1,0,0:0:0:0:
320,192,140662,1,0,0:0:0:0:
192,192,140734,1,0,0:0:0:0:
64,192,140734,1,0,0:0:0:0:
448,192,140806,1,0,0:0:0:0:
320,192,140878,1,0,0:0:0:0:
192,192,140878,1,0,0:0:0:0:
64,192,140950,1,0,0:0:0:0:
320,192,141022,1,0,0:0:0:0:
448,192,141022,1,0,0:0:0:0:
192,192,141095,1,0,0:0:0:0:
64,192,141167,1,0,0:0:0:0:
448,192,141167,1,0,0:0:0:0:
320,192,141239,1,0,0:0:0:0:
192,192,141311,1,0,0:0:0:0:
64,192,141311,1,0,0:0:0:0:
448,192,141383,1,0,0:0:0:0:
320,192,141455,1,0,0:0:0:0:
64,192,141455,1,0,0:0:0:0:
192,192,141527,1,0,0:0:0:0:
448,192,141599,1,0,0:0:0:0:
64,192,141599,1,0,0:0:0:0:
320,192,141599,1,0,0:0:0:0:
192,192,141671,1,0,0:0:0:0:
320,192,141743,1,0,0:0:0:0:
448,192,141743,1,0,0:0:0:0:
64,192,141815,1,0,0:0:0:0:
448,192,141887,1,0,0:0:0:0:
192,192,141887,1,0,0:0:0:0:
320,192,141887,1,0,0:0:0:0:
448,192,142032,1,0,0:0:0:0:
320,192,142032,1,0,0:0:0:0:
64,192,142032,1,0,0:0:0:0:
448,192,142176,1,0,0:0:0:0:
64,192,142176,1,0,0:0:0:0:
192,192,142248,1,0,0:0:0:0:
320,192,142320,1,0,0:0:0:0:
448,192,142320,1,0,0:0:0:0:
64,192,142392,1,0,0:0:0:0:
192,192,142464,1,0,0:0:0:0:
320,192,142464,1,0,0:0:0:0:
448,192,142536,1,0,0:0:0:0:
192,192,142608,1,0,0:0:0:0:
64,192,142608,1,0,0:0:0:0:
448,192,142680,1,0,0:0:0:0:
320,192,142752,1,0,0:0:0:0:
64,192,142752,1,0,0:0:0:0:
192,192,142824,1,0,0:0:0:0:
320,192,142897,1,0,0:0:0:0:
448,192,142897,1,0,0:0:0:0:
64,192,142969,1,0,0:0:0:0:
192,192,143041,1,0,0:0:0:0:
448,192,143041,1,0,0:0:0:0:
320,192,143113,1,0,0:0:0:0:
192,192,143185,1,0,0:0:0:0:
64,192,143185,1,0,0:0:0:0:
448,192,143257,1,0,0:0:0:0:
64,192,143329,1,0,0:0:0:0:
320,192,143329,1,0,0:0:0:0:
192,192,143329,1,0,0:0:0:0:
448,192,143401,1,0,0:0:0:0:
320,192,143473,1,0,0:0:0:0:
64,192,143473,1,0,0:0:0:0:
192,192,143545,1,0,0:0:0:0:
320,192,143617,1,0,0:0:0:0:
448,192,143617,1,0,0:0:0:0:
192,192,143689,1,0,0:0:0:0:
64,192,143762,1,0,0:0:0:0:
448,192,143762,1,0,0:0:0:0:
320,192,143762,1,0,0:0:0:0:
192,192,143834,1,0,0:0:0:0:
448,192,143906,1,0,0:0:0:0:
64,192,143906,1,0,0:0:0:0:
320,192,143978,1,0,0:0:0:0:
192,192,143978,1,0,0:0:0:0:
64,192,144050,1,0,0:0:0:0:
448,192,144050,1,0,0:0:0:0:
192,192,144122,1,0,0:0:0:0:
320,192,144194,1,0,0:0:0:0:
448,192,144194,1,0,0:0:0:0:
64,192,144194,1,0,0:0:0:0:
448,192,144338,1,0,0:0:0:0:
192,192,144338,1,0,0:0:0:0:
320,192,144338,1,0,0:0:0:0:
64,192,144482,1,0,0:0:0:0:
320,192,144482,1,0,0:0:0:0:
192,192,144482,1,0,0:0:0:0:
448,192,144554,1,0,0:0:0:0:
320,192,144626,1,0,0:0:0:0:
64,192,144626,1,0,0:0:0:0:
192,192,144699,1,0,0:0:0:0:
320,192,144771,1,0,0:0:0:0:
448,192,144771,1,0,0:0:0:0:
64,192,144843,1,0,0:0:0:0:
192,192,144915,1,0,0:0:0:0:
320,192,144915,1,0,0:0:0:0:
448,192,144987,1,0,0:0:0:0:
192,192,145059,1,0,0:0:0:0:
64,192,145059,1,0,0:0:0:0:
320,192,145131,1,0,0:0:0:0:
448,192,145203,1,0,0:0:0:0:
64,192,145203,1,0,0:0:0:0:
192,192,145275,1,0,0:0:0:0:
320,192,145347,1,0,0:0:0:0:
448,192,145347,1,0,0:0:0:0:
64,192,145419,1,0,0:0:0:0:
448,192,145491,1,0,0:0:0:0:
192,192,145491,1,0,0:0:0:0:
320,192,145564,1,0,0:0:0:0:
192,192,145636,1,0,0:0:0:0:
64,192,145636,1,0,0:0:0:0:
448,192,145708,1,0,0:0:0:0:
320,192,145780,1,0,0:0:0:0:
192,192,145780,1,0,0:0:0:0:
64,192,145852,1,0,0:0:0:0:
448,192,145924,1,0,0:0:0:0:
320,192,145924,1,0,0:0:0:0:
192,192,145996,1,0,0:0:0:0:
64,192,146068,1,0,0:0:0:0:
448,192,146068,1,0,0:0:0:0:
320,192,146140,1,0,0:0:0:0:
192,192,146212,1,0,0:0:0:0:
64,192,146212,1,0,0:0:0:0:
448,192,146284,1,0,0:0:0:0:
320,192,146356,1,0,0:0:0:0:
64,192,146356,1,0,0:0:0:0:
448,192,146429,1,0,0:0:0:0:
192,192,146501,1,0,0:0:0:0:
320,192,146501,1,0,0:0:0:0:
64,192,146573,1,0,0:0:0:0:
320,192,146645,1,0,0:0:0:0:
448,192,146645,1,0,0:0:0:0:
192,192,146717,1,0,0:0:0:0:
448,192,146789,1,0,0:0:0:0:
64,192,146789,1,0,0:0:0:0:
320,192,146789,1,0,0:0:0:0:
192,192,146861,1,0,0:0:0:0:
448,192,146933,1,0,0:0:0:0:
64,192,146933,1,0,0:0:0:0:
320,192,147005,1,0,0:0:0:0:
192,192,147077,1,0,0:0:0:0:
448,192,147077,1,0,0:0:0:0:
64,192,147149,1,0,0:0:0:0:
320,192,147221,1,0,0:0:0:0:
192,192,147221,1,0,0:0:0:0:
448,192,147293,1,0,0:0:0:0:
192,192,147366,1,0,0:0:0:0:
64,192,147366,1,0,0:0:0:0:
320,192,147438,1,0,0:0:0:0:
64,192,147510,1,0,0:0:0:0:
448,192,147510,1,0,0:0:0:0:
192,192,147582,1,0,0:0:0:0:
320,192,147654,1,0,0:0:0:0:
448,192,147654,1,0,0:0:0:0:
192,192,147726,1,0,0:0:0:0:
64,192,147798,1,0,0:0:0:0:
448,192,147798,1,0,0:0:0:0:
320,192,147870,1,0,0:0:0:0:
192,192,147942,1,0,0:0:0:0:
64,192,147942,1,0,0:0:0:0:
448,192,148014,1,0,0:0:0:0:
320,192,148086,1,0,0:0:0:0:
64,192,148158,1,0,0:0:0:0:
192,192,148231,1,0,0:0:0:0:
320,192,148303,1,0,0:0:0:0:
448,192,148375,1,0,0:0:0:0:
64,192,148447,1,0,0:0:0:0:
192,192,148519,1,0,0:0:0:0:
320,192,148591,1,0,0:0:0:0:
192,192,148663,5,0,0:0:0:0:
448,192,148735,1,0,0:0:0:0:
320,192,148807,1,0,0:0:0:0:
64,192,148807,1,0,0:0:0:0:
192,192,148951,1,0,0:0:0:0:
448,192,148951,1,0,0:0:0:0:
320,192,149023,1,0,0:0:0:0:
64,192,149096,1,0,0:0:0:0:
448,192,149096,1,0,0:0:0:0:
192,192,149384,5,0,0:0:0:0:
320,192,149528,128,0,150249:0:0:0:0:
64,192,150249,1,0,0:0:0:0:
448,192,150249,1,0,0:0:0:0:
192,192,150249,1,0,0:0:0:0:
