osu file format v14

[General]
AudioFilename: audio.mp3
AudioLeadIn: 0
PreviewTime: 222842
Countdown: 0
SampleSet: Normal
StackLeniency: 0.7
Mode: 1
LetterboxInBreaks: 0
WidescreenStoryboard: 0

[Editor]
Bookmarks: 37957,75614,93872,112130,139517,157775,177174,204561,225101,243359,261617,279874
DistanceSpacing: 0.5
BeatDivisor: 4
GridSize: 16
TimelineZoom: 2.500001

[Metadata]
Title:FUTURE DOMINATORS
TitleUnicode:FUTURE DOMINATORS
Artist:DJ SHARPNEL
ArtistUnicode:DJ SHARPNEL
Creator:KuroKuroKuro
Version:TAIKO DOMINATORS
Source:未来日記
Tags:Welcome To The Ottack Universe Sharpnelsound Jea Ryuta Nakagami 仲上竜太 Lemmy SRPC-0029 PAX VESANIA Lantis 妖精帝國 Yousei Teikoku 空想メソロギヰ Kuusou Mesorogiwi YUI 伊月 ゆい Takaha Tachibana 橘 尭葉 LACA-15285 Mirai Nikki Diary Electronic Instrumental japanese J-core jcore hardcore Anime c82 comiket82 comic market 82 コミックマーケット 82 コミケ82 Nuclear Blast JS Awesome Bomb Filez 5
BeatmapID:3392364
BeatmapSetID:1661756

[Difficulty]
HPDrainRate:5
CircleSize:5
OverallDifficulty:7
ApproachRate:5
SliderMultiplier:1.4
SliderTickRate:1

[Events]
//Background and Video events
0,0,"Future.png",0,100
//Break Periods
//Storyboard Layer 0 (Background)
//Storyboard Layer 1 (Fail)
//Storyboard Layer 2 (Pass)
//Storyboard Layer 3 (Foreground)
//Storyboard Layer 4 (Overlay)
//Storyboard Sound Samples

[TimingPoints]
303,285.306704707561,4,1,0,100,1,0
9432,-100,4,1,0,80,0,0
9575,-96.379441303064,4,1,0,80,0,0
9623,-95.222212957559,4,1,0,80,0,0
9670,-94.115707928136,4,1,0,80,0,0
9718,-93.01189118749,4,1,0,80,0,0
9860,-89.892947103275,4,1,0,80,0,0
9908,-88.885429638854,4,1,0,80,0,0
9955,-87.920548156132,4,1,0,80,0,0
10003,-86.95652173913,4,1,0,80,0,0
10074,-85.568709725761,4,1,0,80,0,0
10146,-84.205869340805,4,1,0,80,0,0
10217,-82.903811252269,4,1,0,80,0,0
10288,-81.641406920217,4,1,0,80,0,0
10431,-79.212041340085,4,1,0,80,0,0
10574,-76.923076923077,4,1,0,80,0,0
10859,-100,4,1,0,80,0,0
18562,-100,4,1,0,80,0,0
18705,-96.376383140468,4,1,0,80,0,0
18847,-93.02894415002,4,1,0,80,0,0
18990,-89.884985032299,4,1,0,80,0,0
19133,-86.946582336356,4,1,0,80,0,0
19204,-85.557888422316,4,1,0,80,0,0
19275,-84.21285703742,4,1,0,80,0,0
19323,-83.327247498722,4,1,0,80,0,0
19370,-82.477952869741,4,1,0,80,0,0
19418,-81.628273000429,4,1,0,80,0,0
19489,-80.403072369812,4,1,0,80,0,0
19561,-79.197612271812,4,1,0,80,0,0
19703,-76.923076923077,4,1,0,80,0,0
19989,-100,4,1,0,80,0,0
27692,-100,4,1,0,80,0,0
27835,-96.376383140468,4,1,0,80,0,0
27977,-93.02894415002,4,1,0,80,0,0
28120,-89.884985032299,4,1,0,80,0,0
28263,-86.946582336356,4,1,0,80,0,0
28334,-85.557888422316,4,1,0,80,0,0
28405,-84.21285703742,4,1,0,80,0,0
28453,-83.327247498722,4,1,0,80,0,0
28500,-82.477952869741,4,1,0,80,0,0
28548,-81.628273000429,4,1,0,80,0,0
28619,-80.403072369812,4,1,0,80,0,0
28691,-79.197612271812,4,1,0,80,0,0
28833,-76.923076923077,4,1,0,80,0,0
29118,-100,4,1,0,80,0,0
36822,-100,4,1,0,80,0,0
36964,-99.381586969776,4,1,0,80,0,0
37107,-98.766500757412,4,1,0,80,0,0
37250,-98.158981417756,4,1,0,80,0,0
37535,-96.970212042663,4,1,0,80,0,0
37678,-96.384524412908,4,1,0,80,0,0
37820,-95.809891678562,4,1,0,80,0,0
37963,-95.238095238095,4,1,0,80,0,0
74482,-74.074074074074,4,1,0,80,0,0
74625,-74.074074074074,4,1,0,80,0,0
74910,-74.074074074074,4,1,0,80,0,0
75196,-76.923076923077,4,1,0,80,0,0
75267,-79.464036475295,4,1,0,80,0,0
75338,-82.178598922248,4,1,0,80,0,0
75409,-85.08518481618,4,1,0,80,0,0
75481,-88.250490854604,4,1,0,80,0,0
75552,-91.611242222699,4,1,0,80,0,0
75623,-95.238095238095,4,1,0,80,0,0
79903,-74.074074074074,4,1,0,80,0,0
80046,-74.074074074074,4,1,0,80,0,0
80188,-74.074074074074,4,1,0,80,0,0
80474,-95.2380952380952,4,1,0,80,0,0
83897,-74.0740740740741,4,1,0,80,0,0
84040,-95.2380952380952,4,1,0,80,0,0
84468,-74.0740740740741,4,1,0,80,0,0
84611,-95.2380952380952,4,1,0,80,0,0
84753,-74.0740740740741,4,1,0,80,0,0
84896,-95.2380952380952,4,1,0,80,0,0
89033,-74.074074074074,4,1,0,80,0,0
89176,-74.074074074074,4,1,0,80,0,0
89318,-74.074074074074,4,1,0,80,0,0
89603,-95.2380952380952,4,1,0,80,0,0
90459,-95.238095238095,4,1,0,80,0,0
90531,-94.669403495677,4,1,0,80,0,0
90602,-94.115222096259,4,1,0,80,0,0
90673,-93.567491137113,4,1,0,80,0,0
90745,-93.018518141259,4,1,0,80,0,0
90816,-92.483441696542,4,1,0,80,0,0
90887,-91.954485953076,4,1,0,80,0,0
90959,-91.424223614921,4,1,0,80,0,0
91030,-90.907280944512,4,1,0,80,0,0
91101,-90.396151333373,4,1,0,80,0,0
91173,-89.883659127148,4,1,0,80,0,0
91244,-89.383943777773,4,1,0,80,0,0
91315,-88.889754122296,4,1,0,80,0,0
91387,-88.394153518536,4,1,0,80,0,0
91458,-87.910818460117,4,1,0,80,0,0
91529,-87.432740363441,4,1,0,80,0,0
91601,-86.95320980366,4,1,0,80,0,0
91648,-86.643010303801,4,1,0,80,0,0
91696,-86.328486888128,4,1,0,80,0,0
91743,-86.022720850054,4,1,0,80,0,0
91815,-85.558491202428,4,1,0,80,0,0
91886,-85.105589830572,4,1,0,80,0,0
91934,-84.802109837862,4,1,0,80,0,0
91981,-84.507042253521,4,1,0,80,0,0
92029,-84.20780849455,4,1,0,80,0,0
92100,-83.769057185316,4,1,0,80,0,0
92171,-83.334854264386,4,1,0,80,0,0
92219,-83.043849917247,4,1,0,80,0,0
92266,-82.760870747313,4,1,0,80,0,0
92314,-82.473854379279,4,1,0,80,0,0
92385,-82.052940859346,4,1,0,80,0,0
92457,-81.630463931349,4,1,0,80,0,0
92504,-81.357019403809,4,1,0,80,0,0
92552,-81.079641303383,4,1,0,80,0,0
92599,-80.809868502557,4,1,0,80,0,0
92742,-80,4,1,0,80,0,0
92885,-83.343074225599,4,1,0,80,0,0
93027,-86.951219512195,4,1,0,80,0,0
93170,-90.914886834555,4,1,0,80,0,0
93455,-100,4,1,0,80,0,0
93598,-100,4,1,0,80,0,0
93669,-98.286029589268,4,1,0,80,0,0
93740,-96.62982301485,4,1,0,80,0,0
93812,-95.006333755584,4,1,0,80,0,0
93883,-93.457943925234,4,1,0,80,0,0
109860,-93.457943925234,4,1,0,80,0,0
109932,-92.964732039238,4,1,0,80,0,0
110003,-92.483441696542,4,1,0,81,0,0
110074,-92.007109090689,4,1,0,81,0,0
110146,-91.52905235558,4,1,0,81,0,0
110217,-91.062475319796,4,1,0,82,0,0
110288,-90.60063098994,4,1,0,82,0,0
110360,-90.137041467777,4,1,0,82,0,0
110431,-89.684513216975,4,1,0,83,0,0
110502,-89.236506056591,4,1,0,83,0,0
110574,-88.786736824912,4,1,0,83,0,0
110645,-88.347632260237,4,1,0,83,0,0
110716,-87.912849600869,4,1,0,84,0,0
110788,-87.476291740905,4,1,0,84,0,0
110859,-87.050022305853,4,1,0,84,0,0
110930,-86.627887121928,4,1,0,85,0,0
111002,-86.203966968362,4,1,0,85,0,0
111049,-85.929472341098,4,1,0,85,0,0
111097,-85.650935857466,4,1,0,85,0,0
111144,-85.379946371072,4,1,0,86,0,0
111215,-84.973815558806,4,1,0,86,0,0
111287,-84.565891386725,4,1,0,86,0,0
111334,-84.301713728661,4,1,0,86,0,0
111382,-84.033613445378,4,1,0,87,0,0
111429,-83.772745786594,4,1,0,87,0,0
111501,-83.376244891699,4,1,0,87,0,0
111572,-82.988909366514,4,1,0,87,0,0
111620,-82.729081283225,4,1,0,88,0,0
111667,-82.47623795641,4,1,0,88,0,0
111715,-82.219605216245,4,1,0,88,0,0
111786,-81.842917522558,4,1,0,88,0,0
111857,-81.469665663908,4,1,0,89,0,0
111929,-81.094617491288,4,1,0,89,0,0
112000,-80.728144525656,4,1,0,89,0,0
112071,-80.364968899496,4,1,0,90,0,0
112143,-80,4,1,0,90,0,1
112285,-81.212854549984,4,1,0,90,0,1
112357,-81.841982570025,4,1,0,90,0,1
112428,-82.471991326346,4,1,0,90,0,1
112571,-83.77078668184,4,1,0,90,0,1
112642,-84.430960485423,4,1,0,90,0,1
112713,-85.101622226366,4,1,0,90,0,1
112785,-85.792698973646,4,1,0,90,0,1
112856,-86.485257333434,4,1,0,90,0,1
112999,-87.914628038679,4,1,0,90,0,1
113070,-88.642013673089,4,1,0,90,0,1
113141,-89.381536171713,4,1,0,90,0,1
113213,-90.144183290539,4,1,0,90,0,1
113284,-90.909090909091,4,1,0,90,0,1
137250,-90.909090909091,4,1,0,90,0,1
137321,-90.525021322173,4,1,0,90,0,1
137392,-90.144183290539,4,1,0,90,0,1
137464,-89.761239822208,4,1,0,90,0,1
137535,-89.386787833683,4,1,0,90,0,1
137606,-89.015447027617,4,1,0,90,0,1
137678,-88.642013673089,4,1,0,90,0,1
137749,-88.276822498598,4,1,0,90,0,1
137820,-87.914628038679,4,1,0,90,0,1
137892,-87.550354882026,4,1,0,90,0,1
137963,-87.194085168982,4,1,0,90,0,1
138034,-86.840703249867,4,1,0,90,0,1
138106,-86.485257333434,4,1,0,90,0,1
138177,-86.137586109276,4,1,0,90,0,1
138248,-85.792698973646,4,1,0,90,0,1
138320,-85.445763283034,4,1,0,90,0,1
138391,-85.106382978723,4,1,0,90,0,1
138438,-84.883201904478,4,1,0,90,0,1
138486,-84.65647722214,4,1,0,90,0,1
138534,-84.430960485423,4,1,0,90,0,1
138605,-84.099578027972,4,1,0,90,0,1
138676,-83.77078668184,4,1,0,90,0,1
138724,-83.549957895508,4,1,0,90,0,1
138771,-83.334854930889,4,1,0,90,0,1
138819,-83.116315492342,4,1,0,90,0,1
138890,-82.795152746535,4,1,0,90,0,1
138962,-82.471991326346,4,1,0,90,0,1
139009,-82.262396135614,4,1,0,90,0,1
139057,-82.049438202247,4,1,0,90,0,1
139104,-81.841982570025,4,1,0,90,0,1
139176,-81.526204851559,4,1,0,90,0,1
139247,-81.217190141472,4,1,0,90,0,1
139294,-81.013916500994,4,1,0,90,0,1
139342,-80.807365439093,4,1,0,90,0,1
139390,-80.601864933597,4,1,0,90,0,1
139532,-80,4,1,0,90,0,1
139675,-81.2215261959,4,1,0,90,0,1
139817,-82.471991326346,4,1,0,90,0,1
139960,-83.77078668184,4,1,0,90,0,1
140031,-84.430960485423,4,1,0,90,0,1
140103,-85.111144263762,4,1,0,90,0,1
140245,-86.485257333434,4,1,0,90,0,1
140317,-87.199082919373,4,1,0,90,0,1
140388,-87.914628038679,4,1,0,90,0,1
140459,-88.642013673089,4,1,0,90,0,1
140531,-89.392040112817,4,1,0,90,0,1
140673,-90.909090909091,4,1,0,90,0,1
155509,-90.9090909090909,4,1,0,90,0,1
155581,-90.5198049244677,4,1,0,90,0,1
155652,-90.1391767841279,4,1,0,90,0,1
155723,-89.7617362585515,4,1,0,90,0,1
155795,-89.3821940333568,4,1,0,90,0,1
155866,-89.0110532779695,4,1,0,90,0,1
155937,-88.6429819452534,4,1,0,90,0,1
156009,-88.2728221784016,4,1,0,90,0,1
156080,-87.9108184601167,4,1,0,90,0,1
156151,-87.5517717441325,4,1,0,90,0,1
156223,-87.1906507791017,4,1,0,90,0,1
156294,-86.8374507902094,4,1,0,90,0,1
156365,-86.4871008069099,4,1,0,90,0,1
156437,-86.1346915676287,4,1,0,90,0,1
156508,-85.7899780170227,4,1,0,90,0,1
156579,-85.4480125757916,4,1,0,90,0,1
156651,-85.1040035786177,4,1,0,90,0,1
156698,-84.8809324633317,4,1,0,90,0,1
156746,-84.6543189276378,4,1,0,90,0,1
156793,-84.4335959170088,4,1,0,90,0,1
156841,-84.2093615137767,4,1,0,90,0,1
156888,-83.9909497268363,4,1,0,90,0,1
156936,-83.7690571853156,4,1,0,90,0,1
157007,-83.4429824561403,4,1,0,90,0,1
157079,-83.1148973350808,4,1,0,90,0,1
157150,-82.7938856552249,4,1,0,90,0,1
157221,-82.4753440988404,4,1,0,90,0,1
157269,-82.2613771484164,4,1,0,90,0,1
157316,-82.0529408593455,4,1,0,90,0,1
157364,-81.8411571758886,4,1,0,90,0,1
157435,-81.5298907220913,4,1,0,90,0,1
157506,-81.2209829766797,4,1,0,90,0,1
157554,-81.013466758929,4,1,0,90,0,1
157602,-80.8070082293602,4,1,0,90,0,1
157649,-80.6058680224553,4,1,0,90,0,1
157792,-80,4,1,0,90,0,1
157863,-117.647058823529,4,1,0,60,0,0
174910,-133.333333333333,4,1,0,60,0,0
174982,-130.587730587731,4,1,0,60,0,0
175053,-127.988787666433,4,1,0,61,0,0
175124,-125.491273876598,4,1,0,61,0,0
175196,-123.056191887886,4,1,0,61,0,0
175267,-120.745735819119,4,1,0,62,0,0
175338,-118.520441271901,4,1,0,62,0,0
175409,-116.37568497515,4,1,0,62,0,0
175481,-114.278563383807,4,1,0,63,0,0
175552,-112.283290298783,4,1,0,63,0,0
175623,-110.356495468278,4,1,0,63,0,0
175695,-108.468939303955,4,1,0,63,0,0
175766,-106.669781567574,4,1,0,64,0,0
175837,-104.929334712168,4,1,0,64,0,0
175909,-103.221430993557,4,1,0,64,0,0
175980,-101.590833240627,4,1,0,65,0,0
176051,-100.01095170299,4,1,0,65,0,0
176099,-98.970412918608,4,1,0,65,0,0
176147,-97.951303228575,4,1,0,65,0,0
176194,-96.973558458108,4,1,0,66,0,0
176265,-95.533005544513,4,1,0,66,0,0
176337,-94.115222096259,4,1,0,66,0,0
176384,-93.21220781872,4,1,0,66,0,0
176432,-92.307692307692,4,1,0,67,0,0
176479,-91.438870531691,4,1,0,67,0,0
176551,-90.139176784128,4,1,0,67,0,0
176622,-88.893215224375,4,1,0,67,0,0
176670,-88.070209277655,4,1,0,68,0,0
176717,-87.278983083246,4,1,0,68,0,0
176765,-86.485462638507,4,1,0,68,0,0
176836,-85.33781889543,4,1,0,68,0,0
176907,-84.220234252513,4,1,0,69,0,0
176955,-83.481122588902,4,1,0,69,0,0
177002,-82.769872201577,4,1,0,69,0,0
177050,-82.055890017073,4,1,0,69,0,0
177193,-80,4,1,0,70,0,0
177478,-142.857142857143,4,1,0,70,0,0
202300,-142.857142857143,4,1,0,70,0,0
202371,-139.448195789667,4,1,0,70,0,0
202442,-136.198149806028,4,1,0,70,0,0
202514,-133.053466270188,4,1,0,70,0,0
202585,-130.091497306388,4,1,0,71,0,0
202656,-127.25853223288,4,1,0,71,0,0
202728,-124.508948057617,4,1,0,71,0,0
202799,-121.911477949622,4,1,0,71,0,0
202870,-119.420168506986,4,1,0,71,0,0
202942,-116.99564214304,4,1,0,71,0,0
203013,-114.699303862683,4,1,0,72,0,0
203084,-112.491373360939,4,1,0,72,0,0
203156,-110.337491538536,4,1,0,72,0,0
203227,-108.292798671254,4,1,0,72,0,0
203298,-106.322508503005,4,1,0,72,0,0
203370,-104.396358479345,4,1,0,72,0,0
203441,-102.564102564103,4,1,0,73,0,0
203488,-101.386173804869,4,1,0,73,0,0
203536,-100.210785174776,4,1,0,73,0,0
203584,-99.062337211321,4,1,0,73,0,0
203655,-97.411051586878,4,1,0,73,0,0
203726,-95.813914430869,4,1,0,73,0,0
203774,-94.7635064989,4,1,0,73,0,0
203821,-93.757061566589,4,1,0,73,0,0
203869,-92.751031357327,4,1,0,73,0,0
203940,-91.30191245899,4,1,0,74,0,0
204011,-89.897378321417,4,1,0,74,0,0
204059,-88.972064643157,4,1,0,74,0,0
204107,-88.065605402798,4,1,0,74,0,0
204154,-87.195751022124,4,1,0,74,0,0
204225,-85.913822638029,4,1,0,74,0,0
204297,-84.651766669758,4,1,0,74,0,0
204344,-83.847736625514,4,1,0,74,0,0
204392,-83.042212518195,4,1,0,75,0,0
204439,-82.268327414965,4,1,0,75,0,0
204546,-80,4,1,0,75,0,0
204831,-80.616846028979,4,1,0,75,0,0
205116,-81.243278450143,4,1,0,75,0,0
205402,-81.881772466498,4,1,0,75,0,0
205687,-82.528096111474,4,1,0,75,0,0
205972,-83.184704287651,4,1,0,75,0,0
206258,-83.854204122983,4,1,0,75,0,0
206543,-84.532170009961,4,1,0,75,0,0
206828,-85.221188037637,4,1,0,75,0,0
207114,-85.924008291869,4,1,0,75,0,0
207399,-86.635998294287,4,1,0,75,0,0
207684,-87.359886378073,4,1,0,75,0,0
207969,-88.095973299871,4,1,0,75,0,0
208255,-88.847219093306,4,1,0,75,0,0
208540,-89.608692891917,4,1,0,75,0,0
208825,-90.383332097575,4,1,0,75,0,0
209111,-91.174270755423,4,1,0,75,0,0
209396,-91.976335419703,4,1,0,75,0,0
209681,-92.792636932978,4,1,0,75,0,0
209967,-93.626499462358,4,1,0,75,0,0
210252,-94.47248926449,4,1,0,75,0,0
210537,-95.33390684877,4,1,0,75,0,0
210823,-96.214284689236,4,1,0,75,0,0
211108,-97.107909344708,4,1,0,75,0,0
211393,-98.01828933999,4,1,0,75,0,0
211678,-98.945900375226,4,1,0,75,0,0
211964,-99.894585101113,4,1,0,75,0,0
212249,-100.858223830191,4,1,0,75,0,0
212534,-101.84063524131,4,1,0,75,0,0
212820,-102.84592286364,4,1,0,75,0,0
213105,-103.867634414433,4,1,0,75,0,0
213390,-104.909849821421,4,1,0,75,0,0
213676,-105.976961530102,4,1,0,75,0,0
213961,-107.062158169987,4,1,0,75,0,0
214246,-108.169809418171,4,1,0,75,0,0
214531,-109.300619497881,4,1,0,75,0,0
214817,-110.459416935079,4,1,0,75,0,0
215102,-111.638865877671,4,1,0,75,0,0
215387,-112.843774194634,4,1,0,75,0,0
215673,-114.079342527288,4,1,0,75,0,0
215958,-115.337803257396,4,1,0,75,0,0
216243,-116.624338992485,4,1,0,75,0,0
216529,-117.944568076067,4,1,0,75,0,0
216814,-119.290254567129,4,1,0,75,0,0
217099,-120.667002627695,4,1,0,75,0,0
217385,-122.080901699791,4,1,0,75,0,0
217670,-123.523207236918,4,1,0,75,0,0
217955,-125,4,1,0,75,0,0
218277,-125,4,1,0,75,0,0
218419,-122.850453456767,4,1,0,75,0,0
218562,-120.759209047021,4,1,0,75,0,0
218705,-118.737970139937,4,1,0,75,0,0
218847,-116.79672508635,4,1,0,76,0,0
218990,-114.904917124986,4,1,0,76,0,0
219133,-113.073417219855,4,1,0,76,0,0
219275,-111.31159932701,4,1,0,76,0,0
219418,-109.592000864252,4,1,0,76,0,0
219561,-107.924724573266,4,1,0,76,0,0
219703,-106.318559750332,4,1,0,77,0,0
219846,-104.748683470818,4,1,0,77,0,0
219989,-103.224493487699,4,1,0,77,0,0
220131,-101.754229543276,4,1,0,77,0,0
220274,-100.315339566875,4,1,0,77,0,0
220417,-98.916576381365,4,1,0,77,0,0
220559,-97.565667143987,4,1,0,77,0,0
220631,-96.894699976652,4,1,0,78,0,0
220702,-96.242028145259,4,1,0,78,0,0
220773,-95.59809013235,4,1,0,78,0,0
220845,-94.953823113404,4,1,0,78,0,0
220916,-94.326951886022,4,1,0,78,0,0
220987,-93.708303397311,4,1,0,78,0,0
221059,-93.089173922796,4,1,0,78,0,0
221130,-92.486603118004,4,1,0,78,0,0
221201,-91.891783083055,4,1,0,78,0,0
221273,-91.296348146074,4,1,0,78,0,0
221344,-90.716691672546,4,1,0,78,0,0
221415,-90.144349440177,4,1,0,78,0,0
221487,-89.571274404003,4,1,0,79,0,0
221558,-89.013249617331,4,1,0,79,0,0
221629,-88.462134718239,4,1,0,79,0,0
221701,-87.910183330766,4,1,0,79,0,0
221748,-87.553582216937,4,1,0,79,0,0
221796,-87.192367564057,4,1,0,79,0,0
221843,-86.841554587479,4,1,0,79,0,0
221914,-86.316923978709,4,1,0,79,0,0
221986,-85.791338175736,4,1,0,79,0,0
222033,-85.451686571076,4,1,0,79,0,0
222081,-85.107572989299,4,1,0,79,0,0
222128,-84.77330337329,4,1,0,79,0,0
222200,-84.266292560016,4,1,0,79,0,0
222271,-83.772227625567,4,1,0,79,0,0
222319,-83.441481291926,4,1,0,79,0,0
222366,-83.120146393423,4,1,0,79,0,0
222414,-82.794519057249,4,1,0,80,0,0
222485,-82.317512983266,4,1,0,80,0,0
222556,-81.845971797653,4,1,0,80,0,0
222604,-81.530232267398,4,1,0,80,0,0
222652,-81.216919450251,4,1,0,80,0,0
222699,-80.912458568922,4,1,0,80,0,0
222842,-80,4,1,0,80,0,0
223127,-83.3333333333333,4,1,0,80,0,0
223412,-86.9565217391304,4,1,0,80,0,0
223555,-90.9090909090909,4,1,0,80,0,0
223840,-95.2380952380952,4,1,0,80,0,0
223983,-100,4,1,0,80,0,0
224054,-99.075239873225,4,1,0,81,0,0
224126,-98.154759344488,4,1,0,81,0,0
224197,-97.263660387009,4,1,0,82,0,0
224268,-96.388595564942,4,1,0,82,0,0
224340,-95.517140345737,4,1,0,83,0,0
224411,-94.673083305675,4,1,0,84,0,0
224482,-93.84381297035,4,1,0,84,0,0
224554,-93.017568173481,4,1,0,85,0,0
224625,-92.216923947305,4,1,0,86,0,0
224696,-91.42994510998,4,1,0,86,0,0
224768,-90.6454816286,4,1,0,87,0,0
224839,-89.884985032299,4,1,0,88,0,0
224910,-89.137143080348,4,1,0,88,0,0
224982,-88.391370027501,4,1,0,89,0,0
225053,-87.668075297733,4,1,0,89,0,0
225124,-86.95652173913,4,1,0,90,0,1
277621,-86.9565217391304,4,1,0,90,0,1
277692,-86.7218970890021,4,1,0,90,0,1
277763,-86.4885351525488,4,1,0,89,0,1
277835,-86.2531655138527,4,1,0,89,0,1
277906,-86.0223160434258,4,1,0,89,0,1
277977,-85.7926989736456,4,1,0,88,0,1
278049,-85.5610963218477,4,1,0,88,0,1
278120,-85.3339316431082,4,1,0,88,0,1
278191,-85.1079700145452,4,1,0,88,0,1
278263,-84.8800446345546,4,1,0,87,0,1
278334,-84.6564772221398,4,1,0,87,0,1
278405,-84.4340844340844,4,1,0,87,0,1
278477,-84.2097494372486,4,1,0,86,0,1
278548,-83.9896945160103,4,1,0,86,0,1
278619,-83.7707866818399,4,1,0,86,0,1
278691,-83.5499578955076,4,1,0,85,0,1
278762,-83.3333333333333,4,1,0,85,0,1
278809,-83.1905508366447,4,1,0,85,0,1
278857,-83.0452345427417,4,1,0,85,0,1
278904,-82.9034367507084,4,1,0,84,0,1
278952,-82.7591209110031,4,1,0,84,0,1
279000,-82.6153066396351,4,1,0,84,0,1
279047,-82.4749719903141,4,1,0,84,0,1
279118,-82.2638788752704,4,1,0,83,0,1
279190,-82.0509132748454,4,1,0,83,0,1
279261,-81.8419825700247,4,1,0,83,0,1
279332,-81.6341131859483,4,1,0,83,0,1
279380,-81.4941789872152,4,1,0,82,0,1
279428,-81.3547237076649,4,1,0,82,0,1
279475,-81.2186354415062,4,1,0,82,0,1
279546,-81.013916500994,4,1,0,82,0,1
279618,-80.8073654390935,4,1,0,81,0,1
279665,-80.6731007176441,4,1,0,81,0,1
279713,-80.5364390329981,4,1,0,81,0,1
279760,-80.4030723698119,4,1,0,81,0,1
279903,-80,4,1,0,80,0,1
280046,-81.637033592101,4,1,0,80,0,0
280117,-82.474971990314,4,1,0,80,0,0
280188,-83.330290304911,4,1,0,80,0,0
280331,-85.107970014545,4,1,0,80,0,0
280402,-86.019073466772,4,1,0,80,0,0
280474,-86.963149270226,4,1,0,80,0,0
280616,-88.88715771433,4,1,0,80,0,0
280759,-90.912712640931,4,1,0,80,0,0
280830,-91.953096667607,4,1,0,80,0,0
280902,-93.032736760569,4,1,0,80,0,0
280973,-94.12249948443,4,1,0,80,0,0
281044,-95.238095238095,4,1,0,80,0,0
295880,-95.238095238095,4,1,0,80,0,0
295952,-94.631644114265,4,1,0,80,0,0
296023,-94.04113200914,4,1,0,80,0,0
296094,-93.457943925234,4,1,0,80,0,0
296166,-92.87388247548,4,1,0,80,0,0
296237,-92.305037957212,4,1,0,80,0,0
296308,-91.743119266055,4,1,0,80,0,0
296380,-91.180230080954,4,1,0,80,0,0
296451,-90.631882093851,4,1,0,80,0,0
296522,-90.09009009009,4,1,0,80,0,0
296594,-89.547242447067,4,1,0,80,0,0
296665,-89.018302828619,4,1,0,80,0,0
296736,-88.495575221239,4,1,0,80,0,0
296807,-87.978950830456,4,1,0,80,0,0
296879,-87.461173777996,4,1,0,80,0,0
296950,-86.95652173913,4,1,0,80,0,0
297021,-86.457659987072,4,1,0,80,0,0
297069,-86.123631680618,4,1,0,80,0,0
297117,-85.792174470815,4,1,0,80,0,0
297164,-85.470085470085,4,1,0,80,0,0
297235,-84.988085782367,4,1,0,80,0,0
297307,-84.504817564366,4,1,0,80,0,0
297354,-84.192304665985,4,1,0,80,0,0
297402,-83.875519322725,4,1,0,80,0,0
297449,-83.567635114027,4,1,0,80,0,0
297521,-83.100341721031,4,1,0,80,0,0
297592,-82.644628099174,4,1,0,80,0,0
297640,-82.339361292805,4,1,0,80,0,0
297687,-82.042631498236,4,1,0,80,0,0
297735,-81.741787624141,4,1,0,80,0,0
297806,-81.30081300813,4,1,0,80,0,0
297877,-80.864570737606,4,1,0,80,0,0
297925,-80.572289156627,4,1,0,80,0,0
297972,-80.288136865011,4,1,0,80,0,0
298020,-80,4,1,0,80,0,0
298163,-80,4,1,0,80,0,0
298305,-81.212854549984,4,1,0,80,0,0
298377,-81.841982570025,4,1,0,80,0,0
298448,-82.471991326346,4,1,0,80,0,0
298519,-83.111774775103,4,1,0,80,0,0
298591,-83.77078668184,4,1,0,80,0,0
298662,-84.430960485423,4,1,0,80,0,0
298733,-85.101622226366,4,1,0,80,0,0
298876,-86.485257333434,4,1,0,80,0,0
299019,-87.914628038679,4,1,0,80,0,0
299090,-88.642013673089,4,1,0,80,0,0
299161,-89.381536171713,4,1,0,80,0,0
299233,-90.144183290539,4,1,0,80,0,0
299304,-90.909090909091,4,1,0,80,0,0
314140,-90.909090909091,4,1,0,90,0,0
314211,-90.525021322173,4,1,0,90,0,0
314283,-90.138842257026,4,1,0,90,0,0
314354,-89.761239822208,4,1,0,90,0,0
314425,-89.386787833683,4,1,0,90,0,0
314497,-89.01023890785,4,1,0,90,0,0
314568,-88.642013673089,4,1,0,90,0,0
314639,-88.276822498598,4,1,0,90,0,0
314710,-87.914628038679,4,1,0,90,0,0
314782,-87.550354882026,4,1,0,90,0,0
314853,-87.194085168982,4,1,0,90,0,0
314924,-86.840703249867,4,1,0,90,0,0
314996,-86.485257333434,4,1,0,90,0,0
315067,-86.137586109276,4,1,0,90,0,0
315138,-85.792698973646,4,1,0,90,0,0
315210,-85.445763283034,4,1,0,90,0,0
315281,-85.106382978723,4,1,0,90,0,0
315329,-84.878466087668,4,1,0,90,0,0
315376,-84.65647722214,4,1,0,90,0,0
315424,-84.430960485423,4,1,0,90,0,0
315495,-84.099578027972,4,1,0,90,0,0
315566,-83.77078668184,4,1,0,90,0,0
315614,-83.549957895508,4,1,0,90,0,0
315662,-83.330290304911,4,1,0,90,0,0
315709,-83.116315492342,4,1,0,90,0,0
315780,-82.795152746535,4,1,0,90,0,0
315852,-82.471991326346,4,1,0,90,0,0
315899,-82.262396135614,4,1,0,90,0,0
315947,-82.049438202247,4,1,0,90,0,0
315994,-81.841982570025,4,1,0,90,0,0
316066,-81.526204851559,4,1,0,90,0,0
316137,-81.217190141472,4,1,0,90,0,0
316185,-81.009602584355,4,1,0,90,0,0
316232,-80.807365439093,4,1,0,90,0,0
316280,-80.601864933597,4,1,0,90,0,0
316422,-80,4,1,0,90,0,0

[HitObjects]
256,192,303,8,0,1301,0:0:0:0:
160,288,1444,5,4,0:0:0:0:
352,96,1729,1,8,0:0:0:0:
160,96,1872,1,0,0:0:0:0:
352,96,2014,1,8,0:0:0:0:
352,96,2086,1,8,0:0:0:0:
352,96,2157,1,8,0:0:0:0:
160,96,2300,1,0,0:0:0:0:
352,96,2442,1,8,0:0:0:0:
160,96,2585,1,0,0:0:0:0:
352,96,2870,1,8,0:0:0:0:
160,96,3013,1,0,0:0:0:0:
352,96,3156,1,8,0:0:0:0:
160,96,3227,1,0,0:0:0:0:
352,96,3298,1,8,0:0:0:0:
160,96,3441,1,0,0:0:0:0:
352,96,3584,1,8,0:0:0:0:
352,96,3655,1,8,0:0:0:0:
160,96,3726,1,0,0:0:0:0:
352,96,4011,1,8,0:0:0:0:
160,96,4154,1,0,0:0:0:0:
352,96,4297,1,8,0:0:0:0:
352,96,4368,1,8,0:0:0:0:
352,96,4439,1,8,0:0:0:0:
160,96,4582,1,0,0:0:0:0:
160,96,4653,1,0,0:0:0:0:
352,96,4725,1,8,0:0:0:0:
352,96,4796,1,8,0:0:0:0:
160,96,4867,1,0,0:0:0:0:
352,96,5153,1,8,0:0:0:0:
160,96,5295,1,0,0:0:0:0:
352,96,5438,1,8,0:0:0:0:
160,96,5509,1,0,0:0:0:0:
352,96,5581,1,8,0:0:0:0:
160,96,5723,1,0,0:0:0:0:
160,96,5795,1,0,0:0:0:0:
352,96,5866,1,8,0:0:0:0:
160,96,6009,1,0,0:0:0:0:
352,96,6294,1,8,0:0:0:0:
160,96,6437,1,0,0:0:0:0:
352,96,6579,1,8,0:0:0:0:
160,96,6651,1,0,0:0:0:0:
352,96,6722,1,8,0:0:0:0:
160,96,6865,1,0,0:0:0:0:
160,96,6936,1,0,0:0:0:0:
352,96,7007,1,8,0:0:0:0:
352,96,7079,1,8,0:0:0:0:
160,96,7150,1,0,0:0:0:0:
352,96,7435,1,8,0:0:0:0:
160,96,7578,1,0,0:0:0:0:
352,96,7720,1,8,0:0:0:0:
160,96,7792,1,0,0:0:0:0:
352,96,7863,1,8,0:0:0:0:
160,96,8006,1,0,0:0:0:0:
352,96,8148,1,8,0:0:0:0:
352,96,8220,1,8,0:0:0:0:
160,96,8291,1,0,0:0:0:0:
352,96,8576,1,8,0:0:0:0:
160,96,8719,1,0,0:0:0:0:
352,96,8862,1,8,0:0:0:0:
352,96,8933,1,8,0:0:0:0:
352,96,9004,1,8,0:0:0:0:
160,96,9147,1,0,0:0:0:0:
352,96,9290,1,8,0:0:0:0:
352,96,9361,1,8,0:0:0:0:
160,96,9432,1,0,0:0:0:0:
352,96,9575,1,8,0:0:0:0:
352,96,9623,1,8,0:0:0:0:
352,96,9670,1,8,0:0:0:0:
160,96,9718,1,0,0:0:0:0:
160,96,9860,1,0,0:0:0:0:
160,96,9908,1,0,0:0:0:0:
160,96,9955,1,0,0:0:0:0:
352,96,10003,1,8,0:0:0:0:
160,96,10074,1,0,0:0:0:0:
352,96,10146,1,8,0:0:0:0:
352,96,10217,1,8,0:0:0:0:
160,96,10288,1,0,0:0:0:0:
352,96,10431,1,8,0:0:0:0:
160,288,10574,1,4,0:0:0:0:
352,96,10859,1,8,0:0:0:0:
160,96,11002,1,0,0:0:0:0:
352,96,11144,1,8,0:0:0:0:
352,96,11215,1,8,0:0:0:0:
352,96,11287,1,8,0:0:0:0:
160,96,11429,1,0,0:0:0:0:
352,96,11572,1,8,0:0:0:0:
352,96,11643,1,8,0:0:0:0:
160,96,11715,1,0,0:0:0:0:
352,96,12000,1,8,0:0:0:0:
160,96,12143,1,0,0:0:0:0:
352,96,12285,1,8,0:0:0:0:
352,96,12357,1,8,0:0:0:0:
160,96,12428,1,0,0:0:0:0:
160,96,12499,1,0,0:0:0:0:
352,96,12571,1,8,0:0:0:0:
160,96,12713,1,0,0:0:0:0:
352,96,12785,1,8,0:0:0:0:
160,96,12856,1,0,0:0:0:0:
352,96,13141,1,8,0:0:0:0:
160,96,13284,1,0,0:0:0:0:
352,96,13427,1,8,0:0:0:0:
160,96,13498,1,0,0:0:0:0:
352,96,13569,1,8,0:0:0:0:
352,96,13712,1,8,0:0:0:0:
160,96,13783,1,0,0:0:0:0:
352,96,13855,1,8,0:0:0:0:
352,96,13926,1,8,0:0:0:0:
160,96,13997,1,0,0:0:0:0:
352,96,14283,1,8,0:0:0:0:
160,96,14425,1,0,0:0:0:0:
352,96,14568,1,8,0:0:0:0:
352,96,14639,1,8,0:0:0:0:
352,96,14710,1,8,0:0:0:0:
160,96,14853,1,0,0:0:0:0:
160,96,14924,1,0,0:0:0:0:
352,96,14996,1,8,0:0:0:0:
352,96,15067,1,8,0:0:0:0:
160,96,15138,1,0,0:0:0:0:
352,96,15424,1,8,0:0:0:0:
160,96,15566,1,0,0:0:0:0:
352,96,15709,1,8,0:0:0:0:
160,96,15780,1,0,0:0:0:0:
352,96,15852,1,8,0:0:0:0:
352,96,15994,1,8,0:0:0:0:
352,96,16066,1,8,0:0:0:0:
160,96,16137,1,0,0:0:0:0:
352,96,16208,1,8,0:0:0:0:
160,96,16280,1,0,0:0:0:0:
352,96,16565,1,8,0:0:0:0:
160,96,16708,1,0,0:0:0:0:
352,96,16850,1,8,0:0:0:0:
352,96,16922,1,8,0:0:0:0:
352,96,16993,1,8,0:0:0:0:
352,96,17136,1,8,0:0:0:0:
160,96,17207,1,0,0:0:0:0:
352,96,17278,1,8,0:0:0:0:
352,96,17350,1,8,0:0:0:0:
160,96,17421,1,0,0:0:0:0:
352,96,17706,1,8,0:0:0:0:
160,96,17849,1,0,0:0:0:0:
352,96,17992,1,8,0:0:0:0:
160,96,18063,1,0,0:0:0:0:
352,96,18134,1,8,0:0:0:0:
160,96,18277,1,0,0:0:0:0:
352,96,18419,1,8,0:0:0:0:
352,96,18491,1,8,0:0:0:0:
160,96,18562,1,0,0:0:0:0:
160,96,18705,1,0,0:0:0:0:
352,96,18847,1,8,0:0:0:0:
160,96,18990,1,0,0:0:0:0:
160,96,19133,1,0,0:0:0:0:
352,96,19204,1,8,0:0:0:0:
160,96,19275,1,0,0:0:0:0:
160,96,19323,1,0,0:0:0:0:
160,96,19370,1,0,0:0:0:0:
352,96,19418,1,8,0:0:0:0:
160,96,19489,1,0,0:0:0:0:
352,96,19561,1,8,0:0:0:0:
160,288,19703,1,4,0:0:0:0:
352,96,19989,1,8,0:0:0:0:
160,96,20131,1,0,0:0:0:0:
352,96,20274,1,8,0:0:0:0:
352,96,20345,1,8,0:0:0:0:
352,96,20417,1,8,0:0:0:0:
160,96,20559,1,0,0:0:0:0:
352,96,20702,1,8,0:0:0:0:
352,96,20773,1,8,0:0:0:0:
160,96,20845,1,0,0:0:0:0:
160,96,20987,1,0,0:0:0:0:
352,96,21130,1,8,0:0:0:0:
160,96,21273,1,0,0:0:0:0:
352,96,21415,1,8,0:0:0:0:
352,96,21487,1,8,0:0:0:0:
160,96,21558,1,0,0:0:0:0:
160,96,21629,1,0,0:0:0:0:
352,96,21701,1,8,0:0:0:0:
160,96,21843,1,0,0:0:0:0:
352,96,21914,1,8,0:0:0:0:
160,96,21986,1,0,0:0:0:0:
352,96,22271,1,8,0:0:0:0:
160,96,22414,1,0,0:0:0:0:
352,96,22556,1,8,0:0:0:0:
160,96,22628,1,0,0:0:0:0:
352,96,22699,1,8,0:0:0:0:
352,96,22842,1,8,0:0:0:0:
160,96,22913,1,0,0:0:0:0:
352,96,22984,1,8,0:0:0:0:
352,96,23056,1,8,0:0:0:0:
160,96,23127,1,0,0:0:0:0:
160,96,23270,1,0,0:0:0:0:
352,96,23412,1,8,0:0:0:0:
160,96,23555,1,0,0:0:0:0:
352,96,23698,1,8,0:0:0:0:
352,96,23769,1,8,0:0:0:0:
352,96,23840,1,8,0:0:0:0:
160,96,23983,1,0,0:0:0:0:
160,96,24054,1,0,0:0:0:0:
352,96,24126,1,8,0:0:0:0:
160,96,24268,1,0,0:0:0:0:
352,96,24554,1,8,0:0:0:0:
160,96,24696,1,0,0:0:0:0:
352,96,24839,1,8,0:0:0:0:
160,96,24910,1,0,0:0:0:0:
352,96,24982,1,8,0:0:0:0:
160,96,25124,1,0,0:0:0:0:
160,96,25196,1,0,0:0:0:0:
352,96,25267,1,8,0:0:0:0:
160,96,25409,1,0,0:0:0:0:
160,96,25552,1,0,0:0:0:0:
352,96,25695,1,8,0:0:0:0:
160,96,25837,1,0,0:0:0:0:
352,96,25980,1,8,0:0:0:0:
160,96,26051,1,0,0:0:0:0:
352,96,26123,1,8,0:0:0:0:
352,96,26265,1,8,0:0:0:0:
160,96,26337,1,0,0:0:0:0:
352,96,26408,1,8,0:0:0:0:
352,96,26479,1,8,0:0:0:0:
160,96,26551,1,0,0:0:0:0:
352,96,26836,1,8,0:0:0:0:
160,96,26979,1,0,0:0:0:0:
352,96,27121,1,8,0:0:0:0:
352,96,27193,1,8,0:0:0:0:
352,96,27264,1,8,0:0:0:0:
160,96,27407,1,0,0:0:0:0:
352,96,27549,1,8,0:0:0:0:
352,96,27621,1,8,0:0:0:0:
160,96,27692,1,0,0:0:0:0:
160,96,27835,1,0,0:0:0:0:
352,96,27977,1,8,0:0:0:0:
160,96,28120,1,0,0:0:0:0:
352,96,28263,1,8,0:0:0:0:
352,96,28334,1,8,0:0:0:0:
160,96,28405,1,0,0:0:0:0:
160,96,28453,1,0,0:0:0:0:
160,96,28500,1,0,0:0:0:0:
352,96,28548,1,8,0:0:0:0:
160,96,28619,1,0,0:0:0:0:
352,96,28691,1,8,0:0:0:0:
160,288,28833,1,4,0:0:0:0:
352,96,29118,1,8,0:0:0:0:
160,96,29261,1,0,0:0:0:0:
352,96,29404,1,8,0:0:0:0:
352,96,29475,1,8,0:0:0:0:
352,96,29546,1,8,0:0:0:0:
160,96,29689,1,0,0:0:0:0:
352,96,29832,1,8,0:0:0:0:
352,96,29903,1,8,0:0:0:0:
160,96,29974,1,0,0:0:0:0:
160,96,30117,1,0,0:0:0:0:
352,96,30260,1,8,0:0:0:0:
160,96,30402,1,0,0:0:0:0:
352,96,30545,1,8,0:0:0:0:
160,96,30616,1,0,0:0:0:0:
352,96,30688,1,8,0:0:0:0:
352,96,30759,1,8,0:0:0:0:
160,96,30830,1,0,0:0:0:0:
352,96,30973,1,8,0:0:0:0:
352,96,31044,1,8,0:0:0:0:
160,96,31116,1,0,0:0:0:0:
160,96,31258,1,0,0:0:0:0:
352,96,31401,1,8,0:0:0:0:
160,96,31544,1,0,0:0:0:0:
352,96,31686,1,8,0:0:0:0:
160,96,31758,1,0,0:0:0:0:
352,96,31829,1,8,0:0:0:0:
352,96,31972,1,8,0:0:0:0:
160,96,32043,1,0,0:0:0:0:
352,96,32114,1,8,0:0:0:0:
352,96,32186,1,8,0:0:0:0:
160,96,32257,1,0,0:0:0:0:
160,96,32400,1,0,0:0:0:0:
352,96,32542,1,8,0:0:0:0:
160,96,32685,1,0,0:0:0:0:
352,96,32827,1,8,0:0:0:0:
352,96,32899,1,8,0:0:0:0:
352,96,32970,1,8,0:0:0:0:
160,96,33113,1,0,0:0:0:0:
160,96,33184,1,0,0:0:0:0:
352,96,33255,1,8,0:0:0:0:
352,96,33327,1,8,0:0:0:0:
160,96,33398,1,0,0:0:0:0:
160,96,33541,1,0,0:0:0:0:
352,96,33683,1,8,0:0:0:0:
160,96,33826,1,0,0:0:0:0:
352,96,33969,1,8,0:0:0:0:
160,96,34040,1,0,0:0:0:0:
352,96,34111,1,8,0:0:0:0:
352,96,34254,1,8,0:0:0:0:
352,96,34325,1,8,0:0:0:0:
160,96,34397,1,0,0:0:0:0:
352,96,34468,1,8,0:0:0:0:
160,96,34539,1,0,0:0:0:0:
160,96,34682,1,0,0:0:0:0:
352,96,34825,1,8,0:0:0:0:
160,96,34967,1,0,0:0:0:0:
352,96,35110,1,8,0:0:0:0:
352,96,35181,1,8,0:0:0:0:
352,96,35253,1,8,0:0:0:0:
352,96,35395,1,8,0:0:0:0:
160,96,35467,1,0,0:0:0:0:
352,96,35538,1,8,0:0:0:0:
352,96,35609,1,8,0:0:0:0:
160,96,35681,1,0,0:0:0:0:
160,96,35823,1,0,0:0:0:0:
352,96,35966,1,8,0:0:0:0:
160,96,36108,1,0,0:0:0:0:
352,96,36251,1,8,0:0:0:0:
352,96,36322,1,8,0:0:0:0:
352,96,36394,1,8,0:0:0:0:
160,96,36536,1,0,0:0:0:0:
352,96,36679,1,8,0:0:0:0:
352,96,36750,1,8,0:0:0:0:
160,96,36822,1,0,0:0:0:0:
160,96,36964,1,0,0:0:0:0:
352,96,37107,1,8,0:0:0:0:
160,96,37250,1,0,0:0:0:0:
160,96,37535,1,0,0:0:0:0:
352,96,37678,1,8,0:0:0:0:
352,96,37820,1,8,0:0:0:0:
160,288,37963,1,4,0:0:0:0:
160,96,38106,1,0,0:0:0:0:
160,96,38177,1,0,0:0:0:0:
352,96,38248,1,8,0:0:0:0:
160,96,38391,1,0,0:0:0:0:
352,96,38462,1,8,0:0:0:0:
160,96,38534,1,0,0:0:0:0:
160,96,38676,1,0,0:0:0:0:
352,96,38819,1,8,0:0:0:0:
352,96,38890,1,8,0:0:0:0:
160,96,38962,1,0,0:0:0:0:
160,96,39033,1,0,0:0:0:0:
352,96,39104,1,8,0:0:0:0:
160,96,39247,1,0,0:0:0:0:
160,96,39318,1,0,0:0:0:0:
352,96,39390,1,8,0:0:0:0:
160,96,39532,1,0,0:0:0:0:
352,96,39675,1,8,0:0:0:0:
352,96,39746,1,8,0:0:0:0:
160,96,39817,1,0,0:0:0:0:
352,96,39960,1,8,0:0:0:0:
160,96,40103,1,0,0:0:0:0:
352,96,40174,1,8,0:0:0:0:
160,96,40245,1,0,0:0:0:0:
160,96,40388,1,0,0:0:0:0:
160,96,40459,1,0,0:0:0:0:
352,96,40531,1,8,0:0:0:0:
160,96,40673,1,0,0:0:0:0:
160,96,40745,1,0,0:0:0:0:
352,96,40816,1,8,0:0:0:0:
160,96,40887,1,0,0:0:0:0:
352,96,40959,1,8,0:0:0:0:
160,96,41101,1,0,0:0:0:0:
352,96,41244,1,8,0:0:0:0:
160,96,41387,1,0,0:0:0:0:
352,96,41529,1,8,0:0:0:0:
160,96,41601,1,0,0:0:0:0:
160,96,41672,1,0,0:0:0:0:
352,96,41815,1,8,0:0:0:0:
352,96,41886,1,8,0:0:0:0:
160,96,41957,1,0,0:0:0:0:
160,96,42029,1,0,0:0:0:0:
352,96,42100,1,8,0:0:0:0:
160,96,42243,1,0,0:0:0:0:
160,96,42528,1,0,0:0:0:0:
352,96,42671,1,8,0:0:0:0:
160,96,42742,1,0,0:0:0:0:
352,96,42813,1,8,0:0:0:0:
352,96,42885,1,8,0:0:0:0:
160,96,42956,1,0,0:0:0:0:
352,96,43099,1,8,0:0:0:0:
160,96,43241,1,0,0:0:0:0:
160,96,43312,1,0,0:0:0:0:
352,96,43384,1,8,0:0:0:0:
160,96,43526,1,0,0:0:0:0:
352,96,43669,1,8,0:0:0:0:
352,96,43740,1,8,0:0:0:0:
160,96,43812,1,0,0:0:0:0:
352,96,43954,1,8,0:0:0:0:
160,96,44026,1,0,0:0:0:0:
160,96,44097,1,0,0:0:0:0:
160,96,44168,1,0,0:0:0:0:
352,96,44240,1,8,0:0:0:0:
160,96,44382,1,0,0:0:0:0:
352,96,44525,1,8,0:0:0:0:
160,96,44596,1,0,0:0:0:0:
160,96,44668,1,0,0:0:0:0:
352,96,44810,1,8,0:0:0:0:
160,96,44953,1,0,0:0:0:0:
352,96,45024,1,8,0:0:0:0:
160,96,45096,1,0,0:0:0:0:
160,96,45238,1,0,0:0:0:0:
160,96,45310,1,0,0:0:0:0:
352,96,45381,1,8,0:0:0:0:
160,96,45524,1,0,0:0:0:0:
352,96,45666,1,8,0:0:0:0:
352,96,45738,1,8,0:0:0:0:
160,96,45809,1,0,0:0:0:0:
160,96,45880,1,0,0:0:0:0:
352,96,45952,1,8,0:0:0:0:
160,96,46094,1,0,0:0:0:0:
160,96,46166,1,0,0:0:0:0:
352,96,46237,1,8,0:0:0:0:
160,96,46380,1,0,0:0:0:0:
160,96,46522,1,0,0:0:0:0:
352,96,46594,1,8,0:0:0:0:
160,96,46665,1,0,0:0:0:0:
160,96,46712,1,0,0:0:0:0:
160,96,46760,1,0,0:0:0:0:
352,96,46807,1,8,0:0:0:0:
160,288,47093,1,4,0:0:0:0:
160,96,47235,1,0,0:0:0:0:
160,96,47307,1,0,0:0:0:0:
352,96,47378,1,8,0:0:0:0:
160,96,47521,1,0,0:0:0:0:
352,96,47592,1,8,0:0:0:0:
160,96,47663,1,0,0:0:0:0:
160,96,47806,1,0,0:0:0:0:
352,96,47949,1,8,0:0:0:0:
352,96,48020,1,8,0:0:0:0:
160,96,48091,1,0,0:0:0:0:
160,96,48163,1,0,0:0:0:0:
352,96,48234,1,8,0:0:0:0:
160,96,48377,1,0,0:0:0:0:
160,96,48448,1,0,0:0:0:0:
352,96,48519,1,8,0:0:0:0:
160,96,48662,1,0,0:0:0:0:
352,96,48805,1,8,0:0:0:0:
160,96,48876,1,0,0:0:0:0:
160,96,48947,1,0,0:0:0:0:
160,96,49019,1,0,0:0:0:0:
352,96,49090,1,8,0:0:0:0:
160,96,49233,1,0,0:0:0:0:
160,96,49304,1,0,0:0:0:0:
352,96,49375,1,8,0:0:0:0:
160,96,49518,1,0,0:0:0:0:
352,96,49661,1,8,0:0:0:0:
160,96,49732,1,0,0:0:0:0:
160,96,49803,1,0,0:0:0:0:
352,96,49946,1,8,0:0:0:0:
160,96,50017,1,0,0:0:0:0:
352,96,50089,1,8,0:0:0:0:
352,96,50160,1,8,0:0:0:0:
160,96,50231,1,0,0:0:0:0:
352,96,50374,1,8,0:0:0:0:
160,96,50516,1,0,0:0:0:0:
352,96,50659,1,8,0:0:0:0:
160,96,50730,1,0,0:0:0:0:
160,96,50802,1,0,0:0:0:0:
160,96,50873,1,0,0:0:0:0:
352,96,50944,1,8,0:0:0:0:
160,96,51087,1,0,0:0:0:0:
160,96,51230,1,0,0:0:0:0:
160,96,51301,1,0,0:0:0:0:
352,96,51372,1,8,0:0:0:0:
160,96,51658,1,0,0:0:0:0:
160,96,51800,1,0,0:0:0:0:
160,96,51872,1,0,0:0:0:0:
352,96,51943,1,8,0:0:0:0:
160,96,52086,1,0,0:0:0:0:
352,96,52228,1,8,0:0:0:0:
352,96,52300,1,8,0:0:0:0:
160,96,52371,1,0,0:0:0:0:
160,96,52442,1,0,0:0:0:0:
352,96,52514,1,8,0:0:0:0:
160,96,52656,1,0,0:0:0:0:
160,96,52799,1,0,0:0:0:0:
160,96,52942,1,0,0:0:0:0:
160,96,53013,1,0,0:0:0:0:
352,96,53084,1,8,0:0:0:0:
160,96,53227,1,0,0:0:0:0:
352,96,53370,1,8,0:0:0:0:
352,96,53441,1,8,0:0:0:0:
160,96,53512,1,0,0:0:0:0:
352,96,53655,1,8,0:0:0:0:
352,96,53726,1,8,0:0:0:0:
160,96,53798,1,0,0:0:0:0:
352,96,53869,1,8,0:0:0:0:
160,96,53940,1,0,0:0:0:0:
160,96,54083,1,0,0:0:0:0:
352,96,54225,1,8,0:0:0:0:
352,96,54297,1,8,0:0:0:0:
160,96,54368,1,0,0:0:0:0:
352,96,54511,1,8,0:0:0:0:
160,96,54582,1,0,0:0:0:0:
160,96,54653,1,0,0:0:0:0:
160,96,54725,1,0,0:0:0:0:
352,96,54796,1,8,0:0:0:0:
160,96,54939,1,0,0:0:0:0:
352,96,55081,1,8,0:0:0:0:
160,96,55224,1,0,0:0:0:0:
160,96,55295,1,0,0:0:0:0:
352,96,55367,1,8,0:0:0:0:
352,96,55438,1,8,0:0:0:0:
160,96,55509,1,0,0:0:0:0:
160,96,55652,1,0,0:0:0:0:
352,96,55723,1,8,0:0:0:0:
160,96,55795,1,0,0:0:0:0:
160,96,55842,1,0,0:0:0:0:
160,96,55890,1,0,0:0:0:0:
352,96,55937,1,8,0:0:0:0:
160,288,56223,1,4,0:0:0:0:
160,96,56365,1,0,0:0:0:0:
160,96,56437,1,0,0:0:0:0:
352,96,56508,1,8,0:0:0:0:
352,96,56579,1,8,0:0:0:0:
160,96,56651,1,0,0:0:0:0:
352,96,56722,1,8,0:0:0:0:
160,96,56793,1,0,0:0:0:0:
160,96,56936,1,0,0:0:0:0:
352,96,57079,1,8,0:0:0:0:
352,96,57150,1,8,0:0:0:0:
160,96,57221,1,0,0:0:0:0:
160,96,57293,1,0,0:0:0:0:
352,96,57364,1,8,0:0:0:0:
160,96,57506,1,0,0:0:0:0:
160,96,57578,1,0,0:0:0:0:
352,96,57649,1,8,0:0:0:0:
160,96,57792,1,0,0:0:0:0:
352,96,57934,1,8,0:0:0:0:
352,96,58006,1,8,0:0:0:0:
160,96,58077,1,0,0:0:0:0:
352,96,58220,1,8,0:0:0:0:
160,96,58362,1,0,0:0:0:0:
352,96,58434,1,8,0:0:0:0:
160,96,58505,1,0,0:0:0:0:
160,96,58648,1,0,0:0:0:0:
160,96,58719,1,0,0:0:0:0:
352,96,58790,1,8,0:0:0:0:
160,96,58933,1,0,0:0:0:0:
160,96,59004,1,0,0:0:0:0:
352,96,59076,1,8,0:0:0:0:
160,96,59147,1,0,0:0:0:0:
352,96,59218,1,8,0:0:0:0:
160,96,59361,1,0,0:0:0:0:
352,96,59504,1,8,0:0:0:0:
160,96,59646,1,0,0:0:0:0:
352,96,59789,1,8,0:0:0:0:
160,96,59860,1,0,0:0:0:0:
160,96,59932,1,0,0:0:0:0:
160,96,60074,1,0,0:0:0:0:
352,96,60217,1,8,0:0:0:0:
160,96,60288,1,0,0:0:0:0:
160,96,60360,1,0,0:0:0:0:
160,96,60431,1,0,0:0:0:0:
352,96,60502,1,8,0:0:0:0:
160,96,60788,1,0,0:0:0:0:
160,96,60930,1,0,0:0:0:0:
160,96,61002,1,0,0:0:0:0:
352,96,61073,1,8,0:0:0:0:
352,96,61144,1,8,0:0:0:0:
160,96,61215,1,0,0:0:0:0:
352,96,61358,1,8,0:0:0:0:
160,96,61501,1,0,0:0:0:0:
160,96,61572,1,0,0:0:0:0:
352,96,61643,1,8,0:0:0:0:
160,96,61786,1,0,0:0:0:0:
352,96,61929,1,8,0:0:0:0:
352,96,62000,1,8,0:0:0:0:
160,96,62071,1,0,0:0:0:0:
352,96,62214,1,8,0:0:0:0:
160,96,62285,1,0,0:0:0:0:
160,96,62357,1,0,0:0:0:0:
160,96,62428,1,0,0:0:0:0:
352,96,62499,1,8,0:0:0:0:
160,96,62642,1,0,0:0:0:0:
352,96,62785,1,8,0:0:0:0:
352,96,62856,1,8,0:0:0:0:
160,96,62927,1,0,0:0:0:0:
160,96,62999,1,0,0:0:0:0:
352,96,63070,1,8,0:0:0:0:
160,96,63213,1,0,0:0:0:0:
160,96,63355,1,0,0:0:0:0:
352,96,63427,1,8,0:0:0:0:
160,96,63498,1,0,0:0:0:0:
160,96,63569,1,0,0:0:0:0:
352,96,63641,1,8,0:0:0:0:
160,96,63783,1,0,0:0:0:0:
352,96,63926,1,8,0:0:0:0:
352,96,63997,1,8,0:0:0:0:
160,96,64069,1,0,0:0:0:0:
160,96,64140,1,0,0:0:0:0:
352,96,64211,1,8,0:0:0:0:
160,96,64354,1,0,0:0:0:0:
160,96,64425,1,0,0:0:0:0:
352,96,64497,1,8,0:0:0:0:
160,96,64639,1,0,0:0:0:0:
160,96,64782,1,0,0:0:0:0:
352,96,64853,1,8,0:0:0:0:
160,96,64924,1,0,0:0:0:0:
160,96,64972,1,0,0:0:0:0:
160,96,65020,1,0,0:0:0:0:
352,96,65067,1,8,0:0:0:0:
160,288,65352,1,4,0:0:0:0:
160,96,65495,1,0,0:0:0:0:
160,96,65566,1,0,0:0:0:0:
352,96,65638,1,8,0:0:0:0:
160,96,65780,1,0,0:0:0:0:
352,96,65852,1,8,0:0:0:0:
160,96,65923,1,0,0:0:0:0:
160,96,66066,1,0,0:0:0:0:
352,96,66208,1,8,0:0:0:0:
352,96,66280,1,8,0:0:0:0:
160,96,66351,1,0,0:0:0:0:
160,96,66422,1,0,0:0:0:0:
352,96,66494,1,8,0:0:0:0:
160,96,66636,1,0,0:0:0:0:
160,96,66708,1,0,0:0:0:0:
352,96,66779,1,8,0:0:0:0:
160,96,66922,1,0,0:0:0:0:
352,96,67064,1,8,0:0:0:0:
160,96,67136,1,0,0:0:0:0:
160,96,67207,1,0,0:0:0:0:
160,96,67278,1,0,0:0:0:0:
352,96,67350,1,8,0:0:0:0:
160,96,67492,1,0,0:0:0:0:
160,96,67564,1,0,0:0:0:0:
352,96,67635,1,8,0:0:0:0:
160,96,67778,1,0,0:0:0:0:
352,96,67920,1,8,0:0:0:0:
160,96,67992,1,0,0:0:0:0:
160,96,68063,1,0,0:0:0:0:
160,96,68134,1,0,0:0:0:0:
352,96,68205,1,8,0:0:0:0:
160,96,68348,1,0,0:0:0:0:
352,96,68419,1,8,0:0:0:0:
160,96,68491,1,0,0:0:0:0:
160,96,68562,1,0,0:0:0:0:
352,96,68633,1,8,0:0:0:0:
160,96,68776,1,0,0:0:0:0:
352,96,68919,1,8,0:0:0:0:
160,96,68990,1,0,0:0:0:0:
160,96,69061,1,0,0:0:0:0:
160,96,69204,1,0,0:0:0:0:
352,96,69347,1,8,0:0:0:0:
352,96,69418,1,8,0:0:0:0:
160,96,69489,1,0,0:0:0:0:
160,96,69561,1,0,0:0:0:0:
352,96,69632,1,8,0:0:0:0:
160,96,69917,1,0,0:0:0:0:
160,96,70060,1,0,0:0:0:0:
160,96,70131,1,0,0:0:0:0:
352,96,70203,1,8,0:0:0:0:
160,96,70345,1,0,0:0:0:0:
352,96,70488,1,8,0:0:0:0:
352,96,70559,1,8,0:0:0:0:
160,96,70631,1,0,0:0:0:0:
160,96,70702,1,0,0:0:0:0:
352,96,70773,1,8,0:0:0:0:
160,96,70916,1,0,0:0:0:0:
160,96,71059,1,0,0:0:0:0:
160,96,71201,1,0,0:0:0:0:
160,96,71273,1,0,0:0:0:0:
352,96,71344,1,8,0:0:0:0:
160,96,71487,1,0,0:0:0:0:
352,96,71629,1,8,0:0:0:0:
352,96,71701,1,8,0:0:0:0:
160,96,71772,1,0,0:0:0:0:
160,96,71843,1,0,0:0:0:0:
352,96,71914,1,8,0:0:0:0:
160,96,72057,1,0,0:0:0:0:
352,96,72128,1,8,0:0:0:0:
160,96,72200,1,0,0:0:0:0:
160,96,72342,1,0,0:0:0:0:
352,96,72485,1,8,0:0:0:0:
352,96,72556,1,8,0:0:0:0:
160,96,72628,1,0,0:0:0:0:
352,96,72770,1,8,0:0:0:0:
160,96,72842,1,0,0:0:0:0:
160,96,72913,1,0,0:0:0:0:
160,96,72984,1,0,0:0:0:0:
352,96,73056,1,8,0:0:0:0:
160,96,73198,1,0,0:0:0:0:
352,96,73341,1,8,0:0:0:0:
160,96,73484,1,0,0:0:0:0:
160,96,73555,1,0,0:0:0:0:
352,96,73626,1,8,0:0:0:0:
352,96,73698,1,8,0:0:0:0:
160,96,73769,1,0,0:0:0:0:
352,96,73912,1,8,0:0:0:0:
160,96,73983,1,0,0:0:0:0:
160,96,74054,1,0,0:0:0:0:
160,96,74126,1,0,0:0:0:0:
352,96,74197,1,8,0:0:0:0:
352,96,74268,1,8,0:0:0:0:
160,96,74340,1,0,0:0:0:0:
352,288,74482,1,12,0:0:0:0:
352,288,74625,1,12,0:0:0:0:
352,288,74910,1,12,0:0:0:0:
352,96,75196,1,8,0:0:0:0:
352,96,75267,1,8,0:0:0:0:
160,96,75338,1,0,0:0:0:0:
160,96,75409,1,0,0:0:0:0:
160,96,75481,1,0,0:0:0:0:
160,96,75552,1,0,0:0:0:0:
352,96,75623,1,8,0:0:0:0:
160,96,75766,1,0,0:0:0:0:
352,96,75909,1,8,0:0:0:0:
160,96,76051,1,0,0:0:0:0:
160,96,76123,1,0,0:0:0:0:
160,96,76194,1,0,0:0:0:0:
160,96,76337,1,0,0:0:0:0:
352,96,76479,1,8,0:0:0:0:
352,96,76551,1,8,0:0:0:0:
160,96,76622,1,0,0:0:0:0:
160,96,76693,1,0,0:0:0:0:
352,96,76765,1,8,0:0:0:0:
160,96,76907,1,0,0:0:0:0:
160,96,76979,1,0,0:0:0:0:
352,96,77050,1,8,0:0:0:0:
160,96,77193,1,0,0:0:0:0:
352,96,77335,1,8,0:0:0:0:
352,96,77407,1,8,0:0:0:0:
160,96,77478,1,0,0:0:0:0:
352,96,77549,1,8,0:0:0:0:
160,96,77621,1,0,0:0:0:0:
160,96,77906,1,0,0:0:0:0:
160,96,78049,1,0,0:0:0:0:
160,96,78120,1,0,0:0:0:0:
352,96,78191,1,8,0:0:0:0:
160,96,78334,1,0,0:0:0:0:
352,96,78477,1,8,0:0:0:0:
160,96,78619,1,0,0:0:0:0:
352,96,78691,1,8,0:0:0:0:
160,96,78762,1,0,0:0:0:0:
160,96,78833,1,0,0:0:0:0:
352,96,78904,1,8,0:0:0:0:
160,96,79047,1,0,0:0:0:0:
352,96,79190,1,8,0:0:0:0:
352,96,79261,1,8,0:0:0:0:
160,96,79332,1,0,0:0:0:0:
352,96,79404,1,8,0:0:0:0:
160,96,79475,1,0,0:0:0:0:
160,96,79618,1,0,0:0:0:0:
352,288,79903,1,12,0:0:0:0:
352,288,80046,1,12,0:0:0:0:
352,288,80188,1,12,0:0:0:0:
160,96,80474,1,0,0:0:0:0:
352,96,80616,1,8,0:0:0:0:
160,96,80759,1,0,0:0:0:0:
160,96,80830,1,0,0:0:0:0:
352,96,80902,1,8,0:0:0:0:
352,96,80973,1,8,0:0:0:0:
160,96,81044,1,0,0:0:0:0:
352,96,81187,1,8,0:0:0:0:
160,96,81330,1,0,0:0:0:0:
352,96,81472,1,8,0:0:0:0:
160,96,81544,1,0,0:0:0:0:
160,96,81615,1,0,0:0:0:0:
352,96,81758,1,8,0:0:0:0:
352,96,81829,1,8,0:0:0:0:
160,96,81900,1,0,0:0:0:0:
352,96,82043,1,8,0:0:0:0:
160,96,82186,1,0,0:0:0:0:
160,96,82471,1,0,0:0:0:0:
352,96,82613,1,8,0:0:0:0:
352,96,82685,1,8,0:0:0:0:
160,96,82756,1,0,0:0:0:0:
352,96,82899,1,8,0:0:0:0:
160,96,83041,1,0,0:0:0:0:
160,96,83113,1,0,0:0:0:0:
352,96,83184,1,8,0:0:0:0:
352,96,83255,1,8,0:0:0:0:
160,96,83327,1,0,0:0:0:0:
352,96,83469,1,8,0:0:0:0:
160,96,83612,1,0,0:0:0:0:
352,96,83683,1,8,0:0:0:0:
160,96,83755,1,0,0:0:0:0:
352,288,83897,1,12,0:0:0:0:
160,96,84040,1,0,0:0:0:0:
160,96,84183,1,0,0:0:0:0:
352,96,84254,1,8,0:0:0:0:
160,96,84325,1,0,0:0:0:0:
352,288,84468,1,12,0:0:0:0:
160,96,84611,1,0,0:0:0:0:
352,288,84753,1,12,0:0:0:0:
160,96,84896,1,0,0:0:0:0:
352,96,85039,1,8,0:0:0:0:
160,96,85181,1,0,0:0:0:0:
160,96,85253,1,0,0:0:0:0:
352,96,85324,1,8,0:0:0:0:
160,96,85467,1,0,0:0:0:0:
352,96,85609,1,8,0:0:0:0:
352,96,85681,1,8,0:0:0:0:
160,96,85752,1,0,0:0:0:0:
352,96,85895,1,8,0:0:0:0:
160,96,86037,1,0,0:0:0:0:
160,96,86108,1,0,0:0:0:0:
352,96,86180,1,8,0:0:0:0:
160,96,86322,1,0,0:0:0:0:
160,96,86394,1,0,0:0:0:0:
352,96,86465,1,8,0:0:0:0:
160,96,86536,1,0,0:0:0:0:
352,96,86608,1,8,0:0:0:0:
352,96,86679,1,8,0:0:0:0:
160,96,86750,1,0,0:0:0:0:
352,96,86893,1,8,0:0:0:0:
160,96,87036,1,0,0:0:0:0:
352,96,87178,1,8,0:0:0:0:
160,96,87250,1,0,0:0:0:0:
352,96,87321,1,8,0:0:0:0:
160,96,87464,1,0,0:0:0:0:
160,96,87535,1,0,0:0:0:0:
352,96,87606,1,8,0:0:0:0:
352,96,87678,1,8,0:0:0:0:
160,96,87749,1,0,0:0:0:0:
352,96,87892,1,8,0:0:0:0:
160,96,88034,1,0,0:0:0:0:
352,96,88177,1,8,0:0:0:0:
352,96,88248,1,8,0:0:0:0:
160,96,88320,1,0,0:0:0:0:
160,96,88391,1,0,0:0:0:0:
352,96,88462,1,8,0:0:0:0:
160,96,88534,1,0,0:0:0:0:
352,96,88605,1,8,0:0:0:0:
352,96,88748,1,8,0:0:0:0:
160,96,88819,1,0,0:0:0:0:
160,96,88890,1,0,0:0:0:0:
352,288,89033,1,12,0:0:0:0:
352,288,89176,1,12,0:0:0:0:
352,288,89318,1,12,0:0:0:0:
160,96,89603,1,0,0:0:0:0:
352,96,89746,1,8,0:0:0:0:
160,96,89889,1,0,0:0:0:0:
352,96,90031,1,8,0:0:0:0:
352,96,90103,1,8,0:0:0:0:
160,96,90174,1,0,0:0:0:0:
352,96,90317,1,8,0:0:0:0:
160,96,90459,1,0,0:0:0:0:
160,96,90531,1,0,0:0:0:0:
352,96,90602,1,8,0:0:0:0:
352,96,90673,1,8,0:0:0:0:
160,96,90745,1,0,0:0:0:0:
160,96,90816,1,0,0:0:0:0:
352,96,90887,1,8,0:0:0:0:
352,96,90959,1,8,0:0:0:0:
352,96,91030,1,8,0:0:0:0:
352,96,91101,1,8,0:0:0:0:
160,96,91173,1,0,0:0:0:0:
160,96,91244,1,0,0:0:0:0:
352,96,91315,1,8,0:0:0:0:
160,96,91387,1,0,0:0:0:0:
160,96,91458,1,0,0:0:0:0:
160,96,91529,1,0,0:0:0:0:
352,96,91601,1,8,0:0:0:0:
160,96,91648,1,0,0:0:0:0:
160,96,91696,1,0,0:0:0:0:
352,96,91743,1,8,0:0:0:0:
160,96,91815,1,0,0:0:0:0:
352,96,91886,1,8,0:0:0:0:
352,96,91934,1,8,0:0:0:0:
352,96,91981,1,8,0:0:0:0:
160,96,92029,1,0,0:0:0:0:
160,96,92100,1,0,0:0:0:0:
352,96,92171,1,8,0:0:0:0:
160,96,92219,1,0,0:0:0:0:
160,96,92266,1,0,0:0:0:0:
352,96,92314,1,8,0:0:0:0:
160,96,92385,1,0,0:0:0:0:
352,96,92457,1,8,0:0:0:0:
352,96,92504,1,8,0:0:0:0:
352,96,92552,1,8,0:0:0:0:
160,96,92599,1,0,0:0:0:0:
352,96,92742,1,8,0:0:0:0:
160,96,92885,1,0,0:0:0:0:
160,96,93027,1,0,0:0:0:0:
352,96,93170,1,8,0:0:0:0:
352,96,93455,1,8,0:0:0:0:
160,96,93598,1,0,0:0:0:0:
160,96,93669,1,0,0:0:0:0:
160,96,93740,1,0,0:0:0:0:
160,96,93812,1,0,0:0:0:0:
352,96,93883,1,8,0:0:0:0:
160,96,94026,1,0,0:0:0:0:
352,96,94168,1,8,0:0:0:0:
160,96,94311,1,0,0:0:0:0:
160,96,94382,1,0,0:0:0:0:
352,96,94454,1,8,0:0:0:0:
160,96,94596,1,0,0:0:0:0:
160,96,94739,1,0,0:0:0:0:
352,96,94810,1,8,0:0:0:0:
160,96,94882,1,0,0:0:0:0:
160,96,94953,1,0,0:0:0:0:
352,96,95024,1,8,0:0:0:0:
160,96,95167,1,0,0:0:0:0:
160,96,95238,1,0,0:0:0:0:
352,96,95310,1,8,0:0:0:0:
160,96,95452,1,0,0:0:0:0:
352,96,95595,1,8,0:0:0:0:
352,96,95666,1,8,0:0:0:0:
160,96,95738,1,0,0:0:0:0:
160,96,95809,1,0,0:0:0:0:
352,96,95880,1,8,0:0:0:0:
352,96,96023,1,8,0:0:0:0:
352,96,96094,1,8,0:0:0:0:
160,96,96166,1,0,0:0:0:0:
160,96,96308,1,0,0:0:0:0:
160,96,96380,1,0,0:0:0:0:
352,96,96451,1,8,0:0:0:0:
160,96,96594,1,0,0:0:0:0:
352,96,96736,1,8,0:0:0:0:
352,96,96807,1,8,0:0:0:0:
160,96,96879,1,0,0:0:0:0:
352,96,96950,1,8,0:0:0:0:
160,96,97021,1,0,0:0:0:0:
160,96,97093,1,0,0:0:0:0:
352,96,97164,1,8,0:0:0:0:
160,96,97307,1,0,0:0:0:0:
160,96,97449,1,0,0:0:0:0:
352,96,97521,1,8,0:0:0:0:
352,96,97592,1,8,0:0:0:0:
160,96,97735,1,0,0:0:0:0:
352,96,97877,1,8,0:0:0:0:
160,96,97949,1,0,0:0:0:0:
160,96,98020,1,0,0:0:0:0:
160,96,98091,1,0,0:0:0:0:
352,96,98163,1,8,0:0:0:0:
160,96,98448,1,0,0:0:0:0:
160,96,98591,1,0,0:0:0:0:
160,96,98662,1,0,0:0:0:0:
352,96,98733,1,8,0:0:0:0:
160,96,98876,1,0,0:0:0:0:
352,96,98947,1,8,0:0:0:0:
160,96,99019,1,0,0:0:0:0:
160,96,99161,1,0,0:0:0:0:
352,96,99304,1,8,0:0:0:0:
352,96,99375,1,8,0:0:0:0:
160,96,99447,1,0,0:0:0:0:
352,96,99518,1,8,0:0:0:0:
160,96,99589,1,0,0:0:0:0:
160,96,99732,1,0,0:0:0:0:
352,96,99875,1,8,0:0:0:0:
160,96,99946,1,0,0:0:0:0:
160,96,100017,1,0,0:0:0:0:
352,96,100160,1,8,0:0:0:0:
352,96,100231,1,8,0:0:0:0:
160,96,100302,1,0,0:0:0:0:
160,96,100374,1,0,0:0:0:0:
352,96,100445,1,8,0:0:0:0:
160,96,100588,1,0,0:0:0:0:
352,96,100659,1,8,0:0:0:0:
160,96,100730,1,0,0:0:0:0:
160,96,100873,1,0,0:0:0:0:
160,96,100944,1,0,0:0:0:0:
352,96,101016,1,8,0:0:0:0:
160,96,101158,1,0,0:0:0:0:
352,96,101301,1,8,0:0:0:0:
352,96,101372,1,8,0:0:0:0:
160,96,101444,1,0,0:0:0:0:
160,96,101515,1,0,0:0:0:0:
352,96,101586,1,8,0:0:0:0:
160,96,101729,1,0,0:0:0:0:
352,96,101872,1,8,0:0:0:0:
160,96,102014,1,0,0:0:0:0:
160,96,102086,1,0,0:0:0:0:
160,96,102157,1,0,0:0:0:0:
352,96,102300,1,8,0:0:0:0:
160,96,102442,1,0,0:0:0:0:
352,96,102514,1,8,0:0:0:0:
160,96,102585,1,0,0:0:0:0:
160,96,102656,1,0,0:0:0:0:
352,96,102728,1,8,0:0:0:0:
160,288,103013,1,4,0:0:0:0:
160,96,103156,1,0,0:0:0:0:
352,96,103298,1,8,0:0:0:0:
160,96,103441,1,0,0:0:0:0:
160,96,103512,1,0,0:0:0:0:
352,96,103584,1,8,0:0:0:0:
160,96,103726,1,0,0:0:0:0:
160,96,103798,1,0,0:0:0:0:
352,96,103869,1,8,0:0:0:0:
352,96,103940,1,8,0:0:0:0:
160,96,104011,1,0,0:0:0:0:
352,96,104083,1,8,0:0:0:0:
160,96,104154,1,0,0:0:0:0:
160,96,104297,1,0,0:0:0:0:
160,96,104368,1,0,0:0:0:0:
352,96,104439,1,8,0:0:0:0:
160,96,104582,1,0,0:0:0:0:
352,96,104725,1,8,0:0:0:0:
352,96,104796,1,8,0:0:0:0:
160,96,104867,1,0,0:0:0:0:
160,96,104939,1,0,0:0:0:0:
352,96,105010,1,8,0:0:0:0:
352,96,105153,1,8,0:0:0:0:
352,96,105224,1,8,0:0:0:0:
160,96,105295,1,0,0:0:0:0:
160,96,105438,1,0,0:0:0:0:
160,96,105509,1,0,0:0:0:0:
352,96,105581,1,8,0:0:0:0:
160,96,105723,1,0,0:0:0:0:
352,96,105866,1,8,0:0:0:0:
352,96,105937,1,8,0:0:0:0:
160,96,106009,1,0,0:0:0:0:
352,96,106080,1,8,0:0:0:0:
160,96,106151,1,0,0:0:0:0:
160,96,106223,1,0,0:0:0:0:
352,96,106294,1,8,0:0:0:0:
352,96,106437,1,8,0:0:0:0:
160,96,106579,1,0,0:0:0:0:
160,96,106651,1,0,0:0:0:0:
352,96,106722,1,8,0:0:0:0:
352,96,106793,1,8,0:0:0:0:
160,96,106865,1,0,0:0:0:0:
352,96,106936,1,8,0:0:0:0:
160,96,107007,1,0,0:0:0:0:
160,96,107150,1,0,0:0:0:0:
160,96,107221,1,0,0:0:0:0:
352,96,107293,1,8,0:0:0:0:
160,96,107578,1,0,0:0:0:0:
160,96,107720,1,0,0:0:0:0:
352,96,107863,1,8,0:0:0:0:
160,96,108006,1,0,0:0:0:0:
160,96,108077,1,0,0:0:0:0:
352,96,108148,1,8,0:0:0:0:
160,96,108291,1,0,0:0:0:0:
160,96,108362,1,0,0:0:0:0:
352,96,108434,1,8,0:0:0:0:
160,96,108505,1,0,0:0:0:0:
352,96,108576,1,8,0:0:0:0:
352,96,108648,1,8,0:0:0:0:
160,96,108719,1,0,0:0:0:0:
160,96,108862,1,0,0:0:0:0:
352,96,109004,1,8,0:0:0:0:
160,96,109076,1,0,0:0:0:0:
160,96,109147,1,0,0:0:0:0:
352,96,109290,1,8,0:0:0:0:
352,96,109361,1,8,0:0:0:0:
160,96,109432,1,0,0:0:0:0:
160,96,109504,1,0,0:0:0:0:
352,96,109575,1,8,0:0:0:0:
160,96,109718,1,0,0:0:0:0:
160,96,109860,1,0,0:0:0:0:
160,96,109932,1,0,0:0:0:0:
160,96,110003,1,0,0:0:0:0:
160,96,110074,1,0,0:0:0:0:
352,96,110146,1,8,0:0:0:0:
352,96,110217,1,8,0:0:0:0:
160,96,110288,1,0,0:0:0:0:
352,96,110360,1,8,0:0:0:0:
160,96,110431,1,0,0:0:0:0:
160,96,110502,1,0,0:0:0:0:
160,96,110574,1,0,0:0:0:0:
160,96,110645,1,0,0:0:0:0:
352,96,110716,1,8,0:0:0:0:
352,96,110788,1,8,0:0:0:0:
160,96,110859,1,0,0:0:0:0:
352,96,110930,1,8,0:0:0:0:
160,96,111002,1,0,0:0:0:0:
160,96,111049,1,0,0:0:0:0:
160,96,111097,1,0,0:0:0:0:
352,96,111144,1,8,0:0:0:0:
352,96,111215,1,8,0:0:0:0:
160,96,111287,1,0,0:0:0:0:
160,96,111334,1,0,0:0:0:0:
160,96,111382,1,0,0:0:0:0:
352,96,111429,1,8,0:0:0:0:
352,96,111501,1,8,0:0:0:0:
160,96,111572,1,0,0:0:0:0:
160,96,111620,1,0,0:0:0:0:
160,96,111667,1,0,0:0:0:0:
352,96,111715,1,8,0:0:0:0:
352,96,111786,1,8,0:0:0:0:
160,96,111857,1,0,0:0:0:0:
160,96,111929,1,0,0:0:0:0:
352,96,112000,1,8,0:0:0:0:
352,96,112071,1,8,0:0:0:0:
160,96,112143,1,0,0:0:0:0:
160,96,112285,1,0,0:0:0:0:
160,96,112357,1,0,0:0:0:0:
352,96,112428,1,8,0:0:0:0:
160,96,112571,1,0,0:0:0:0:
160,96,112642,1,0,0:0:0:0:
352,96,112713,1,8,0:0:0:0:
352,96,112785,1,8,0:0:0:0:
160,96,112856,1,0,0:0:0:0:
352,96,112999,1,8,0:0:0:0:
160,96,113070,1,0,0:0:0:0:
352,96,113141,1,8,0:0:0:0:
352,96,113213,1,8,0:0:0:0:
160,96,113284,1,0,0:0:0:0:
352,96,113427,1,8,0:0:0:0:
352,96,113498,1,8,0:0:0:0:
160,96,113569,1,0,0:0:0:0:
352,96,113712,1,8,0:0:0:0:
160,96,113855,1,0,0:0:0:0:
160,96,113926,1,0,0:0:0:0:
160,96,113997,1,0,0:0:0:0:
160,96,114069,1,0,0:0:0:0:
352,96,114140,1,8,0:0:0:0:
352,96,114283,1,8,0:0:0:0:
160,96,114425,1,0,0:0:0:0:
352,96,114568,1,8,0:0:0:0:
352,96,114639,1,8,0:0:0:0:
160,96,114710,1,0,0:0:0:0:
352,96,114853,1,8,0:0:0:0:
352,96,114924,1,8,0:0:0:0:
160,96,114996,1,0,0:0:0:0:
160,96,115067,1,0,0:0:0:0:
352,96,115138,1,8,0:0:0:0:
160,96,115281,1,0,0:0:0:0:
160,96,115352,1,0,0:0:0:0:
352,96,115424,1,8,0:0:0:0:
160,96,115495,1,0,0:0:0:0:
352,96,115566,1,8,0:0:0:0:
160,96,115709,1,0,0:0:0:0:
160,96,115780,1,0,0:0:0:0:
352,96,115852,1,8,0:0:0:0:
160,96,115923,1,0,0:0:0:0:
352,96,115994,1,8,0:0:0:0:
352,96,116066,1,8,0:0:0:0:
160,96,116137,1,0,0:0:0:0:
352,96,116280,1,8,0:0:0:0:
352,96,116351,1,8,0:0:0:0:
160,96,116422,1,0,0:0:0:0:
160,88,116494,1,0,0:0:0:0:
352,96,116565,1,8,0:0:0:0:
160,96,116708,1,0,0:0:0:0:
160,96,116850,1,0,0:0:0:0:
160,96,116922,1,0,0:0:0:0:
352,96,116993,1,8,0:0:0:0:
160,96,117136,1,0,0:0:0:0:
160,96,117207,1,0,0:0:0:0:
352,96,117278,1,8,0:0:0:0:
352,96,117350,1,8,0:0:0:0:
160,96,117421,1,0,0:0:0:0:
352,96,117564,1,8,0:0:0:0:
160,96,117635,1,0,0:0:0:0:
352,96,117706,1,8,0:0:0:0:
352,96,117778,1,8,0:0:0:0:
160,96,117849,1,0,0:0:0:0:
352,96,117992,1,8,0:0:0:0:
160,96,118063,1,0,0:0:0:0:
352,96,118134,1,8,0:0:0:0:
160,96,118277,1,0,0:0:0:0:
352,96,118419,1,8,0:0:0:0:
352,96,118491,1,8,0:0:0:0:
160,96,118562,1,0,0:0:0:0:
352,96,118633,1,8,0:0:0:0:
160,96,118705,1,0,0:0:0:0:
160,88,118776,1,0,0:0:0:0:
352,96,118847,1,8,0:0:0:0:
160,96,118990,1,0,0:0:0:0:
160,96,119133,1,0,0:0:0:0:
160,96,119204,1,0,0:0:0:0:
352,96,119275,1,8,0:0:0:0:
160,96,119418,1,0,0:0:0:0:
160,96,119489,1,0,0:0:0:0:
352,96,119561,1,8,0:0:0:0:
160,96,119632,1,0,0:0:0:0:
352,96,119703,1,8,0:0:0:0:
160,96,119846,1,0,0:0:0:0:
352,96,119917,1,8,0:0:0:0:
160,96,119989,1,0,0:0:0:0:
160,96,120060,1,0,0:0:0:0:
352,96,120131,1,8,0:0:0:0:
160,96,120274,1,0,0:0:0:0:
160,96,120345,1,0,0:0:0:0:
352,96,120417,1,8,0:0:0:0:
160,96,120488,1,0,0:0:0:0:
352,96,120559,1,8,0:0:0:0:
352,96,120631,1,8,0:0:0:0:
160,96,120702,1,0,0:0:0:0:
352,96,120845,1,8,0:0:0:0:
352,96,120916,1,8,0:0:0:0:
160,96,120987,1,0,0:0:0:0:
352,96,121130,1,8,0:0:0:0:
160,96,121273,1,0,0:0:0:0:
160,96,121344,1,0,0:0:0:0:
160,96,121415,1,0,0:0:0:0:
160,96,121487,1,0,0:0:0:0:
352,96,121558,1,8,0:0:0:0:
352,96,121629,1,8,0:0:0:0:
352,96,121701,1,8,0:0:0:0:
352,96,121772,1,8,0:0:0:0:
160,96,121843,1,0,0:0:0:0:
352,96,121914,1,8,0:0:0:0:
160,96,121986,1,0,0:0:0:0:
160,96,122057,1,0,0:0:0:0:
352,96,122128,1,8,0:0:0:0:
352,96,122200,1,8,0:0:0:0:
352,96,122271,1,8,0:0:0:0:
352,96,122342,1,8,0:0:0:0:
160,96,122414,1,0,0:0:0:0:
352,96,122485,1,8,0:0:0:0:
160,96,122556,1,0,0:0:0:0:
160,96,122628,1,0,0:0:0:0:
352,96,122699,1,8,0:0:0:0:
160,96,122770,1,0,0:0:0:0:
352,96,122842,1,8,0:0:0:0:
352,96,122913,1,8,0:0:0:0:
160,96,122984,1,0,0:0:0:0:
352,96,123056,1,8,0:0:0:0:
160,96,123127,1,0,0:0:0:0:
160,96,123198,1,0,0:0:0:0:
352,96,123270,1,8,0:0:0:0:
352,96,123341,1,8,0:0:0:0:
160,96,123412,1,0,0:0:0:0:
352,96,123484,1,8,0:0:0:0:
160,96,123555,1,0,0:0:0:0:
160,96,123626,1,0,0:0:0:0:
160,96,123698,1,0,0:0:0:0:
160,96,123769,1,0,0:0:0:0:
352,96,123840,1,8,0:0:0:0:
160,96,123912,1,0,0:0:0:0:
352,96,123983,1,8,0:0:0:0:
352,96,124054,1,8,0:0:0:0:
160,96,124126,1,0,0:0:0:0:
160,96,124197,1,0,0:0:0:0:
160,96,124268,1,0,0:0:0:0:
160,96,124340,1,0,0:0:0:0:
352,96,124411,1,8,0:0:0:0:
160,96,124482,1,0,0:0:0:0:
352,96,124554,1,8,0:0:0:0:
352,96,124625,1,8,0:0:0:0:
160,96,124696,1,0,0:0:0:0:
160,96,124768,1,0,0:0:0:0:
352,96,124839,1,8,0:0:0:0:
160,96,124910,1,0,0:0:0:0:
352,96,124982,1,8,0:0:0:0:
352,96,125053,1,8,0:0:0:0:
160,96,125124,1,0,0:0:0:0:
352,96,125196,1,8,0:0:0:0:
160,96,125267,1,0,0:0:0:0:
160,96,125338,1,0,0:0:0:0:
160,96,125409,1,0,0:0:0:0:
160,96,125481,1,0,0:0:0:0:
352,96,125552,1,8,0:0:0:0:
160,96,125623,1,0,0:0:0:0:
352,96,125695,1,8,0:0:0:0:
160,96,125837,1,0,0:0:0:0:
352,96,125980,1,8,0:0:0:0:
160,96,126051,1,0,0:0:0:0:
352,96,126123,1,8,0:0:0:0:
160,96,126265,1,0,0:0:0:0:
352,96,126408,1,8,0:0:0:0:
352,96,126479,1,8,0:0:0:0:
160,96,126551,1,0,0:0:0:0:
352,96,126622,1,8,0:0:0:0:
160,96,126693,1,0,0:0:0:0:
352,96,126836,1,8,0:0:0:0:
160,96,126979,1,0,0:0:0:0:
160,96,127121,1,0,0:0:0:0:
160,96,127193,1,0,0:0:0:0:
352,96,127264,1,8,0:0:0:0:
160,96,127407,1,0,0:0:0:0:
160,96,127478,1,0,0:0:0:0:
352,96,127549,1,8,0:0:0:0:
160,96,127621,1,0,0:0:0:0:
352,96,127692,1,8,0:0:0:0:
160,96,127835,1,0,0:0:0:0:
352,96,127977,1,8,0:0:0:0:
160,96,128049,1,0,0:0:0:0:
352,96,128120,1,8,0:0:0:0:
160,96,128263,1,0,0:0:0:0:
352,96,128405,1,8,0:0:0:0:
160,96,128477,1,0,0:0:0:0:
352,96,128548,1,8,0:0:0:0:
352,96,128619,1,8,0:0:0:0:
160,96,128691,1,0,0:0:0:0:
352,96,128833,1,8,0:0:0:0:
352,96,128904,1,8,0:0:0:0:
160,96,128976,1,0,0:0:0:0:
352,96,129118,1,8,0:0:0:0:
160,96,129261,1,0,0:0:0:0:
160,96,129404,1,0,0:0:0:0:
160,96,129475,1,0,0:0:0:0:
352,96,129546,1,8,0:0:0:0:
160,96,129689,1,0,0:0:0:0:
352,96,129760,1,8,0:0:0:0:
160,96,129832,1,0,0:0:0:0:
160,96,129903,1,0,0:0:0:0:
352,96,129974,1,8,0:0:0:0:
160,96,130046,1,0,0:0:0:0:
352,96,130117,1,8,0:0:0:0:
160,96,130260,1,0,0:0:0:0:
160,96,130402,1,0,0:0:0:0:
160,96,130474,1,0,0:0:0:0:
352,96,130545,1,8,0:0:0:0:
160,96,130616,1,0,0:0:0:0:
352,96,130688,1,8,0:0:0:0:
352,96,130759,1,8,0:0:0:0:
352,96,130830,1,8,0:0:0:0:
352,96,130902,1,8,0:0:0:0:
160,96,130973,1,0,0:0:0:0:
352,96,131044,1,8,0:0:0:0:
160,96,131116,1,0,0:0:0:0:
160,96,131187,1,0,0:0:0:0:
352,96,131258,1,8,0:0:0:0:
352,96,131330,1,8,0:0:0:0:
160,96,131401,1,0,0:0:0:0:
352,96,131472,1,8,0:0:0:0:
160,96,131544,1,0,0:0:0:0:
352,96,131615,1,8,0:0:0:0:
160,96,131686,1,0,0:0:0:0:
160,96,131758,1,0,0:0:0:0:
352,96,131829,1,8,0:0:0:0:
160,96,131900,1,0,0:0:0:0:
352,96,131972,1,8,0:0:0:0:
352,96,132043,1,8,0:0:0:0:
160,96,132114,1,0,0:0:0:0:
352,96,132186,1,8,0:0:0:0:
160,96,132257,1,0,0:0:0:0:
160,96,132328,1,0,0:0:0:0:
352,96,132400,1,8,0:0:0:0:
352,96,132471,1,8,0:0:0:0:
160,96,132542,1,0,0:0:0:0:
352,96,132613,1,8,0:0:0:0:
160,96,132685,1,0,0:0:0:0:
160,96,132756,1,0,0:0:0:0:
160,96,132827,1,0,0:0:0:0:
160,96,132899,1,0,0:0:0:0:
352,96,132970,1,8,0:0:0:0:
160,96,133041,1,0,0:0:0:0:
352,96,133113,1,8,0:0:0:0:
352,96,133184,1,8,0:0:0:0:
160,96,133255,1,0,0:0:0:0:
160,96,133327,1,0,0:0:0:0:
352,96,133398,1,8,0:0:0:0:
160,96,133469,1,0,0:0:0:0:
352,96,133541,1,8,0:0:0:0:
160,96,133612,1,0,0:0:0:0:
352,96,133683,1,8,0:0:0:0:
352,96,133755,1,8,0:0:0:0:
160,96,133826,1,0,0:0:0:0:
160,96,133897,1,0,0:0:0:0:
352,96,133969,1,8,0:0:0:0:
160,96,134040,1,0,0:0:0:0:
352,96,134111,1,8,0:0:0:0:
352,96,134183,1,8,0:0:0:0:
160,96,134254,1,0,0:0:0:0:
160,96,134325,1,0,0:0:0:0:
352,96,134397,1,8,0:0:0:0:
160,96,134468,1,0,0:0:0:0:
160,96,134539,1,0,0:0:0:0:
160,96,134611,1,0,0:0:0:0:
352,96,134682,1,8,0:0:0:0:
160,96,134753,1,0,0:0:0:0:
352,96,134825,1,8,0:0:0:0:
160,96,134967,1,0,0:0:0:0:
352,96,135110,1,8,0:0:0:0:
160,96,135181,1,0,0:0:0:0:
352,96,135253,1,8,0:0:0:0:
160,96,135395,1,0,0:0:0:0:
352,96,135538,1,8,0:0:0:0:
352,96,135609,1,8,0:0:0:0:
160,96,135681,1,0,0:0:0:0:
352,96,135752,1,8,0:0:0:0:
160,96,135823,1,0,0:0:0:0:
160,96,135895,1,0,0:0:0:0:
352,96,135966,1,8,0:0:0:0:
160,96,136108,1,0,0:0:0:0:
160,96,136251,1,0,0:0:0:0:
160,96,136322,1,0,0:0:0:0:
352,96,136394,1,8,0:0:0:0:
160,96,136536,1,0,0:0:0:0:
160,96,136608,1,0,0:0:0:0:
352,96,136679,1,8,0:0:0:0:
160,96,136750,1,0,0:0:0:0:
352,96,136822,1,8,0:0:0:0:
352,96,136893,1,8,0:0:0:0:
160,96,136964,1,0,0:0:0:0:
352,96,137107,1,8,0:0:0:0:
160,96,137250,1,0,0:0:0:0:
160,96,137321,1,0,0:0:0:0:
160,96,137392,1,0,0:0:0:0:
160,96,137464,1,0,0:0:0:0:
352,96,137535,1,8,0:0:0:0:
352,96,137606,1,8,0:0:0:0:
160,96,137678,1,0,0:0:0:0:
352,96,137749,1,8,0:0:0:0:
160,96,137820,1,0,0:0:0:0:
160,96,137892,1,0,0:0:0:0:
352,96,137963,1,8,0:0:0:0:
160,96,138034,1,0,0:0:0:0:
352,96,138106,1,8,0:0:0:0:
352,96,138177,1,8,0:0:0:0:
160,96,138248,1,0,0:0:0:0:
160,96,138320,1,0,0:0:0:0:
352,96,138391,1,8,0:0:0:0:
352,96,138438,1,8,0:0:0:0:
352,96,138486,1,8,0:0:0:0:
160,96,138534,1,0,0:0:0:0:
160,96,138605,1,0,0:0:0:0:
352,96,138676,1,8,0:0:0:0:
352,96,138724,1,8,0:0:0:0:
352,96,138771,1,8,0:0:0:0:
160,96,138819,1,0,0:0:0:0:
160,96,138890,1,0,0:0:0:0:
352,96,138962,1,8,0:0:0:0:
160,96,139009,1,0,0:0:0:0:
160,96,139057,1,0,0:0:0:0:
352,96,139104,1,8,0:0:0:0:
160,96,139176,1,0,0:0:0:0:
352,96,139247,1,8,0:0:0:0:
352,96,139294,1,8,0:0:0:0:
352,96,139342,1,8,0:0:0:0:
160,96,139390,1,0,0:0:0:0:
160,288,139532,1,4,0:0:0:0:
352,96,139675,1,8,0:0:0:0:
160,96,139817,1,0,0:0:0:0:
352,96,139960,1,8,0:0:0:0:
352,96,140031,1,8,0:0:0:0:
160,96,140103,1,0,0:0:0:0:
352,96,140245,1,8,0:0:0:0:
160,96,140317,1,0,0:0:0:0:
352,96,140388,1,8,0:0:0:0:
352,96,140459,1,8,0:0:0:0:
160,96,140531,1,0,0:0:0:0:
160,96,140673,1,0,0:0:0:0:
160,96,140816,1,0,0:0:0:0:
160,96,140887,1,0,0:0:0:0:
352,96,140959,1,8,0:0:0:0:
352,96,141101,1,8,0:0:0:0:
160,96,141244,1,0,0:0:0:0:
352,96,141387,1,8,0:0:0:0:
352,96,141458,1,8,0:0:0:0:
160,96,141529,1,0,0:0:0:0:
160,96,141601,1,0,0:0:0:0:
352,96,141672,1,8,0:0:0:0:
160,96,141815,1,0,0:0:0:0:
352,96,141957,1,8,0:0:0:0:
160,96,142100,1,0,0:0:0:0:
352,96,142243,1,8,0:0:0:0:
352,96,142314,1,8,0:0:0:0:
160,96,142385,1,0,0:0:0:0:
352,96,142528,1,8,0:0:0:0:
160,96,142671,1,0,0:0:0:0:
160,96,142742,1,0,0:0:0:0:
352,96,142813,1,8,0:0:0:0:
160,96,142956,1,0,0:0:0:0:
160,96,143099,1,0,0:0:0:0:
160,96,143170,1,0,0:0:0:0:
352,96,143241,1,8,0:0:0:0:
160,96,143384,1,0,0:0:0:0:
352,96,143455,1,8,0:0:0:0:
160,96,143526,1,0,0:0:0:0:
160,96,143669,1,0,0:0:0:0:
160,96,143740,1,0,0:0:0:0:
352,96,143812,1,8,0:0:0:0:
160,96,143883,1,0,0:0:0:0:
352,96,143954,1,8,0:0:0:0:
160,96,144097,1,0,0:0:0:0:
352,96,144240,1,8,0:0:0:0:
160,96,144382,1,0,0:0:0:0:
352,96,144525,1,8,0:0:0:0:
352,96,144596,1,8,0:0:0:0:
160,96,144668,1,0,0:0:0:0:
352,96,144810,1,8,0:0:0:0:
352,96,144882,1,8,0:0:0:0:
160,96,144953,1,0,0:0:0:0:
352,96,145024,1,8,0:0:0:0:
160,96,145096,1,0,0:0:0:0:
160,96,145238,1,0,0:0:0:0:
352,96,145381,1,8,0:0:0:0:
352,96,145452,1,8,0:0:0:0:
160,96,145524,1,0,0:0:0:0:
352,96,145666,1,8,0:0:0:0:
160,96,145809,1,0,0:0:0:0:
352,96,145952,1,8,0:0:0:0:
160,96,146023,1,0,0:0:0:0:
352,96,146094,1,8,0:0:0:0:
352,96,146166,1,8,0:0:0:0:
160,96,146237,1,0,0:0:0:0:
160,96,146380,1,0,0:0:0:0:
352,96,146522,1,8,0:0:0:0:
160,96,146665,1,0,0:0:0:0:
160,96,146807,1,0,0:0:0:0:
160,96,146879,1,0,0:0:0:0:
352,96,146950,1,8,0:0:0:0:
352,96,147021,1,8,0:0:0:0:
160,96,147093,1,0,0:0:0:0:
352,96,147235,1,8,0:0:0:0:
160,96,147378,1,0,0:0:0:0:
352,96,147521,1,8,0:0:0:0:
160,96,147663,1,0,0:0:0:0:
352,96,147735,1,8,0:0:0:0:
160,96,147806,1,0,0:0:0:0:
352,96,147949,1,8,0:0:0:0:
160,96,148091,1,0,0:0:0:0:
352,96,148163,1,8,0:0:0:0:
160,96,148234,1,0,0:0:0:0:
160,96,148377,1,0,0:0:0:0:
160,96,148448,1,0,0:0:0:0:
352,96,148519,1,8,0:0:0:0:
160,288,148662,1,4,0:0:0:0:
352,96,148805,1,8,0:0:0:0:
160,96,148947,1,0,0:0:0:0:
352,96,149090,1,8,0:0:0:0:
352,96,149161,1,8,0:0:0:0:
160,96,149233,1,0,0:0:0:0:
352,96,149375,1,8,0:0:0:0:
160,96,149447,1,0,0:0:0:0:
352,96,149518,1,8,0:0:0:0:
352,96,149589,1,8,0:0:0:0:
160,96,149661,1,0,0:0:0:0:
160,96,149803,1,0,0:0:0:0:
352,96,149946,1,8,0:0:0:0:
352,96,150017,1,8,0:0:0:0:
160,96,150089,1,0,0:0:0:0:
352,96,150231,1,8,0:0:0:0:
160,96,150374,1,0,0:0:0:0:
352,96,150517,1,8,0:0:0:0:
352,96,150588,1,8,0:0:0:0:
160,96,150659,1,0,0:0:0:0:
160,96,150731,1,0,0:0:0:0:
352,96,150802,1,8,0:0:0:0:
160,96,150945,1,0,0:0:0:0:
352,96,151087,1,8,0:0:0:0:
160,96,151230,1,0,0:0:0:0:
352,96,151373,1,8,0:0:0:0:
352,96,151444,1,8,0:0:0:0:
160,96,151515,1,0,0:0:0:0:
352,96,151658,1,8,0:0:0:0:
160,96,151801,1,0,0:0:0:0:
160,96,151872,1,0,0:0:0:0:
352,96,151943,1,8,0:0:0:0:
160,96,152086,1,0,0:0:0:0:
352,96,152229,1,8,0:0:0:0:
352,96,152300,1,8,0:0:0:0:
160,96,152371,1,0,0:0:0:0:
160,96,152514,1,0,0:0:0:0:
352,96,152585,1,8,0:0:0:0:
160,96,152656,1,0,0:0:0:0:
352,96,152799,1,8,0:0:0:0:
352,96,152870,1,8,0:0:0:0:
160,96,152942,1,0,0:0:0:0:
160,96,153013,1,0,0:0:0:0:
352,96,153084,1,8,0:0:0:0:
160,96,153227,1,0,0:0:0:0:
352,96,153370,1,8,0:0:0:0:
160,96,153512,1,0,0:0:0:0:
352,96,153655,1,8,0:0:0:0:
352,96,153726,1,8,0:0:0:0:
160,96,153798,1,0,0:0:0:0:
352,96,153940,1,8,0:0:0:0:
160,96,154012,1,0,0:0:0:0:
352,96,154083,1,8,0:0:0:0:
352,96,154154,1,8,0:0:0:0:
160,96,154226,1,0,0:0:0:0:
160,96,154368,1,0,0:0:0:0:
352,96,154511,1,8,0:0:0:0:
160,96,154582,1,0,0:0:0:0:
352,96,154654,1,8,0:0:0:0:
160,96,154796,1,0,0:0:0:0:
160,96,154939,1,0,0:0:0:0:
160,96,155010,1,0,0:0:0:0:
352,96,155081,1,8,0:0:0:0:
352,96,155153,1,8,0:0:0:0:
160,96,155223,1,0,0:0:0:0:
352,96,155367,1,8,0:0:0:0:
160,96,155510,1,0,0:0:0:0:
160,96,155581,1,0,0:0:0:0:
160,96,155652,1,0,0:0:0:0:
160,96,155723,1,0,0:0:0:0:
352,96,155795,1,8,0:0:0:0:
352,96,155866,1,8,0:0:0:0:
160,96,155937,1,0,0:0:0:0:
352,96,156009,1,8,0:0:0:0:
160,96,156080,1,0,0:0:0:0:
160,96,156151,1,0,0:0:0:0:
352,96,156223,1,8,0:0:0:0:
160,96,156294,1,0,0:0:0:0:
352,96,156365,1,8,0:0:0:0:
352,96,156437,1,8,0:0:0:0:
160,96,156508,1,0,0:0:0:0:
160,96,156579,1,0,0:0:0:0:
352,96,156651,1,8,0:0:0:0:
352,96,156698,1,8,0:0:0:0:
352,96,156746,1,8,0:0:0:0:
160,96,156793,1,0,0:0:0:0:
160,96,156841,1,0,0:0:0:0:
160,96,156888,1,0,0:0:0:0:
352,96,156936,1,8,0:0:0:0:
352,96,157007,1,8,0:0:0:0:
160,96,157079,1,0,0:0:0:0:
160,96,157150,1,0,0:0:0:0:
352,96,157221,1,8,0:0:0:0:
160,96,157269,1,0,0:0:0:0:
160,96,157316,1,0,0:0:0:0:
352,96,157364,1,8,0:0:0:0:
352,96,157435,1,8,0:0:0:0:
160,96,157506,1,0,0:0:0:0:
160,96,157554,1,0,0:0:0:0:
160,96,157602,1,0,0:0:0:0:
352,96,157649,1,8,0:0:0:0:
160,288,157792,1,4,0:0:0:0:
352,96,158933,1,8,0:0:0:0:
352,96,160074,1,8,0:0:0:0:
160,96,161215,1,0,0:0:0:0:
160,96,162357,1,0,0:0:0:0:
160,96,163498,1,0,0:0:0:0:
160,96,164639,1,0,0:0:0:0:
352,96,165780,1,8,0:0:0:0:
352,96,166922,1,8,0:0:0:0:
352,96,168063,1,8,0:0:0:0:
352,96,169204,1,8,0:0:0:0:
160,96,170345,1,0,0:0:0:0:
160,96,171487,1,0,0:0:0:0:
160,96,172628,1,0,0:0:0:0:
160,96,173769,1,0,0:0:0:0:
160,96,174910,1,0,0:0:0:0:
160,96,174982,1,0,0:0:0:0:
160,96,175053,1,0,0:0:0:0:
160,96,175124,1,0,0:0:0:0:
352,96,175196,1,8,0:0:0:0:
352,96,175267,1,8,0:0:0:0:
160,96,175338,1,0,0:0:0:0:
352,96,175409,1,8,0:0:0:0:
160,96,175481,1,0,0:0:0:0:
160,96,175552,1,0,0:0:0:0:
160,96,175623,1,0,0:0:0:0:
160,96,175695,1,0,0:0:0:0:
352,96,175766,1,8,0:0:0:0:
352,96,175837,1,8,0:0:0:0:
160,96,175909,1,0,0:0:0:0:
160,96,175980,1,0,0:0:0:0:
352,96,176051,1,8,0:0:0:0:
352,96,176099,1,8,0:0:0:0:
352,96,176147,1,8,0:0:0:0:
160,96,176194,1,0,0:0:0:0:
160,96,176265,1,0,0:0:0:0:
352,96,176337,1,8,0:0:0:0:
352,96,176384,1,8,0:0:0:0:
352,96,176432,1,8,0:0:0:0:
160,96,176479,1,0,0:0:0:0:
160,96,176551,1,0,0:0:0:0:
352,96,176622,1,8,0:0:0:0:
160,96,176670,1,0,0:0:0:0:
160,96,176717,1,0,0:0:0:0:
352,96,176765,1,8,0:0:0:0:
160,96,176836,1,0,0:0:0:0:
352,96,176907,1,8,0:0:0:0:
352,96,176955,1,8,0:0:0:0:
352,96,177002,1,8,0:0:0:0:
160,96,177050,1,0,0:0:0:0:
160,288,177193,1,4,0:0:0:0:
160,96,177478,1,0,0:0:0:0:
352,96,177621,1,8,0:0:0:0:
352,96,177906,1,8,0:0:0:0:
160,96,178049,1,0,0:0:0:0:
352,96,178619,1,8,0:0:0:0:
160,96,178904,1,0,0:0:0:0:
352,96,179190,1,8,0:0:0:0:
160,96,179475,1,0,0:0:0:0:
160,96,179903,1,0,0:0:0:0:
352,96,180331,1,8,0:0:0:0:
160,96,181187,1,0,0:0:0:0:
352,96,181472,1,8,0:0:0:0:
160,96,181758,1,0,0:0:0:0:
352,96,182043,1,8,0:0:0:0:
160,96,182186,1,0,0:0:0:0:
160,96,182471,1,0,0:0:0:0:
352,96,182613,1,8,0:0:0:0:
352,96,183184,1,8,0:0:0:0:
160,96,183469,1,0,0:0:0:0:
160,96,183755,1,0,0:0:0:0:
352,96,184040,1,8,0:0:0:0:
160,96,184468,1,0,0:0:0:0:
352,96,184896,1,8,0:0:0:0:
352,96,185467,1,8,0:0:0:0:
160,96,185752,1,0,0:0:0:0:
160,96,186037,1,8,0:0:0:0:
352,288,186322,1,4,0:0:0:0:
160,96,186608,1,0,0:0:0:0:
352,96,186750,1,8,0:0:0:0:
352,96,187036,1,8,0:0:0:0:
160,96,187178,1,0,0:0:0:0:
160,96,187464,1,0,0:0:0:0:
160,96,187749,1,0,0:0:0:0:
352,96,187892,1,8,0:0:0:0:
160,96,188034,1,0,0:0:0:0:
352,96,188320,1,8,0:0:0:0:
160,96,188605,1,0,0:0:0:0:
352,96,188890,1,8,0:0:0:0:
160,96,189033,1,0,0:0:0:0:
160,96,189318,1,0,0:0:0:0:
352,96,189461,1,8,0:0:0:0:
160,96,190317,1,0,0:0:0:0:
352,96,190602,1,8,0:0:0:0:
160,96,190887,1,0,0:0:0:0:
352,96,191173,1,8,0:0:0:0:
160,96,191315,1,0,0:0:0:0:
160,96,191601,1,0,0:0:0:0:
352,96,191743,1,8,0:0:0:0:
160,96,192029,1,0,0:0:0:0:
352,96,192314,1,8,0:0:0:0:
352,96,192457,1,8,0:0:0:0:
160,96,192599,1,0,0:0:0:0:
160,96,192742,1,0,0:0:0:0:
352,96,192885,1,8,0:0:0:0:
160,96,193170,1,0,0:0:0:0:
352,96,193455,1,8,0:0:0:0:
160,96,193598,1,0,0:0:0:0:
160,96,193883,1,0,0:0:0:0:
352,96,194026,1,8,0:0:0:0:
160,96,194596,1,0,0:0:0:0:
352,96,194882,1,8,0:0:0:0:
160,96,195167,1,0,0:0:0:0:
160,96,195452,1,0,0:0:0:0:
352,96,195880,1,8,0:0:0:0:
160,96,197164,1,0,0:0:0:0:
352,96,197449,1,8,0:0:0:0:
160,96,197735,1,0,0:0:0:0:
352,96,198163,1,8,0:0:0:0:
352,96,200017,1,8,0:0:0:0:
352,96,200160,1,8,0:0:0:0:
160,96,200302,1,0,0:0:0:0:
160,96,200445,1,0,0:0:0:0:
352,96,200730,1,8,0:0:0:0:
160,96,200873,1,0,0:0:0:0:
160,96,201016,1,0,0:0:0:0:
352,96,201158,1,8,0:0:0:0:
352,96,201444,1,8,0:0:0:0:
160,96,201586,1,0,0:0:0:0:
160,96,201872,1,0,0:0:0:0:
160,96,202014,1,8,0:0:0:0:
160,96,202300,1,0,0:0:0:0:
160,96,202371,1,0,0:0:0:0:
160,96,202442,1,0,0:0:0:0:
160,96,202514,1,0,0:0:0:0:
352,96,202585,1,8,0:0:0:0:
352,96,202656,1,8,0:0:0:0:
160,96,202728,1,0,0:0:0:0:
352,96,202799,1,8,0:0:0:0:
160,96,202870,1,0,0:0:0:0:
160,96,202942,1,0,0:0:0:0:
160,96,203013,1,0,0:0:0:0:
160,96,203084,1,0,0:0:0:0:
352,96,203156,1,8,0:0:0:0:
352,96,203227,1,8,0:0:0:0:
160,96,203298,1,0,0:0:0:0:
160,96,203370,1,0,0:0:0:0:
352,96,203441,1,8,0:0:0:0:
352,96,203488,1,8,0:0:0:0:
352,96,203536,1,8,0:0:0:0:
160,96,203584,1,0,0:0:0:0:
160,96,203655,1,0,0:0:0:0:
352,96,203726,1,8,0:0:0:0:
352,96,203774,1,8,0:0:0:0:
352,96,203821,1,8,0:0:0:0:
160,96,203869,1,0,0:0:0:0:
160,96,203940,1,0,0:0:0:0:
352,96,204011,1,8,0:0:0:0:
160,96,204059,1,0,0:0:0:0:
160,96,204107,1,0,0:0:0:0:
352,96,204154,1,8,0:0:0:0:
160,96,204225,1,0,0:0:0:0:
352,96,204297,1,8,0:0:0:0:
352,96,204344,1,8,0:0:0:0:
352,96,204392,1,8,0:0:0:0:
160,96,204439,1,0,0:0:0:0:
160,288,204582,1,4,0:0:0:0:
352,96,204725,1,8,0:0:0:0:
352,96,205010,1,8,0:0:0:0:
352,96,205295,1,8,0:0:0:0:
352,96,205581,1,8,0:0:0:0:
352,96,205866,1,8,0:0:0:0:
352,96,206151,1,8,0:0:0:0:
352,96,206437,1,8,0:0:0:0:
352,96,206722,1,8,0:0:0:0:
352,96,207007,1,8,0:0:0:0:
352,96,207293,1,8,0:0:0:0:
352,96,207578,1,8,0:0:0:0:
352,96,207863,1,8,0:0:0:0:
352,96,208148,1,8,0:0:0:0:
352,96,208434,1,8,0:0:0:0:
352,96,208719,1,8,0:0:0:0:
352,96,209004,1,8,0:0:0:0:
352,96,209290,1,8,0:0:0:0:
352,96,209575,1,8,0:0:0:0:
352,96,209860,1,8,0:0:0:0:
352,96,210146,1,8,0:0:0:0:
352,96,210431,1,8,0:0:0:0:
352,96,210716,1,8,0:0:0:0:
352,96,211002,1,8,0:0:0:0:
352,96,211287,1,8,0:0:0:0:
160,96,211572,1,0,0:0:0:0:
160,96,211857,1,0,0:0:0:0:
160,96,212143,1,0,0:0:0:0:
160,96,212428,1,0,0:0:0:0:
160,96,212713,1,0,0:0:0:0:
160,96,212999,1,0,0:0:0:0:
160,96,213284,1,0,0:0:0:0:
160,96,213569,1,0,0:0:0:0:
352,96,213855,1,8,0:0:0:0:
352,96,214140,1,8,0:0:0:0:
352,96,214425,1,8,0:0:0:0:
352,96,214710,1,8,0:0:0:0:
352,96,214996,1,8,0:0:0:0:
352,96,215281,1,8,0:0:0:0:
352,96,215566,1,8,0:0:0:0:
352,96,215852,1,8,0:0:0:0:
352,96,216137,1,8,0:0:0:0:
352,96,216422,1,8,0:0:0:0:
352,96,216708,1,8,0:0:0:0:
352,96,216993,1,8,0:0:0:0:
352,96,217278,1,8,0:0:0:0:
352,96,217564,1,8,0:0:0:0:
352,96,217849,1,8,0:0:0:0:
352,96,218134,1,8,0:0:0:0:
160,96,218277,1,0,0:0:0:0:
160,96,218419,1,0,0:0:0:0:
352,96,218562,1,8,0:0:0:0:
160,96,218705,1,0,0:0:0:0:
352,96,218847,1,8,0:0:0:0:
352,96,218990,1,8,0:0:0:0:
160,96,219133,1,0,0:0:0:0:
352,96,219275,1,8,0:0:0:0:
160,96,219418,1,0,0:0:0:0:
160,96,219561,1,0,0:0:0:0:
352,96,219703,1,8,0:0:0:0:
160,96,219846,1,0,0:0:0:0:
352,96,219989,1,8,0:0:0:0:
352,96,220131,1,8,0:0:0:0:
160,96,220274,1,0,0:0:0:0:
352,96,220417,1,8,0:0:0:0:
160,96,220559,1,0,0:0:0:0:
160,96,220631,1,0,0:0:0:0:
160,96,220702,1,0,0:0:0:0:
160,96,220773,1,0,0:0:0:0:
352,96,220845,1,8,0:0:0:0:
352,96,220916,1,8,0:0:0:0:
160,96,220987,1,0,0:0:0:0:
352,96,221059,1,8,0:0:0:0:
160,96,221130,1,0,0:0:0:0:
160,96,221201,1,0,0:0:0:0:
160,96,221273,1,0,0:0:0:0:
160,96,221344,1,0,0:0:0:0:
352,96,221415,1,8,0:0:0:0:
352,96,221487,1,8,0:0:0:0:
160,96,221558,1,0,0:0:0:0:
160,96,221629,1,0,0:0:0:0:
352,96,221701,1,8,0:0:0:0:
352,96,221748,1,8,0:0:0:0:
352,96,221796,1,8,0:0:0:0:
160,96,221843,1,0,0:0:0:0:
160,96,221914,1,0,0:0:0:0:
352,96,221986,1,8,0:0:0:0:
352,96,222033,1,8,0:0:0:0:
352,96,222081,1,8,0:0:0:0:
160,96,222128,1,0,0:0:0:0:
160,96,222200,1,0,0:0:0:0:
352,96,222271,1,8,0:0:0:0:
160,96,222319,1,0,0:0:0:0:
160,96,222366,1,0,0:0:0:0:
352,96,222414,1,8,0:0:0:0:
160,96,222485,1,0,0:0:0:0:
352,96,222556,1,8,0:0:0:0:
352,96,222604,1,8,0:0:0:0:
352,96,222652,1,8,0:0:0:0:
160,96,222699,1,0,0:0:0:0:
160,288,222842,1,4,0:0:0:0:
352,96,223127,1,8,0:0:0:0:
160,96,223412,1,0,0:0:0:0:
352,96,223555,1,8,0:0:0:0:
160,96,223840,1,0,0:0:0:0:
352,96,223983,1,8,0:0:0:0:
352,96,224054,1,8,0:0:0:0:
352,96,224126,1,8,0:0:0:0:
352,96,224197,1,8,0:0:0:0:
160,96,224268,1,0,0:0:0:0:
160,96,224340,1,0,0:0:0:0:
160,96,224411,1,0,0:0:0:0:
160,96,224482,1,0,0:0:0:0:
352,96,224554,1,8,0:0:0:0:
160,96,224625,1,0,0:0:0:0:
352,96,224696,1,8,0:0:0:0:
160,96,224768,1,0,0:0:0:0:
352,96,224839,1,8,0:0:0:0:
352,96,224910,1,8,0:0:0:0:
352,96,224982,1,8,0:0:0:0:
352,96,225053,1,8,0:0:0:0:
160,96,225124,1,0,0:0:0:0:
160,96,225267,1,0,0:0:0:0:
160,96,225338,1,0,0:0:0:0:
352,96,225409,1,8,0:0:0:0:
160,96,225552,1,0,0:0:0:0:
160,96,225623,1,0,0:0:0:0:
352,96,225695,1,8,0:0:0:0:
352,96,225766,1,8,0:0:0:0:
160,96,225837,1,0,0:0:0:0:
352,96,225980,1,8,0:0:0:0:
160,96,226051,1,0,0:0:0:0:
352,96,226123,1,8,0:0:0:0:
352,96,226194,1,8,0:0:0:0:
160,96,226265,1,0,0:0:0:0:
352,96,226408,1,8,0:0:0:0:
352,96,226479,1,8,0:0:0:0:
160,96,226551,1,0,0:0:0:0:
160,96,226622,1,0,0:0:0:0:
352,96,226693,1,8,0:0:0:0:
160,96,226836,1,0,0:0:0:0:
352,96,226907,1,8,0:0:0:0:
160,96,226979,1,0,0:0:0:0:
160,96,227050,1,0,0:0:0:0:
352,96,227121,1,8,0:0:0:0:
352,96,227264,1,8,0:0:0:0:
352,96,227335,1,8,0:0:0:0:
160,96,227407,1,0,0:0:0:0:
352,96,227549,1,8,0:0:0:0:
160,96,227621,1,0,0:0:0:0:
160,96,227692,1,0,0:0:0:0:
352,96,227835,1,8,0:0:0:0:
352,96,227906,1,8,0:0:0:0:
160,96,227977,1,0,0:0:0:0:
160,96,228049,1,0,0:0:0:0:
352,96,228120,1,8,0:0:0:0:
160,96,228263,1,0,0:0:0:0:
160,96,228334,1,0,0:0:0:0:
352,96,228405,1,8,0:0:0:0:
160,96,228477,1,0,0:0:0:0:
352,96,228548,1,8,0:0:0:0:
160,96,228691,1,0,0:0:0:0:
160,96,228762,1,0,0:0:0:0:
352,96,228833,1,8,0:0:0:0:
160,96,228904,1,0,0:0:0:0:
352,96,228976,1,8,0:0:0:0:
352,96,229047,1,8,0:0:0:0:
160,96,229118,1,0,0:0:0:0:
160,96,229190,1,0,0:0:0:0:
352,96,229261,1,8,0:0:0:0:
352,96,229332,1,8,0:0:0:0:
160,96,229404,1,0,0:0:0:0:
352,96,229546,1,8,0:0:0:0:
160,96,229689,1,0,0:0:0:0:
160,96,229832,1,0,0:0:0:0:
160,96,229903,1,0,0:0:0:0:
352,96,229974,1,8,0:0:0:0:
160,96,230117,1,0,0:0:0:0:
160,96,230188,1,0,0:0:0:0:
352,96,230260,1,8,0:0:0:0:
352,96,230331,1,8,0:0:0:0:
160,96,230402,1,0,0:0:0:0:
157,103,230474,1,0,0:0:0:0:
352,96,230545,1,8,0:0:0:0:
160,96,230616,1,0,0:0:0:0:
352,96,230688,1,8,0:0:0:0:
160,96,230830,1,0,0:0:0:0:
352,96,230973,1,8,0:0:0:0:
160,96,231044,1,0,0:0:0:0:
352,96,231116,1,8,0:0:0:0:
352,96,231187,1,8,0:0:0:0:
347,87,231258,1,0,0:0:0:0:
160,96,231330,1,0,0:0:0:0:
352,96,231401,1,8,0:0:0:0:
352,96,231472,1,8,0:0:0:0:
160,96,231544,1,0,0:0:0:0:
352,96,231615,1,8,0:0:0:0:
160,96,231686,1,0,0:0:0:0:
160,96,231758,1,0,0:0:0:0:
352,96,231829,1,8,0:0:0:0:
160,96,231972,1,0,0:0:0:0:
160,96,232114,1,0,0:0:0:0:
160,96,232186,1,0,0:0:0:0:
352,96,232257,1,8,0:0:0:0:
160,96,232400,1,0,0:0:0:0:
160,96,232471,1,0,0:0:0:0:
352,96,232542,1,8,0:0:0:0:
160,96,232613,1,0,0:0:0:0:
352,96,232685,1,8,0:0:0:0:
160,96,232827,1,0,0:0:0:0:
352,96,232899,1,8,0:0:0:0:
160,96,232970,1,0,0:0:0:0:
160,96,233041,1,0,0:0:0:0:
352,96,233113,1,8,0:0:0:0:
160,96,233255,1,0,0:0:0:0:
160,96,233327,1,0,0:0:0:0:
352,96,233398,1,8,0:0:0:0:
160,96,233469,1,0,0:0:0:0:
352,96,233541,1,8,0:0:0:0:
352,96,233612,1,8,0:0:0:0:
160,96,233683,1,0,0:0:0:0:
160,96,233755,1,0,0:0:0:0:
352,96,233826,1,8,0:0:0:0:
352,96,233897,1,8,0:0:0:0:
160,96,233969,1,0,0:0:0:0:
352,96,234111,1,8,0:0:0:0:
160,96,234254,1,0,0:0:0:0:
160,96,234325,1,0,0:0:0:0:
160,96,234397,1,0,0:0:0:0:
160,96,234468,1,0,0:0:0:0:
352,96,234539,1,8,0:0:0:0:
352,96,234611,1,8,0:0:0:0:
352,96,234682,1,8,0:0:0:0:
352,96,234753,1,8,0:0:0:0:
160,96,234825,1,0,0:0:0:0:
352,96,234896,1,8,0:0:0:0:
160,96,234967,1,0,0:0:0:0:
160,96,235039,1,0,0:0:0:0:
352,96,235110,1,8,0:0:0:0:
352,96,235181,1,8,0:0:0:0:
352,96,235253,1,8,0:0:0:0:
352,96,235324,1,8,0:0:0:0:
160,96,235395,1,0,0:0:0:0:
352,96,235467,1,8,0:0:0:0:
160,96,235538,1,0,0:0:0:0:
160,96,235609,1,0,0:0:0:0:
352,96,235681,1,8,0:0:0:0:
160,96,235752,1,0,0:0:0:0:
352,96,235823,1,8,0:0:0:0:
352,96,235895,1,8,0:0:0:0:
160,96,235966,1,0,0:0:0:0:
352,96,236037,1,8,0:0:0:0:
160,96,236108,1,0,0:0:0:0:
160,96,236180,1,0,0:0:0:0:
352,96,236251,1,8,0:0:0:0:
352,96,236322,1,8,0:0:0:0:
160,96,236394,1,0,0:0:0:0:
352,96,236465,1,8,0:0:0:0:
160,96,236536,1,0,0:0:0:0:
160,96,236608,1,0,0:0:0:0:
160,96,236679,1,0,0:0:0:0:
160,96,236750,1,0,0:0:0:0:
352,96,236822,1,8,0:0:0:0:
160,96,236893,1,0,0:0:0:0:
352,96,236964,1,8,0:0:0:0:
352,96,237036,1,8,0:0:0:0:
160,96,237107,1,0,0:0:0:0:
160,96,237178,1,0,0:0:0:0:
160,96,237250,1,0,0:0:0:0:
160,96,237321,1,0,0:0:0:0:
352,96,237392,1,8,0:0:0:0:
160,96,237464,1,0,0:0:0:0:
352,96,237535,1,8,0:0:0:0:
352,96,237606,1,8,0:0:0:0:
160,96,237678,1,0,0:0:0:0:
160,96,237749,1,0,0:0:0:0:
352,96,237820,1,8,0:0:0:0:
160,96,237892,1,0,0:0:0:0:
352,96,237963,1,8,0:0:0:0:
352,96,238034,1,8,0:0:0:0:
160,96,238106,1,0,0:0:0:0:
352,96,238177,1,8,0:0:0:0:
160,96,238248,1,0,0:0:0:0:
160,96,238320,1,0,0:0:0:0:
160,96,238391,1,0,0:0:0:0:
160,96,238462,1,0,0:0:0:0:
352,96,238534,1,8,0:0:0:0:
160,96,238605,1,0,0:0:0:0:
352,96,238676,1,8,0:0:0:0:
160,96,238819,1,0,0:0:0:0:
352,96,238962,1,8,0:0:0:0:
160,96,239033,1,0,0:0:0:0:
352,96,239104,1,8,0:0:0:0:
160,96,239247,1,0,0:0:0:0:
352,96,239390,1,8,0:0:0:0:
352,96,239461,1,8,0:0:0:0:
160,96,239532,1,0,0:0:0:0:
352,96,239603,1,8,0:0:0:0:
160,96,239675,1,0,0:0:0:0:
160,96,239746,1,0,0:0:0:0:
352,96,239817,1,8,0:0:0:0:
160,96,239960,1,0,0:0:0:0:
160,96,240103,1,0,0:0:0:0:
160,96,240174,1,0,0:0:0:0:
352,96,240245,1,8,0:0:0:0:
160,96,240388,1,0,0:0:0:0:
160,96,240459,1,0,0:0:0:0:
352,96,240531,1,8,0:0:0:0:
160,96,240602,1,0,0:0:0:0:
352,96,240673,1,8,0:0:0:0:
160,96,240816,1,0,0:0:0:0:
352,96,240959,1,8,0:0:0:0:
160,96,241030,1,0,0:0:0:0:
352,96,241101,1,8,0:0:0:0:
160,96,241244,1,0,0:0:0:0:
352,96,241387,1,8,0:0:0:0:
160,96,241458,1,0,0:0:0:0:
352,96,241529,1,8,0:0:0:0:
352,96,241601,1,8,0:0:0:0:
160,96,241672,1,0,0:0:0:0:
352,96,241815,1,8,0:0:0:0:
352,96,241886,1,8,0:0:0:0:
160,96,241957,1,0,0:0:0:0:
160,96,242100,1,0,0:0:0:0:
352,96,242243,1,8,0:0:0:0:
352,96,242314,1,8,0:0:0:0:
352,96,242385,1,8,0:0:0:0:
352,96,242457,1,8,0:0:0:0:
160,96,242528,1,0,0:0:0:0:
160,96,242599,1,0,0:0:0:0:
160,96,242671,1,0,0:0:0:0:
160,96,242742,1,0,0:0:0:0:
352,96,242813,1,8,0:0:0:0:
352,96,242885,1,8,0:0:0:0:
352,96,242956,1,8,0:0:0:0:
352,96,243027,1,8,0:0:0:0:
352,96,243099,1,8,0:0:0:0:
352,96,243170,1,8,0:0:0:0:
352,96,243241,1,8,0:0:0:0:
352,96,243312,1,8,0:0:0:0:
160,96,243384,1,0,0:0:0:0:
160,96,243526,1,0,0:0:0:0:
160,96,243598,1,0,0:0:0:0:
352,96,243669,1,8,0:0:0:0:
160,96,243812,1,0,0:0:0:0:
160,96,243883,1,0,0:0:0:0:
352,96,243954,1,8,0:0:0:0:
160,96,244026,1,0,0:0:0:0:
352,96,244168,1,8,0:0:0:0:
160,96,244240,1,0,0:0:0:0:
160,96,244311,1,0,0:0:0:0:
352,96,244382,1,8,0:0:0:0:
352,96,244454,1,8,0:0:0:0:
160,96,244525,1,0,0:0:0:0:
352,96,244668,1,8,0:0:0:0:
160,96,244739,1,0,0:0:0:0:
160,96,244810,1,0,0:0:0:0:
352,96,244953,1,8,0:0:0:0:
160,96,245096,1,0,0:0:0:0:
352,96,245167,1,8,0:0:0:0:
160,96,245238,1,0,0:0:0:0:
160,96,245310,1,0,0:0:0:0:
352,96,245381,1,8,0:0:0:0:
352,96,245524,1,8,0:0:0:0:
160,96,245595,1,0,0:0:0:0:
160,96,245666,1,0,0:0:0:0:
352,96,245738,1,8,0:0:0:0:
160,96,245880,1,0,0:0:0:0:
352,96,245952,1,8,0:0:0:0:
160,96,246023,1,8,0:0:0:0:
160,96,246094,1,0,0:0:0:0:
352,96,246237,1,8,0:0:0:0:
160,96,246308,1,0,0:0:0:0:
160,96,246451,1,0,0:0:0:0:
160,96,246522,1,0,0:0:0:0:
352,96,246594,1,8,0:0:0:0:
352,96,246665,1,8,0:0:0:0:
160,96,246736,1,0,0:0:0:0:
352,96,246807,1,8,0:0:0:0:
160,96,246950,1,0,0:0:0:0:
160,96,247021,1,0,0:0:0:0:
352,96,247093,1,8,0:0:0:0:
160,96,247164,1,0,0:0:0:0:
352,96,247235,1,8,0:0:0:0:
160,96,247307,1,0,0:0:0:0:
352,96,247378,1,8,0:0:0:0:
352,96,247449,1,8,0:0:0:0:
352,96,247521,1,8,0:0:0:0:
352,96,247592,1,8,0:0:0:0:
160,96,247663,1,0,0:0:0:0:
352,96,247806,1,8,0:0:0:0:
160,96,247949,1,0,0:0:0:0:
160,96,248091,1,0,0:0:0:0:
160,96,248163,1,0,0:0:0:0:
352,96,248234,1,8,0:0:0:0:
160,96,248377,1,0,0:0:0:0:
160,96,248448,1,0,0:0:0:0:
352,96,248519,1,8,0:0:0:0:
160,96,248591,1,0,0:0:0:0:
352,96,248733,1,8,0:0:0:0:
160,96,248805,1,0,0:0:0:0:
160,96,248876,1,0,0:0:0:0:
352,96,248947,1,8,0:0:0:0:
352,96,249019,1,8,0:0:0:0:
160,96,249090,1,0,0:0:0:0:
352,96,249233,1,8,0:0:0:0:
160,96,249304,1,0,0:0:0:0:
352,96,249375,1,8,0:0:0:0:
160,96,249447,1,8,0:0:0:0:
160,96,249518,1,0,0:0:0:0:
352,96,249661,1,8,0:0:0:0:
160,96,249732,1,0,0:0:0:0:
160,96,249875,1,0,0:0:0:0:
352,96,249946,1,8,0:0:0:0:
352,96,250017,1,8,0:0:0:0:
160,96,250089,1,0,0:0:0:0:
160,96,250231,1,0,0:0:0:0:
160,96,250374,1,0,0:0:0:0:
160,96,250445,1,0,0:0:0:0:
352,96,250516,1,8,0:0:0:0:
160,96,250659,1,0,0:0:0:0:
160,96,250730,1,0,0:0:0:0:
352,96,250802,1,8,0:0:0:0:
160,96,250873,1,0,0:0:0:0:
352,96,251016,1,0,0:0:0:0:
352,96,251087,1,8,0:0:0:0:
160,96,251158,1,0,0:0:0:0:
160,96,251230,1,0,0:0:0:0:
352,96,251301,1,8,0:0:0:0:
160,96,251372,1,0,0:0:0:0:
352,96,251515,1,8,0:0:0:0:
158,103,251586,1,8,0:0:0:0:
160,96,251658,1,0,0:0:0:0:
160,96,251729,1,0,0:0:0:0:
352,96,251800,1,8,0:0:0:0:
160,96,251872,1,0,0:0:0:0:
352,96,251943,1,8,0:0:0:0:
160,96,252086,1,0,0:0:0:0:
160,96,252157,1,0,0:0:0:0:
352,96,252228,1,8,0:0:0:0:
352,96,252300,1,8,0:0:0:0:
352,96,252371,1,8,0:0:0:0:
352,96,252442,1,8,0:0:0:0:
160,96,252514,1,0,0:0:0:0:
160,96,252585,1,0,0:0:0:0:
160,96,252656,1,0,0:0:0:0:
160,96,252728,1,0,0:0:0:0:
352,96,252799,1,8,0:0:0:0:
160,96,252870,1,0,0:0:0:0:
352,96,252942,1,8,0:0:0:0:
352,96,253013,1,8,0:0:0:0:
160,96,253084,1,0,0:0:0:0:
160,96,253156,1,0,0:0:0:0:
160,96,253227,1,0,0:0:0:0:
160,96,253298,1,0,0:0:0:0:
352,96,253370,1,8,0:0:0:0:
160,96,253441,1,0,0:0:0:0:
352,96,253512,1,8,0:0:0:0:
352,96,253584,1,8,0:0:0:0:
160,96,253655,1,0,0:0:0:0:
352,96,253726,1,8,0:0:0:0:
160,96,253798,1,0,0:0:0:0:
160,96,253869,1,0,0:0:0:0:
352,96,253940,1,8,0:0:0:0:
160,96,254011,1,0,0:0:0:0:
352,96,254083,1,8,0:0:0:0:
352,96,254154,1,8,0:0:0:0:
160,96,254225,1,0,0:0:0:0:
352,96,254297,1,8,0:0:0:0:
160,96,254368,1,0,0:0:0:0:
160,96,254439,1,0,0:0:0:0:
352,96,254511,1,8,0:0:0:0:
352,96,254582,1,8,0:0:0:0:
160,96,254653,1,0,0:0:0:0:
352,96,254725,1,8,0:0:0:0:
160,96,254796,1,0,0:0:0:0:
160,96,254867,1,0,0:0:0:0:
160,96,254939,1,0,0:0:0:0:
160,96,255010,1,0,0:0:0:0:
352,96,255081,1,8,0:0:0:0:
160,96,255153,1,0,0:0:0:0:
352,96,255224,1,8,0:0:0:0:
352,96,255295,1,8,0:0:0:0:
160,96,255367,1,0,0:0:0:0:
160,96,255438,1,0,0:0:0:0:
160,96,255509,1,0,0:0:0:0:
160,96,255581,1,0,0:0:0:0:
352,96,255652,1,8,0:0:0:0:
160,96,255723,1,0,0:0:0:0:
352,96,255795,1,8,0:0:0:0:
352,96,255866,1,8,0:0:0:0:
160,96,255937,1,0,0:0:0:0:
160,96,256009,1,0,0:0:0:0:
352,96,256080,1,8,0:0:0:0:
160,96,256151,1,0,0:0:0:0:
352,96,256223,1,8,0:0:0:0:
352,96,256294,1,8,0:0:0:0:
160,96,256365,1,0,0:0:0:0:
160,96,256437,1,0,0:0:0:0:
352,96,256508,1,8,0:0:0:0:
352,96,256579,1,8,0:0:0:0:
352,96,256651,1,8,0:0:0:0:
352,96,256722,1,8,0:0:0:0:
352,96,256793,1,8,0:0:0:0:
352,96,256865,1,8,0:0:0:0:
160,96,256936,1,0,0:0:0:0:
160,96,257079,1,0,0:0:0:0:
352,96,257221,1,8,0:0:0:0:
352,96,257293,1,8,0:0:0:0:
160,96,257364,1,0,0:0:0:0:
160,96,257435,1,0,0:0:0:0:
352,96,257506,1,8,0:0:0:0:
160,96,257649,1,0,0:0:0:0:
352,96,257720,1,8,0:0:0:0:
352,96,257863,1,8,0:0:0:0:
160,96,257934,1,0,0:0:0:0:
160,96,258006,1,0,0:0:0:0:
352,96,258077,1,8,0:0:0:0:
160,96,258220,1,0,0:0:0:0:
352,96,258362,1,8,0:0:0:0:
160,96,258434,1,0,0:0:0:0:
352,96,258505,1,8,0:0:0:0:
352,96,258576,1,8,0:0:0:0:
160,96,258648,1,0,0:0:0:0:
160,96,258790,1,0,0:0:0:0:
352,96,258862,1,8,0:0:0:0:
352,96,259004,1,8,0:0:0:0:
160,96,259076,1,0,0:0:0:0:
160,96,259147,1,0,0:0:0:0:
352,96,259218,1,8,0:0:0:0:
352,96,259290,1,8,0:0:0:0:
160,96,259361,1,0,0:0:0:0:
352,96,259504,1,8,0:0:0:0:
160,96,259646,1,0,0:0:0:0:
160,96,259718,1,0,0:0:0:0:
352,96,259789,1,8,0:0:0:0:
352,96,259860,1,8,0:0:0:0:
160,96,259932,1,0,0:0:0:0:
352,96,260074,1,8,0:0:0:0:
352,96,260146,1,8,0:0:0:0:
160,96,260217,1,0,0:0:0:0:
352,96,260360,1,8,0:0:0:0:
160,96,260502,1,0,0:0:0:0:
160,96,260645,1,0,0:0:0:0:
160,96,260716,1,0,0:0:0:0:
352,96,260788,1,8,0:0:0:0:
160,96,260930,1,0,0:0:0:0:
352,96,261073,1,8,0:0:0:0:
352,96,261144,1,8,0:0:0:0:
160,96,261215,1,0,0:0:0:0:
352,96,261287,1,8,0:0:0:0:
160,96,261358,1,0,0:0:0:0:
160,96,261429,1,0,0:0:0:0:
352,96,261501,1,8,0:0:0:0:
160,288,261643,1,4,0:0:0:0:
352,96,261786,1,8,0:0:0:0:
160,96,261928,1,0,0:0:0:0:
352,96,262071,1,8,0:0:0:0:
352,96,262142,1,8,0:0:0:0:
160,96,262214,1,0,0:0:0:0:
352,96,262356,1,8,0:0:0:0:
160,96,262428,1,0,0:0:0:0:
352,96,262499,1,8,0:0:0:0:
352,96,262570,1,8,0:0:0:0:
160,96,262642,1,0,0:0:0:0:
160,96,262713,1,8,0:0:0:0:
160,96,262784,1,0,0:0:0:0:
160,96,262927,1,0,0:0:0:0:
160,96,262998,1,0,0:0:0:0:
352,96,263070,1,8,0:0:0:0:
352,96,263212,1,8,0:0:0:0:
160,96,263355,1,0,0:0:0:0:
352,96,263498,1,8,0:0:0:0:
352,96,263569,1,8,0:0:0:0:
160,96,263640,1,0,0:0:0:0:
160,96,263712,1,0,0:0:0:0:
352,96,263783,1,8,0:0:0:0:
160,96,263855,1,8,0:0:0:0:
160,96,263926,1,0,0:0:0:0:
352,96,264068,1,8,0:0:0:0:
160,96,264211,1,0,0:0:0:0:
352,96,264354,1,8,0:0:0:0:
352,96,264425,1,8,0:0:0:0:
160,96,264496,1,0,0:0:0:0:
352,96,264639,1,8,0:0:0:0:
160,96,264710,1,8,0:0:0:0:
160,96,264782,1,0,0:0:0:0:
160,96,264853,1,0,0:0:0:0:
352,96,264924,1,8,0:0:0:0:
160,96,265067,1,0,0:0:0:0:
160,96,265210,1,0,0:0:0:0:
160,96,265281,1,0,0:0:0:0:
352,96,265352,1,8,0:0:0:0:
160,96,265495,1,0,0:0:0:0:
352,96,265566,1,8,0:0:0:0:
160,96,265637,1,0,0:0:0:0:
160,96,265780,1,0,0:0:0:0:
160,96,265851,1,0,0:0:0:0:
352,96,265923,1,8,0:0:0:0:
160,96,265994,1,0,0:0:0:0:
352,96,266065,1,8,0:0:0:0:
160,96,266208,1,0,0:0:0:0:
352,96,266351,1,8,0:0:0:0:
160,96,266493,1,0,0:0:0:0:
352,96,266636,1,8,0:0:0:0:
352,96,266707,1,8,0:0:0:0:
160,96,266779,1,0,0:0:0:0:
352,96,266921,1,8,0:0:0:0:
352,96,266993,1,8,0:0:0:0:
160,96,267064,1,0,0:0:0:0:
352,96,267136,1,0,0:0:0:0:
160,96,267207,1,8,0:0:0:0:
160,96,267278,1,8,0:0:0:0:
160,96,267349,1,0,0:0:0:0:
352,96,267492,1,8,0:0:0:0:
352,96,267563,1,8,0:0:0:0:
160,96,267635,1,0,0:0:0:0:
352,96,267777,1,8,0:0:0:0:
160,96,267920,1,0,0:0:0:0:
352,96,268063,1,8,0:0:0:0:
160,96,268134,1,0,0:0:0:0:
352,96,268205,1,8,0:0:0:0:
352,96,268277,1,8,0:0:0:0:
160,96,268348,1,0,0:0:0:0:
160,96,268491,1,0,0:0:0:0:
352,96,268633,1,8,0:0:0:0:
160,96,268776,1,0,0:0:0:0:
160,96,268918,1,0,0:0:0:0:
160,96,268990,1,0,0:0:0:0:
352,96,269061,1,8,0:0:0:0:
352,96,269132,1,8,0:0:0:0:
160,96,269204,1,0,0:0:0:0:
352,96,269346,1,8,0:0:0:0:
160,96,269489,1,0,0:0:0:0:
352,96,269632,1,8,0:0:0:0:
160,96,269774,1,0,0:0:0:0:
352,96,269846,1,8,0:0:0:0:
160,96,269917,1,0,0:0:0:0:
352,96,270060,1,8,0:0:0:0:
160,96,270202,1,0,0:0:0:0:
352,96,270274,1,0,0:0:0:0:
160,96,270345,1,8,0:0:0:0:
160,96,270417,1,8,0:0:0:0:
160,96,270488,1,0,0:0:0:0:
160,96,270559,1,0,0:0:0:0:
352,96,270630,1,8,0:0:0:0:
160,288,270773,1,4,0:0:0:0:
352,96,270916,1,8,0:0:0:0:
160,96,271058,1,0,0:0:0:0:
352,96,271201,1,8,0:0:0:0:
352,96,271272,1,8,0:0:0:0:
160,96,271344,1,0,0:0:0:0:
352,96,271486,1,8,0:0:0:0:
160,96,271558,1,0,0:0:0:0:
352,96,271629,1,8,0:0:0:0:
352,96,271700,1,8,0:0:0:0:
160,96,271772,1,0,0:0:0:0:
352,96,271843,1,8,0:0:0:0:
160,96,271914,1,0,0:0:0:0:
352,96,272057,1,8,0:0:0:0:
352,96,272128,1,8,0:0:0:0:
160,96,272200,1,0,0:0:0:0:
352,96,272342,1,8,0:0:0:0:
160,96,272485,1,0,0:0:0:0:
352,96,272628,1,8,0:0:0:0:
352,96,272699,1,8,0:0:0:0:
160,96,272770,1,0,0:0:0:0:
160,96,272842,1,0,0:0:0:0:
352,96,272913,1,8,0:0:0:0:
352,96,272984,1,8,0:0:0:0:
160,96,273056,1,0,0:0:0:0:
352,96,273198,1,8,0:0:0:0:
160,96,273341,1,0,0:0:0:0:
352,96,273484,1,8,0:0:0:0:
352,96,273555,1,8,0:0:0:0:
160,96,273626,1,0,0:0:0:0:
352,96,273769,1,8,0:0:0:0:
160,96,273912,1,0,0:0:0:0:
160,96,273983,1,0,0:0:0:0:
352,96,274054,1,8,0:0:0:0:
352,96,274126,1,8,0:0:0:0:
160,96,274197,1,0,0:0:0:0:
352,96,274340,1,8,0:0:0:0:
352,96,274411,1,8,0:0:0:0:
160,96,274482,1,0,0:0:0:0:
160,96,274625,1,0,0:0:0:0:
352,96,274696,1,8,0:0:0:0:
160,96,274767,1,0,0:0:0:0:
352,96,274910,1,8,0:0:0:0:
352,96,274981,1,8,0:0:0:0:
160,96,275053,1,0,0:0:0:0:
160,96,275124,1,0,0:0:0:0:
352,96,275195,1,8,0:0:0:0:
160,96,275338,1,0,0:0:0:0:
352,96,275481,1,8,0:0:0:0:
160,96,275623,1,0,0:0:0:0:
352,96,275766,1,8,0:0:0:0:
352,96,275837,1,8,0:0:0:0:
160,96,275909,1,0,0:0:0:0:
352,96,276051,1,8,0:0:0:0:
160,96,276123,1,0,0:0:0:0:
352,96,276194,1,8,0:0:0:0:
352,96,276265,1,8,0:0:0:0:
160,96,276337,1,0,0:0:0:0:
160,96,276479,1,0,0:0:0:0:
352,96,276622,1,8,0:0:0:0:
160,96,276693,1,0,0:0:0:0:
352,96,276765,1,8,0:0:0:0:
160,96,276907,1,0,0:0:0:0:
160,96,277050,1,0,0:0:0:0:
160,96,277121,1,0,0:0:0:0:
352,96,277192,1,8,0:0:0:0:
352,96,277264,1,8,0:0:0:0:
160,96,277334,1,0,0:0:0:0:
352,96,277478,1,8,0:0:0:0:
160,96,277621,1,0,0:0:0:0:
160,96,277692,1,0,0:0:0:0:
160,96,277763,1,0,0:0:0:0:
160,96,277835,1,0,0:0:0:0:
352,96,277906,1,8,0:0:0:0:
352,96,277977,1,8,0:0:0:0:
160,96,278049,1,0,0:0:0:0:
352,96,278120,1,8,0:0:0:0:
160,96,278191,1,0,0:0:0:0:
160,96,278263,1,0,0:0:0:0:
160,96,278334,1,0,0:0:0:0:
160,96,278405,1,0,0:0:0:0:
352,96,278477,1,8,0:0:0:0:
352,96,278548,1,8,0:0:0:0:
160,96,278619,1,0,0:0:0:0:
160,96,278691,1,0,0:0:0:0:
352,96,278762,1,8,0:0:0:0:
352,96,278809,1,8,0:0:0:0:
352,96,278857,1,8,0:0:0:0:
160,96,278904,1,0,0:0:0:0:
160,96,278952,1,0,0:0:0:0:
160,96,279000,1,0,0:0:0:0:
352,96,279047,1,8,0:0:0:0:
352,96,279118,1,8,0:0:0:0:
160,96,279190,1,0,0:0:0:0:
160,96,279261,1,0,0:0:0:0:
352,96,279332,1,8,0:0:0:0:
160,96,279380,1,0,0:0:0:0:
160,96,279428,1,0,0:0:0:0:
352,96,279475,1,8,0:0:0:0:
352,96,279546,1,8,0:0:0:0:
160,96,279618,1,0,0:0:0:0:
160,96,279665,1,0,0:0:0:0:
160,96,279713,1,0,0:0:0:0:
352,96,279760,1,8,0:0:0:0:
160,288,279903,1,4,0:0:0:0:
160,96,280046,1,0,0:0:0:0:
160,96,280117,1,0,0:0:0:0:
352,96,280188,1,8,0:0:0:0:
160,96,280331,1,0,0:0:0:0:
352,96,280402,1,8,0:0:0:0:
160,96,280474,1,0,0:0:0:0:
160,96,280616,1,0,0:0:0:0:
352,96,280759,1,8,0:0:0:0:
352,96,280830,1,8,0:0:0:0:
160,96,280902,1,0,0:0:0:0:
160,96,280973,1,0,0:0:0:0:
352,96,281044,1,8,0:0:0:0:
160,96,281187,1,0,0:0:0:0:
160,96,281258,1,0,0:0:0:0:
352,96,281330,1,8,0:0:0:0:
160,96,281472,1,0,0:0:0:0:
352,96,281615,1,8,0:0:0:0:
352,96,281686,1,8,0:0:0:0:
160,96,281758,1,0,0:0:0:0:
352,96,281900,1,8,0:0:0:0:
160,96,282043,1,0,0:0:0:0:
352,96,282114,1,8,0:0:0:0:
160,96,282186,1,0,0:0:0:0:
160,96,282328,1,0,0:0:0:0:
160,96,282400,1,0,0:0:0:0:
352,96,282471,1,8,0:0:0:0:
160,96,282613,1,0,0:0:0:0:
160,96,282685,1,0,0:0:0:0:
352,96,282756,1,8,0:0:0:0:
160,96,282827,1,0,0:0:0:0:
352,96,282899,1,8,0:0:0:0:
160,96,283041,1,0,0:0:0:0:
352,96,283184,1,8,0:0:0:0:
160,96,283327,1,0,0:0:0:0:
352,96,283469,1,8,0:0:0:0:
160,96,283541,1,0,0:0:0:0:
160,96,283612,1,0,0:0:0:0:
352,96,283755,1,8,0:0:0:0:
352,96,283826,1,8,0:0:0:0:
160,96,283897,1,0,0:0:0:0:
160,96,283969,1,0,0:0:0:0:
352,96,284040,1,8,0:0:0:0:
160,96,284183,1,0,0:0:0:0:
352,96,284325,1,8,0:0:0:0:
352,96,284397,1,8,0:0:0:0:
160,96,284468,1,0,0:0:0:0:
352,96,284611,1,8,0:0:0:0:
160,96,284682,1,0,0:0:0:0:
352,96,284753,1,8,0:0:0:0:
352,96,284825,1,8,0:0:0:0:
160,96,284896,1,0,0:0:0:0:
352,96,285039,1,8,0:0:0:0:
160,96,285181,1,0,0:0:0:0:
160,96,285253,1,0,0:0:0:0:
352,96,285324,1,8,0:0:0:0:
160,96,285467,1,0,0:0:0:0:
352,96,285609,1,8,0:0:0:0:
352,96,285681,1,8,0:0:0:0:
160,96,285752,1,0,0:0:0:0:
352,96,285895,1,8,0:0:0:0:
160,96,285966,1,0,0:0:0:0:
160,96,286037,1,0,0:0:0:0:
160,96,286108,1,0,0:0:0:0:
352,96,286180,1,8,0:0:0:0:
160,96,286322,1,0,0:0:0:0:
352,96,286465,1,8,0:0:0:0:
160,96,286536,1,0,0:0:0:0:
160,96,286608,1,0,0:0:0:0:
352,96,286750,1,8,0:0:0:0:
160,96,286893,1,0,0:0:0:0:
352,96,286964,1,8,0:0:0:0:
160,96,287036,1,0,0:0:0:0:
160,96,287178,1,0,0:0:0:0:
160,96,287250,1,0,0:0:0:0:
352,96,287321,1,8,0:0:0:0:
160,96,287464,1,0,0:0:0:0:
352,96,287606,1,8,0:0:0:0:
352,96,287678,1,8,0:0:0:0:
160,96,287749,1,0,0:0:0:0:
160,96,287820,1,0,0:0:0:0:
352,96,287892,1,8,0:0:0:0:
160,96,288034,1,0,0:0:0:0:
160,96,288106,1,0,0:0:0:0:
352,96,288177,1,8,0:0:0:0:
160,96,288320,1,0,0:0:0:0:
160,96,288462,1,0,0:0:0:0:
160,96,288534,1,0,0:0:0:0:
160,96,288605,1,0,0:0:0:0:
160,96,288676,1,0,0:0:0:0:
352,96,288748,1,8,0:0:0:0:
352,96,288890,1,8,0:0:0:0:
160,288,289033,1,4,0:0:0:0:
160,96,289176,1,0,0:0:0:0:
160,96,289247,1,0,0:0:0:0:
352,96,289318,1,8,0:0:0:0:
160,96,289461,1,0,0:0:0:0:
352,96,289532,1,8,0:0:0:0:
160,96,289603,1,0,0:0:0:0:
160,96,289746,1,0,0:0:0:0:
352,96,289889,1,8,0:0:0:0:
352,96,289960,1,8,0:0:0:0:
160,96,290031,1,0,0:0:0:0:
160,96,290103,1,0,0:0:0:0:
352,96,290174,1,8,0:0:0:0:
160,96,290317,1,0,0:0:0:0:
160,96,290388,1,0,0:0:0:0:
352,96,290459,1,8,0:0:0:0:
160,96,290602,1,0,0:0:0:0:
352,96,290745,1,8,0:0:0:0:
160,96,290816,1,0,0:0:0:0:
160,96,290887,1,0,0:0:0:0:
160,96,290959,1,0,0:0:0:0:
352,96,291030,1,8,0:0:0:0:
160,96,291173,1,0,0:0:0:0:
160,96,291244,1,0,0:0:0:0:
352,96,291315,1,8,0:0:0:0:
160,96,291458,1,0,0:0:0:0:
352,96,291601,1,8,0:0:0:0:
160,96,291672,1,0,0:0:0:0:
160,96,291743,1,0,0:0:0:0:
352,96,291886,1,8,0:0:0:0:
352,96,291957,1,0,0:0:0:0:
352,96,292029,1,8,0:0:0:0:
352,96,292100,1,8,0:0:0:0:
160,96,292171,1,0,0:0:0:0:
352,96,292314,1,8,0:0:0:0:
160,96,292457,1,0,0:0:0:0:
352,96,292599,1,8,0:0:0:0:
160,96,292671,1,0,0:0:0:0:
160,96,292742,1,0,0:0:0:0:
160,96,292813,1,0,0:0:0:0:
352,96,292885,1,8,0:0:0:0:
160,96,293027,1,0,0:0:0:0:
160,96,293170,1,0,0:0:0:0:
160,96,293241,1,0,0:0:0:0:
352,96,293312,1,8,0:0:0:0:
352,96,293455,1,8,0:0:0:0:
160,96,293598,1,0,0:0:0:0:
160,96,293740,1,0,0:0:0:0:
160,96,293812,1,0,0:0:0:0:
352,96,293883,1,8,0:0:0:0:
160,96,294026,1,0,0:0:0:0:
352,96,294168,1,8,0:0:0:0:
352,96,294240,1,8,0:0:0:0:
160,96,294311,1,0,0:0:0:0:
160,96,294382,1,0,0:0:0:0:
352,96,294454,1,8,0:0:0:0:
160,96,294596,1,0,0:0:0:0:
160,96,294739,1,0,0:0:0:0:
160,96,294882,1,0,0:0:0:0:
160,96,294953,1,0,0:0:0:0:
352,96,295024,1,8,0:0:0:0:
160,96,295167,1,0,0:0:0:0:
352,96,295310,1,8,0:0:0:0:
352,96,295381,1,8,0:0:0:0:
160,96,295452,1,0,0:0:0:0:
160,96,295524,1,0,0:0:0:0:
352,96,295595,1,8,0:0:0:0:
160,96,295738,1,0,0:0:0:0:
160,96,295880,1,0,0:0:0:0:
160,96,295952,1,0,0:0:0:0:
160,96,296023,1,0,0:0:0:0:
160,96,296094,1,0,0:0:0:0:
352,96,296166,1,8,0:0:0:0:
352,96,296237,1,8,0:0:0:0:
160,96,296308,1,0,0:0:0:0:
352,96,296380,1,8,0:0:0:0:
160,96,296451,1,0,0:0:0:0:
160,96,296522,1,0,0:0:0:0:
160,96,296594,1,0,0:0:0:0:
160,96,296665,1,0,0:0:0:0:
352,96,296736,1,8,0:0:0:0:
352,96,296807,1,8,0:0:0:0:
160,96,296879,1,0,0:0:0:0:
160,96,296950,1,0,0:0:0:0:
352,96,297021,1,8,0:0:0:0:
352,96,297069,1,8,0:0:0:0:
352,96,297117,1,8,0:0:0:0:
160,96,297164,1,0,0:0:0:0:
160,96,297235,1,0,0:0:0:0:
352,96,297307,1,8,0:0:0:0:
352,96,297354,1,8,0:0:0:0:
352,96,297402,1,8,0:0:0:0:
160,96,297449,1,0,0:0:0:0:
160,96,297521,1,0,0:0:0:0:
352,96,297592,1,8,0:0:0:0:
160,96,297640,1,0,0:0:0:0:
160,96,297687,1,0,0:0:0:0:
352,96,297735,1,8,0:0:0:0:
160,96,297806,1,0,0:0:0:0:
352,96,297877,1,8,0:0:0:0:
352,96,297925,1,8,0:0:0:0:
352,96,297972,1,8,0:0:0:0:
160,96,298020,1,0,0:0:0:0:
160,288,298163,1,4,0:0:0:0:
160,96,298305,1,0,0:0:0:0:
160,96,298377,1,0,0:0:0:0:
352,96,298448,1,8,0:0:0:0:
352,96,298519,1,8,0:0:0:0:
160,96,298591,1,0,0:0:0:0:
352,96,298662,1,8,0:0:0:0:
160,96,298733,1,0,0:0:0:0:
160,96,298876,1,0,0:0:0:0:
352,96,299019,1,8,0:0:0:0:
352,96,299090,1,8,0:0:0:0:
160,96,299161,1,0,0:0:0:0:
160,96,299233,1,0,0:0:0:0:
352,96,299304,1,8,0:0:0:0:
160,96,299447,1,0,0:0:0:0:
160,96,299518,1,0,0:0:0:0:
352,96,299589,1,8,0:0:0:0:
160,96,299732,1,0,0:0:0:0:
352,96,299875,1,8,0:0:0:0:
352,96,299946,1,8,0:0:0:0:
160,96,300017,1,0,0:0:0:0:
352,96,300160,1,8,0:0:0:0:
160,96,300302,1,0,0:0:0:0:
352,96,300374,1,8,0:0:0:0:
160,96,300445,1,0,0:0:0:0:
160,96,300588,1,0,0:0:0:0:
160,96,300659,1,0,0:0:0:0:
352,96,300730,1,8,0:0:0:0:
160,96,300873,1,0,0:0:0:0:
160,96,300944,1,0,0:0:0:0:
352,96,301016,1,8,0:0:0:0:
160,96,301087,1,0,0:0:0:0:
352,96,301158,1,8,0:0:0:0:
160,96,301301,1,0,0:0:0:0:
352,96,301444,1,8,0:0:0:0:
160,96,301586,1,0,0:0:0:0:
352,96,301729,1,8,0:0:0:0:
160,96,301800,1,0,0:0:0:0:
160,96,301872,1,0,0:0:0:0:
160,96,302014,1,0,0:0:0:0:
352,96,302157,1,8,0:0:0:0:
160,96,302228,1,0,0:0:0:0:
160,96,302300,1,0,0:0:0:0:
160,96,302371,1,0,0:0:0:0:
352,96,302442,1,8,0:0:0:0:
352,96,302585,1,8,0:0:0:0:
160,96,302728,1,0,0:0:0:0:
160,96,302870,1,0,0:0:0:0:
160,96,302942,1,0,0:0:0:0:
352,96,303013,1,8,0:0:0:0:
352,96,303084,1,8,0:0:0:0:
160,96,303156,1,0,0:0:0:0:
352,96,303298,1,8,0:0:0:0:
160,96,303441,1,0,0:0:0:0:
160,96,303512,1,0,0:0:0:0:
352,96,303584,1,8,0:0:0:0:
160,96,303726,1,0,0:0:0:0:
352,96,303869,1,8,0:0:0:0:
352,96,303940,1,8,0:0:0:0:
160,96,304011,1,0,0:0:0:0:
352,96,304154,1,8,0:0:0:0:
160,96,304225,1,0,0:0:0:0:
160,96,304297,1,0,0:0:0:0:
160,96,304368,1,0,0:0:0:0:
352,96,304439,1,8,0:0:0:0:
160,96,304582,1,0,0:0:0:0:
352,96,304725,1,8,0:0:0:0:
352,96,304796,1,8,0:0:0:0:
160,96,304867,1,0,0:0:0:0:
160,96,304939,1,0,0:0:0:0:
352,96,305010,1,8,0:0:0:0:
160,96,305153,1,0,0:0:0:0:
160,96,305295,1,0,0:0:0:0:
352,96,305367,1,8,0:0:0:0:
160,96,305438,1,0,0:0:0:0:
160,96,305509,1,0,0:0:0:0:
352,96,305581,1,8,0:0:0:0:
160,96,305723,1,0,0:0:0:0:
352,96,305866,1,8,0:0:0:0:
352,96,305937,1,8,0:0:0:0:
160,96,306009,1,0,0:0:0:0:
160,96,306080,1,0,0:0:0:0:
352,96,306151,1,8,0:0:0:0:
160,96,306294,1,0,0:0:0:0:
160,96,306365,1,0,0:0:0:0:
352,96,306437,1,8,0:0:0:0:
160,96,306579,1,0,0:0:0:0:
160,96,306722,1,0,0:0:0:0:
352,96,306793,1,8,0:0:0:0:
160,96,306865,1,0,0:0:0:0:
160,96,306936,1,0,0:0:0:0:
352,96,307007,1,8,0:0:0:0:
352,96,307150,1,8,0:0:0:0:
160,288,307293,1,4,0:0:0:0:
160,96,307435,1,0,0:0:0:0:
160,96,307506,1,0,0:0:0:0:
352,96,307578,1,8,0:0:0:0:
160,96,307720,1,0,0:0:0:0:
352,96,307792,1,8,0:0:0:0:
160,96,307863,1,0,0:0:0:0:
160,96,308006,1,0,0:0:0:0:
352,96,308148,1,8,0:0:0:0:
352,96,308220,1,8,0:0:0:0:
160,96,308291,1,0,0:0:0:0:
160,96,308362,1,0,0:0:0:0:
352,96,308434,1,8,0:0:0:0:
160,96,308576,1,0,0:0:0:0:
160,96,308648,1,0,0:0:0:0:
352,96,308719,1,8,0:0:0:0:
160,96,308862,1,0,0:0:0:0:
352,96,309004,1,8,0:0:0:0:
160,96,309076,1,0,0:0:0:0:
160,96,309147,1,0,0:0:0:0:
160,96,309218,1,0,0:0:0:0:
352,96,309290,1,8,0:0:0:0:
160,96,309432,1,0,0:0:0:0:
160,96,309504,1,0,0:0:0:0:
352,96,309575,1,8,0:0:0:0:
160,96,309718,1,0,0:0:0:0:
352,96,309860,1,8,0:0:0:0:
160,96,309932,1,0,0:0:0:0:
160,96,310003,1,0,0:0:0:0:
160,96,310074,1,0,0:0:0:0:
352,96,310146,1,8,0:0:0:0:
160,96,310288,1,0,0:0:0:0:
352,96,310360,1,8,0:0:0:0:
160,96,310431,1,0,0:0:0:0:
160,96,310502,1,0,0:0:0:0:
352,96,310574,1,8,0:0:0:0:
160,96,310716,1,0,0:0:0:0:
352,96,310859,1,8,0:0:0:0:
160,96,310930,1,0,0:0:0:0:
160,96,311002,1,0,0:0:0:0:
160,96,311144,1,0,0:0:0:0:
352,96,311287,1,8,0:0:0:0:
352,96,311358,1,8,0:0:0:0:
160,96,311429,1,0,0:0:0:0:
160,96,311501,1,0,0:0:0:0:
352,96,311572,1,8,0:0:0:0:
352,96,311715,1,8,0:0:0:0:
160,96,311857,1,0,0:0:0:0:
160,96,312000,1,0,0:0:0:0:
160,96,312071,1,0,0:0:0:0:
352,96,312143,1,8,0:0:0:0:
160,96,312285,1,0,0:0:0:0:
352,96,312428,1,8,0:0:0:0:
352,96,312499,1,8,0:0:0:0:
160,96,312571,1,0,0:0:0:0:
160,96,312642,1,0,0:0:0:0:
352,96,312713,1,8,0:0:0:0:
160,96,312856,1,0,0:0:0:0:
160,96,312999,1,0,0:0:0:0:
160,96,313141,1,0,0:0:0:0:
160,96,313213,1,0,0:0:0:0:
352,96,313284,1,8,0:0:0:0:
160,96,313427,1,0,0:0:0:0:
352,96,313569,1,8,0:0:0:0:
352,96,313641,1,8,0:0:0:0:
160,96,313712,1,0,0:0:0:0:
160,96,313783,1,0,0:0:0:0:
352,96,313855,1,8,0:0:0:0:
160,96,313997,1,0,0:0:0:0:
160,96,314140,1,0,0:0:0:0:
160,96,314211,1,0,0:0:0:0:
160,96,314283,1,0,0:0:0:0:
160,96,314354,1,0,0:0:0:0:
352,96,314425,1,8,0:0:0:0:
352,96,314497,1,8,0:0:0:0:
160,96,314568,1,0,0:0:0:0:
352,96,314639,1,8,0:0:0:0:
160,96,314710,1,0,0:0:0:0:
160,96,314782,1,0,0:0:0:0:
160,96,314853,1,0,0:0:0:0:
160,96,314924,1,0,0:0:0:0:
352,96,314996,1,8,0:0:0:0:
352,96,315067,1,8,0:0:0:0:
160,96,315138,1,0,0:0:0:0:
160,96,315210,1,0,0:0:0:0:
352,96,315281,1,8,0:0:0:0:
160,96,315329,1,0,0:0:0:0:
160,96,315376,1,0,0:0:0:0:
352,96,315424,1,8,0:0:0:0:
160,96,315495,1,0,0:0:0:0:
352,96,315566,1,8,0:0:0:0:
352,96,315614,1,8,0:0:0:0:
352,96,315662,1,8,0:0:0:0:
160,96,315709,1,0,0:0:0:0:
160,96,315780,1,0,0:0:0:0:
352,96,315852,1,8,0:0:0:0:
160,96,315899,1,0,0:0:0:0:
160,96,315947,1,0,0:0:0:0:
352,96,315994,1,8,0:0:0:0:
160,96,316066,1,0,0:0:0:0:
352,96,316137,1,8,0:0:0:0:
352,96,316185,1,8,0:0:0:0:
352,96,316232,1,8,0:0:0:0:
160,96,316280,1,0,0:0:0:0:
160,288,316422,1,4,0:0:0:0:
