osu file format v14

[General]
AudioFilename: audio.mp3
AudioLeadIn: 0
PreviewTime: -1
Countdown: 1
SampleSet: None
StackLeniency: 0.7
Mode: 0
LetterboxInBreaks: 0
WidescreenStoryboard: 0

[Editor]
DistanceSpacing: 1
BeatDivisor: 4
GridSize: 16
TimelineZoom: 1

[Metadata]
Title:Exciting Hyper Highspeed Star
TitleUnicode:Exciting Hyper Highspeed Star
Artist:DJ Sharpnel
ArtistUnicode:DJ Sharpnel
Creator:kingdom5500
Version:Hyperspeed
Source:
Tags:
BeatmapID:1236466
BeatmapSetID:584467

[Difficulty]
HPDrainRate:7.2
CircleSize:4.2
OverallDifficulty:7.6
ApproachRate:9.2
SliderMultiplier:1.6
SliderTickRate:1

[Events]
//Background and Video events
0,0,"anime-computer-wallpapers-23.jpg",0,0
//Break Periods
//Storyboard Layer 0 (Background)
//Storyboard Layer 1 (Fail)
//Storyboard Layer 2 (Pass)
//Storyboard Layer 3 (Foreground)
//Storyboard Sound Samples

[TimingPoints]
295,333.055786844296,4,1,0,100,1,0
61577,-100,4,1,0,100,0,1
81560,-100,4,1,0,100,0,0

[HitObjects]
293,253,295,6,0,P|253:249|213:253,1,80
73,305,628,2,0,P|113:309|153:305,1,80
293,253,961,2,0,P|253:245|213:253,1,80
73,305,1294,2,0,P|113:313|153:305,1,80
292,252,1627,6,0,P|255:241|216:250,1,80
73,305,1960,2,0,P|113:317|153:305,1,80
293,253,2293,2,0,P|253:237|213:253,1,80
73,305,2626,2,0,P|113:321|153:305,1,80
240,166,2959,6,0,L|223:87,1,80
209,17,3292,1,4,2:0:0:0:
362,235,3625,2,0,L|381:143,1,80
393,86,3958,1,4,2:0:0:0:
146,310,4291,2,0,L|127:218,1,80
115,161,4624,1,4,2:0:0:0:
372,293,4957,1,0,0:0:0:0:
392,176,5124,5,0,0:0:0:0:
512,198,5290,1,0,0:0:0:0:
492,315,5457,1,0,0:0:0:0:
372,293,5623,5,0,0:0:0:0:
335,276,5706,1,0,0:0:0:0:
296,276,5789,1,0,0:0:0:0:
259,292,5872,1,0,0:0:0:0:
233,321,5956,2,0,L|241:375,2,40
175,252,6206,2,0,L|183:197,2,40
228,139,6456,6,0,L|221:99,1,40
337,207,6623,2,0,L|343:167,1,40
258,289,6789,2,0,L|251:249,1,40
228,139,6956,6,0,P|177:124|129:145,1,80
116,148,7205,2,0,L|132:244,1,80
112,263,7455,2,0,B|68:259|68:259|11:274,1,80
41,150,7705,2,0,L|52:206,1,40
143,109,7872,2,0,L|87:98,2,40
213,124,8121,6,0,L|223:220,2,80
251,110,8538,2,0,B|293:97|293:97|366:111,1,80
342,213,8787,2,0,L|353:162,1,40
287,274,8954,1,0,0:0:0:0:
256,249,9037,1,0,0:0:0:0:
217,239,9120,1,0,0:0:0:0:
178,247,9203,1,0,0:0:0:0:
146,270,9287,1,12,0:0:0:0:
147,230,9370,1,0,0:0:0:0:
135,191,9454,6,0,P|97:212|39:213,2,80
164,164,9870,2,0,P|221:148|259:156,1,80
277,168,10120,1,0,0:0:0:0:
329,272,10286,2,0,B|370:275,2,40
417,181,10536,2,0,L|427:238,2,40,12|0|0,0:0|0:0|0:0,0:0:0:0:
468,104,10786,1,0,0:0:0:0:
418,21,10952,5,0,0:0:0:0:
381,37,11035,1,0,0:0:0:0:
342,42,11118,1,0,0:0:0:0:
302,35,11201,1,0,0:0:0:0:
267,16,11285,2,0,L|259:79,2,40
211,116,11535,2,0,L|219:178,2,40
152,232,11785,6,0,L|88:244,1,40
247,307,11951,2,0,L|183:295,1,40
351,358,12118,2,0,L|287:370,1,40
394,290,12285,6,0,P|378:240|388:192,1,80
407,184,12534,2,0,L|490:171,1,80
510,139,12784,2,0,B|497:99|497:99|500:56,1,80
388,61,13034,2,0,L|449:68,1,40
291,119,13200,2,0,L|352:112,2,40
202,165,13450,6,0,P|218:214|210:268,2,80
165,147,13867,2,0,L|48:165,1,80
76,51,14116,2,0,L|64:120,1,40
144,25,14283,1,0,0:0:0:0:
172,53,14366,1,0,0:0:0:0:
208,68,14449,1,0,0:0:0:0:
248,67,14532,1,0,0:0:0:0:
284,52,14616,1,12,0:0:0:0:
277,91,14699,1,0,0:0:0:0:
279,130,14782,6,0,L|366:145,2,80
247,155,15199,2,0,B|252:202|252:202|231:264,1,80
203,246,15449,2,0,P|153:225|98:234,1,80
377,261,15948,5,12,0:0:0:0:
134,351,16281,5,0,0:0:0:0:
94,347,16364,1,0,0:0:0:0:
58,331,16447,1,0,0:0:0:0:
29,303,16530,1,0,0:0:0:0:
12,267,16614,2,0,L|65:255,2,40
121,192,16864,2,0,L|173:204,2,40
227,144,17114,6,0,L|279:131,1,40
389,142,17280,2,0,L|336:154,1,40
188,134,17447,2,0,L|240:146,1,40
424,161,17613,6,0,P|406:209|423:260,1,80
414,276,17863,2,0,L|316:265,1,80
303,293,18113,2,0,B|264:312|264:312|191:315,1,80
235,201,18363,2,0,L|223:256,1,40
190,138,18529,2,0,L|178:83,2,40
251,66,18779,6,0,L|359:77,2,80
220,91,19195,2,0,P|170:114|124:93,1,80
115,209,19445,2,0,L|103:157,1,40
165,273,19612,1,0,0:0:0:0:
204,277,19695,1,0,0:0:0:0:
238,298,19778,1,0,0:0:0:0:
259,332,19861,1,0,0:0:0:0:
263,371,19945,1,12,0:0:0:0:
289,341,20028,1,0,0:0:0:0:
325,326,20111,6,0,P|356:343|411:355,2,80
311,279,20528,2,0,L|324:186,1,80
301,158,20777,2,0,B|255:166|255:166|187:149,1,80
198,49,21027,2,0,L|189:110,2,40
235,234,21277,2,0,L|244:295,2,40,12|0|0,0:0|0:0|0:0,0:0:0:0:
113,140,21610,5,0,0:0:0:0:
103,178,21693,1,0,0:0:0:0:
79,209,21776,1,0,0:0:0:0:
44,228,21859,1,0,0:0:0:0:
4,230,21943,2,0,L|-9:282,2,40
127,273,22193,2,0,L|140:324,2,40
190,98,22443,6,0,L|176:149,1,40
244,256,22609,2,0,L|230:204,1,40
323,134,22776,2,0,L|309:185,1,40
278,337,22942,6,0,P|212:315|171:333,1,80
167,333,23192,2,0,L|174:245,1,80
134,241,23442,2,0,B|95:226|95:226|46:239,1,80
57,124,23692,2,0,L|47:188,2,40
129,63,23941,2,0,L|139:127,1,40
163,231,24108,6,0,P|100:220|66:239,2,80
198,211,24524,2,0,L|188:113,1,80
224,110,24774,2,0,B|268:119|268:119|305:111,1,80
373,141,25024,1,0,0:0:0:0:
370,180,25107,1,0,0:0:0:0:
385,217,25190,1,0,0:0:0:0:
414,242,25273,1,12,0:0:0:0:
398,280,25357,1,0,0:0:0:0:
361,296,25440,6,0,P|371:349|351:390,2,80
327,274,25857,2,0,L|231:299,1,80
223,263,26106,2,0,B|212:219|212:219|233:161,1,80
130,351,26606,5,12,0:0:0:0:
159,114,26939,6,0,L|147:224,1,80
301,229,27272,2,0,P|236:219|194:236,1,80
16,239,27605,2,0,P|81:249|123:232,1,80
301,229,27938,2,0,L|313:119,1,80
445,63,28438,6,0,P|385:67|338:46,1,80
293,103,28771,2,0,P|233:99|186:120,1,80
146,59,29104,2,0,P|86:63|39:42,2,80
105,266,29770,6,0,L|120:359,1,80
219,198,30103,2,0,L|185:286,1,80
354,202,30436,2,0,L|280:261,2,80
481,257,30936,6,0,L|388:272,1,80
146,197,31269,2,0,L|239:212,1,80
402,269,31602,2,0,L|309:254,1,80
67,209,31935,2,0,L|160:194,1,80
255,209,32268,6,0,P|245:147|259:104,2,80
294,294,32767,2,0,P|371:275|398:364,1,160
418,221,33267,2,0,P|426:182|413:145,1,80
164,50,33767,6,0,P|201:37|240:46,2,80
33,101,34266,2,0,P|71:110|109:97,1,80
44,234,34599,2,0,P|33:196|4:169,1,80
154,158,34932,2,0,P|127:186|119:225,1,80
260,328,35432,6,0,P|200:236|344:268,1,320
272,255,36265,6,0,L|294:356,1,80
414,178,36598,2,0,L|392:279,1,80
348,123,36931,2,0,L|361:60,3,40
277,205,37264,2,0,L|264:142,3,40
349,281,37597,6,0,P|304:307|259:309,1,80
109,254,37930,2,0,P|154:228|199:226,1,80
292,126,38263,2,0,L|277:205,1,80
402,223,38596,2,0,L|417:301,1,80
39,159,39095,6,0,P|72:137|111:129,2,80
108,223,39595,2,0,P|152:251|198:251,1,80
178,161,39928,2,0,L|193:82,2,80
304,246,40428,6,0,P|271:224|232:217,2,80
337,105,40927,2,0,L|352:183,1,80
441,151,41260,2,0,L|425:229,1,80
358,275,41593,6,0,P|318:267|285:245,1,80
153,260,41926,2,0,P|192:267|225:289,1,80
358,275,42260,2,0,P|349:313|326:346,1,80
153,260,42593,2,0,P|161:221|184:188,1,80
241,64,42926,6,0,L|256:143,2,80
277,266,43425,2,0,P|337:233|324:144,1,160
412,249,43925,2,0,P|431:285|437:354,1,80
38,181,44424,6,0,L|73:281,1,80
153,110,44757,2,0,L|127:186,1,80
289,131,45091,2,0,L|221:174,2,80
374,229,45590,2,0,L|294:221,1,80
235,285,46090,6,0,B|173:283|144:225|144:225|87:275|27:240|27:240|40:158|111:145|111:145|136:94|108:38,1,480
222,103,47255,6,0,L|238:206,1,80
312,153,47588,2,0,L|296:256,1,80
373,227,47921,2,0,L|389:330,1,80
457,253,48255,6,0,P|484:211|411:111,1,160
391,58,48754,2,0,P|362:129|408:191,2,160
331,226,49920,6,0,L|309:396,2,160
122,264,50919,2,0,P|184:308|256:279,1,160
192,223,51419,2,0,P|130:179|58:209,2,160
235,120,52584,6,0,L|255:278,2,160
320,151,53583,2,0,B|397:176|397:176|484:155,1,160
349,235,54083,2,0,B|270:210|270:210|196:242,2,160
177,171,55249,6,0,P|132:108|162:37,2,160
82,23,56290,5,8,3:0:0:0:
92,137,57414,2,0,L|77:234,1,80,0|0,3:0|3:0,3:0:0:0:
189,212,57955,2,0,L|204:309,1,80,0|0,3:0|3:0,3:0:0:0:
391,63,58454,2,0,L|404:143,1,80,0|0,3:0|3:0,3:0:0:0:
314,159,58787,2,0,L|302:239,1,80,0|8,3:0|3:0,3:0:0:0:
136,313,59953,6,0,L|148:233,1,80,0|0,3:0|3:0,3:0:0:0:
248,141,60619,2,0,L|260:220,1,80,0|0,3:0|3:0,3:0:0:0:
201,56,61077,5,0,0:0:0:0:
154,162,61244,1,0,0:0:0:0:
144,0,61410,1,0,0:0:0:0:
217,212,61577,6,0,P|245:259|348:241,1,160
234,336,62076,1,0,0:0:0:0:
288,200,62243,6,0,B|346:146|346:146|361:61,2,160
434,117,63076,1,0,0:0:0:0:
376,240,63242,2,0,L|393:338,1,80
216,156,63575,2,0,L|207:208,2,40
133,59,63908,2,0,L|150:157,1,80
180,269,64241,6,0,P|231:243|306:332,1,160
512,284,64907,2,0,P|461:310|386:221,1,160
430,65,65573,2,0,L|413:163,1,80
318,111,65906,2,0,L|335:209,1,80
236,198,66240,2,0,L|272:264,2,40
130,235,66573,2,0,L|189:287,1,80
324,129,66906,6,0,B|255:83|255:83|173:103,1,160
21,201,67572,2,0,B|85:158|85:158|165:177,1,160
389,181,68238,2,0,P|358:204|319:212,1,80
176,288,68571,2,0,P|207:264|246:257,1,80
391,272,68904,1,0,0:0:0:0:
298,315,69071,1,0,0:0:0:0:
277,153,69237,1,0,0:0:0:0:
110,196,69404,6,0,B|154:171|208:176|208:176|153:171|127:112|127:112|182:88|230:99|230:99|218:55|246:-7|246:-7|296:23|313:68|313:68|346:26,1,560
281,134,70902,2,0,P|345:134|384:48,1,160
312,67,71402,2,0,P|248:67|209:153,1,160
281,134,71901,1,0,0:0:0:0:
252,199,72068,1,0,0:0:0:0:
175,211,72235,6,0,B|119:202|80:235|80:235|111:208|104:153,1,160
312,258,72901,2,0,B|311:227|336:206|336:206|297:239|243:230,1,160
393,154,73567,2,0,L|372:68,1,80
482,186,73900,2,0,L|461:100,1,80
418,232,74233,2,0,L|372:218,2,40
349,292,74566,2,0,L|263:271,1,80
230,208,74899,6,0,B|223:163|223:163|238:122|238:122|215:80|236:38,1,160
157,185,75565,2,0,B|164:230|164:230|149:271|149:271|172:313|151:355,1,160
226,270,76231,1,0,0:0:0:0:
88,221,76397,1,0,0:0:0:0:
296,167,76564,1,0,0:0:0:0:
161,118,76730,1,0,0:0:0:0:
366,65,76897,1,0,0:0:0:0:
146,319,77230,1,0,0:0:0:0:
228,230,77563,6,0,B|265:253|311:232|311:232|348:257|388:248,1,160
271,163,78230,2,0,B|234:140|188:161|188:161|151:136|111:145,1,160
401,116,78896,6,0,B|425:176|392:235|392:235|425:272|425:272|408:300|405:337|405:337|469:346|495:302,2,320
189,96,82393,5,0,0:0:0:0:
65,122,82559,1,0,0:0:0:0:
96,250,82726,1,0,0:0:0:0:
224,223,82892,5,0,0:0:0:0:
261,209,82975,1,0,0:0:0:0:
300,212,83058,1,0,0:0:0:0:
335,232,83141,1,0,0:0:0:0:
365,259,83225,6,0,L|356:307,2,40
417,150,83475,2,0,L|426:198,2,40
352,95,83725,2,0,L|304:86,1,40
310,171,83892,2,0,L|262:180,1,40
272,255,84058,2,0,L|224:246,1,40
176,297,84225,6,0,P|126:310|88:302,1,80
74,273,84474,2,0,L|101:181,1,80
76,161,84724,2,0,P|90:112|78:75,1,80
166,99,84974,2,0,L|217:83,1,40
263,141,85140,2,0,P|290:177|332:198,1,80
337,108,85390,6,0,P|390:124|438:103,2,80
300,125,85807,2,0,L|312:224,1,80
208,231,86056,2,0,L|247:241,1,40
147,199,86223,1,0,0:0:0:0:
133,173,86306,1,0,0:0:0:0:
128,133,86389,1,0,0:0:0:0:
140,95,86473,1,0,0:0:0:0:
162,63,86556,1,12,0:0:0:0:
126,66,86639,1,0,0:0:0:0:
87,76,86722,6,0,P|37:76|1:59,2,80
120,98,87139,2,0,L|106:191,1,80
137,205,87389,2,0,P|194:198|233:211,1,80
273,294,87638,2,0,L|262:239,2,40
330,166,87888,2,0,L|319:221,2,40,12|0|0,0:0|0:0|0:0,0:0:0:0:
293,101,88221,5,0,0:0:0:0:
254,112,88304,1,0,0:0:0:0:
214,111,88387,1,0,0:0:0:0:
177,98,88470,1,0,0:0:0:0:
148,70,88554,2,0,L|160:141,2,40
79,132,88804,2,0,L|67:202,2,40
150,184,89054,6,0,L|189:177,1,40
334,212,89220,2,0,L|294:205,1,40
175,254,89387,2,0,L|214:247,1,40
308,285,89553,6,0,P|357:286|406:245,1,80
413,245,89803,2,0,L|390:148,1,80
397,126,90053,2,0,B|443:139|443:139|504:137,1,80
432,20,90303,2,0,L|447:70,1,40
328,44,90469,2,0,L|343:94,2,40
229,65,90719,6,0,L|223:155,2,80
192,80,91135,2,0,P|142:99|90:88,1,80
117,209,91385,2,0,L|124:170,1,40
168,274,91552,1,0,0:0:0:0:
206,264,91635,1,0,0:0:0:0:
244,274,91718,1,0,0:0:0:0:
273,302,91801,1,0,0:0:0:0:
285,339,91885,1,12,0:0:0:0:
299,302,91968,1,0,0:0:0:0:
327,273,92051,6,0,P|377:287|428:279,2,80
299,243,92468,2,0,L|320:158,1,80
328,126,92717,2,0,L|232:163,1,80
76,210,93217,5,12,0:0:0:0:
181,56,93550,5,0,0:0:0:0:
218,68,93633,1,0,0:0:0:0:
258,68,93716,1,0,0:0:0:0:
296,55,93799,1,0,0:0:0:0:
328,31,93883,6,0,L|342:96,2,40
292,140,94133,2,0,L|278:205,2,40
388,202,94383,6,0,L|348:210,1,40
186,251,94549,2,0,L|225:259,1,40
283,179,94716,2,0,L|243:187,1,40
100,219,94882,6,0,P|121:146|105:110,1,80
143,111,95132,2,0,L|230:129,1,80
250,98,95382,2,0,P|294:120|348:111,1,80
369,211,95632,2,0,L|387:150,1,40
329,311,95798,2,0,L|311:250,2,40
264,353,96048,6,0,P|207:328|161:331,2,80
297,331,96464,2,0,L|275:244,1,80
269,213,96714,2,0,P|331:219|366:201,1,80
415,167,96964,1,0,0:0:0:0:
385,140,97047,1,0,0:0:0:0:
346,131,97130,1,0,0:0:0:0:
309,137,97213,1,12,0:0:0:0:
288,104,97297,1,0,0:0:0:0:
260,79,97380,6,0,P|202:56|162:60,2,80
274,116,97797,2,0,L|249:224,1,80
276,228,98046,2,0,P|323:224|366:245,1,80
399,335,98296,2,0,L|394:295,2,40
427,186,98629,2,0,L|422:225,2,40,12|0|0,0:0|0:0|0:0,0:0:0:0:
382,46,98879,1,0,0:0:0:0:
345,60,98962,1,0,0:0:0:0:
305,62,99045,1,0,0:0:0:0:
267,49,99128,1,0,0:0:0:0:
236,24,99212,6,0,L|239:82,2,40
301,134,99462,2,0,L|298:192,2,40
203,223,99712,2,0,L|242:220,1,40
184,137,99878,2,0,L|223:145,1,40
216,60,100045,2,0,L|251:78,1,40
376,130,100211,6,0,P|367:172|384:229,1,80
389,245,100461,2,0,P|325:240|296:262,1,80
282,272,100711,2,0,L|319:357,1,80
234,332,100961,2,0,L|195:325,2,40
136,275,101210,2,0,L|84:285,2,40
273,250,101543,6,0,P|251:211|247:173,1,80
253,136,101793,2,0,P|317:146|351:174,1,80
356,266,102043,2,0,L|342:198,1,40
329,153,102210,1,0,0:0:0:0:
367,146,102293,1,0,0:0:0:0:
394,117,102376,1,0,0:0:0:0:
399,78,102459,1,0,0:0:0:0:
379,44,102543,1,12,0:0:0:0:
358,78,102626,1,0,0:0:0:0:
325,100,102709,6,0,P|267:77|228:82,2,80
351,129,103125,2,0,L|330:238,1,80
368,231,103375,2,0,L|389:340,1,80
90,243,103875,5,12,0:0:0:0:
294,23,104208,5,2,0:0:0:0:
256,192,104291,12,0,105124,0:0:0:0:
