osu file format v14

[General]
AudioFilename: audio_1.4_P.mp3
AudioLeadIn: 0
PreviewTime: 0
Countdown: 0
SampleSet: None
StackLeniency: 0.7
Mode: 3
LetterboxInBreaks: 0
SpecialStyle: 0
WidescreenStoryboard: 1

[Editor]
Bookmarks: 2226,19131,26247,26722,40045,43851,49560,50512,58720
DistanceSpacing: 0.5
BeatDivisor: 4
GridSize: 4
TimelineZoom: 1

[Metadata]
Title:Exciting Hyper Highspeed Star
TitleUnicode:Exciting Hyper Highspeed Star
Artist:DJ Sharpnel
ArtistUnicode:DJ Sharpnel
Creator:Midgy
Version:Hard x1.4
Source:
Tags:EHHS DJ Sharpnel Excited Hyper Highspeed Star J-Core
BeatmapID:1687934
BeatmapSetID:804138

[Difficulty]
HPDrainRate:8.7
CircleSize:4
OverallDifficulty:8
ApproachRate:5
SliderMultiplier:1.4
SliderTickRate:1

[Events]
//Background and Video events
0,0,"maxresdefault.jpg",0,0
//Break Periods
//Storyboard Layer 0 (Background)
//Storyboard Layer 1 (Fail)
//Storyboard Layer 2 (Pass)
//Storyboard Layer 3 (Foreground)
//Storyboard Sound Samples

[TimingPoints]
78,237.896990603069,4,2,0,100,1,0

[HitObjects]
64,192,78,5,0,0:0:0:0:
192,192,78,1,0,0:0:0:0:
320,192,78,1,0,0:0:0:0:
192,192,316,1,0,0:0:0:0:
320,192,316,1,0,0:0:0:0:
448,192,316,1,0,0:0:0:0:
448,192,554,1,0,0:0:0:0:
320,192,554,1,0,0:0:0:0:
64,192,554,1,0,0:0:0:0:
320,192,792,1,0,0:0:0:0:
192,192,792,1,0,0:0:0:0:
64,192,792,1,0,0:0:0:0:
64,192,1030,1,0,0:0:0:0:
192,192,1030,1,0,0:0:0:0:
448,192,1030,1,0,0:0:0:0:
320,192,1267,1,0,0:0:0:0:
448,192,1267,1,0,0:0:0:0:
192,192,1267,1,0,0:0:0:0:
192,192,1505,1,0,0:0:0:0:
64,192,1505,1,0,0:0:0:0:
320,192,1505,1,0,0:0:0:0:
192,192,1743,1,0,0:0:0:0:
64,192,1743,1,0,0:0:0:0:
320,192,1743,1,0,0:0:0:0:
448,192,1981,1,0,0:0:0:0:
320,192,1981,1,0,0:0:0:0:
64,192,1981,1,0,0:0:0:0:
64,192,2219,1,0,0:0:0:0:
192,192,2219,1,0,0:0:0:0:
448,192,2219,128,0,2338:0:0:0:0:
320,192,2457,1,0,0:0:0:0:
192,192,2457,1,0,0:0:0:0:
192,192,2695,1,0,0:0:0:0:
320,192,2695,1,0,0:0:0:0:
64,192,2695,128,0,2814:0:0:0:0:
448,192,2932,1,0,0:0:0:0:
320,192,2932,1,0,0:0:0:0:
320,192,3170,128,0,3290:0:0:0:0:
192,192,3170,1,0,0:0:0:0:
64,192,3170,1,0,0:0:0:0:
448,192,3408,1,0,0:0:0:0:
320,192,3408,1,0,0:0:0:0:
192,192,3527,1,0,0:0:0:0:
64,192,3646,1,0,0:0:0:0:
448,192,3765,1,0,0:0:0:0:
192,192,3884,1,0,0:0:0:0:
320,192,3884,1,0,0:0:0:0:
448,192,3884,1,0,0:0:0:0:
64,192,4122,1,0,0:0:0:0:
320,192,4122,1,0,0:0:0:0:
448,192,4122,1,0,0:0:0:0:
192,192,4300,1,0,0:0:0:0:
320,192,4360,1,0,0:0:0:0:
64,192,4360,1,0,0:0:0:0:
448,192,4420,1,0,0:0:0:0:
320,192,4479,1,0,0:0:0:0:
192,192,4538,1,0,0:0:0:0:
448,192,4598,1,0,0:0:0:0:
320,192,4598,1,0,0:0:0:0:
192,192,4657,1,0,0:0:0:0:
320,192,4717,1,0,0:0:0:0:
64,192,4776,1,0,0:0:0:0:
320,192,4836,1,0,0:0:0:0:
448,192,4836,1,0,0:0:0:0:
192,192,4955,1,0,0:0:0:0:
320,192,5014,1,0,0:0:0:0:
192,192,5074,1,0,0:0:0:0:
64,192,5074,1,0,0:0:0:0:
320,192,5133,1,0,0:0:0:0:
448,192,5192,1,0,0:0:0:0:
320,192,5312,1,0,0:0:0:0:
192,192,5312,1,0,0:0:0:0:
64,192,5371,1,0,0:0:0:0:
192,192,5430,1,0,0:0:0:0:
64,192,5490,1,0,0:0:0:0:
192,192,5550,1,0,0:0:0:0:
448,192,5550,1,0,0:0:0:0:
320,192,5609,1,0,0:0:0:0:
192,192,5668,1,0,0:0:0:0:
320,192,5787,1,0,0:0:0:0:
448,192,5787,1,0,0:0:0:0:
192,192,5906,1,0,0:0:0:0:
320,192,5966,1,0,0:0:0:0:
192,192,6025,1,0,0:0:0:0:
64,192,6025,1,0,0:0:0:0:
320,192,6085,1,0,0:0:0:0:
448,192,6144,1,0,0:0:0:0:
192,192,6204,1,0,0:0:0:0:
64,192,6263,1,0,0:0:0:0:
320,192,6263,1,0,0:0:0:0:
192,192,6322,1,0,0:0:0:0:
320,192,6382,1,0,0:0:0:0:
64,192,6442,1,0,0:0:0:0:
192,192,6501,1,0,0:0:0:0:
320,192,6501,1,0,0:0:0:0:
448,192,6501,1,0,0:0:0:0:
64,192,6560,1,0,0:0:0:0:
320,192,6620,1,0,0:0:0:0:
192,192,6739,1,0,0:0:0:0:
64,192,6739,1,0,0:0:0:0:
448,192,6858,1,0,0:0:0:0:
320,192,6917,1,0,0:0:0:0:
192,192,6977,1,0,0:0:0:0:
64,192,6977,1,0,0:0:0:0:
320,192,7036,1,0,0:0:0:0:
64,192,7096,1,0,0:0:0:0:
448,192,7215,1,0,0:0:0:0:
320,192,7215,1,0,0:0:0:0:
192,192,7274,1,0,0:0:0:0:
64,192,7274,1,0,0:0:0:0:
448,192,7334,1,0,0:0:0:0:
320,192,7334,1,0,0:0:0:0:
192,192,7393,1,0,0:0:0:0:
64,192,7452,1,0,0:0:0:0:
448,192,7452,1,0,0:0:0:0:
320,192,7452,1,0,0:0:0:0:
192,192,7572,1,0,0:0:0:0:
64,192,7690,1,0,0:0:0:0:
448,192,7690,1,0,0:0:0:0:
320,192,7690,1,0,0:0:0:0:
448,192,7928,1,0,0:0:0:0:
64,192,7928,1,0,0:0:0:0:
192,192,7928,1,0,0:0:0:0:
192,192,8107,1,0,0:0:0:0:
320,192,8166,1,0,0:0:0:0:
448,192,8166,1,0,0:0:0:0:
64,192,8226,1,0,0:0:0:0:
192,192,8285,1,0,0:0:0:0:
320,192,8345,1,0,0:0:0:0:
192,192,8404,1,0,0:0:0:0:
64,192,8404,1,0,0:0:0:0:
448,192,8464,1,0,0:0:0:0:
64,192,8523,1,0,0:0:0:0:
192,192,8582,1,0,0:0:0:0:
320,192,8642,1,0,0:0:0:0:
448,192,8642,1,0,0:0:0:0:
192,192,8761,1,0,0:0:0:0:
320,192,8820,1,0,0:0:0:0:
64,192,8880,1,0,0:0:0:0:
192,192,8880,1,0,0:0:0:0:
448,192,8940,1,0,0:0:0:0:
64,192,8999,1,0,0:0:0:0:
320,192,9118,1,0,0:0:0:0:
448,192,9118,1,0,0:0:0:0:
192,192,9177,1,0,0:0:0:0:
320,192,9237,1,0,0:0:0:0:
448,192,9296,1,0,0:0:0:0:
192,192,9356,1,0,0:0:0:0:
320,192,9356,1,0,0:0:0:0:
64,192,9415,1,0,0:0:0:0:
192,192,9475,1,0,0:0:0:0:
320,192,9594,1,0,0:0:0:0:
448,192,9594,1,0,0:0:0:0:
64,192,9594,1,0,0:0:0:0:
448,192,9712,1,0,0:0:0:0:
320,192,9772,1,0,0:0:0:0:
192,192,9832,1,0,0:0:0:0:
64,192,9832,1,0,0:0:0:0:
320,192,9891,1,0,0:0:0:0:
448,192,9950,1,0,0:0:0:0:
320,192,10010,1,0,0:0:0:0:
192,192,10070,1,0,0:0:0:0:
64,192,10070,1,0,0:0:0:0:
448,192,10129,1,0,0:0:0:0:
192,192,10188,1,0,0:0:0:0:
64,192,10248,1,0,0:0:0:0:
192,192,10307,1,0,0:0:0:0:
320,192,10307,1,0,0:0:0:0:
448,192,10307,1,0,0:0:0:0:
64,192,10367,1,0,0:0:0:0:
192,192,10426,1,0,0:0:0:0:
320,192,10545,1,0,0:0:0:0:
448,192,10545,1,0,0:0:0:0:
448,192,10664,1,0,0:0:0:0:
320,192,10724,1,0,0:0:0:0:
192,192,10783,1,0,0:0:0:0:
64,192,10783,1,0,0:0:0:0:
448,192,10842,1,0,0:0:0:0:
64,192,10902,1,0,0:0:0:0:
192,192,11021,1,0,0:0:0:0:
320,192,11021,1,0,0:0:0:0:
448,192,11021,128,0,11259:0:0:0:0:
64,192,11259,128,0,11497:0:0:0:0:
192,192,11259,1,0,0:0:0:0:
320,192,11259,1,0,0:0:0:0:
448,192,11497,128,0,11735:0:0:0:0:
192,192,11497,1,0,0:0:0:0:
192,192,11735,1,0,0:0:0:0:
64,192,11735,1,0,0:0:0:0:
448,192,11913,1,0,0:0:0:0:
64,192,11972,1,0,0:0:0:0:
192,192,11972,1,0,0:0:0:0:
448,192,12032,1,0,0:0:0:0:
320,192,12092,1,0,0:0:0:0:
192,192,12151,1,0,0:0:0:0:
320,192,12210,1,0,0:0:0:0:
448,192,12210,1,0,0:0:0:0:
192,192,12270,1,0,0:0:0:0:
320,192,12330,1,0,0:0:0:0:
192,192,12389,1,0,0:0:0:0:
320,192,12448,1,0,0:0:0:0:
448,192,12448,1,0,0:0:0:0:
64,192,12448,1,0,0:0:0:0:
192,192,12567,1,0,0:0:0:0:
320,192,12627,1,0,0:0:0:0:
192,192,12686,1,0,0:0:0:0:
64,192,12686,1,0,0:0:0:0:
448,192,12746,1,0,0:0:0:0:
320,192,12805,1,0,0:0:0:0:
320,192,12925,1,0,0:0:0:0:
448,192,12925,1,0,0:0:0:0:
192,192,12984,1,0,0:0:0:0:
320,192,13043,1,0,0:0:0:0:
192,192,13102,1,0,0:0:0:0:
320,192,13162,1,0,0:0:0:0:
448,192,13162,1,0,0:0:0:0:
192,192,13222,1,0,0:0:0:0:
64,192,13281,1,0,0:0:0:0:
192,192,13400,1,0,0:0:0:0:
64,192,13400,1,0,0:0:0:0:
320,192,13400,1,0,0:0:0:0:
192,192,13519,1,0,0:0:0:0:
64,192,13578,1,0,0:0:0:0:
192,192,13638,1,0,0:0:0:0:
320,192,13638,1,0,0:0:0:0:
448,192,13697,1,0,0:0:0:0:
320,192,13757,1,0,0:0:0:0:
192,192,13816,1,0,0:0:0:0:
448,192,13876,1,0,0:0:0:0:
64,192,13876,1,0,0:0:0:0:
192,192,13935,1,0,0:0:0:0:
64,192,13995,1,0,0:0:0:0:
192,192,14055,1,0,0:0:0:0:
64,192,14114,1,0,0:0:0:0:
320,192,14114,1,0,0:0:0:0:
448,192,14114,1,0,0:0:0:0:
192,192,14173,1,0,0:0:0:0:
320,192,14232,1,0,0:0:0:0:
192,192,14352,1,0,0:0:0:0:
64,192,14352,1,0,0:0:0:0:
320,192,14411,1,0,0:0:0:0:
448,192,14470,1,0,0:0:0:0:
320,192,14530,1,0,0:0:0:0:
192,192,14590,1,0,0:0:0:0:
64,192,14590,1,0,0:0:0:0:
448,192,14649,1,0,0:0:0:0:
64,192,14708,1,0,0:0:0:0:
64,192,14827,1,0,0:0:0:0:
448,192,14827,1,0,0:0:0:0:
320,192,14887,1,0,0:0:0:0:
192,192,14887,1,0,0:0:0:0:
64,192,14946,1,0,0:0:0:0:
448,192,14946,1,0,0:0:0:0:
192,192,15006,1,0,0:0:0:0:
64,192,15065,1,0,0:0:0:0:
448,192,15065,1,0,0:0:0:0:
320,192,15065,1,0,0:0:0:0:
192,192,15185,1,0,0:0:0:0:
64,192,15303,1,0,0:0:0:0:
448,192,15303,1,0,0:0:0:0:
320,192,15303,1,0,0:0:0:0:
64,192,15541,1,0,0:0:0:0:
448,192,15541,1,0,0:0:0:0:
192,192,15541,1,0,0:0:0:0:
320,192,15660,1,0,0:0:0:0:
192,192,15720,1,0,0:0:0:0:
64,192,15779,1,0,0:0:0:0:
448,192,15779,1,0,0:0:0:0:
192,192,15838,1,0,0:0:0:0:
320,192,15898,1,0,0:0:0:0:
64,192,15957,1,0,0:0:0:0:
320,192,16017,1,0,0:0:0:0:
448,192,16017,1,0,0:0:0:0:
192,192,16077,1,0,0:0:0:0:
320,192,16136,1,0,0:0:0:0:
64,192,16195,1,0,0:0:0:0:
192,192,16255,1,0,0:0:0:0:
448,192,16255,1,0,0:0:0:0:
64,192,16374,1,0,0:0:0:0:
192,192,16433,1,0,0:0:0:0:
64,192,16492,1,0,0:0:0:0:
448,192,16492,1,0,0:0:0:0:
320,192,16552,1,0,0:0:0:0:
448,192,16612,1,0,0:0:0:0:
192,192,16730,1,0,0:0:0:0:
64,192,16730,1,0,0:0:0:0:
448,192,16730,1,0,0:0:0:0:
320,192,16790,1,0,0:0:0:0:
448,192,16850,1,0,0:0:0:0:
320,192,16909,1,0,0:0:0:0:
192,192,16968,1,0,0:0:0:0:
64,192,16968,1,0,0:0:0:0:
320,192,17028,1,0,0:0:0:0:
192,192,17087,1,0,0:0:0:0:
320,192,17207,1,0,0:0:0:0:
448,192,17207,1,0,0:0:0:0:
64,192,17207,1,0,0:0:0:0:
192,192,17325,1,0,0:0:0:0:
320,192,17385,1,0,0:0:0:0:
64,192,17445,1,0,0:0:0:0:
192,192,17445,1,0,0:0:0:0:
320,192,17504,1,0,0:0:0:0:
448,192,17563,1,0,0:0:0:0:
192,192,17622,1,0,0:0:0:0:
320,192,17682,1,0,0:0:0:0:
448,192,17682,1,0,0:0:0:0:
64,192,17742,1,0,0:0:0:0:
192,192,17801,1,0,0:0:0:0:
320,192,17860,1,0,0:0:0:0:
64,192,17920,1,0,0:0:0:0:
192,192,17920,1,0,0:0:0:0:
448,192,17920,1,0,0:0:0:0:
320,192,17980,1,0,0:0:0:0:
448,192,18039,1,0,0:0:0:0:
192,192,18158,1,0,0:0:0:0:
64,192,18158,1,0,0:0:0:0:
448,192,18158,1,0,0:0:0:0:
320,192,18277,1,0,0:0:0:0:
192,192,18337,1,0,0:0:0:0:
320,192,18396,1,0,0:0:0:0:
64,192,18396,1,0,0:0:0:0:
448,192,18455,1,0,0:0:0:0:
320,192,18515,1,0,0:0:0:0:
192,192,18634,128,0,18872:0:0:0:0:
64,192,18634,1,0,0:0:0:0:
320,192,18872,128,0,19110:0:0:0:0:
448,192,18872,1,0,0:0:0:0:
64,192,19110,1,0,0:0:0:0:
192,192,19169,1,0,0:0:0:0:
320,192,19228,1,0,0:0:0:0:
448,192,19228,1,0,0:0:0:0:
192,192,19288,1,0,0:0:0:0:
64,192,19347,1,0,0:0:0:0:
448,192,19347,1,0,0:0:0:0:
320,192,19407,1,0,0:0:0:0:
192,192,19467,1,0,0:0:0:0:
64,192,19467,1,0,0:0:0:0:
448,192,19526,1,0,0:0:0:0:
320,192,19585,1,0,0:0:0:0:
192,192,19585,1,0,0:0:0:0:
64,192,19645,1,0,0:0:0:0:
448,192,19705,1,0,0:0:0:0:
320,192,19705,1,0,0:0:0:0:
192,192,19764,1,0,0:0:0:0:
64,192,19823,1,0,0:0:0:0:
448,192,19823,1,0,0:0:0:0:
192,192,19882,1,0,0:0:0:0:
320,192,19942,1,0,0:0:0:0:
448,192,19942,1,0,0:0:0:0:
64,192,20002,1,0,0:0:0:0:
192,192,20061,1,0,0:0:0:0:
320,192,20061,1,0,0:0:0:0:
448,192,20120,1,0,0:0:0:0:
64,192,20180,1,0,0:0:0:0:
192,192,20180,1,0,0:0:0:0:
320,192,20240,1,0,0:0:0:0:
448,192,20299,1,0,0:0:0:0:
64,192,20299,1,0,0:0:0:0:
192,192,20359,1,0,0:0:0:0:
320,192,20418,1,0,0:0:0:0:
448,192,20418,1,0,0:0:0:0:
64,192,20477,1,0,0:0:0:0:
192,192,20537,1,0,0:0:0:0:
320,192,20537,1,0,0:0:0:0:
448,192,20597,1,0,0:0:0:0:
320,192,20656,1,0,0:0:0:0:
64,192,20656,1,0,0:0:0:0:
192,192,20715,1,0,0:0:0:0:
320,192,20775,1,0,0:0:0:0:
448,192,20775,1,0,0:0:0:0:
64,192,20835,1,0,0:0:0:0:
192,192,20894,1,0,0:0:0:0:
448,192,20894,1,0,0:0:0:0:
320,192,20953,1,0,0:0:0:0:
192,192,21012,1,0,0:0:0:0:
64,192,21012,1,0,0:0:0:0:
448,192,21072,1,0,0:0:0:0:
320,192,21132,1,0,0:0:0:0:
64,192,21132,1,0,0:0:0:0:
192,192,21191,1,0,0:0:0:0:
320,192,21250,1,0,0:0:0:0:
448,192,21250,1,0,0:0:0:0:
192,192,21310,1,0,0:0:0:0:
448,192,21370,1,0,0:0:0:0:
64,192,21370,1,0,0:0:0:0:
320,192,21429,1,0,0:0:0:0:
448,192,21489,1,0,0:0:0:0:
192,192,21489,1,0,0:0:0:0:
64,192,21548,1,0,0:0:0:0:
320,192,21607,1,0,0:0:0:0:
448,192,21607,1,0,0:0:0:0:
64,192,21667,1,0,0:0:0:0:
192,192,21727,1,0,0:0:0:0:
320,192,21727,1,0,0:0:0:0:
448,192,21786,1,0,0:0:0:0:
64,192,21845,1,0,0:0:0:0:
320,192,21845,1,0,0:0:0:0:
192,192,21905,1,0,0:0:0:0:
448,192,21965,1,0,0:0:0:0:
320,192,21965,1,0,0:0:0:0:
192,192,22024,1,0,0:0:0:0:
64,192,22024,1,0,0:0:0:0:
448,192,22083,1,0,0:0:0:0:
320,192,22083,1,0,0:0:0:0:
192,192,22142,1,0,0:0:0:0:
64,192,22142,1,0,0:0:0:0:
320,192,22202,1,0,0:0:0:0:
448,192,22202,1,0,0:0:0:0:
192,192,22262,1,0,0:0:0:0:
64,192,22262,1,0,0:0:0:0:
448,192,22321,1,0,0:0:0:0:
320,192,22321,1,0,0:0:0:0:
192,192,22380,1,0,0:0:0:0:
448,192,22440,1,0,0:0:0:0:
64,192,22440,1,0,0:0:0:0:
320,192,22500,1,0,0:0:0:0:
192,192,22500,1,0,0:0:0:0:
448,192,22559,1,0,0:0:0:0:
64,192,22559,1,0,0:0:0:0:
320,192,22619,1,0,0:0:0:0:
192,192,22619,1,0,0:0:0:0:
448,192,22678,1,0,0:0:0:0:
64,192,22678,1,0,0:0:0:0:
320,192,22737,1,0,0:0:0:0:
192,192,22797,1,0,0:0:0:0:
64,192,22797,1,0,0:0:0:0:
320,192,22857,1,0,0:0:0:0:
192,192,22916,1,0,0:0:0:0:
448,192,22916,1,0,0:0:0:0:
320,192,22975,1,0,0:0:0:0:
64,192,23035,1,0,0:0:0:0:
448,192,23035,1,0,0:0:0:0:
192,192,23095,1,0,0:0:0:0:
320,192,23154,1,0,0:0:0:0:
448,192,23154,1,0,0:0:0:0:
64,192,23213,1,0,0:0:0:0:
192,192,23272,1,0,0:0:0:0:
448,192,23272,1,0,0:0:0:0:
320,192,23332,1,0,0:0:0:0:
192,192,23392,1,0,0:0:0:0:
64,192,23392,1,0,0:0:0:0:
448,192,23451,1,0,0:0:0:0:
320,192,23510,1,0,0:0:0:0:
192,192,23510,1,0,0:0:0:0:
64,192,23570,1,0,0:0:0:0:
448,192,23630,1,0,0:0:0:0:
320,192,23630,1,0,0:0:0:0:
192,192,23689,1,0,0:0:0:0:
64,192,23749,1,0,0:0:0:0:
448,192,23749,1,0,0:0:0:0:
320,192,23808,1,0,0:0:0:0:
192,192,23867,1,0,0:0:0:0:
64,192,23867,1,0,0:0:0:0:
448,192,23927,1,0,0:0:0:0:
320,192,23987,1,0,0:0:0:0:
192,192,23987,1,0,0:0:0:0:
64,192,24046,1,0,0:0:0:0:
448,192,24105,1,0,0:0:0:0:
320,192,24105,1,0,0:0:0:0:
192,192,24165,1,0,0:0:0:0:
64,192,24225,1,0,0:0:0:0:
448,192,24225,1,0,0:0:0:0:
192,192,24284,1,0,0:0:0:0:
320,192,24343,1,0,0:0:0:0:
448,192,24343,1,0,0:0:0:0:
64,192,24402,1,0,0:0:0:0:
192,192,24462,1,0,0:0:0:0:
320,192,24462,1,0,0:0:0:0:
448,192,24522,1,0,0:0:0:0:
64,192,24581,1,0,0:0:0:0:
192,192,24581,1,0,0:0:0:0:
320,192,24641,1,0,0:0:0:0:
448,192,24700,1,0,0:0:0:0:
64,192,24700,1,0,0:0:0:0:
192,192,24760,1,0,0:0:0:0:
320,192,24819,1,0,0:0:0:0:
448,192,24819,1,0,0:0:0:0:
64,192,24879,1,0,0:0:0:0:
192,192,24938,1,0,0:0:0:0:
448,192,24938,1,0,0:0:0:0:
320,192,24997,1,0,0:0:0:0:
192,192,25057,1,0,0:0:0:0:
64,192,25057,1,0,0:0:0:0:
448,192,25117,1,0,0:0:0:0:
320,192,25176,1,0,0:0:0:0:
64,192,25176,1,0,0:0:0:0:
192,192,25235,1,0,0:0:0:0:
448,192,25235,1,0,0:0:0:0:
320,192,25295,1,0,0:0:0:0:
64,192,25295,1,0,0:0:0:0:
192,192,25355,1,0,0:0:0:0:
448,192,25355,1,0,0:0:0:0:
320,192,25414,1,0,0:0:0:0:
64,192,25414,1,0,0:0:0:0:
192,192,25473,1,0,0:0:0:0:
448,192,25473,1,0,0:0:0:0:
64,192,25532,1,0,0:0:0:0:
320,192,25532,1,0,0:0:0:0:
448,192,25592,1,0,0:0:0:0:
192,192,25592,1,0,0:0:0:0:
320,192,25652,1,0,0:0:0:0:
64,192,25652,1,0,0:0:0:0:
192,192,25711,1,0,0:0:0:0:
320,192,25771,1,0,0:0:0:0:
448,192,25771,1,0,0:0:0:0:
64,192,25830,1,0,0:0:0:0:
192,192,25890,1,0,0:0:0:0:
448,192,25890,1,0,0:0:0:0:
320,192,25949,1,0,0:0:0:0:
192,192,26009,1,0,0:0:0:0:
64,192,26009,1,0,0:0:0:0:
448,192,26068,1,0,0:0:0:0:
320,192,26127,1,0,0:0:0:0:
192,192,26127,1,0,0:0:0:0:
64,192,26187,1,0,0:0:0:0:
448,192,26247,1,0,0:0:0:0:
320,192,26247,1,0,0:0:0:0:
192,192,26306,1,0,0:0:0:0:
64,192,26306,1,0,0:0:0:0:
320,192,26365,1,0,0:0:0:0:
448,192,26365,1,0,0:0:0:0:
192,192,26425,1,0,0:0:0:0:
64,192,26425,1,0,0:0:0:0:
320,192,26485,1,0,0:0:0:0:
448,192,26485,1,0,0:0:0:0:
192,192,26544,1,0,0:0:0:0:
64,192,26544,1,0,0:0:0:0:
320,192,26603,1,0,0:0:0:0:
448,192,26603,1,0,0:0:0:0:
192,192,26662,1,0,0:0:0:0:
64,192,26662,1,0,0:0:0:0:
320,192,26722,1,0,0:0:0:0:
448,192,26722,1,0,0:0:0:0:
64,192,26782,1,0,0:0:0:0:
192,192,26841,1,0,0:0:0:0:
448,192,26841,1,0,0:0:0:0:
320,192,26901,1,0,0:0:0:0:
192,192,26960,1,0,0:0:0:0:
64,192,26960,1,0,0:0:0:0:
448,192,27020,1,0,0:0:0:0:
320,192,27079,1,0,0:0:0:0:
64,192,27079,1,0,0:0:0:0:
192,192,27139,1,0,0:0:0:0:
320,192,27198,1,0,0:0:0:0:
448,192,27198,1,0,0:0:0:0:
64,192,27257,1,0,0:0:0:0:
192,192,27317,1,0,0:0:0:0:
320,192,27317,1,0,0:0:0:0:
448,192,27377,1,0,0:0:0:0:
64,192,27436,1,0,0:0:0:0:
192,192,27436,1,0,0:0:0:0:
320,192,27495,1,0,0:0:0:0:
448,192,27555,1,0,0:0:0:0:
192,192,27555,1,0,0:0:0:0:
64,192,27615,1,0,0:0:0:0:
320,192,27674,1,0,0:0:0:0:
448,192,27674,1,0,0:0:0:0:
192,192,27733,1,0,0:0:0:0:
64,192,27792,1,0,0:0:0:0:
448,192,27792,1,0,0:0:0:0:
320,192,27852,1,0,0:0:0:0:
192,192,27912,1,0,0:0:0:0:
64,192,27912,1,0,0:0:0:0:
448,192,27971,1,0,0:0:0:0:
320,192,28031,1,0,0:0:0:0:
192,192,28031,1,0,0:0:0:0:
64,192,28090,1,0,0:0:0:0:
320,192,28150,1,0,0:0:0:0:
448,192,28150,1,0,0:0:0:0:
64,192,28209,1,0,0:0:0:0:
192,192,28269,1,0,0:0:0:0:
448,192,28269,1,0,0:0:0:0:
320,192,28328,1,0,0:0:0:0:
192,192,28387,1,0,0:0:0:0:
64,192,28387,1,0,0:0:0:0:
448,192,28447,1,0,0:0:0:0:
320,192,28507,1,0,0:0:0:0:
64,192,28507,1,0,0:0:0:0:
192,192,28566,1,0,0:0:0:0:
320,192,28625,1,0,0:0:0:0:
448,192,28625,1,0,0:0:0:0:
64,192,28685,1,0,0:0:0:0:
192,192,28745,1,0,0:0:0:0:
448,192,28745,1,0,0:0:0:0:
320,192,28804,1,0,0:0:0:0:
192,192,28863,1,0,0:0:0:0:
64,192,28863,1,0,0:0:0:0:
448,192,28923,1,0,0:0:0:0:
320,192,28982,1,0,0:0:0:0:
64,192,28982,1,0,0:0:0:0:
192,192,29042,1,0,0:0:0:0:
320,192,29101,1,0,0:0:0:0:
448,192,29101,1,0,0:0:0:0:
64,192,29161,1,0,0:0:0:0:
192,192,29220,1,0,0:0:0:0:
320,192,29220,1,0,0:0:0:0:
448,192,29280,1,0,0:0:0:0:
192,192,29339,1,0,0:0:0:0:
64,192,29339,1,0,0:0:0:0:
320,192,29399,1,0,0:0:0:0:
64,192,29458,1,0,0:0:0:0:
448,192,29458,1,0,0:0:0:0:
192,192,29517,1,0,0:0:0:0:
320,192,29577,1,0,0:0:0:0:
448,192,29577,1,0,0:0:0:0:
64,192,29637,1,0,0:0:0:0:
192,192,29637,1,0,0:0:0:0:
320,192,29696,1,0,0:0:0:0:
448,192,29696,1,0,0:0:0:0:
192,192,29755,1,0,0:0:0:0:
64,192,29755,1,0,0:0:0:0:
320,192,29815,1,0,0:0:0:0:
448,192,29815,1,0,0:0:0:0:
192,192,29875,1,0,0:0:0:0:
64,192,29875,1,0,0:0:0:0:
448,192,29934,1,0,0:0:0:0:
320,192,29934,1,0,0:0:0:0:
64,192,29993,1,0,0:0:0:0:
192,192,30053,1,0,0:0:0:0:
320,192,30053,1,0,0:0:0:0:
448,192,30112,1,0,0:0:0:0:
64,192,30112,1,0,0:0:0:0:
192,192,30172,1,0,0:0:0:0:
320,192,30172,1,0,0:0:0:0:
448,192,30231,1,0,0:0:0:0:
64,192,30231,1,0,0:0:0:0:
192,192,30291,1,0,0:0:0:0:
320,192,30291,1,0,0:0:0:0:
448,192,30350,1,0,0:0:0:0:
64,192,30350,1,0,0:0:0:0:
192,192,30410,1,0,0:0:0:0:
320,192,30410,1,0,0:0:0:0:
448,192,30469,1,0,0:0:0:0:
320,192,30529,1,0,0:0:0:0:
64,192,30529,1,0,0:0:0:0:
192,192,30588,1,0,0:0:0:0:
64,192,30647,1,0,0:0:0:0:
448,192,30647,1,0,0:0:0:0:
320,192,30707,1,0,0:0:0:0:
64,192,30767,1,0,0:0:0:0:
192,192,30767,1,0,0:0:0:0:
448,192,30826,1,0,0:0:0:0:
320,192,30885,1,0,0:0:0:0:
64,192,30885,1,0,0:0:0:0:
192,192,30945,1,0,0:0:0:0:
448,192,31005,1,0,0:0:0:0:
320,192,31005,1,0,0:0:0:0:
64,192,31064,1,0,0:0:0:0:
448,192,31123,1,0,0:0:0:0:
320,192,31123,1,0,0:0:0:0:
192,192,31183,1,0,0:0:0:0:
64,192,31242,1,0,0:0:0:0:
448,192,31242,1,0,0:0:0:0:
320,192,31302,1,0,0:0:0:0:
192,192,31361,1,0,0:0:0:0:
64,192,31361,1,0,0:0:0:0:
320,192,31421,1,0,0:0:0:0:
64,192,31480,1,0,0:0:0:0:
448,192,31480,1,0,0:0:0:0:
192,192,31540,1,0,0:0:0:0:
448,192,31599,1,0,0:0:0:0:
320,192,31599,1,0,0:0:0:0:
192,192,31659,1,0,0:0:0:0:
64,192,31718,1,0,0:0:0:0:
448,192,31718,1,0,0:0:0:0:
320,192,31777,1,0,0:0:0:0:
448,192,31837,1,0,0:0:0:0:
192,192,31837,1,0,0:0:0:0:
64,192,31897,1,0,0:0:0:0:
192,192,31956,1,0,0:0:0:0:
320,192,31956,1,0,0:0:0:0:
448,192,32015,1,0,0:0:0:0:
64,192,32075,1,0,0:0:0:0:
192,192,32075,1,0,0:0:0:0:
320,192,32135,1,0,0:0:0:0:
448,192,32194,1,0,0:0:0:0:
64,192,32194,1,0,0:0:0:0:
192,192,32253,1,0,0:0:0:0:
320,192,32313,1,0,0:0:0:0:
64,192,32313,1,0,0:0:0:0:
448,192,32372,1,0,0:0:0:0:
320,192,32432,1,0,0:0:0:0:
192,192,32432,1,0,0:0:0:0:
64,192,32491,1,0,0:0:0:0:
192,192,32551,1,0,0:0:0:0:
448,192,32551,1,0,0:0:0:0:
320,192,32610,1,0,0:0:0:0:
192,192,32670,1,0,0:0:0:0:
64,192,32670,1,0,0:0:0:0:
448,192,32729,1,0,0:0:0:0:
320,192,32789,1,0,0:0:0:0:
64,192,32789,1,0,0:0:0:0:
192,192,32848,1,0,0:0:0:0:
320,192,32907,1,0,0:0:0:0:
448,192,32907,1,0,0:0:0:0:
192,192,32967,1,0,0:0:0:0:
64,192,33027,1,0,0:0:0:0:
448,192,33027,1,0,0:0:0:0:
320,192,33086,1,0,0:0:0:0:
192,192,33145,1,0,0:0:0:0:
64,192,33145,1,0,0:0:0:0:
320,192,33205,1,0,0:0:0:0:
448,192,33265,1,0,0:0:0:0:
64,192,33265,1,0,0:0:0:0:
192,192,33324,1,0,0:0:0:0:
320,192,33383,1,0,0:0:0:0:
448,192,33383,1,0,0:0:0:0:
64,192,33443,1,0,0:0:0:0:
192,192,33502,1,0,0:0:0:0:
320,192,33502,1,0,0:0:0:0:
448,192,33562,1,0,0:0:0:0:
64,192,33621,1,0,0:0:0:0:
192,192,33621,1,0,0:0:0:0:
320,192,33681,1,0,0:0:0:0:
448,192,33740,1,0,0:0:0:0:
64,192,33740,1,0,0:0:0:0:
192,192,33800,1,0,0:0:0:0:
448,192,33859,1,0,0:0:0:0:
320,192,33859,1,0,0:0:0:0:
192,192,33919,1,0,0:0:0:0:
64,192,33919,1,0,0:0:0:0:
320,192,33978,1,0,0:0:0:0:
448,192,33978,1,0,0:0:0:0:
192,192,34037,1,0,0:0:0:0:
64,192,34037,1,0,0:0:0:0:
320,192,34097,1,0,0:0:0:0:
448,192,34097,1,0,0:0:0:0:
192,192,34157,1,0,0:0:0:0:
320,192,34216,1,0,0:0:0:0:
448,192,34216,1,0,0:0:0:0:
192,192,34275,1,0,0:0:0:0:
64,192,34335,1,0,0:0:0:0:
448,192,34335,1,0,0:0:0:0:
320,192,34395,1,0,0:0:0:0:
192,192,34454,1,0,0:0:0:0:
64,192,34454,1,0,0:0:0:0:
448,192,34513,1,0,0:0:0:0:
320,192,34573,1,0,0:0:0:0:
192,192,34573,1,0,0:0:0:0:
64,192,34632,1,0,0:0:0:0:
448,192,34692,1,0,0:0:0:0:
320,192,34692,1,0,0:0:0:0:
192,192,34751,1,0,0:0:0:0:
64,192,34811,1,0,0:0:0:0:
448,192,34811,1,0,0:0:0:0:
320,192,34870,1,0,0:0:0:0:
192,192,34930,1,0,0:0:0:0:
448,192,34930,1,0,0:0:0:0:
64,192,34989,1,0,0:0:0:0:
192,192,35049,1,0,0:0:0:0:
320,192,35049,1,0,0:0:0:0:
448,192,35108,1,0,0:0:0:0:
320,192,35167,1,0,0:0:0:0:
64,192,35167,1,0,0:0:0:0:
192,192,35227,1,0,0:0:0:0:
320,192,35287,1,0,0:0:0:0:
448,192,35287,1,0,0:0:0:0:
64,192,35346,1,0,0:0:0:0:
192,192,35405,1,0,0:0:0:0:
448,192,35405,1,0,0:0:0:0:
320,192,35465,1,0,0:0:0:0:
192,192,35525,1,0,0:0:0:0:
64,192,35525,1,0,0:0:0:0:
320,192,35584,1,0,0:0:0:0:
448,192,35643,1,0,0:0:0:0:
64,192,35643,1,0,0:0:0:0:
192,192,35703,1,0,0:0:0:0:
320,192,35762,1,0,0:0:0:0:
448,192,35762,1,0,0:0:0:0:
192,192,35822,1,0,0:0:0:0:
64,192,35881,1,0,0:0:0:0:
448,192,35881,1,0,0:0:0:0:
320,192,35941,1,0,0:0:0:0:
192,192,36000,1,0,0:0:0:0:
64,192,36000,1,0,0:0:0:0:
448,192,36060,1,0,0:0:0:0:
320,192,36119,1,0,0:0:0:0:
192,192,36119,1,0,0:0:0:0:
64,192,36179,1,0,0:0:0:0:
320,192,36238,1,0,0:0:0:0:
448,192,36238,1,0,0:0:0:0:
192,192,36297,1,0,0:0:0:0:
448,192,36357,1,0,0:0:0:0:
320,192,36357,1,0,0:0:0:0:
192,192,36417,1,0,0:0:0:0:
448,192,36476,1,0,0:0:0:0:
64,192,36476,1,0,0:0:0:0:
320,192,36535,1,0,0:0:0:0:
64,192,36595,1,0,0:0:0:0:
192,192,36595,1,0,0:0:0:0:
448,192,36655,1,0,0:0:0:0:
192,192,36714,1,0,0:0:0:0:
320,192,36714,1,0,0:0:0:0:
64,192,36773,1,0,0:0:0:0:
320,192,36833,1,0,0:0:0:0:
448,192,36833,1,0,0:0:0:0:
192,192,36892,1,0,0:0:0:0:
448,192,36952,1,0,0:0:0:0:
64,192,36952,1,0,0:0:0:0:
320,192,37011,1,0,0:0:0:0:
448,192,37071,1,0,0:0:0:0:
192,192,37071,1,0,0:0:0:0:
64,192,37130,1,0,0:0:0:0:
320,192,37190,1,0,0:0:0:0:
192,192,37190,1,0,0:0:0:0:
448,192,37249,1,0,0:0:0:0:
64,192,37309,1,0,0:0:0:0:
320,192,37309,1,0,0:0:0:0:
192,192,37368,1,0,0:0:0:0:
448,192,37427,1,0,0:0:0:0:
320,192,37427,1,0,0:0:0:0:
64,192,37487,1,0,0:0:0:0:
448,192,37547,1,0,0:0:0:0:
192,192,37547,1,0,0:0:0:0:
320,192,37606,1,0,0:0:0:0:
64,192,37665,1,0,0:0:0:0:
192,192,37665,1,0,0:0:0:0:
320,192,37725,1,0,0:0:0:0:
64,192,37785,1,0,0:0:0:0:
448,192,37785,1,0,0:0:0:0:
192,192,37844,1,0,0:0:0:0:
448,192,37903,1,0,0:0:0:0:
320,192,37903,1,0,0:0:0:0:
192,192,37963,1,0,0:0:0:0:
448,192,38022,1,0,0:0:0:0:
64,192,38022,1,0,0:0:0:0:
320,192,38082,1,0,0:0:0:0:
64,192,38141,1,0,0:0:0:0:
192,192,38141,1,0,0:0:0:0:
448,192,38201,1,0,0:0:0:0:
192,192,38260,1,0,0:0:0:0:
320,192,38260,1,0,0:0:0:0:
64,192,38320,1,0,0:0:0:0:
320,192,38379,1,0,0:0:0:0:
448,192,38379,1,0,0:0:0:0:
64,192,38439,1,0,0:0:0:0:
192,192,38498,1,0,0:0:0:0:
448,192,38498,1,0,0:0:0:0:
320,192,38557,1,0,0:0:0:0:
192,192,38617,1,0,0:0:0:0:
64,192,38617,1,0,0:0:0:0:
448,192,38677,1,0,0:0:0:0:
320,192,38736,1,0,0:0:0:0:
64,192,38736,1,0,0:0:0:0:
192,192,38795,1,0,0:0:0:0:
320,192,38855,1,0,0:0:0:0:
448,192,38855,1,0,0:0:0:0:
64,192,38915,1,0,0:0:0:0:
192,192,38974,1,0,0:0:0:0:
448,192,38974,1,0,0:0:0:0:
320,192,39033,1,0,0:0:0:0:
192,192,39093,1,0,0:0:0:0:
64,192,39093,1,0,0:0:0:0:
448,192,39152,1,0,0:0:0:0:
320,192,39212,1,0,0:0:0:0:
192,192,39212,1,0,0:0:0:0:
64,192,39271,1,0,0:0:0:0:
448,192,39331,1,0,0:0:0:0:
320,192,39331,1,0,0:0:0:0:
192,192,39390,1,0,0:0:0:0:
64,192,39450,1,0,0:0:0:0:
448,192,39450,1,0,0:0:0:0:
320,192,39509,1,0,0:0:0:0:
192,192,39569,1,0,0:0:0:0:
64,192,39569,1,0,0:0:0:0:
448,192,39628,1,0,0:0:0:0:
320,192,39687,1,0,0:0:0:0:
192,192,39687,1,0,0:0:0:0:
64,192,39747,1,0,0:0:0:0:
448,192,39807,1,0,0:0:0:0:
320,192,39807,1,0,0:0:0:0:
192,192,39866,1,0,0:0:0:0:
64,192,39925,1,0,0:0:0:0:
448,192,39925,1,0,0:0:0:0:
192,192,39985,1,0,0:0:0:0:
448,192,40045,1,0,0:0:0:0:
320,192,40045,1,0,0:0:0:0:
64,192,40045,1,0,0:0:0:0:
192,192,40104,1,0,0:0:0:0:
64,192,40163,1,0,0:0:0:0:
320,192,40223,1,0,0:0:0:0:
448,192,40282,1,0,0:0:0:0:
320,192,40342,1,0,0:0:0:0:
448,192,40401,1,0,0:0:0:0:
192,192,40461,1,0,0:0:0:0:
64,192,40520,1,0,0:0:0:0:
192,192,40580,1,0,0:0:0:0:
64,192,40640,1,0,0:0:0:0:
448,192,40699,1,0,0:0:0:0:
320,192,40758,1,0,0:0:0:0:
448,192,40817,1,0,0:0:0:0:
64,192,40877,1,0,0:0:0:0:
320,192,40877,1,0,0:0:0:0:
192,192,40937,1,0,0:0:0:0:
64,192,40996,1,0,0:0:0:0:
320,192,40996,1,0,0:0:0:0:
192,192,41055,1,0,0:0:0:0:
448,192,41115,1,0,0:0:0:0:
320,192,41175,1,0,0:0:0:0:
448,192,41234,1,0,0:0:0:0:
192,192,41234,1,0,0:0:0:0:
320,192,41293,1,0,0:0:0:0:
64,192,41353,1,0,0:0:0:0:
192,192,41353,1,0,0:0:0:0:
320,192,41412,1,0,0:0:0:0:
448,192,41472,1,0,0:0:0:0:
64,192,41531,1,0,0:0:0:0:
192,192,41591,1,0,0:0:0:0:
448,192,41591,1,0,0:0:0:0:
320,192,41650,1,0,0:0:0:0:
64,192,41710,1,0,0:0:0:0:
192,192,41710,1,0,0:0:0:0:
448,192,41770,1,0,0:0:0:0:
320,192,41829,1,0,0:0:0:0:
64,192,41829,1,0,0:0:0:0:
192,192,41888,1,0,0:0:0:0:
320,192,41947,1,0,0:0:0:0:
448,192,41947,1,0,0:0:0:0:
64,192,41947,1,0,0:0:0:0:
192,192,42007,1,0,0:0:0:0:
448,192,42067,1,0,0:0:0:0:
192,192,42126,1,0,0:0:0:0:
448,192,42185,1,0,0:0:0:0:
192,192,42245,1,0,0:0:0:0:
448,192,42305,1,0,0:0:0:0:
320,192,42364,1,0,0:0:0:0:
64,192,42423,1,0,0:0:0:0:
320,192,42483,1,0,0:0:0:0:
64,192,42542,1,0,0:0:0:0:
320,192,42602,1,0,0:0:0:0:
64,192,42661,1,0,0:0:0:0:
448,192,42721,1,0,0:0:0:0:
320,192,42780,1,0,0:0:0:0:
64,192,42780,1,0,0:0:0:0:
192,192,42840,1,0,0:0:0:0:
448,192,42900,1,0,0:0:0:0:
320,192,42900,1,0,0:0:0:0:
64,192,42959,1,0,0:0:0:0:
320,192,43018,1,0,0:0:0:0:
64,192,43077,1,0,0:0:0:0:
192,192,43137,1,0,0:0:0:0:
448,192,43137,1,0,0:0:0:0:
320,192,43197,1,0,0:0:0:0:
192,192,43256,1,0,0:0:0:0:
320,192,43315,1,0,0:0:0:0:
192,192,43375,1,0,0:0:0:0:
320,192,43435,1,0,0:0:0:0:
448,192,43494,1,0,0:0:0:0:
64,192,43494,1,0,0:0:0:0:
192,192,43553,1,0,0:0:0:0:
448,192,43613,1,0,0:0:0:0:
192,192,43672,1,0,0:0:0:0:
448,192,43732,1,0,0:0:0:0:
192,192,43792,1,0,0:0:0:0:
448,192,43851,1,0,0:0:0:0:
320,192,43851,1,0,0:0:0:0:
192,192,43910,1,0,0:0:0:0:
64,192,43910,1,0,0:0:0:0:
320,192,43970,1,0,0:0:0:0:
448,192,43970,1,0,0:0:0:0:
192,192,44030,1,0,0:0:0:0:
64,192,44030,1,0,0:0:0:0:
320,192,44089,1,0,0:0:0:0:
448,192,44089,1,0,0:0:0:0:
192,192,44148,1,0,0:0:0:0:
64,192,44148,1,0,0:0:0:0:
448,192,44207,1,0,0:0:0:0:
320,192,44207,1,0,0:0:0:0:
192,192,44267,1,0,0:0:0:0:
64,192,44327,1,0,0:0:0:0:
448,192,44327,1,0,0:0:0:0:
320,192,44386,1,0,0:0:0:0:
192,192,44386,1,0,0:0:0:0:
64,192,44445,1,0,0:0:0:0:
448,192,44445,1,0,0:0:0:0:
320,192,44505,1,0,0:0:0:0:
192,192,44505,1,0,0:0:0:0:
64,192,44565,1,0,0:0:0:0:
448,192,44565,1,0,0:0:0:0:
320,192,44624,1,0,0:0:0:0:
192,192,44624,1,0,0:0:0:0:
64,192,44683,1,0,0:0:0:0:
448,192,44683,1,0,0:0:0:0:
320,192,44743,1,0,0:0:0:0:
192,192,44802,1,0,0:0:0:0:
64,192,44802,1,0,0:0:0:0:
448,192,44862,1,0,0:0:0:0:
192,192,44922,1,0,0:0:0:0:
320,192,44922,1,0,0:0:0:0:
64,192,44981,1,0,0:0:0:0:
192,192,45040,1,0,0:0:0:0:
448,192,45040,1,0,0:0:0:0:
320,192,45100,1,0,0:0:0:0:
448,192,45160,1,0,0:0:0:0:
64,192,45160,1,0,0:0:0:0:
192,192,45219,1,0,0:0:0:0:
320,192,45278,1,0,0:0:0:0:
448,192,45278,1,0,0:0:0:0:
64,192,45337,1,0,0:0:0:0:
192,192,45337,1,0,0:0:0:0:
448,192,45397,1,0,0:0:0:0:
320,192,45397,1,0,0:0:0:0:
64,192,45457,1,0,0:0:0:0:
192,192,45516,1,0,0:0:0:0:
320,192,45516,1,0,0:0:0:0:
448,192,45575,1,0,0:0:0:0:
320,192,45635,1,0,0:0:0:0:
64,192,45635,1,0,0:0:0:0:
192,192,45695,1,0,0:0:0:0:
320,192,45754,1,0,0:0:0:0:
448,192,45754,1,0,0:0:0:0:
192,192,45813,1,0,0:0:0:0:
64,192,45813,1,0,0:0:0:0:
320,192,45873,1,0,0:0:0:0:
448,192,45873,1,0,0:0:0:0:
192,192,45932,1,0,0:0:0:0:
64,192,45932,1,0,0:0:0:0:
320,192,45992,1,0,0:0:0:0:
448,192,45992,1,0,0:0:0:0:
192,192,46052,1,0,0:0:0:0:
64,192,46052,1,0,0:0:0:0:
448,192,46111,1,0,0:0:0:0:
320,192,46111,1,0,0:0:0:0:
192,192,46170,1,0,0:0:0:0:
64,192,46230,1,0,0:0:0:0:
448,192,46230,1,0,0:0:0:0:
320,192,46290,1,0,0:0:0:0:
192,192,46290,1,0,0:0:0:0:
64,192,46349,1,0,0:0:0:0:
448,192,46349,1,0,0:0:0:0:
320,192,46408,1,0,0:0:0:0:
192,192,46408,1,0,0:0:0:0:
64,192,46467,1,0,0:0:0:0:
448,192,46467,1,0,0:0:0:0:
320,192,46527,1,0,0:0:0:0:
192,192,46527,1,0,0:0:0:0:
64,192,46587,1,0,0:0:0:0:
448,192,46587,1,0,0:0:0:0:
320,192,46646,1,0,0:0:0:0:
64,192,46705,1,0,0:0:0:0:
192,192,46705,1,0,0:0:0:0:
320,192,46765,1,0,0:0:0:0:
64,192,46825,1,0,0:0:0:0:
448,192,46825,1,0,0:0:0:0:
192,192,46884,1,0,0:0:0:0:
320,192,46943,1,0,0:0:0:0:
448,192,46943,1,0,0:0:0:0:
192,192,47003,1,0,0:0:0:0:
448,192,47062,1,0,0:0:0:0:
64,192,47062,1,0,0:0:0:0:
192,192,47122,1,0,0:0:0:0:
448,192,47182,1,0,0:0:0:0:
320,192,47182,1,0,0:0:0:0:
192,192,47241,1,0,0:0:0:0:
64,192,47241,1,0,0:0:0:0:
320,192,47300,1,0,0:0:0:0:
448,192,47300,1,0,0:0:0:0:
64,192,47360,1,0,0:0:0:0:
320,192,47420,1,0,0:0:0:0:
192,192,47420,1,0,0:0:0:0:
448,192,47479,1,0,0:0:0:0:
64,192,47538,1,0,0:0:0:0:
192,192,47538,1,0,0:0:0:0:
320,192,47597,1,0,0:0:0:0:
64,192,47657,1,0,0:0:0:0:
448,192,47657,1,0,0:0:0:0:
192,192,47717,1,0,0:0:0:0:
320,192,47776,1,0,0:0:0:0:
448,192,47776,1,0,0:0:0:0:
64,192,47835,1,0,0:0:0:0:
448,192,47895,1,0,0:0:0:0:
192,192,47895,1,0,0:0:0:0:
320,192,47955,1,0,0:0:0:0:
448,192,48014,1,0,0:0:0:0:
64,192,48014,1,0,0:0:0:0:
320,192,48074,1,0,0:0:0:0:
64,192,48133,1,0,0:0:0:0:
192,192,48133,1,0,0:0:0:0:
448,192,48192,1,0,0:0:0:0:
192,192,48252,1,0,0:0:0:0:
320,192,48252,1,0,0:0:0:0:
64,192,48312,1,0,0:0:0:0:
320,192,48371,1,0,0:0:0:0:
448,192,48371,1,0,0:0:0:0:
64,192,48430,1,0,0:0:0:0:
192,192,48490,1,0,0:0:0:0:
448,192,48490,1,0,0:0:0:0:
320,192,48550,1,0,0:0:0:0:
192,192,48609,1,0,0:0:0:0:
64,192,48609,1,0,0:0:0:0:
448,192,48668,1,0,0:0:0:0:
320,192,48727,1,0,0:0:0:0:
64,192,48727,1,0,0:0:0:0:
192,192,48787,1,0,0:0:0:0:
320,192,48847,1,0,0:0:0:0:
448,192,48847,1,0,0:0:0:0:
192,192,48906,1,0,0:0:0:0:
64,192,48965,1,0,0:0:0:0:
448,192,48965,1,0,0:0:0:0:
320,192,49025,1,0,0:0:0:0:
192,192,49085,1,0,0:0:0:0:
64,192,49085,1,0,0:0:0:0:
320,192,49144,1,0,0:0:0:0:
448,192,49204,1,0,0:0:0:0:
192,192,49204,1,0,0:0:0:0:
64,192,49263,1,0,0:0:0:0:
192,192,49322,1,0,0:0:0:0:
320,192,49322,1,0,0:0:0:0:
448,192,49382,1,0,0:0:0:0:
64,192,49442,1,0,0:0:0:0:
192,192,49442,1,0,0:0:0:0:
320,192,49501,1,0,0:0:0:0:
448,192,49501,1,0,0:0:0:0:
192,192,49560,1,0,0:0:0:0:
64,192,49560,1,0,0:0:0:0:
320,192,49620,1,0,0:0:0:0:
448,192,49620,1,0,0:0:0:0:
192,192,49680,1,0,0:0:0:0:
64,192,49680,1,0,0:0:0:0:
320,192,49739,1,0,0:0:0:0:
448,192,49739,1,0,0:0:0:0:
192,192,49798,1,0,0:0:0:0:
64,192,49798,1,0,0:0:0:0:
320,192,49857,1,0,0:0:0:0:
448,192,49857,1,0,0:0:0:0:
64,192,49917,1,0,0:0:0:0:
192,192,49917,1,0,0:0:0:0:
320,192,49977,1,0,0:0:0:0:
448,192,49977,1,0,0:0:0:0:
64,192,50036,1,0,0:0:0:0:
192,192,50036,1,0,0:0:0:0:
320,192,50095,1,0,0:0:0:0:
448,192,50095,1,0,0:0:0:0:
192,192,50155,1,0,0:0:0:0:
64,192,50155,1,0,0:0:0:0:
320,192,50215,1,0,0:0:0:0:
448,192,50215,1,0,0:0:0:0:
192,192,50274,1,0,0:0:0:0:
64,192,50274,1,0,0:0:0:0:
320,192,50334,1,0,0:0:0:0:
64,192,50393,1,0,0:0:0:0:
448,192,50393,1,0,0:0:0:0:
192,192,50452,1,0,0:0:0:0:
320,192,50512,1,0,0:0:0:0:
448,192,50512,1,0,0:0:0:0:
64,192,50512,1,0,0:0:0:0:
192,192,50572,1,0,0:0:0:0:
448,192,50631,1,0,0:0:0:0:
320,192,50631,1,0,0:0:0:0:
64,192,50690,1,0,0:0:0:0:
192,192,50750,1,0,0:0:0:0:
320,192,50750,1,0,0:0:0:0:
448,192,50750,1,0,0:0:0:0:
64,192,50810,1,0,0:0:0:0:
192,192,50869,1,0,0:0:0:0:
320,192,50869,1,0,0:0:0:0:
448,192,50869,1,0,0:0:0:0:
64,192,50928,1,0,0:0:0:0:
320,192,50987,1,0,0:0:0:0:
448,192,50987,1,0,0:0:0:0:
192,192,51047,1,0,0:0:0:0:
64,192,51047,1,0,0:0:0:0:
320,192,51107,1,0,0:0:0:0:
448,192,51107,1,0,0:0:0:0:
192,192,51166,1,0,0:0:0:0:
448,192,51225,1,0,0:0:0:0:
320,192,51225,1,0,0:0:0:0:
64,192,51285,1,0,0:0:0:0:
448,192,51345,1,0,0:0:0:0:
192,192,51345,1,0,0:0:0:0:
320,192,51404,1,0,0:0:0:0:
64,192,51464,1,0,0:0:0:0:
192,192,51464,1,0,0:0:0:0:
320,192,51523,1,0,0:0:0:0:
448,192,51523,1,0,0:0:0:0:
192,192,51582,1,0,0:0:0:0:
64,192,51582,1,0,0:0:0:0:
320,192,51642,1,0,0:0:0:0:
448,192,51642,1,0,0:0:0:0:
192,192,51702,1,0,0:0:0:0:
64,192,51702,1,0,0:0:0:0:
320,192,51761,1,0,0:0:0:0:
448,192,51761,1,0,0:0:0:0:
64,192,51820,1,0,0:0:0:0:
192,192,51820,1,0,0:0:0:0:
320,192,51880,1,0,0:0:0:0:
64,192,51940,1,0,0:0:0:0:
448,192,51940,1,0,0:0:0:0:
320,192,51999,1,0,0:0:0:0:
192,192,51999,1,0,0:0:0:0:
64,192,52058,1,0,0:0:0:0:
448,192,52058,1,0,0:0:0:0:
320,192,52117,1,0,0:0:0:0:
192,192,52117,1,0,0:0:0:0:
64,192,52177,1,0,0:0:0:0:
448,192,52177,1,0,0:0:0:0:
320,192,52237,1,0,0:0:0:0:
192,192,52237,1,0,0:0:0:0:
64,192,52296,1,0,0:0:0:0:
448,192,52296,1,0,0:0:0:0:
192,192,52356,1,0,0:0:0:0:
320,192,52415,1,0,0:0:0:0:
448,192,52415,1,0,0:0:0:0:
192,192,52475,1,0,0:0:0:0:
448,192,52534,1,0,0:0:0:0:
64,192,52534,1,0,0:0:0:0:
192,192,52594,1,0,0:0:0:0:
320,192,52653,1,0,0:0:0:0:
448,192,52653,1,0,0:0:0:0:
64,192,52712,1,0,0:0:0:0:
320,192,52772,1,0,0:0:0:0:
192,192,52772,1,0,0:0:0:0:
448,192,52832,1,0,0:0:0:0:
64,192,52891,1,0,0:0:0:0:
320,192,52891,1,0,0:0:0:0:
192,192,52950,1,0,0:0:0:0:
448,192,52950,1,0,0:0:0:0:
64,192,53010,1,0,0:0:0:0:
320,192,53010,1,0,0:0:0:0:
192,192,53070,1,0,0:0:0:0:
448,192,53129,1,0,0:0:0:0:
320,192,53129,1,0,0:0:0:0:
192,192,53188,1,0,0:0:0:0:
448,192,53247,1,0,0:0:0:0:
64,192,53247,1,0,0:0:0:0:
320,192,53307,1,0,0:0:0:0:
192,192,53367,1,0,0:0:0:0:
64,192,53367,1,0,0:0:0:0:
320,192,53426,1,0,0:0:0:0:
448,192,53426,1,0,0:0:0:0:
64,192,53486,1,0,0:0:0:0:
192,192,53486,1,0,0:0:0:0:
320,192,53545,1,0,0:0:0:0:
448,192,53545,1,0,0:0:0:0:
64,192,53605,1,0,0:0:0:0:
192,192,53605,1,0,0:0:0:0:
320,192,53664,1,0,0:0:0:0:
448,192,53664,1,0,0:0:0:0:
192,192,53724,1,0,0:0:0:0:
64,192,53724,1,0,0:0:0:0:
320,192,53783,1,0,0:0:0:0:
448,192,53842,1,0,0:0:0:0:
64,192,53842,1,0,0:0:0:0:
192,192,53902,1,0,0:0:0:0:
320,192,53902,1,0,0:0:0:0:
448,192,53962,1,0,0:0:0:0:
64,192,53962,1,0,0:0:0:0:
192,192,54021,1,0,0:0:0:0:
320,192,54021,1,0,0:0:0:0:
448,192,54080,1,0,0:0:0:0:
64,192,54080,1,0,0:0:0:0:
192,192,54140,1,0,0:0:0:0:
320,192,54140,1,0,0:0:0:0:
64,192,54200,1,0,0:0:0:0:
448,192,54200,1,0,0:0:0:0:
192,192,54259,1,0,0:0:0:0:
320,192,54318,1,0,0:0:0:0:
448,192,54318,1,0,0:0:0:0:
192,192,54377,1,0,0:0:0:0:
448,192,54437,1,0,0:0:0:0:
64,192,54437,1,0,0:0:0:0:
320,192,54497,1,0,0:0:0:0:
192,192,54556,1,0,0:0:0:0:
64,192,54556,1,0,0:0:0:0:
448,192,54616,1,0,0:0:0:0:
320,192,54675,1,0,0:0:0:0:
64,192,54675,1,0,0:0:0:0:
192,192,54735,1,0,0:0:0:0:
448,192,54794,1,0,0:0:0:0:
320,192,54794,1,0,0:0:0:0:
192,192,54854,1,0,0:0:0:0:
64,192,54854,1,0,0:0:0:0:
320,192,54913,1,0,0:0:0:0:
448,192,54913,1,0,0:0:0:0:
64,192,54972,1,0,0:0:0:0:
192,192,55032,1,0,0:0:0:0:
320,192,55032,1,0,0:0:0:0:
448,192,55092,1,0,0:0:0:0:
64,192,55151,1,0,0:0:0:0:
192,192,55151,1,0,0:0:0:0:
320,192,55210,1,0,0:0:0:0:
448,192,55270,1,0,0:0:0:0:
64,192,55270,1,0,0:0:0:0:
192,192,55330,1,0,0:0:0:0:
448,192,55389,1,0,0:0:0:0:
320,192,55389,1,0,0:0:0:0:
64,192,55448,1,0,0:0:0:0:
192,192,55507,1,0,0:0:0:0:
320,192,55507,1,0,0:0:0:0:
448,192,55567,1,0,0:0:0:0:
64,192,55627,1,0,0:0:0:0:
192,192,55627,1,0,0:0:0:0:
320,192,55686,1,0,0:0:0:0:
448,192,55746,1,0,0:0:0:0:
64,192,55746,1,0,0:0:0:0:
192,192,55805,1,0,0:0:0:0:
320,192,55865,1,0,0:0:0:0:
448,192,55865,1,0,0:0:0:0:
64,192,55924,1,0,0:0:0:0:
448,192,55984,1,0,0:0:0:0:
192,192,55984,1,0,0:0:0:0:
320,192,56043,1,0,0:0:0:0:
448,192,56102,1,0,0:0:0:0:
64,192,56102,1,0,0:0:0:0:
192,192,56162,1,0,0:0:0:0:
64,192,56222,1,0,0:0:0:0:
448,192,56222,1,0,0:0:0:0:
320,192,56281,1,0,0:0:0:0:
192,192,56340,1,0,0:0:0:0:
448,192,56340,1,0,0:0:0:0:
64,192,56400,1,0,0:0:0:0:
192,192,56460,1,0,0:0:0:0:
320,192,56460,1,0,0:0:0:0:
448,192,56519,1,0,0:0:0:0:
64,192,56578,1,0,0:0:0:0:
192,192,56578,1,0,0:0:0:0:
320,192,56638,1,0,0:0:0:0:
64,192,56697,1,0,0:0:0:0:
448,192,56697,1,0,0:0:0:0:
192,192,56757,1,0,0:0:0:0:
320,192,56816,1,0,0:0:0:0:
448,192,56816,1,0,0:0:0:0:
64,192,56876,1,0,0:0:0:0:
192,192,56935,1,0,0:0:0:0:
320,192,56935,1,0,0:0:0:0:
448,192,56995,1,0,0:0:0:0:
320,192,57054,1,0,0:0:0:0:
64,192,57054,1,0,0:0:0:0:
192,192,57114,1,0,0:0:0:0:
320,192,57173,1,0,0:0:0:0:
448,192,57173,1,0,0:0:0:0:
64,192,57232,1,0,0:0:0:0:
192,192,57232,1,0,0:0:0:0:
448,192,57292,1,0,0:0:0:0:
320,192,57292,1,0,0:0:0:0:
192,192,57352,1,0,0:0:0:0:
64,192,57352,1,0,0:0:0:0:
320,192,57411,1,0,0:0:0:0:
448,192,57411,1,0,0:0:0:0:
192,192,57470,1,0,0:0:0:0:
64,192,57470,1,0,0:0:0:0:
448,192,57530,1,0,0:0:0:0:
320,192,57530,1,0,0:0:0:0:
192,192,57590,1,0,0:0:0:0:
64,192,57590,1,0,0:0:0:0:
320,192,57649,1,0,0:0:0:0:
448,192,57649,1,0,0:0:0:0:
192,192,57708,1,0,0:0:0:0:
64,192,57708,1,0,0:0:0:0:
448,192,57768,1,0,0:0:0:0:
320,192,57768,1,0,0:0:0:0:
192,192,57827,1,0,0:0:0:0:
64,192,57827,1,0,0:0:0:0:
320,192,57887,1,0,0:0:0:0:
448,192,57887,1,0,0:0:0:0:
192,192,57946,1,0,0:0:0:0:
64,192,58006,1,0,0:0:0:0:
448,192,58006,1,0,0:0:0:0:
320,192,58065,1,0,0:0:0:0:
192,192,58125,1,0,0:0:0:0:
64,192,58125,1,0,0:0:0:0:
448,192,58184,1,0,0:0:0:0:
64,192,58244,1,0,0:0:0:0:
320,192,58244,1,0,0:0:0:0:
192,192,58303,1,0,0:0:0:0:
320,192,58362,1,0,0:0:0:0:
448,192,58362,1,0,0:0:0:0:
64,192,58422,1,0,0:0:0:0:
192,192,58482,1,0,0:0:0:0:
448,192,58482,1,0,0:0:0:0:
320,192,58541,1,0,0:0:0:0:
192,192,58600,1,0,0:0:0:0:
64,192,58600,1,0,0:0:0:0:
448,192,58720,1,0,0:0:0:0:
192,192,58838,1,0,0:0:0:0:
64,192,58957,1,0,0:0:0:0:
192,192,59076,1,0,0:0:0:0:
320,192,59076,1,0,0:0:0:0:
448,192,59076,1,0,0:0:0:0:
64,192,59314,1,0,0:0:0:0:
320,192,59314,1,0,0:0:0:0:
448,192,59314,1,0,0:0:0:0:
192,192,59492,1,0,0:0:0:0:
320,192,59552,1,0,0:0:0:0:
64,192,59552,1,0,0:0:0:0:
448,192,59612,1,0,0:0:0:0:
320,192,59671,1,0,0:0:0:0:
192,192,59730,1,0,0:0:0:0:
448,192,59790,1,0,0:0:0:0:
320,192,59790,1,0,0:0:0:0:
192,192,59850,1,0,0:0:0:0:
320,192,59909,1,0,0:0:0:0:
64,192,59968,1,0,0:0:0:0:
320,192,60028,1,0,0:0:0:0:
448,192,60028,1,0,0:0:0:0:
192,192,60147,1,0,0:0:0:0:
320,192,60206,1,0,0:0:0:0:
192,192,60266,1,0,0:0:0:0:
64,192,60266,1,0,0:0:0:0:
320,192,60325,1,0,0:0:0:0:
448,192,60385,1,0,0:0:0:0:
320,192,60504,1,0,0:0:0:0:
192,192,60504,1,0,0:0:0:0:
64,192,60563,1,0,0:0:0:0:
192,192,60622,1,0,0:0:0:0:
64,192,60682,1,0,0:0:0:0:
192,192,60742,1,0,0:0:0:0:
448,192,60742,1,0,0:0:0:0:
320,192,60801,1,0,0:0:0:0:
192,192,60860,1,0,0:0:0:0:
320,192,60980,1,0,0:0:0:0:
448,192,60980,1,0,0:0:0:0:
192,192,61098,1,0,0:0:0:0:
320,192,61158,1,0,0:0:0:0:
192,192,61217,1,0,0:0:0:0:
64,192,61217,1,0,0:0:0:0:
320,192,61277,1,0,0:0:0:0:
448,192,61336,1,0,0:0:0:0:
192,192,61396,1,0,0:0:0:0:
64,192,61455,1,0,0:0:0:0:
320,192,61455,1,0,0:0:0:0:
192,192,61515,1,0,0:0:0:0:
320,192,61574,1,0,0:0:0:0:
64,192,61634,1,0,0:0:0:0:
192,192,61693,1,0,0:0:0:0:
320,192,61693,1,0,0:0:0:0:
448,192,61693,1,0,0:0:0:0:
64,192,61752,1,0,0:0:0:0:
320,192,61812,1,0,0:0:0:0:
192,192,61931,1,0,0:0:0:0:
64,192,61931,1,0,0:0:0:0:
448,192,62050,1,0,0:0:0:0:
320,192,62110,1,0,0:0:0:0:
192,192,62169,1,0,0:0:0:0:
64,192,62169,1,0,0:0:0:0:
320,192,62228,1,0,0:0:0:0:
64,192,62288,1,0,0:0:0:0:
448,192,62407,1,0,0:0:0:0:
64,192,62407,1,0,0:0:0:0:
320,192,62466,1,0,0:0:0:0:
192,192,62466,1,0,0:0:0:0:
448,192,62526,1,0,0:0:0:0:
64,192,62526,1,0,0:0:0:0:
192,192,62585,1,0,0:0:0:0:
320,192,62645,1,0,0:0:0:0:
64,192,62645,1,0,0:0:0:0:
448,192,62645,1,0,0:0:0:0:
192,192,62764,1,0,0:0:0:0:
64,192,62882,1,0,0:0:0:0:
320,192,62882,1,0,0:0:0:0:
448,192,62882,1,0,0:0:0:0:
448,192,63120,1,0,0:0:0:0:
64,192,63120,1,0,0:0:0:0:
192,192,63120,1,0,0:0:0:0:
192,192,63299,1,0,0:0:0:0:
320,192,63358,1,0,0:0:0:0:
448,192,63358,1,0,0:0:0:0:
64,192,63418,1,0,0:0:0:0:
192,192,63477,1,0,0:0:0:0:
320,192,63537,1,0,0:0:0:0:
192,192,63596,1,0,0:0:0:0:
64,192,63596,1,0,0:0:0:0:
448,192,63656,1,0,0:0:0:0:
64,192,63715,1,0,0:0:0:0:
192,192,63775,1,0,0:0:0:0:
320,192,63834,1,0,0:0:0:0:
448,192,63834,1,0,0:0:0:0:
192,192,63953,1,0,0:0:0:0:
320,192,64012,1,0,0:0:0:0:
64,192,64072,1,0,0:0:0:0:
192,192,64072,1,0,0:0:0:0:
448,192,64132,1,0,0:0:0:0:
64,192,64191,1,0,0:0:0:0:
320,192,64310,1,0,0:0:0:0:
448,192,64310,1,0,0:0:0:0:
192,192,64370,1,0,0:0:0:0:
320,192,64429,1,0,0:0:0:0:
448,192,64488,1,0,0:0:0:0:
192,192,64548,1,0,0:0:0:0:
320,192,64548,1,0,0:0:0:0:
64,192,64607,1,0,0:0:0:0:
192,192,64667,1,0,0:0:0:0:
320,192,64786,1,0,0:0:0:0:
448,192,64786,1,0,0:0:0:0:
64,192,64786,1,0,0:0:0:0:
448,192,64905,1,0,0:0:0:0:
320,192,64964,1,0,0:0:0:0:
192,192,65024,1,0,0:0:0:0:
64,192,65024,1,0,0:0:0:0:
320,192,65083,1,0,0:0:0:0:
448,192,65142,1,0,0:0:0:0:
320,192,65202,1,0,0:0:0:0:
192,192,65262,1,0,0:0:0:0:
64,192,65262,1,0,0:0:0:0:
448,192,65321,1,0,0:0:0:0:
192,192,65380,1,0,0:0:0:0:
64,192,65440,1,0,0:0:0:0:
192,192,65500,1,0,0:0:0:0:
320,192,65500,1,0,0:0:0:0:
448,192,65500,1,0,0:0:0:0:
64,192,65559,1,0,0:0:0:0:
192,192,65618,1,0,0:0:0:0:
320,192,65737,1,0,0:0:0:0:
448,192,65737,1,0,0:0:0:0:
448,192,65856,1,0,0:0:0:0:
320,192,65916,1,0,0:0:0:0:
192,192,65975,1,0,0:0:0:0:
64,192,65975,1,0,0:0:0:0:
448,192,66035,1,0,0:0:0:0:
64,192,66094,1,0,0:0:0:0:
192,192,66213,1,0,0:0:0:0:
320,192,66213,1,0,0:0:0:0:
448,192,66213,128,0,66451:0:0:0:0:
64,192,66451,128,0,66689:0:0:0:0:
192,192,66451,1,0,0:0:0:0:
320,192,66451,1,0,0:0:0:0:
448,192,66689,128,0,66927:0:0:0:0:
192,192,66689,1,0,0:0:0:0:
192,192,66927,1,0,0:0:0:0:
64,192,66927,1,0,0:0:0:0:
448,192,67105,1,0,0:0:0:0:
64,192,67165,1,0,0:0:0:0:
192,192,67165,1,0,0:0:0:0:
448,192,67224,1,0,0:0:0:0:
320,192,67284,1,0,0:0:0:0:
192,192,67343,1,0,0:0:0:0:
320,192,67402,1,0,0:0:0:0:
448,192,67402,1,0,0:0:0:0:
192,192,67462,1,0,0:0:0:0:
320,192,67522,1,0,0:0:0:0:
192,192,67581,1,0,0:0:0:0:
320,192,67640,1,0,0:0:0:0:
448,192,67640,1,0,0:0:0:0:
64,192,67640,1,0,0:0:0:0:
192,192,67760,1,0,0:0:0:0:
320,192,67819,1,0,0:0:0:0:
192,192,67878,1,0,0:0:0:0:
64,192,67878,1,0,0:0:0:0:
448,192,67938,1,0,0:0:0:0:
320,192,67997,1,0,0:0:0:0:
320,192,68116,1,0,0:0:0:0:
448,192,68116,1,0,0:0:0:0:
192,192,68176,1,0,0:0:0:0:
320,192,68235,1,0,0:0:0:0:
192,192,68295,1,0,0:0:0:0:
320,192,68355,1,0,0:0:0:0:
448,192,68355,1,0,0:0:0:0:
192,192,68414,1,0,0:0:0:0:
64,192,68473,1,0,0:0:0:0:
192,192,68592,1,0,0:0:0:0:
64,192,68592,1,0,0:0:0:0:
320,192,68592,1,0,0:0:0:0:
192,192,68711,1,0,0:0:0:0:
64,192,68770,1,0,0:0:0:0:
192,192,68830,1,0,0:0:0:0:
320,192,68830,1,0,0:0:0:0:
448,192,68890,1,0,0:0:0:0:
320,192,68949,1,0,0:0:0:0:
192,192,69008,1,0,0:0:0:0:
448,192,69068,1,0,0:0:0:0:
64,192,69068,1,0,0:0:0:0:
192,192,69127,1,0,0:0:0:0:
64,192,69187,1,0,0:0:0:0:
192,192,69246,1,0,0:0:0:0:
64,192,69306,1,0,0:0:0:0:
320,192,69306,1,0,0:0:0:0:
448,192,69306,1,0,0:0:0:0:
192,192,69365,1,0,0:0:0:0:
320,192,69425,1,0,0:0:0:0:
192,192,69544,1,0,0:0:0:0:
64,192,69544,1,0,0:0:0:0:
320,192,69603,1,0,0:0:0:0:
448,192,69662,1,0,0:0:0:0:
320,192,69722,1,0,0:0:0:0:
192,192,69782,1,0,0:0:0:0:
64,192,69782,1,0,0:0:0:0:
448,192,69841,1,0,0:0:0:0:
64,192,69900,1,0,0:0:0:0:
64,192,70020,1,0,0:0:0:0:
192,192,70020,1,0,0:0:0:0:
320,192,70079,1,0,0:0:0:0:
448,192,70079,1,0,0:0:0:0:
64,192,70138,1,0,0:0:0:0:
192,192,70138,1,0,0:0:0:0:
320,192,70198,1,0,0:0:0:0:
64,192,70257,1,0,0:0:0:0:
448,192,70257,1,0,0:0:0:0:
192,192,70257,1,0,0:0:0:0:
320,192,70376,1,0,0:0:0:0:
192,192,70495,1,0,0:0:0:0:
64,192,70495,1,0,0:0:0:0:
448,192,70495,1,0,0:0:0:0:
64,192,70733,1,0,0:0:0:0:
320,192,70733,1,0,0:0:0:0:
448,192,70733,1,0,0:0:0:0:
192,192,70852,1,0,0:0:0:0:
320,192,70912,1,0,0:0:0:0:
64,192,70971,1,0,0:0:0:0:
448,192,70971,1,0,0:0:0:0:
192,192,71030,1,0,0:0:0:0:
320,192,71090,1,0,0:0:0:0:
64,192,71150,1,0,0:0:0:0:
320,192,71209,1,0,0:0:0:0:
448,192,71209,1,0,0:0:0:0:
192,192,71268,1,0,0:0:0:0:
320,192,71328,1,0,0:0:0:0:
64,192,71387,1,0,0:0:0:0:
192,192,71447,1,0,0:0:0:0:
448,192,71447,1,0,0:0:0:0:
64,192,71566,1,0,0:0:0:0:
192,192,71625,1,0,0:0:0:0:
64,192,71685,1,0,0:0:0:0:
448,192,71685,1,0,0:0:0:0:
320,192,71745,1,0,0:0:0:0:
448,192,71804,1,0,0:0:0:0:
192,192,71922,1,0,0:0:0:0:
64,192,71922,1,0,0:0:0:0:
448,192,71922,1,0,0:0:0:0:
320,192,71982,1,0,0:0:0:0:
448,192,72042,1,0,0:0:0:0:
320,192,72101,1,0,0:0:0:0:
192,192,72160,1,0,0:0:0:0:
64,192,72160,1,0,0:0:0:0:
320,192,72220,1,0,0:0:0:0:
192,192,72280,1,0,0:0:0:0:
320,192,72398,1,0,0:0:0:0:
448,192,72398,1,0,0:0:0:0:
64,192,72398,1,0,0:0:0:0:
192,192,72517,1,0,0:0:0:0:
320,192,72577,1,0,0:0:0:0:
64,192,72637,1,0,0:0:0:0:
192,192,72637,1,0,0:0:0:0:
320,192,72696,1,0,0:0:0:0:
448,192,72755,1,0,0:0:0:0:
192,192,72815,1,0,0:0:0:0:
320,192,72875,1,0,0:0:0:0:
448,192,72875,1,0,0:0:0:0:
64,192,72934,1,0,0:0:0:0:
192,192,72993,1,0,0:0:0:0:
320,192,73052,1,0,0:0:0:0:
64,192,73112,1,0,0:0:0:0:
192,192,73112,1,0,0:0:0:0:
448,192,73112,1,0,0:0:0:0:
320,192,73172,1,0,0:0:0:0:
448,192,73231,1,0,0:0:0:0:
192,192,73350,1,0,0:0:0:0:
64,192,73350,1,0,0:0:0:0:
448,192,73350,1,0,0:0:0:0:
320,192,73469,1,0,0:0:0:0:
192,192,73528,1,0,0:0:0:0:
320,192,73588,1,0,0:0:0:0:
64,192,73588,1,0,0:0:0:0:
448,192,73647,1,0,0:0:0:0:
320,192,73707,1,0,0:0:0:0:
192,192,73826,128,0,74064:0:0:0:0:
64,192,73826,1,0,0:0:0:0:
320,192,74064,128,0,74302:0:0:0:0:
448,192,74064,1,0,0:0:0:0:
192,192,74302,128,0,75015:0:0:0:0:
64,192,74302,128,0,76205:0:0:0:0:
