osu file format v14

[General]
AudioFilename: audio_1.3_P.mp3
AudioLeadIn: 0
PreviewTime: 0
Countdown: 0
SampleSet: None
StackLeniency: 0.7
Mode: 3
LetterboxInBreaks: 0
SpecialStyle: 0
WidescreenStoryboard: 1

[Editor]
Bookmarks: 2397,20603,28266,28778,43125,47224,53373,54397,63236
DistanceSpacing: 0.5
BeatDivisor: 4
GridSize: 4
TimelineZoom: 1

[Metadata]
Title:Exciting Hyper Highspeed Star
TitleUnicode:Exciting Hyper Highspeed Star
Artist:DJ Sharpnel
ArtistUnicode:DJ Sharpnel
Creator:Midgy
Version:Hard x1.3
Source:
Tags:EHHS DJ Sharpnel Excited Hyper Highspeed Star J-Core
BeatmapID:1687933
BeatmapSetID:804138

[Difficulty]
HPDrainRate:8.7
CircleSize:4
OverallDifficulty:8
ApproachRate:5
SliderMultiplier:1.4
SliderTickRate:1

[Events]
//Background and Video events
0,0,"maxresdefault.jpg",0,0
//Break Periods
//Storyboard Layer 0 (Background)
//Storyboard Layer 1 (Fail)
//Storyboard Layer 2 (Pass)
//Storyboard Layer 3 (Foreground)
//Storyboard Sound Samples

[TimingPoints]
84,256.196759110997,4,2,0,100,1,0

[HitObjects]
64,192,84,5,0,0:0:0:0:
192,192,84,1,0,0:0:0:0:
320,192,84,1,0,0:0:0:0:
192,192,340,1,0,0:0:0:0:
320,192,340,1,0,0:0:0:0:
448,192,340,1,0,0:0:0:0:
448,192,596,1,0,0:0:0:0:
320,192,596,1,0,0:0:0:0:
64,192,596,1,0,0:0:0:0:
320,192,853,1,0,0:0:0:0:
192,192,853,1,0,0:0:0:0:
64,192,853,1,0,0:0:0:0:
64,192,1109,1,0,0:0:0:0:
192,192,1109,1,0,0:0:0:0:
448,192,1109,1,0,0:0:0:0:
320,192,1365,1,0,0:0:0:0:
448,192,1365,1,0,0:0:0:0:
192,192,1365,1,0,0:0:0:0:
192,192,1621,1,0,0:0:0:0:
64,192,1621,1,0,0:0:0:0:
320,192,1621,1,0,0:0:0:0:
192,192,1877,1,0,0:0:0:0:
64,192,1877,1,0,0:0:0:0:
320,192,1877,1,0,0:0:0:0:
448,192,2133,1,0,0:0:0:0:
320,192,2133,1,0,0:0:0:0:
64,192,2133,1,0,0:0:0:0:
64,192,2390,1,0,0:0:0:0:
192,192,2390,1,0,0:0:0:0:
448,192,2390,128,0,2518:0:0:0:0:
320,192,2646,1,0,0:0:0:0:
192,192,2646,1,0,0:0:0:0:
192,192,2902,1,0,0:0:0:0:
320,192,2902,1,0,0:0:0:0:
64,192,2902,128,0,3030:0:0:0:0:
448,192,3158,1,0,0:0:0:0:
320,192,3158,1,0,0:0:0:0:
320,192,3414,128,0,3543:0:0:0:0:
192,192,3414,1,0,0:0:0:0:
64,192,3414,1,0,0:0:0:0:
448,192,3670,1,0,0:0:0:0:
320,192,3670,1,0,0:0:0:0:
192,192,3799,1,0,0:0:0:0:
64,192,3926,1,0,0:0:0:0:
448,192,4055,1,0,0:0:0:0:
192,192,4183,1,0,0:0:0:0:
320,192,4183,1,0,0:0:0:0:
448,192,4183,1,0,0:0:0:0:
64,192,4439,1,0,0:0:0:0:
320,192,4439,1,0,0:0:0:0:
448,192,4439,1,0,0:0:0:0:
192,192,4631,1,0,0:0:0:0:
320,192,4696,1,0,0:0:0:0:
64,192,4696,1,0,0:0:0:0:
448,192,4760,1,0,0:0:0:0:
320,192,4823,1,0,0:0:0:0:
192,192,4887,1,0,0:0:0:0:
448,192,4952,1,0,0:0:0:0:
320,192,4952,1,0,0:0:0:0:
192,192,5016,1,0,0:0:0:0:
320,192,5080,1,0,0:0:0:0:
64,192,5143,1,0,0:0:0:0:
320,192,5208,1,0,0:0:0:0:
448,192,5208,1,0,0:0:0:0:
192,192,5336,1,0,0:0:0:0:
320,192,5400,1,0,0:0:0:0:
192,192,5464,1,0,0:0:0:0:
64,192,5464,1,0,0:0:0:0:
320,192,5528,1,0,0:0:0:0:
448,192,5592,1,0,0:0:0:0:
320,192,5720,1,0,0:0:0:0:
192,192,5720,1,0,0:0:0:0:
64,192,5784,1,0,0:0:0:0:
192,192,5848,1,0,0:0:0:0:
64,192,5913,1,0,0:0:0:0:
192,192,5976,1,0,0:0:0:0:
448,192,5976,1,0,0:0:0:0:
320,192,6040,1,0,0:0:0:0:
192,192,6104,1,0,0:0:0:0:
320,192,6233,1,0,0:0:0:0:
448,192,6233,1,0,0:0:0:0:
192,192,6360,1,0,0:0:0:0:
320,192,6425,1,0,0:0:0:0:
192,192,6489,1,0,0:0:0:0:
64,192,6489,1,0,0:0:0:0:
320,192,6553,1,0,0:0:0:0:
448,192,6616,1,0,0:0:0:0:
192,192,6681,1,0,0:0:0:0:
64,192,6745,1,0,0:0:0:0:
320,192,6745,1,0,0:0:0:0:
192,192,6809,1,0,0:0:0:0:
320,192,6873,1,0,0:0:0:0:
64,192,6937,1,0,0:0:0:0:
192,192,7001,1,0,0:0:0:0:
320,192,7001,1,0,0:0:0:0:
448,192,7001,1,0,0:0:0:0:
64,192,7065,1,0,0:0:0:0:
320,192,7130,1,0,0:0:0:0:
192,192,7257,1,0,0:0:0:0:
64,192,7257,1,0,0:0:0:0:
448,192,7386,1,0,0:0:0:0:
320,192,7450,1,0,0:0:0:0:
192,192,7513,1,0,0:0:0:0:
64,192,7513,1,0,0:0:0:0:
320,192,7577,1,0,0:0:0:0:
64,192,7642,1,0,0:0:0:0:
448,192,7770,1,0,0:0:0:0:
320,192,7770,1,0,0:0:0:0:
192,192,7833,1,0,0:0:0:0:
64,192,7833,1,0,0:0:0:0:
448,192,7898,1,0,0:0:0:0:
320,192,7898,1,0,0:0:0:0:
192,192,7962,1,0,0:0:0:0:
64,192,8026,1,0,0:0:0:0:
448,192,8026,1,0,0:0:0:0:
320,192,8026,1,0,0:0:0:0:
192,192,8154,1,0,0:0:0:0:
64,192,8282,1,0,0:0:0:0:
448,192,8282,1,0,0:0:0:0:
320,192,8282,1,0,0:0:0:0:
448,192,8538,1,0,0:0:0:0:
64,192,8538,1,0,0:0:0:0:
192,192,8538,1,0,0:0:0:0:
192,192,8730,1,0,0:0:0:0:
320,192,8794,1,0,0:0:0:0:
448,192,8794,1,0,0:0:0:0:
64,192,8859,1,0,0:0:0:0:
192,192,8923,1,0,0:0:0:0:
320,192,8986,1,0,0:0:0:0:
192,192,9050,1,0,0:0:0:0:
64,192,9050,1,0,0:0:0:0:
448,192,9115,1,0,0:0:0:0:
64,192,9179,1,0,0:0:0:0:
192,192,9243,1,0,0:0:0:0:
320,192,9307,1,0,0:0:0:0:
448,192,9307,1,0,0:0:0:0:
192,192,9435,1,0,0:0:0:0:
320,192,9499,1,0,0:0:0:0:
64,192,9563,1,0,0:0:0:0:
192,192,9563,1,0,0:0:0:0:
448,192,9627,1,0,0:0:0:0:
64,192,9691,1,0,0:0:0:0:
320,192,9820,1,0,0:0:0:0:
448,192,9820,1,0,0:0:0:0:
192,192,9883,1,0,0:0:0:0:
320,192,9947,1,0,0:0:0:0:
448,192,10011,1,0,0:0:0:0:
192,192,10076,1,0,0:0:0:0:
320,192,10076,1,0,0:0:0:0:
64,192,10140,1,0,0:0:0:0:
192,192,10203,1,0,0:0:0:0:
320,192,10332,1,0,0:0:0:0:
448,192,10332,1,0,0:0:0:0:
64,192,10332,1,0,0:0:0:0:
448,192,10460,1,0,0:0:0:0:
320,192,10524,1,0,0:0:0:0:
192,192,10588,1,0,0:0:0:0:
64,192,10588,1,0,0:0:0:0:
320,192,10652,1,0,0:0:0:0:
448,192,10716,1,0,0:0:0:0:
320,192,10780,1,0,0:0:0:0:
192,192,10844,1,0,0:0:0:0:
64,192,10844,1,0,0:0:0:0:
448,192,10908,1,0,0:0:0:0:
192,192,10972,1,0,0:0:0:0:
64,192,11036,1,0,0:0:0:0:
192,192,11100,1,0,0:0:0:0:
320,192,11100,1,0,0:0:0:0:
448,192,11100,1,0,0:0:0:0:
64,192,11164,1,0,0:0:0:0:
192,192,11228,1,0,0:0:0:0:
320,192,11356,1,0,0:0:0:0:
448,192,11356,1,0,0:0:0:0:
448,192,11484,1,0,0:0:0:0:
320,192,11549,1,0,0:0:0:0:
192,192,11613,1,0,0:0:0:0:
64,192,11613,1,0,0:0:0:0:
448,192,11676,1,0,0:0:0:0:
64,192,11741,1,0,0:0:0:0:
192,192,11869,1,0,0:0:0:0:
320,192,11869,1,0,0:0:0:0:
448,192,11869,128,0,12125:0:0:0:0:
64,192,12125,128,0,12381:0:0:0:0:
192,192,12125,1,0,0:0:0:0:
320,192,12125,1,0,0:0:0:0:
448,192,12381,128,0,12637:0:0:0:0:
192,192,12381,1,0,0:0:0:0:
192,192,12637,1,0,0:0:0:0:
64,192,12637,1,0,0:0:0:0:
448,192,12830,1,0,0:0:0:0:
64,192,12893,1,0,0:0:0:0:
192,192,12893,1,0,0:0:0:0:
448,192,12958,1,0,0:0:0:0:
320,192,13022,1,0,0:0:0:0:
192,192,13086,1,0,0:0:0:0:
320,192,13150,1,0,0:0:0:0:
448,192,13150,1,0,0:0:0:0:
192,192,13214,1,0,0:0:0:0:
320,192,13278,1,0,0:0:0:0:
192,192,13342,1,0,0:0:0:0:
320,192,13406,1,0,0:0:0:0:
448,192,13406,1,0,0:0:0:0:
64,192,13406,1,0,0:0:0:0:
192,192,13534,1,0,0:0:0:0:
320,192,13598,1,0,0:0:0:0:
192,192,13662,1,0,0:0:0:0:
64,192,13662,1,0,0:0:0:0:
448,192,13726,1,0,0:0:0:0:
320,192,13790,1,0,0:0:0:0:
320,192,13919,1,0,0:0:0:0:
448,192,13919,1,0,0:0:0:0:
192,192,13983,1,0,0:0:0:0:
320,192,14046,1,0,0:0:0:0:
192,192,14110,1,0,0:0:0:0:
320,192,14175,1,0,0:0:0:0:
448,192,14175,1,0,0:0:0:0:
192,192,14239,1,0,0:0:0:0:
64,192,14303,1,0,0:0:0:0:
192,192,14431,1,0,0:0:0:0:
64,192,14431,1,0,0:0:0:0:
320,192,14431,1,0,0:0:0:0:
192,192,14559,1,0,0:0:0:0:
64,192,14623,1,0,0:0:0:0:
192,192,14687,1,0,0:0:0:0:
320,192,14687,1,0,0:0:0:0:
448,192,14751,1,0,0:0:0:0:
320,192,14815,1,0,0:0:0:0:
192,192,14879,1,0,0:0:0:0:
448,192,14943,1,0,0:0:0:0:
64,192,14943,1,0,0:0:0:0:
192,192,15007,1,0,0:0:0:0:
64,192,15071,1,0,0:0:0:0:
192,192,15136,1,0,0:0:0:0:
64,192,15200,1,0,0:0:0:0:
320,192,15200,1,0,0:0:0:0:
448,192,15200,1,0,0:0:0:0:
192,192,15263,1,0,0:0:0:0:
320,192,15327,1,0,0:0:0:0:
192,192,15456,1,0,0:0:0:0:
64,192,15456,1,0,0:0:0:0:
320,192,15520,1,0,0:0:0:0:
448,192,15583,1,0,0:0:0:0:
320,192,15648,1,0,0:0:0:0:
192,192,15712,1,0,0:0:0:0:
64,192,15712,1,0,0:0:0:0:
448,192,15776,1,0,0:0:0:0:
64,192,15840,1,0,0:0:0:0:
64,192,15968,1,0,0:0:0:0:
448,192,15968,1,0,0:0:0:0:
320,192,16032,1,0,0:0:0:0:
192,192,16032,1,0,0:0:0:0:
64,192,16096,1,0,0:0:0:0:
448,192,16096,1,0,0:0:0:0:
192,192,16160,1,0,0:0:0:0:
64,192,16224,1,0,0:0:0:0:
448,192,16224,1,0,0:0:0:0:
320,192,16224,1,0,0:0:0:0:
192,192,16353,1,0,0:0:0:0:
64,192,16480,1,0,0:0:0:0:
448,192,16480,1,0,0:0:0:0:
320,192,16480,1,0,0:0:0:0:
64,192,16736,1,0,0:0:0:0:
448,192,16736,1,0,0:0:0:0:
192,192,16736,1,0,0:0:0:0:
320,192,16865,1,0,0:0:0:0:
192,192,16929,1,0,0:0:0:0:
64,192,16993,1,0,0:0:0:0:
448,192,16993,1,0,0:0:0:0:
192,192,17056,1,0,0:0:0:0:
320,192,17121,1,0,0:0:0:0:
64,192,17185,1,0,0:0:0:0:
320,192,17249,1,0,0:0:0:0:
448,192,17249,1,0,0:0:0:0:
192,192,17313,1,0,0:0:0:0:
320,192,17377,1,0,0:0:0:0:
64,192,17441,1,0,0:0:0:0:
192,192,17505,1,0,0:0:0:0:
448,192,17505,1,0,0:0:0:0:
64,192,17633,1,0,0:0:0:0:
192,192,17697,1,0,0:0:0:0:
64,192,17761,1,0,0:0:0:0:
448,192,17761,1,0,0:0:0:0:
320,192,17826,1,0,0:0:0:0:
448,192,17890,1,0,0:0:0:0:
192,192,18017,1,0,0:0:0:0:
64,192,18017,1,0,0:0:0:0:
448,192,18017,1,0,0:0:0:0:
320,192,18082,1,0,0:0:0:0:
448,192,18146,1,0,0:0:0:0:
320,192,18210,1,0,0:0:0:0:
192,192,18273,1,0,0:0:0:0:
64,192,18273,1,0,0:0:0:0:
320,192,18338,1,0,0:0:0:0:
192,192,18402,1,0,0:0:0:0:
320,192,18530,1,0,0:0:0:0:
448,192,18530,1,0,0:0:0:0:
64,192,18530,1,0,0:0:0:0:
192,192,18658,1,0,0:0:0:0:
320,192,18722,1,0,0:0:0:0:
64,192,18786,1,0,0:0:0:0:
192,192,18786,1,0,0:0:0:0:
320,192,18850,1,0,0:0:0:0:
448,192,18914,1,0,0:0:0:0:
192,192,18978,1,0,0:0:0:0:
320,192,19043,1,0,0:0:0:0:
448,192,19043,1,0,0:0:0:0:
64,192,19106,1,0,0:0:0:0:
192,192,19170,1,0,0:0:0:0:
320,192,19234,1,0,0:0:0:0:
64,192,19299,1,0,0:0:0:0:
192,192,19299,1,0,0:0:0:0:
448,192,19299,1,0,0:0:0:0:
320,192,19363,1,0,0:0:0:0:
448,192,19426,1,0,0:0:0:0:
192,192,19555,1,0,0:0:0:0:
64,192,19555,1,0,0:0:0:0:
448,192,19555,1,0,0:0:0:0:
320,192,19683,1,0,0:0:0:0:
192,192,19747,1,0,0:0:0:0:
320,192,19811,1,0,0:0:0:0:
64,192,19811,1,0,0:0:0:0:
448,192,19875,1,0,0:0:0:0:
320,192,19939,1,0,0:0:0:0:
192,192,20067,128,0,20323:0:0:0:0:
64,192,20067,1,0,0:0:0:0:
320,192,20323,128,0,20580:0:0:0:0:
448,192,20323,1,0,0:0:0:0:
64,192,20580,1,0,0:0:0:0:
192,192,20643,1,0,0:0:0:0:
320,192,20707,1,0,0:0:0:0:
448,192,20707,1,0,0:0:0:0:
192,192,20772,1,0,0:0:0:0:
64,192,20836,1,0,0:0:0:0:
448,192,20836,1,0,0:0:0:0:
320,192,20900,1,0,0:0:0:0:
192,192,20964,1,0,0:0:0:0:
64,192,20964,1,0,0:0:0:0:
448,192,21028,1,0,0:0:0:0:
320,192,21092,1,0,0:0:0:0:
192,192,21092,1,0,0:0:0:0:
64,192,21156,1,0,0:0:0:0:
448,192,21220,1,0,0:0:0:0:
320,192,21220,1,0,0:0:0:0:
192,192,21284,1,0,0:0:0:0:
64,192,21348,1,0,0:0:0:0:
448,192,21348,1,0,0:0:0:0:
192,192,21412,1,0,0:0:0:0:
320,192,21476,1,0,0:0:0:0:
448,192,21476,1,0,0:0:0:0:
64,192,21540,1,0,0:0:0:0:
192,192,21604,1,0,0:0:0:0:
320,192,21604,1,0,0:0:0:0:
448,192,21668,1,0,0:0:0:0:
64,192,21733,1,0,0:0:0:0:
192,192,21733,1,0,0:0:0:0:
320,192,21796,1,0,0:0:0:0:
448,192,21860,1,0,0:0:0:0:
64,192,21860,1,0,0:0:0:0:
192,192,21925,1,0,0:0:0:0:
320,192,21989,1,0,0:0:0:0:
448,192,21989,1,0,0:0:0:0:
64,192,22053,1,0,0:0:0:0:
192,192,22116,1,0,0:0:0:0:
320,192,22116,1,0,0:0:0:0:
448,192,22181,1,0,0:0:0:0:
320,192,22245,1,0,0:0:0:0:
64,192,22245,1,0,0:0:0:0:
192,192,22309,1,0,0:0:0:0:
320,192,22373,1,0,0:0:0:0:
448,192,22373,1,0,0:0:0:0:
64,192,22437,1,0,0:0:0:0:
192,192,22501,1,0,0:0:0:0:
448,192,22501,1,0,0:0:0:0:
320,192,22565,1,0,0:0:0:0:
192,192,22629,1,0,0:0:0:0:
64,192,22629,1,0,0:0:0:0:
448,192,22693,1,0,0:0:0:0:
320,192,22757,1,0,0:0:0:0:
64,192,22757,1,0,0:0:0:0:
192,192,22821,1,0,0:0:0:0:
320,192,22885,1,0,0:0:0:0:
448,192,22885,1,0,0:0:0:0:
192,192,22950,1,0,0:0:0:0:
448,192,23013,1,0,0:0:0:0:
64,192,23013,1,0,0:0:0:0:
320,192,23077,1,0,0:0:0:0:
448,192,23142,1,0,0:0:0:0:
192,192,23142,1,0,0:0:0:0:
64,192,23206,1,0,0:0:0:0:
320,192,23270,1,0,0:0:0:0:
448,192,23270,1,0,0:0:0:0:
64,192,23333,1,0,0:0:0:0:
192,192,23398,1,0,0:0:0:0:
320,192,23398,1,0,0:0:0:0:
448,192,23462,1,0,0:0:0:0:
64,192,23526,1,0,0:0:0:0:
320,192,23526,1,0,0:0:0:0:
192,192,23590,1,0,0:0:0:0:
448,192,23654,1,0,0:0:0:0:
320,192,23654,1,0,0:0:0:0:
192,192,23718,1,0,0:0:0:0:
64,192,23718,1,0,0:0:0:0:
448,192,23782,1,0,0:0:0:0:
320,192,23782,1,0,0:0:0:0:
192,192,23846,1,0,0:0:0:0:
64,192,23846,1,0,0:0:0:0:
320,192,23910,1,0,0:0:0:0:
448,192,23910,1,0,0:0:0:0:
192,192,23974,1,0,0:0:0:0:
64,192,23974,1,0,0:0:0:0:
448,192,24038,1,0,0:0:0:0:
320,192,24038,1,0,0:0:0:0:
192,192,24102,1,0,0:0:0:0:
448,192,24166,1,0,0:0:0:0:
64,192,24166,1,0,0:0:0:0:
320,192,24230,1,0,0:0:0:0:
192,192,24230,1,0,0:0:0:0:
448,192,24294,1,0,0:0:0:0:
64,192,24294,1,0,0:0:0:0:
320,192,24359,1,0,0:0:0:0:
192,192,24359,1,0,0:0:0:0:
448,192,24423,1,0,0:0:0:0:
64,192,24423,1,0,0:0:0:0:
320,192,24486,1,0,0:0:0:0:
192,192,24550,1,0,0:0:0:0:
64,192,24550,1,0,0:0:0:0:
320,192,24615,1,0,0:0:0:0:
192,192,24679,1,0,0:0:0:0:
448,192,24679,1,0,0:0:0:0:
320,192,24743,1,0,0:0:0:0:
64,192,24806,1,0,0:0:0:0:
448,192,24806,1,0,0:0:0:0:
192,192,24871,1,0,0:0:0:0:
320,192,24935,1,0,0:0:0:0:
448,192,24935,1,0,0:0:0:0:
64,192,24999,1,0,0:0:0:0:
192,192,25063,1,0,0:0:0:0:
448,192,25063,1,0,0:0:0:0:
320,192,25127,1,0,0:0:0:0:
192,192,25191,1,0,0:0:0:0:
64,192,25191,1,0,0:0:0:0:
448,192,25255,1,0,0:0:0:0:
320,192,25319,1,0,0:0:0:0:
192,192,25319,1,0,0:0:0:0:
64,192,25383,1,0,0:0:0:0:
448,192,25447,1,0,0:0:0:0:
320,192,25447,1,0,0:0:0:0:
192,192,25511,1,0,0:0:0:0:
64,192,25576,1,0,0:0:0:0:
448,192,25576,1,0,0:0:0:0:
320,192,25640,1,0,0:0:0:0:
192,192,25703,1,0,0:0:0:0:
64,192,25703,1,0,0:0:0:0:
448,192,25767,1,0,0:0:0:0:
320,192,25832,1,0,0:0:0:0:
192,192,25832,1,0,0:0:0:0:
64,192,25896,1,0,0:0:0:0:
448,192,25960,1,0,0:0:0:0:
320,192,25960,1,0,0:0:0:0:
192,192,26023,1,0,0:0:0:0:
64,192,26088,1,0,0:0:0:0:
448,192,26088,1,0,0:0:0:0:
192,192,26152,1,0,0:0:0:0:
320,192,26216,1,0,0:0:0:0:
448,192,26216,1,0,0:0:0:0:
64,192,26280,1,0,0:0:0:0:
192,192,26344,1,0,0:0:0:0:
320,192,26344,1,0,0:0:0:0:
448,192,26408,1,0,0:0:0:0:
64,192,26472,1,0,0:0:0:0:
192,192,26472,1,0,0:0:0:0:
320,192,26536,1,0,0:0:0:0:
448,192,26600,1,0,0:0:0:0:
64,192,26600,1,0,0:0:0:0:
192,192,26664,1,0,0:0:0:0:
320,192,26728,1,0,0:0:0:0:
448,192,26728,1,0,0:0:0:0:
64,192,26793,1,0,0:0:0:0:
192,192,26856,1,0,0:0:0:0:
448,192,26856,1,0,0:0:0:0:
320,192,26920,1,0,0:0:0:0:
192,192,26984,1,0,0:0:0:0:
64,192,26984,1,0,0:0:0:0:
448,192,27049,1,0,0:0:0:0:
320,192,27113,1,0,0:0:0:0:
64,192,27113,1,0,0:0:0:0:
192,192,27176,1,0,0:0:0:0:
448,192,27176,1,0,0:0:0:0:
320,192,27240,1,0,0:0:0:0:
64,192,27240,1,0,0:0:0:0:
192,192,27305,1,0,0:0:0:0:
448,192,27305,1,0,0:0:0:0:
320,192,27369,1,0,0:0:0:0:
64,192,27369,1,0,0:0:0:0:
192,192,27433,1,0,0:0:0:0:
448,192,27433,1,0,0:0:0:0:
64,192,27496,1,0,0:0:0:0:
320,192,27496,1,0,0:0:0:0:
448,192,27561,1,0,0:0:0:0:
192,192,27561,1,0,0:0:0:0:
320,192,27625,1,0,0:0:0:0:
64,192,27625,1,0,0:0:0:0:
192,192,27689,1,0,0:0:0:0:
320,192,27753,1,0,0:0:0:0:
448,192,27753,1,0,0:0:0:0:
64,192,27817,1,0,0:0:0:0:
192,192,27881,1,0,0:0:0:0:
448,192,27881,1,0,0:0:0:0:
320,192,27945,1,0,0:0:0:0:
192,192,28010,1,0,0:0:0:0:
64,192,28010,1,0,0:0:0:0:
448,192,28073,1,0,0:0:0:0:
320,192,28137,1,0,0:0:0:0:
192,192,28137,1,0,0:0:0:0:
64,192,28201,1,0,0:0:0:0:
448,192,28266,1,0,0:0:0:0:
320,192,28266,1,0,0:0:0:0:
192,192,28330,1,0,0:0:0:0:
64,192,28330,1,0,0:0:0:0:
320,192,28393,1,0,0:0:0:0:
448,192,28393,1,0,0:0:0:0:
192,192,28457,1,0,0:0:0:0:
64,192,28457,1,0,0:0:0:0:
320,192,28522,1,0,0:0:0:0:
448,192,28522,1,0,0:0:0:0:
192,192,28586,1,0,0:0:0:0:
64,192,28586,1,0,0:0:0:0:
320,192,28650,1,0,0:0:0:0:
448,192,28650,1,0,0:0:0:0:
192,192,28713,1,0,0:0:0:0:
64,192,28713,1,0,0:0:0:0:
320,192,28778,1,0,0:0:0:0:
448,192,28778,1,0,0:0:0:0:
64,192,28842,1,0,0:0:0:0:
192,192,28906,1,0,0:0:0:0:
448,192,28906,1,0,0:0:0:0:
320,192,28970,1,0,0:0:0:0:
192,192,29034,1,0,0:0:0:0:
64,192,29034,1,0,0:0:0:0:
448,192,29098,1,0,0:0:0:0:
320,192,29162,1,0,0:0:0:0:
64,192,29162,1,0,0:0:0:0:
192,192,29226,1,0,0:0:0:0:
320,192,29290,1,0,0:0:0:0:
448,192,29290,1,0,0:0:0:0:
64,192,29354,1,0,0:0:0:0:
192,192,29418,1,0,0:0:0:0:
320,192,29418,1,0,0:0:0:0:
448,192,29483,1,0,0:0:0:0:
64,192,29546,1,0,0:0:0:0:
192,192,29546,1,0,0:0:0:0:
320,192,29610,1,0,0:0:0:0:
448,192,29674,1,0,0:0:0:0:
192,192,29674,1,0,0:0:0:0:
64,192,29739,1,0,0:0:0:0:
320,192,29803,1,0,0:0:0:0:
448,192,29803,1,0,0:0:0:0:
192,192,29866,1,0,0:0:0:0:
64,192,29930,1,0,0:0:0:0:
448,192,29930,1,0,0:0:0:0:
320,192,29995,1,0,0:0:0:0:
192,192,30059,1,0,0:0:0:0:
64,192,30059,1,0,0:0:0:0:
448,192,30123,1,0,0:0:0:0:
320,192,30187,1,0,0:0:0:0:
192,192,30187,1,0,0:0:0:0:
64,192,30251,1,0,0:0:0:0:
320,192,30315,1,0,0:0:0:0:
448,192,30315,1,0,0:0:0:0:
64,192,30379,1,0,0:0:0:0:
192,192,30443,1,0,0:0:0:0:
448,192,30443,1,0,0:0:0:0:
320,192,30507,1,0,0:0:0:0:
192,192,30571,1,0,0:0:0:0:
64,192,30571,1,0,0:0:0:0:
448,192,30635,1,0,0:0:0:0:
320,192,30700,1,0,0:0:0:0:
64,192,30700,1,0,0:0:0:0:
192,192,30763,1,0,0:0:0:0:
320,192,30827,1,0,0:0:0:0:
448,192,30827,1,0,0:0:0:0:
64,192,30891,1,0,0:0:0:0:
192,192,30956,1,0,0:0:0:0:
448,192,30956,1,0,0:0:0:0:
320,192,31020,1,0,0:0:0:0:
192,192,31083,1,0,0:0:0:0:
64,192,31083,1,0,0:0:0:0:
448,192,31148,1,0,0:0:0:0:
320,192,31212,1,0,0:0:0:0:
64,192,31212,1,0,0:0:0:0:
192,192,31276,1,0,0:0:0:0:
320,192,31340,1,0,0:0:0:0:
448,192,31340,1,0,0:0:0:0:
64,192,31404,1,0,0:0:0:0:
192,192,31468,1,0,0:0:0:0:
320,192,31468,1,0,0:0:0:0:
448,192,31532,1,0,0:0:0:0:
192,192,31596,1,0,0:0:0:0:
64,192,31596,1,0,0:0:0:0:
320,192,31660,1,0,0:0:0:0:
64,192,31724,1,0,0:0:0:0:
448,192,31724,1,0,0:0:0:0:
192,192,31788,1,0,0:0:0:0:
320,192,31852,1,0,0:0:0:0:
448,192,31852,1,0,0:0:0:0:
64,192,31916,1,0,0:0:0:0:
192,192,31916,1,0,0:0:0:0:
320,192,31980,1,0,0:0:0:0:
448,192,31980,1,0,0:0:0:0:
192,192,32044,1,0,0:0:0:0:
64,192,32044,1,0,0:0:0:0:
320,192,32108,1,0,0:0:0:0:
448,192,32108,1,0,0:0:0:0:
192,192,32173,1,0,0:0:0:0:
64,192,32173,1,0,0:0:0:0:
448,192,32236,1,0,0:0:0:0:
320,192,32236,1,0,0:0:0:0:
64,192,32300,1,0,0:0:0:0:
192,192,32365,1,0,0:0:0:0:
320,192,32365,1,0,0:0:0:0:
448,192,32429,1,0,0:0:0:0:
64,192,32429,1,0,0:0:0:0:
192,192,32493,1,0,0:0:0:0:
320,192,32493,1,0,0:0:0:0:
448,192,32556,1,0,0:0:0:0:
64,192,32556,1,0,0:0:0:0:
192,192,32621,1,0,0:0:0:0:
320,192,32621,1,0,0:0:0:0:
448,192,32685,1,0,0:0:0:0:
64,192,32685,1,0,0:0:0:0:
192,192,32749,1,0,0:0:0:0:
320,192,32749,1,0,0:0:0:0:
448,192,32813,1,0,0:0:0:0:
320,192,32877,1,0,0:0:0:0:
64,192,32877,1,0,0:0:0:0:
192,192,32941,1,0,0:0:0:0:
64,192,33005,1,0,0:0:0:0:
448,192,33005,1,0,0:0:0:0:
320,192,33069,1,0,0:0:0:0:
64,192,33133,1,0,0:0:0:0:
192,192,33133,1,0,0:0:0:0:
448,192,33197,1,0,0:0:0:0:
320,192,33261,1,0,0:0:0:0:
64,192,33261,1,0,0:0:0:0:
192,192,33325,1,0,0:0:0:0:
448,192,33390,1,0,0:0:0:0:
320,192,33390,1,0,0:0:0:0:
64,192,33453,1,0,0:0:0:0:
448,192,33517,1,0,0:0:0:0:
320,192,33517,1,0,0:0:0:0:
192,192,33582,1,0,0:0:0:0:
64,192,33646,1,0,0:0:0:0:
448,192,33646,1,0,0:0:0:0:
320,192,33710,1,0,0:0:0:0:
192,192,33773,1,0,0:0:0:0:
64,192,33773,1,0,0:0:0:0:
320,192,33838,1,0,0:0:0:0:
64,192,33902,1,0,0:0:0:0:
448,192,33902,1,0,0:0:0:0:
192,192,33966,1,0,0:0:0:0:
448,192,34030,1,0,0:0:0:0:
320,192,34030,1,0,0:0:0:0:
192,192,34094,1,0,0:0:0:0:
64,192,34158,1,0,0:0:0:0:
448,192,34158,1,0,0:0:0:0:
320,192,34222,1,0,0:0:0:0:
448,192,34286,1,0,0:0:0:0:
192,192,34286,1,0,0:0:0:0:
64,192,34350,1,0,0:0:0:0:
192,192,34414,1,0,0:0:0:0:
320,192,34414,1,0,0:0:0:0:
448,192,34478,1,0,0:0:0:0:
64,192,34543,1,0,0:0:0:0:
192,192,34543,1,0,0:0:0:0:
320,192,34606,1,0,0:0:0:0:
448,192,34670,1,0,0:0:0:0:
64,192,34670,1,0,0:0:0:0:
192,192,34734,1,0,0:0:0:0:
320,192,34799,1,0,0:0:0:0:
64,192,34799,1,0,0:0:0:0:
448,192,34863,1,0,0:0:0:0:
320,192,34926,1,0,0:0:0:0:
192,192,34926,1,0,0:0:0:0:
64,192,34990,1,0,0:0:0:0:
192,192,35055,1,0,0:0:0:0:
448,192,35055,1,0,0:0:0:0:
320,192,35119,1,0,0:0:0:0:
192,192,35183,1,0,0:0:0:0:
64,192,35183,1,0,0:0:0:0:
448,192,35246,1,0,0:0:0:0:
320,192,35311,1,0,0:0:0:0:
64,192,35311,1,0,0:0:0:0:
192,192,35375,1,0,0:0:0:0:
320,192,35439,1,0,0:0:0:0:
448,192,35439,1,0,0:0:0:0:
192,192,35503,1,0,0:0:0:0:
64,192,35567,1,0,0:0:0:0:
448,192,35567,1,0,0:0:0:0:
320,192,35631,1,0,0:0:0:0:
192,192,35695,1,0,0:0:0:0:
64,192,35695,1,0,0:0:0:0:
320,192,35760,1,0,0:0:0:0:
448,192,35823,1,0,0:0:0:0:
64,192,35823,1,0,0:0:0:0:
192,192,35887,1,0,0:0:0:0:
320,192,35951,1,0,0:0:0:0:
448,192,35951,1,0,0:0:0:0:
64,192,36016,1,0,0:0:0:0:
192,192,36080,1,0,0:0:0:0:
320,192,36080,1,0,0:0:0:0:
448,192,36143,1,0,0:0:0:0:
64,192,36207,1,0,0:0:0:0:
192,192,36207,1,0,0:0:0:0:
320,192,36272,1,0,0:0:0:0:
448,192,36336,1,0,0:0:0:0:
64,192,36336,1,0,0:0:0:0:
192,192,36400,1,0,0:0:0:0:
448,192,36463,1,0,0:0:0:0:
320,192,36463,1,0,0:0:0:0:
192,192,36528,1,0,0:0:0:0:
64,192,36528,1,0,0:0:0:0:
320,192,36592,1,0,0:0:0:0:
448,192,36592,1,0,0:0:0:0:
192,192,36656,1,0,0:0:0:0:
64,192,36656,1,0,0:0:0:0:
320,192,36720,1,0,0:0:0:0:
448,192,36720,1,0,0:0:0:0:
192,192,36784,1,0,0:0:0:0:
320,192,36848,1,0,0:0:0:0:
448,192,36848,1,0,0:0:0:0:
192,192,36912,1,0,0:0:0:0:
64,192,36976,1,0,0:0:0:0:
448,192,36976,1,0,0:0:0:0:
320,192,37040,1,0,0:0:0:0:
192,192,37104,1,0,0:0:0:0:
64,192,37104,1,0,0:0:0:0:
448,192,37168,1,0,0:0:0:0:
320,192,37233,1,0,0:0:0:0:
192,192,37233,1,0,0:0:0:0:
64,192,37296,1,0,0:0:0:0:
448,192,37360,1,0,0:0:0:0:
320,192,37360,1,0,0:0:0:0:
192,192,37424,1,0,0:0:0:0:
64,192,37489,1,0,0:0:0:0:
448,192,37489,1,0,0:0:0:0:
320,192,37553,1,0,0:0:0:0:
192,192,37616,1,0,0:0:0:0:
448,192,37616,1,0,0:0:0:0:
64,192,37680,1,0,0:0:0:0:
192,192,37745,1,0,0:0:0:0:
320,192,37745,1,0,0:0:0:0:
448,192,37809,1,0,0:0:0:0:
320,192,37873,1,0,0:0:0:0:
64,192,37873,1,0,0:0:0:0:
192,192,37936,1,0,0:0:0:0:
320,192,38001,1,0,0:0:0:0:
448,192,38001,1,0,0:0:0:0:
64,192,38065,1,0,0:0:0:0:
192,192,38129,1,0,0:0:0:0:
448,192,38129,1,0,0:0:0:0:
320,192,38193,1,0,0:0:0:0:
192,192,38257,1,0,0:0:0:0:
64,192,38257,1,0,0:0:0:0:
320,192,38321,1,0,0:0:0:0:
448,192,38385,1,0,0:0:0:0:
64,192,38385,1,0,0:0:0:0:
192,192,38450,1,0,0:0:0:0:
320,192,38513,1,0,0:0:0:0:
448,192,38513,1,0,0:0:0:0:
192,192,38577,1,0,0:0:0:0:
64,192,38641,1,0,0:0:0:0:
448,192,38641,1,0,0:0:0:0:
320,192,38706,1,0,0:0:0:0:
192,192,38770,1,0,0:0:0:0:
64,192,38770,1,0,0:0:0:0:
448,192,38833,1,0,0:0:0:0:
320,192,38897,1,0,0:0:0:0:
192,192,38897,1,0,0:0:0:0:
64,192,38962,1,0,0:0:0:0:
320,192,39026,1,0,0:0:0:0:
448,192,39026,1,0,0:0:0:0:
192,192,39090,1,0,0:0:0:0:
448,192,39154,1,0,0:0:0:0:
320,192,39154,1,0,0:0:0:0:
192,192,39218,1,0,0:0:0:0:
448,192,39282,1,0,0:0:0:0:
64,192,39282,1,0,0:0:0:0:
320,192,39346,1,0,0:0:0:0:
64,192,39410,1,0,0:0:0:0:
192,192,39410,1,0,0:0:0:0:
448,192,39474,1,0,0:0:0:0:
192,192,39538,1,0,0:0:0:0:
320,192,39538,1,0,0:0:0:0:
64,192,39602,1,0,0:0:0:0:
320,192,39666,1,0,0:0:0:0:
448,192,39666,1,0,0:0:0:0:
192,192,39730,1,0,0:0:0:0:
448,192,39794,1,0,0:0:0:0:
64,192,39794,1,0,0:0:0:0:
320,192,39858,1,0,0:0:0:0:
448,192,39923,1,0,0:0:0:0:
192,192,39923,1,0,0:0:0:0:
64,192,39986,1,0,0:0:0:0:
320,192,40050,1,0,0:0:0:0:
192,192,40050,1,0,0:0:0:0:
448,192,40114,1,0,0:0:0:0:
64,192,40179,1,0,0:0:0:0:
320,192,40179,1,0,0:0:0:0:
192,192,40243,1,0,0:0:0:0:
448,192,40306,1,0,0:0:0:0:
320,192,40306,1,0,0:0:0:0:
64,192,40371,1,0,0:0:0:0:
448,192,40435,1,0,0:0:0:0:
192,192,40435,1,0,0:0:0:0:
320,192,40499,1,0,0:0:0:0:
64,192,40563,1,0,0:0:0:0:
192,192,40563,1,0,0:0:0:0:
320,192,40627,1,0,0:0:0:0:
64,192,40691,1,0,0:0:0:0:
448,192,40691,1,0,0:0:0:0:
192,192,40755,1,0,0:0:0:0:
448,192,40819,1,0,0:0:0:0:
320,192,40819,1,0,0:0:0:0:
192,192,40883,1,0,0:0:0:0:
448,192,40947,1,0,0:0:0:0:
64,192,40947,1,0,0:0:0:0:
320,192,41011,1,0,0:0:0:0:
64,192,41075,1,0,0:0:0:0:
192,192,41075,1,0,0:0:0:0:
448,192,41140,1,0,0:0:0:0:
192,192,41203,1,0,0:0:0:0:
320,192,41203,1,0,0:0:0:0:
64,192,41267,1,0,0:0:0:0:
320,192,41331,1,0,0:0:0:0:
448,192,41331,1,0,0:0:0:0:
64,192,41396,1,0,0:0:0:0:
192,192,41460,1,0,0:0:0:0:
448,192,41460,1,0,0:0:0:0:
320,192,41523,1,0,0:0:0:0:
192,192,41588,1,0,0:0:0:0:
64,192,41588,1,0,0:0:0:0:
448,192,41652,1,0,0:0:0:0:
320,192,41716,1,0,0:0:0:0:
64,192,41716,1,0,0:0:0:0:
192,192,41780,1,0,0:0:0:0:
320,192,41844,1,0,0:0:0:0:
448,192,41844,1,0,0:0:0:0:
64,192,41908,1,0,0:0:0:0:
192,192,41972,1,0,0:0:0:0:
448,192,41972,1,0,0:0:0:0:
320,192,42036,1,0,0:0:0:0:
192,192,42100,1,0,0:0:0:0:
64,192,42100,1,0,0:0:0:0:
448,192,42164,1,0,0:0:0:0:
320,192,42228,1,0,0:0:0:0:
192,192,42228,1,0,0:0:0:0:
64,192,42292,1,0,0:0:0:0:
448,192,42356,1,0,0:0:0:0:
320,192,42356,1,0,0:0:0:0:
192,192,42420,1,0,0:0:0:0:
64,192,42484,1,0,0:0:0:0:
448,192,42484,1,0,0:0:0:0:
320,192,42548,1,0,0:0:0:0:
192,192,42613,1,0,0:0:0:0:
64,192,42613,1,0,0:0:0:0:
448,192,42676,1,0,0:0:0:0:
320,192,42740,1,0,0:0:0:0:
192,192,42740,1,0,0:0:0:0:
64,192,42805,1,0,0:0:0:0:
448,192,42869,1,0,0:0:0:0:
320,192,42869,1,0,0:0:0:0:
192,192,42933,1,0,0:0:0:0:
64,192,42996,1,0,0:0:0:0:
448,192,42996,1,0,0:0:0:0:
192,192,43061,1,0,0:0:0:0:
448,192,43125,1,0,0:0:0:0:
320,192,43125,1,0,0:0:0:0:
64,192,43125,1,0,0:0:0:0:
192,192,43189,1,0,0:0:0:0:
64,192,43253,1,0,0:0:0:0:
320,192,43317,1,0,0:0:0:0:
448,192,43381,1,0,0:0:0:0:
320,192,43445,1,0,0:0:0:0:
448,192,43509,1,0,0:0:0:0:
192,192,43573,1,0,0:0:0:0:
64,192,43637,1,0,0:0:0:0:
192,192,43701,1,0,0:0:0:0:
64,192,43766,1,0,0:0:0:0:
448,192,43830,1,0,0:0:0:0:
320,192,43893,1,0,0:0:0:0:
448,192,43957,1,0,0:0:0:0:
64,192,44022,1,0,0:0:0:0:
320,192,44022,1,0,0:0:0:0:
192,192,44086,1,0,0:0:0:0:
64,192,44150,1,0,0:0:0:0:
320,192,44150,1,0,0:0:0:0:
192,192,44213,1,0,0:0:0:0:
448,192,44278,1,0,0:0:0:0:
320,192,44342,1,0,0:0:0:0:
448,192,44406,1,0,0:0:0:0:
192,192,44406,1,0,0:0:0:0:
320,192,44470,1,0,0:0:0:0:
64,192,44534,1,0,0:0:0:0:
192,192,44534,1,0,0:0:0:0:
320,192,44598,1,0,0:0:0:0:
448,192,44662,1,0,0:0:0:0:
64,192,44726,1,0,0:0:0:0:
192,192,44790,1,0,0:0:0:0:
448,192,44790,1,0,0:0:0:0:
320,192,44854,1,0,0:0:0:0:
64,192,44918,1,0,0:0:0:0:
192,192,44918,1,0,0:0:0:0:
448,192,44983,1,0,0:0:0:0:
320,192,45046,1,0,0:0:0:0:
64,192,45046,1,0,0:0:0:0:
192,192,45110,1,0,0:0:0:0:
320,192,45174,1,0,0:0:0:0:
448,192,45174,1,0,0:0:0:0:
64,192,45174,1,0,0:0:0:0:
192,192,45239,1,0,0:0:0:0:
448,192,45303,1,0,0:0:0:0:
192,192,45366,1,0,0:0:0:0:
448,192,45430,1,0,0:0:0:0:
192,192,45495,1,0,0:0:0:0:
448,192,45559,1,0,0:0:0:0:
320,192,45623,1,0,0:0:0:0:
64,192,45686,1,0,0:0:0:0:
320,192,45751,1,0,0:0:0:0:
64,192,45815,1,0,0:0:0:0:
320,192,45879,1,0,0:0:0:0:
64,192,45943,1,0,0:0:0:0:
448,192,46007,1,0,0:0:0:0:
320,192,46071,1,0,0:0:0:0:
64,192,46071,1,0,0:0:0:0:
192,192,46135,1,0,0:0:0:0:
448,192,46200,1,0,0:0:0:0:
320,192,46200,1,0,0:0:0:0:
64,192,46263,1,0,0:0:0:0:
320,192,46327,1,0,0:0:0:0:
64,192,46391,1,0,0:0:0:0:
192,192,46456,1,0,0:0:0:0:
448,192,46456,1,0,0:0:0:0:
320,192,46520,1,0,0:0:0:0:
192,192,46583,1,0,0:0:0:0:
320,192,46647,1,0,0:0:0:0:
192,192,46712,1,0,0:0:0:0:
320,192,46776,1,0,0:0:0:0:
448,192,46840,1,0,0:0:0:0:
64,192,46840,1,0,0:0:0:0:
192,192,46903,1,0,0:0:0:0:
448,192,46968,1,0,0:0:0:0:
192,192,47032,1,0,0:0:0:0:
448,192,47096,1,0,0:0:0:0:
192,192,47160,1,0,0:0:0:0:
448,192,47224,1,0,0:0:0:0:
320,192,47224,1,0,0:0:0:0:
192,192,47288,1,0,0:0:0:0:
64,192,47288,1,0,0:0:0:0:
320,192,47352,1,0,0:0:0:0:
448,192,47352,1,0,0:0:0:0:
192,192,47416,1,0,0:0:0:0:
64,192,47416,1,0,0:0:0:0:
320,192,47480,1,0,0:0:0:0:
448,192,47480,1,0,0:0:0:0:
192,192,47544,1,0,0:0:0:0:
64,192,47544,1,0,0:0:0:0:
448,192,47608,1,0,0:0:0:0:
320,192,47608,1,0,0:0:0:0:
192,192,47673,1,0,0:0:0:0:
64,192,47736,1,0,0:0:0:0:
448,192,47736,1,0,0:0:0:0:
320,192,47800,1,0,0:0:0:0:
192,192,47800,1,0,0:0:0:0:
64,192,47864,1,0,0:0:0:0:
448,192,47864,1,0,0:0:0:0:
320,192,47929,1,0,0:0:0:0:
192,192,47929,1,0,0:0:0:0:
64,192,47993,1,0,0:0:0:0:
448,192,47993,1,0,0:0:0:0:
320,192,48056,1,0,0:0:0:0:
192,192,48056,1,0,0:0:0:0:
64,192,48120,1,0,0:0:0:0:
448,192,48120,1,0,0:0:0:0:
320,192,48185,1,0,0:0:0:0:
192,192,48249,1,0,0:0:0:0:
64,192,48249,1,0,0:0:0:0:
448,192,48313,1,0,0:0:0:0:
192,192,48377,1,0,0:0:0:0:
320,192,48377,1,0,0:0:0:0:
64,192,48441,1,0,0:0:0:0:
192,192,48505,1,0,0:0:0:0:
448,192,48505,1,0,0:0:0:0:
320,192,48569,1,0,0:0:0:0:
448,192,48633,1,0,0:0:0:0:
64,192,48633,1,0,0:0:0:0:
192,192,48697,1,0,0:0:0:0:
320,192,48761,1,0,0:0:0:0:
448,192,48761,1,0,0:0:0:0:
64,192,48825,1,0,0:0:0:0:
192,192,48825,1,0,0:0:0:0:
448,192,48890,1,0,0:0:0:0:
320,192,48890,1,0,0:0:0:0:
64,192,48953,1,0,0:0:0:0:
192,192,49017,1,0,0:0:0:0:
320,192,49017,1,0,0:0:0:0:
448,192,49081,1,0,0:0:0:0:
320,192,49146,1,0,0:0:0:0:
64,192,49146,1,0,0:0:0:0:
192,192,49210,1,0,0:0:0:0:
320,192,49273,1,0,0:0:0:0:
448,192,49273,1,0,0:0:0:0:
192,192,49337,1,0,0:0:0:0:
64,192,49337,1,0,0:0:0:0:
320,192,49402,1,0,0:0:0:0:
448,192,49402,1,0,0:0:0:0:
192,192,49466,1,0,0:0:0:0:
64,192,49466,1,0,0:0:0:0:
320,192,49530,1,0,0:0:0:0:
448,192,49530,1,0,0:0:0:0:
192,192,49594,1,0,0:0:0:0:
64,192,49594,1,0,0:0:0:0:
448,192,49658,1,0,0:0:0:0:
320,192,49658,1,0,0:0:0:0:
192,192,49722,1,0,0:0:0:0:
64,192,49786,1,0,0:0:0:0:
448,192,49786,1,0,0:0:0:0:
320,192,49850,1,0,0:0:0:0:
192,192,49850,1,0,0:0:0:0:
64,192,49914,1,0,0:0:0:0:
448,192,49914,1,0,0:0:0:0:
320,192,49978,1,0,0:0:0:0:
192,192,49978,1,0,0:0:0:0:
64,192,50042,1,0,0:0:0:0:
448,192,50042,1,0,0:0:0:0:
320,192,50106,1,0,0:0:0:0:
192,192,50106,1,0,0:0:0:0:
64,192,50170,1,0,0:0:0:0:
448,192,50170,1,0,0:0:0:0:
320,192,50234,1,0,0:0:0:0:
64,192,50298,1,0,0:0:0:0:
192,192,50298,1,0,0:0:0:0:
320,192,50363,1,0,0:0:0:0:
64,192,50426,1,0,0:0:0:0:
448,192,50426,1,0,0:0:0:0:
192,192,50490,1,0,0:0:0:0:
320,192,50554,1,0,0:0:0:0:
448,192,50554,1,0,0:0:0:0:
192,192,50619,1,0,0:0:0:0:
448,192,50683,1,0,0:0:0:0:
64,192,50683,1,0,0:0:0:0:
192,192,50746,1,0,0:0:0:0:
448,192,50811,1,0,0:0:0:0:
320,192,50811,1,0,0:0:0:0:
192,192,50875,1,0,0:0:0:0:
64,192,50875,1,0,0:0:0:0:
320,192,50939,1,0,0:0:0:0:
448,192,50939,1,0,0:0:0:0:
64,192,51003,1,0,0:0:0:0:
320,192,51067,1,0,0:0:0:0:
192,192,51067,1,0,0:0:0:0:
448,192,51131,1,0,0:0:0:0:
64,192,51195,1,0,0:0:0:0:
192,192,51195,1,0,0:0:0:0:
320,192,51259,1,0,0:0:0:0:
64,192,51323,1,0,0:0:0:0:
448,192,51323,1,0,0:0:0:0:
192,192,51387,1,0,0:0:0:0:
320,192,51451,1,0,0:0:0:0:
448,192,51451,1,0,0:0:0:0:
64,192,51515,1,0,0:0:0:0:
448,192,51580,1,0,0:0:0:0:
192,192,51580,1,0,0:0:0:0:
320,192,51643,1,0,0:0:0:0:
448,192,51707,1,0,0:0:0:0:
64,192,51707,1,0,0:0:0:0:
320,192,51772,1,0,0:0:0:0:
64,192,51836,1,0,0:0:0:0:
192,192,51836,1,0,0:0:0:0:
448,192,51900,1,0,0:0:0:0:
192,192,51963,1,0,0:0:0:0:
320,192,51963,1,0,0:0:0:0:
64,192,52028,1,0,0:0:0:0:
320,192,52092,1,0,0:0:0:0:
448,192,52092,1,0,0:0:0:0:
64,192,52156,1,0,0:0:0:0:
192,192,52220,1,0,0:0:0:0:
448,192,52220,1,0,0:0:0:0:
320,192,52284,1,0,0:0:0:0:
192,192,52348,1,0,0:0:0:0:
64,192,52348,1,0,0:0:0:0:
448,192,52412,1,0,0:0:0:0:
320,192,52476,1,0,0:0:0:0:
64,192,52476,1,0,0:0:0:0:
192,192,52540,1,0,0:0:0:0:
320,192,52604,1,0,0:0:0:0:
448,192,52604,1,0,0:0:0:0:
192,192,52668,1,0,0:0:0:0:
64,192,52732,1,0,0:0:0:0:
448,192,52732,1,0,0:0:0:0:
320,192,52796,1,0,0:0:0:0:
192,192,52860,1,0,0:0:0:0:
64,192,52860,1,0,0:0:0:0:
320,192,52924,1,0,0:0:0:0:
448,192,52989,1,0,0:0:0:0:
192,192,52989,1,0,0:0:0:0:
64,192,53053,1,0,0:0:0:0:
192,192,53116,1,0,0:0:0:0:
320,192,53116,1,0,0:0:0:0:
448,192,53180,1,0,0:0:0:0:
64,192,53245,1,0,0:0:0:0:
192,192,53245,1,0,0:0:0:0:
320,192,53309,1,0,0:0:0:0:
448,192,53309,1,0,0:0:0:0:
192,192,53373,1,0,0:0:0:0:
64,192,53373,1,0,0:0:0:0:
320,192,53436,1,0,0:0:0:0:
448,192,53436,1,0,0:0:0:0:
192,192,53501,1,0,0:0:0:0:
64,192,53501,1,0,0:0:0:0:
320,192,53565,1,0,0:0:0:0:
448,192,53565,1,0,0:0:0:0:
192,192,53629,1,0,0:0:0:0:
64,192,53629,1,0,0:0:0:0:
320,192,53693,1,0,0:0:0:0:
448,192,53693,1,0,0:0:0:0:
64,192,53757,1,0,0:0:0:0:
192,192,53757,1,0,0:0:0:0:
320,192,53821,1,0,0:0:0:0:
448,192,53821,1,0,0:0:0:0:
64,192,53885,1,0,0:0:0:0:
192,192,53885,1,0,0:0:0:0:
320,192,53949,1,0,0:0:0:0:
448,192,53949,1,0,0:0:0:0:
192,192,54013,1,0,0:0:0:0:
64,192,54013,1,0,0:0:0:0:
320,192,54077,1,0,0:0:0:0:
448,192,54077,1,0,0:0:0:0:
192,192,54141,1,0,0:0:0:0:
64,192,54141,1,0,0:0:0:0:
320,192,54206,1,0,0:0:0:0:
64,192,54270,1,0,0:0:0:0:
448,192,54270,1,0,0:0:0:0:
192,192,54333,1,0,0:0:0:0:
320,192,54397,1,0,0:0:0:0:
448,192,54397,1,0,0:0:0:0:
64,192,54397,1,0,0:0:0:0:
192,192,54462,1,0,0:0:0:0:
448,192,54526,1,0,0:0:0:0:
320,192,54526,1,0,0:0:0:0:
64,192,54590,1,0,0:0:0:0:
192,192,54653,1,0,0:0:0:0:
320,192,54653,1,0,0:0:0:0:
448,192,54653,1,0,0:0:0:0:
64,192,54718,1,0,0:0:0:0:
192,192,54782,1,0,0:0:0:0:
320,192,54782,1,0,0:0:0:0:
448,192,54782,1,0,0:0:0:0:
64,192,54846,1,0,0:0:0:0:
320,192,54910,1,0,0:0:0:0:
448,192,54910,1,0,0:0:0:0:
192,192,54974,1,0,0:0:0:0:
64,192,54974,1,0,0:0:0:0:
320,192,55038,1,0,0:0:0:0:
448,192,55038,1,0,0:0:0:0:
192,192,55102,1,0,0:0:0:0:
448,192,55166,1,0,0:0:0:0:
320,192,55166,1,0,0:0:0:0:
64,192,55230,1,0,0:0:0:0:
448,192,55294,1,0,0:0:0:0:
192,192,55294,1,0,0:0:0:0:
320,192,55358,1,0,0:0:0:0:
64,192,55423,1,0,0:0:0:0:
192,192,55423,1,0,0:0:0:0:
320,192,55486,1,0,0:0:0:0:
448,192,55486,1,0,0:0:0:0:
192,192,55550,1,0,0:0:0:0:
64,192,55550,1,0,0:0:0:0:
320,192,55614,1,0,0:0:0:0:
448,192,55614,1,0,0:0:0:0:
192,192,55679,1,0,0:0:0:0:
64,192,55679,1,0,0:0:0:0:
320,192,55743,1,0,0:0:0:0:
448,192,55743,1,0,0:0:0:0:
64,192,55806,1,0,0:0:0:0:
192,192,55806,1,0,0:0:0:0:
320,192,55870,1,0,0:0:0:0:
64,192,55935,1,0,0:0:0:0:
448,192,55935,1,0,0:0:0:0:
320,192,55999,1,0,0:0:0:0:
192,192,55999,1,0,0:0:0:0:
64,192,56063,1,0,0:0:0:0:
448,192,56063,1,0,0:0:0:0:
320,192,56126,1,0,0:0:0:0:
192,192,56126,1,0,0:0:0:0:
64,192,56191,1,0,0:0:0:0:
448,192,56191,1,0,0:0:0:0:
320,192,56255,1,0,0:0:0:0:
192,192,56255,1,0,0:0:0:0:
64,192,56319,1,0,0:0:0:0:
448,192,56319,1,0,0:0:0:0:
192,192,56383,1,0,0:0:0:0:
320,192,56447,1,0,0:0:0:0:
448,192,56447,1,0,0:0:0:0:
192,192,56511,1,0,0:0:0:0:
448,192,56575,1,0,0:0:0:0:
64,192,56575,1,0,0:0:0:0:
192,192,56640,1,0,0:0:0:0:
320,192,56703,1,0,0:0:0:0:
448,192,56703,1,0,0:0:0:0:
64,192,56767,1,0,0:0:0:0:
320,192,56831,1,0,0:0:0:0:
192,192,56831,1,0,0:0:0:0:
448,192,56896,1,0,0:0:0:0:
64,192,56960,1,0,0:0:0:0:
320,192,56960,1,0,0:0:0:0:
192,192,57023,1,0,0:0:0:0:
448,192,57023,1,0,0:0:0:0:
64,192,57087,1,0,0:0:0:0:
320,192,57087,1,0,0:0:0:0:
192,192,57152,1,0,0:0:0:0:
448,192,57216,1,0,0:0:0:0:
320,192,57216,1,0,0:0:0:0:
192,192,57280,1,0,0:0:0:0:
448,192,57343,1,0,0:0:0:0:
64,192,57343,1,0,0:0:0:0:
320,192,57408,1,0,0:0:0:0:
192,192,57472,1,0,0:0:0:0:
64,192,57472,1,0,0:0:0:0:
320,192,57536,1,0,0:0:0:0:
448,192,57536,1,0,0:0:0:0:
64,192,57600,1,0,0:0:0:0:
192,192,57600,1,0,0:0:0:0:
320,192,57664,1,0,0:0:0:0:
448,192,57664,1,0,0:0:0:0:
64,192,57728,1,0,0:0:0:0:
192,192,57728,1,0,0:0:0:0:
320,192,57792,1,0,0:0:0:0:
448,192,57792,1,0,0:0:0:0:
192,192,57856,1,0,0:0:0:0:
64,192,57856,1,0,0:0:0:0:
320,192,57920,1,0,0:0:0:0:
448,192,57984,1,0,0:0:0:0:
64,192,57984,1,0,0:0:0:0:
192,192,58048,1,0,0:0:0:0:
320,192,58048,1,0,0:0:0:0:
448,192,58113,1,0,0:0:0:0:
64,192,58113,1,0,0:0:0:0:
192,192,58176,1,0,0:0:0:0:
320,192,58176,1,0,0:0:0:0:
448,192,58240,1,0,0:0:0:0:
64,192,58240,1,0,0:0:0:0:
192,192,58304,1,0,0:0:0:0:
320,192,58304,1,0,0:0:0:0:
64,192,58369,1,0,0:0:0:0:
448,192,58369,1,0,0:0:0:0:
192,192,58433,1,0,0:0:0:0:
320,192,58496,1,0,0:0:0:0:
448,192,58496,1,0,0:0:0:0:
192,192,58560,1,0,0:0:0:0:
448,192,58625,1,0,0:0:0:0:
64,192,58625,1,0,0:0:0:0:
320,192,58689,1,0,0:0:0:0:
192,192,58753,1,0,0:0:0:0:
64,192,58753,1,0,0:0:0:0:
448,192,58817,1,0,0:0:0:0:
320,192,58881,1,0,0:0:0:0:
64,192,58881,1,0,0:0:0:0:
192,192,58945,1,0,0:0:0:0:
448,192,59009,1,0,0:0:0:0:
320,192,59009,1,0,0:0:0:0:
192,192,59073,1,0,0:0:0:0:
64,192,59073,1,0,0:0:0:0:
320,192,59137,1,0,0:0:0:0:
448,192,59137,1,0,0:0:0:0:
64,192,59201,1,0,0:0:0:0:
192,192,59265,1,0,0:0:0:0:
320,192,59265,1,0,0:0:0:0:
448,192,59330,1,0,0:0:0:0:
64,192,59393,1,0,0:0:0:0:
192,192,59393,1,0,0:0:0:0:
320,192,59457,1,0,0:0:0:0:
448,192,59521,1,0,0:0:0:0:
64,192,59521,1,0,0:0:0:0:
192,192,59586,1,0,0:0:0:0:
448,192,59650,1,0,0:0:0:0:
320,192,59650,1,0,0:0:0:0:
64,192,59713,1,0,0:0:0:0:
192,192,59777,1,0,0:0:0:0:
320,192,59777,1,0,0:0:0:0:
448,192,59842,1,0,0:0:0:0:
64,192,59906,1,0,0:0:0:0:
192,192,59906,1,0,0:0:0:0:
320,192,59970,1,0,0:0:0:0:
448,192,60034,1,0,0:0:0:0:
64,192,60034,1,0,0:0:0:0:
192,192,60098,1,0,0:0:0:0:
320,192,60162,1,0,0:0:0:0:
448,192,60162,1,0,0:0:0:0:
64,192,60226,1,0,0:0:0:0:
448,192,60290,1,0,0:0:0:0:
192,192,60290,1,0,0:0:0:0:
320,192,60354,1,0,0:0:0:0:
448,192,60418,1,0,0:0:0:0:
64,192,60418,1,0,0:0:0:0:
192,192,60482,1,0,0:0:0:0:
64,192,60546,1,0,0:0:0:0:
448,192,60546,1,0,0:0:0:0:
320,192,60610,1,0,0:0:0:0:
192,192,60674,1,0,0:0:0:0:
448,192,60674,1,0,0:0:0:0:
64,192,60738,1,0,0:0:0:0:
192,192,60803,1,0,0:0:0:0:
320,192,60803,1,0,0:0:0:0:
448,192,60866,1,0,0:0:0:0:
64,192,60930,1,0,0:0:0:0:
192,192,60930,1,0,0:0:0:0:
320,192,60995,1,0,0:0:0:0:
64,192,61059,1,0,0:0:0:0:
448,192,61059,1,0,0:0:0:0:
192,192,61123,1,0,0:0:0:0:
320,192,61186,1,0,0:0:0:0:
448,192,61186,1,0,0:0:0:0:
64,192,61251,1,0,0:0:0:0:
192,192,61315,1,0,0:0:0:0:
320,192,61315,1,0,0:0:0:0:
448,192,61379,1,0,0:0:0:0:
320,192,61443,1,0,0:0:0:0:
64,192,61443,1,0,0:0:0:0:
192,192,61507,1,0,0:0:0:0:
320,192,61571,1,0,0:0:0:0:
448,192,61571,1,0,0:0:0:0:
64,192,61635,1,0,0:0:0:0:
192,192,61635,1,0,0:0:0:0:
448,192,61699,1,0,0:0:0:0:
320,192,61699,1,0,0:0:0:0:
192,192,61763,1,0,0:0:0:0:
64,192,61763,1,0,0:0:0:0:
320,192,61827,1,0,0:0:0:0:
448,192,61827,1,0,0:0:0:0:
192,192,61891,1,0,0:0:0:0:
64,192,61891,1,0,0:0:0:0:
448,192,61955,1,0,0:0:0:0:
320,192,61955,1,0,0:0:0:0:
192,192,62020,1,0,0:0:0:0:
64,192,62020,1,0,0:0:0:0:
320,192,62083,1,0,0:0:0:0:
448,192,62083,1,0,0:0:0:0:
192,192,62147,1,0,0:0:0:0:
64,192,62147,1,0,0:0:0:0:
448,192,62212,1,0,0:0:0:0:
320,192,62212,1,0,0:0:0:0:
192,192,62276,1,0,0:0:0:0:
64,192,62276,1,0,0:0:0:0:
320,192,62340,1,0,0:0:0:0:
448,192,62340,1,0,0:0:0:0:
192,192,62403,1,0,0:0:0:0:
64,192,62468,1,0,0:0:0:0:
448,192,62468,1,0,0:0:0:0:
320,192,62532,1,0,0:0:0:0:
192,192,62596,1,0,0:0:0:0:
64,192,62596,1,0,0:0:0:0:
448,192,62660,1,0,0:0:0:0:
64,192,62724,1,0,0:0:0:0:
320,192,62724,1,0,0:0:0:0:
192,192,62788,1,0,0:0:0:0:
320,192,62852,1,0,0:0:0:0:
448,192,62852,1,0,0:0:0:0:
64,192,62916,1,0,0:0:0:0:
192,192,62980,1,0,0:0:0:0:
448,192,62980,1,0,0:0:0:0:
320,192,63044,1,0,0:0:0:0:
192,192,63108,1,0,0:0:0:0:
64,192,63108,1,0,0:0:0:0:
448,192,63236,1,0,0:0:0:0:
192,192,63364,1,0,0:0:0:0:
64,192,63493,1,0,0:0:0:0:
192,192,63620,1,0,0:0:0:0:
320,192,63620,1,0,0:0:0:0:
448,192,63620,1,0,0:0:0:0:
64,192,63876,1,0,0:0:0:0:
320,192,63876,1,0,0:0:0:0:
448,192,63876,1,0,0:0:0:0:
192,192,64069,1,0,0:0:0:0:
320,192,64133,1,0,0:0:0:0:
64,192,64133,1,0,0:0:0:0:
448,192,64197,1,0,0:0:0:0:
320,192,64261,1,0,0:0:0:0:
192,192,64325,1,0,0:0:0:0:
448,192,64390,1,0,0:0:0:0:
320,192,64390,1,0,0:0:0:0:
192,192,64453,1,0,0:0:0:0:
320,192,64517,1,0,0:0:0:0:
64,192,64581,1,0,0:0:0:0:
320,192,64646,1,0,0:0:0:0:
448,192,64646,1,0,0:0:0:0:
192,192,64773,1,0,0:0:0:0:
320,192,64837,1,0,0:0:0:0:
192,192,64902,1,0,0:0:0:0:
64,192,64902,1,0,0:0:0:0:
320,192,64966,1,0,0:0:0:0:
448,192,65030,1,0,0:0:0:0:
320,192,65158,1,0,0:0:0:0:
192,192,65158,1,0,0:0:0:0:
64,192,65222,1,0,0:0:0:0:
192,192,65286,1,0,0:0:0:0:
64,192,65350,1,0,0:0:0:0:
192,192,65414,1,0,0:0:0:0:
448,192,65414,1,0,0:0:0:0:
320,192,65478,1,0,0:0:0:0:
192,192,65542,1,0,0:0:0:0:
320,192,65670,1,0,0:0:0:0:
448,192,65670,1,0,0:0:0:0:
192,192,65798,1,0,0:0:0:0:
320,192,65863,1,0,0:0:0:0:
192,192,65926,1,0,0:0:0:0:
64,192,65926,1,0,0:0:0:0:
320,192,65990,1,0,0:0:0:0:
448,192,66054,1,0,0:0:0:0:
192,192,66119,1,0,0:0:0:0:
64,192,66183,1,0,0:0:0:0:
320,192,66183,1,0,0:0:0:0:
192,192,66246,1,0,0:0:0:0:
320,192,66310,1,0,0:0:0:0:
64,192,66375,1,0,0:0:0:0:
192,192,66439,1,0,0:0:0:0:
320,192,66439,1,0,0:0:0:0:
448,192,66439,1,0,0:0:0:0:
64,192,66503,1,0,0:0:0:0:
320,192,66566,1,0,0:0:0:0:
192,192,66695,1,0,0:0:0:0:
64,192,66695,1,0,0:0:0:0:
448,192,66823,1,0,0:0:0:0:
320,192,66887,1,0,0:0:0:0:
192,192,66951,1,0,0:0:0:0:
64,192,66951,1,0,0:0:0:0:
320,192,67015,1,0,0:0:0:0:
64,192,67080,1,0,0:0:0:0:
448,192,67207,1,0,0:0:0:0:
64,192,67207,1,0,0:0:0:0:
320,192,67271,1,0,0:0:0:0:
192,192,67271,1,0,0:0:0:0:
448,192,67336,1,0,0:0:0:0:
64,192,67336,1,0,0:0:0:0:
192,192,67400,1,0,0:0:0:0:
320,192,67463,1,0,0:0:0:0:
64,192,67463,1,0,0:0:0:0:
448,192,67463,1,0,0:0:0:0:
192,192,67592,1,0,0:0:0:0:
64,192,67720,1,0,0:0:0:0:
320,192,67720,1,0,0:0:0:0:
448,192,67720,1,0,0:0:0:0:
448,192,67976,1,0,0:0:0:0:
64,192,67976,1,0,0:0:0:0:
192,192,67976,1,0,0:0:0:0:
192,192,68168,1,0,0:0:0:0:
320,192,68232,1,0,0:0:0:0:
448,192,68232,1,0,0:0:0:0:
64,192,68296,1,0,0:0:0:0:
192,192,68360,1,0,0:0:0:0:
320,192,68424,1,0,0:0:0:0:
192,192,68488,1,0,0:0:0:0:
64,192,68488,1,0,0:0:0:0:
448,192,68553,1,0,0:0:0:0:
64,192,68616,1,0,0:0:0:0:
192,192,68680,1,0,0:0:0:0:
320,192,68744,1,0,0:0:0:0:
448,192,68744,1,0,0:0:0:0:
192,192,68873,1,0,0:0:0:0:
320,192,68936,1,0,0:0:0:0:
64,192,69001,1,0,0:0:0:0:
192,192,69001,1,0,0:0:0:0:
448,192,69065,1,0,0:0:0:0:
64,192,69129,1,0,0:0:0:0:
320,192,69257,1,0,0:0:0:0:
448,192,69257,1,0,0:0:0:0:
192,192,69321,1,0,0:0:0:0:
320,192,69385,1,0,0:0:0:0:
448,192,69449,1,0,0:0:0:0:
192,192,69513,1,0,0:0:0:0:
320,192,69513,1,0,0:0:0:0:
64,192,69577,1,0,0:0:0:0:
192,192,69641,1,0,0:0:0:0:
320,192,69770,1,0,0:0:0:0:
448,192,69770,1,0,0:0:0:0:
64,192,69770,1,0,0:0:0:0:
448,192,69897,1,0,0:0:0:0:
320,192,69961,1,0,0:0:0:0:
192,192,70026,1,0,0:0:0:0:
64,192,70026,1,0,0:0:0:0:
320,192,70090,1,0,0:0:0:0:
448,192,70153,1,0,0:0:0:0:
320,192,70218,1,0,0:0:0:0:
192,192,70282,1,0,0:0:0:0:
64,192,70282,1,0,0:0:0:0:
448,192,70346,1,0,0:0:0:0:
192,192,70410,1,0,0:0:0:0:
64,192,70474,1,0,0:0:0:0:
192,192,70538,1,0,0:0:0:0:
320,192,70538,1,0,0:0:0:0:
448,192,70538,1,0,0:0:0:0:
64,192,70602,1,0,0:0:0:0:
192,192,70666,1,0,0:0:0:0:
320,192,70794,1,0,0:0:0:0:
448,192,70794,1,0,0:0:0:0:
448,192,70922,1,0,0:0:0:0:
320,192,70986,1,0,0:0:0:0:
192,192,71050,1,0,0:0:0:0:
64,192,71050,1,0,0:0:0:0:
448,192,71114,1,0,0:0:0:0:
64,192,71178,1,0,0:0:0:0:
192,192,71306,1,0,0:0:0:0:
320,192,71306,1,0,0:0:0:0:
448,192,71306,128,0,71563:0:0:0:0:
64,192,71563,128,0,71819:0:0:0:0:
192,192,71563,1,0,0:0:0:0:
320,192,71563,1,0,0:0:0:0:
448,192,71819,128,0,72075:0:0:0:0:
192,192,71819,1,0,0:0:0:0:
192,192,72075,1,0,0:0:0:0:
64,192,72075,1,0,0:0:0:0:
448,192,72267,1,0,0:0:0:0:
64,192,72331,1,0,0:0:0:0:
192,192,72331,1,0,0:0:0:0:
448,192,72395,1,0,0:0:0:0:
320,192,72460,1,0,0:0:0:0:
192,192,72523,1,0,0:0:0:0:
320,192,72587,1,0,0:0:0:0:
448,192,72587,1,0,0:0:0:0:
192,192,72652,1,0,0:0:0:0:
320,192,72716,1,0,0:0:0:0:
192,192,72780,1,0,0:0:0:0:
320,192,72843,1,0,0:0:0:0:
448,192,72843,1,0,0:0:0:0:
64,192,72843,1,0,0:0:0:0:
192,192,72972,1,0,0:0:0:0:
320,192,73036,1,0,0:0:0:0:
192,192,73100,1,0,0:0:0:0:
64,192,73100,1,0,0:0:0:0:
448,192,73164,1,0,0:0:0:0:
320,192,73228,1,0,0:0:0:0:
320,192,73356,1,0,0:0:0:0:
448,192,73356,1,0,0:0:0:0:
192,192,73420,1,0,0:0:0:0:
320,192,73484,1,0,0:0:0:0:
192,192,73548,1,0,0:0:0:0:
320,192,73613,1,0,0:0:0:0:
448,192,73613,1,0,0:0:0:0:
192,192,73676,1,0,0:0:0:0:
64,192,73740,1,0,0:0:0:0:
192,192,73869,1,0,0:0:0:0:
64,192,73869,1,0,0:0:0:0:
320,192,73869,1,0,0:0:0:0:
192,192,73996,1,0,0:0:0:0:
64,192,74060,1,0,0:0:0:0:
192,192,74125,1,0,0:0:0:0:
320,192,74125,1,0,0:0:0:0:
448,192,74189,1,0,0:0:0:0:
320,192,74253,1,0,0:0:0:0:
192,192,74316,1,0,0:0:0:0:
448,192,74381,1,0,0:0:0:0:
64,192,74381,1,0,0:0:0:0:
192,192,74445,1,0,0:0:0:0:
64,192,74509,1,0,0:0:0:0:
192,192,74573,1,0,0:0:0:0:
64,192,74637,1,0,0:0:0:0:
320,192,74637,1,0,0:0:0:0:
448,192,74637,1,0,0:0:0:0:
192,192,74701,1,0,0:0:0:0:
320,192,74765,1,0,0:0:0:0:
192,192,74893,1,0,0:0:0:0:
64,192,74893,1,0,0:0:0:0:
320,192,74957,1,0,0:0:0:0:
448,192,75021,1,0,0:0:0:0:
320,192,75086,1,0,0:0:0:0:
192,192,75150,1,0,0:0:0:0:
64,192,75150,1,0,0:0:0:0:
448,192,75213,1,0,0:0:0:0:
64,192,75277,1,0,0:0:0:0:
64,192,75406,1,0,0:0:0:0:
192,192,75406,1,0,0:0:0:0:
320,192,75470,1,0,0:0:0:0:
448,192,75470,1,0,0:0:0:0:
64,192,75533,1,0,0:0:0:0:
192,192,75533,1,0,0:0:0:0:
320,192,75598,1,0,0:0:0:0:
64,192,75662,1,0,0:0:0:0:
448,192,75662,1,0,0:0:0:0:
192,192,75662,1,0,0:0:0:0:
320,192,75790,1,0,0:0:0:0:
192,192,75918,1,0,0:0:0:0:
64,192,75918,1,0,0:0:0:0:
448,192,75918,1,0,0:0:0:0:
64,192,76174,1,0,0:0:0:0:
320,192,76174,1,0,0:0:0:0:
448,192,76174,1,0,0:0:0:0:
192,192,76303,1,0,0:0:0:0:
320,192,76366,1,0,0:0:0:0:
64,192,76430,1,0,0:0:0:0:
448,192,76430,1,0,0:0:0:0:
192,192,76494,1,0,0:0:0:0:
320,192,76559,1,0,0:0:0:0:
64,192,76623,1,0,0:0:0:0:
320,192,76686,1,0,0:0:0:0:
448,192,76686,1,0,0:0:0:0:
192,192,76750,1,0,0:0:0:0:
320,192,76815,1,0,0:0:0:0:
64,192,76879,1,0,0:0:0:0:
192,192,76943,1,0,0:0:0:0:
448,192,76943,1,0,0:0:0:0:
64,192,77071,1,0,0:0:0:0:
192,192,77135,1,0,0:0:0:0:
64,192,77199,1,0,0:0:0:0:
448,192,77199,1,0,0:0:0:0:
320,192,77263,1,0,0:0:0:0:
448,192,77327,1,0,0:0:0:0:
192,192,77455,1,0,0:0:0:0:
64,192,77455,1,0,0:0:0:0:
448,192,77455,1,0,0:0:0:0:
320,192,77520,1,0,0:0:0:0:
448,192,77583,1,0,0:0:0:0:
320,192,77647,1,0,0:0:0:0:
192,192,77711,1,0,0:0:0:0:
64,192,77711,1,0,0:0:0:0:
320,192,77776,1,0,0:0:0:0:
192,192,77840,1,0,0:0:0:0:
320,192,77967,1,0,0:0:0:0:
448,192,77967,1,0,0:0:0:0:
64,192,77967,1,0,0:0:0:0:
192,192,78096,1,0,0:0:0:0:
320,192,78160,1,0,0:0:0:0:
64,192,78224,1,0,0:0:0:0:
192,192,78224,1,0,0:0:0:0:
320,192,78288,1,0,0:0:0:0:
448,192,78352,1,0,0:0:0:0:
192,192,78416,1,0,0:0:0:0:
320,192,78480,1,0,0:0:0:0:
448,192,78480,1,0,0:0:0:0:
64,192,78544,1,0,0:0:0:0:
192,192,78608,1,0,0:0:0:0:
320,192,78672,1,0,0:0:0:0:
64,192,78736,1,0,0:0:0:0:
192,192,78736,1,0,0:0:0:0:
448,192,78736,1,0,0:0:0:0:
320,192,78800,1,0,0:0:0:0:
448,192,78864,1,0,0:0:0:0:
192,192,78993,1,0,0:0:0:0:
64,192,78993,1,0,0:0:0:0:
448,192,78993,1,0,0:0:0:0:
320,192,79120,1,0,0:0:0:0:
192,192,79184,1,0,0:0:0:0:
320,192,79249,1,0,0:0:0:0:
64,192,79249,1,0,0:0:0:0:
448,192,79313,1,0,0:0:0:0:
320,192,79376,1,0,0:0:0:0:
192,192,79505,128,0,79761:0:0:0:0:
64,192,79505,1,0,0:0:0:0:
320,192,79761,128,0,80017:0:0:0:0:
448,192,79761,1,0,0:0:0:0:
192,192,80017,128,0,80786:0:0:0:0:
64,192,80017,128,0,82066:0:0:0:0:
