osu file format v14

[General]
AudioFilename: audio_1.2_P.mp3
AudioLeadIn: 0
PreviewTime: 0
Countdown: 0
SampleSet: None
StackLeniency: 0.7
Mode: 3
LetterboxInBreaks: 0
SpecialStyle: 0
WidescreenStoryboard: 1

[Editor]
Bookmarks: 2597,22320,30621,31176,46719,51160,57820,58930,68506
DistanceSpacing: 0.5
BeatDivisor: 4
GridSize: 4
TimelineZoom: 1

[Metadata]
Title:Exciting Hyper Highspeed Star
TitleUnicode:Exciting Hyper Highspeed Star
Artist:DJ Sharpnel
ArtistUnicode:DJ Sharpnel
Creator:Midgy
Version:Hard x1.2
Source:
Tags:EHHS DJ Sharpnel Excited Hyper Highspeed Star J-Core
BeatmapID:1687932
BeatmapSetID:804138

[Difficulty]
HPDrainRate:8.7
CircleSize:4
OverallDifficulty:8
ApproachRate:5
SliderMultiplier:1.4
SliderTickRate:1

[Events]
//Background and Video events
0,0,"maxresdefault.jpg",0,0
//Break Periods
//Storyboard Layer 0 (Background)
//Storyboard Layer 1 (Fail)
//Storyboard Layer 2 (Pass)
//Storyboard Layer 3 (Foreground)
//Storyboard Sound Samples

[TimingPoints]
91,277.546489036913,4,2,0,100,1,0

[HitObjects]
64,192,91,5,0,0:0:0:0:
192,192,91,1,0,0:0:0:0:
320,192,91,1,0,0:0:0:0:
192,192,369,1,0,0:0:0:0:
320,192,369,1,0,0:0:0:0:
448,192,369,1,0,0:0:0:0:
448,192,646,1,0,0:0:0:0:
320,192,646,1,0,0:0:0:0:
64,192,646,1,0,0:0:0:0:
320,192,924,1,0,0:0:0:0:
192,192,924,1,0,0:0:0:0:
64,192,924,1,0,0:0:0:0:
64,192,1201,1,0,0:0:0:0:
192,192,1201,1,0,0:0:0:0:
448,192,1201,1,0,0:0:0:0:
320,192,1479,1,0,0:0:0:0:
448,192,1479,1,0,0:0:0:0:
192,192,1479,1,0,0:0:0:0:
192,192,1756,1,0,0:0:0:0:
64,192,1756,1,0,0:0:0:0:
320,192,1756,1,0,0:0:0:0:
192,192,2034,1,0,0:0:0:0:
64,192,2034,1,0,0:0:0:0:
320,192,2034,1,0,0:0:0:0:
448,192,2311,1,0,0:0:0:0:
320,192,2311,1,0,0:0:0:0:
64,192,2311,1,0,0:0:0:0:
64,192,2589,1,0,0:0:0:0:
192,192,2589,1,0,0:0:0:0:
448,192,2589,128,0,2728:0:0:0:0:
320,192,2866,1,0,0:0:0:0:
192,192,2866,1,0,0:0:0:0:
192,192,3144,1,0,0:0:0:0:
320,192,3144,1,0,0:0:0:0:
64,192,3144,128,0,3283:0:0:0:0:
448,192,3421,1,0,0:0:0:0:
320,192,3421,1,0,0:0:0:0:
320,192,3699,128,0,3838:0:0:0:0:
192,192,3699,1,0,0:0:0:0:
64,192,3699,1,0,0:0:0:0:
448,192,3976,1,0,0:0:0:0:
320,192,3976,1,0,0:0:0:0:
192,192,4115,1,0,0:0:0:0:
64,192,4254,1,0,0:0:0:0:
448,192,4393,1,0,0:0:0:0:
192,192,4531,1,0,0:0:0:0:
320,192,4531,1,0,0:0:0:0:
448,192,4531,1,0,0:0:0:0:
64,192,4809,1,0,0:0:0:0:
320,192,4809,1,0,0:0:0:0:
448,192,4809,1,0,0:0:0:0:
192,192,5017,1,0,0:0:0:0:
320,192,5087,1,0,0:0:0:0:
64,192,5087,1,0,0:0:0:0:
448,192,5156,1,0,0:0:0:0:
320,192,5225,1,0,0:0:0:0:
192,192,5295,1,0,0:0:0:0:
448,192,5365,1,0,0:0:0:0:
320,192,5365,1,0,0:0:0:0:
192,192,5434,1,0,0:0:0:0:
320,192,5503,1,0,0:0:0:0:
64,192,5572,1,0,0:0:0:0:
320,192,5642,1,0,0:0:0:0:
448,192,5642,1,0,0:0:0:0:
192,192,5780,1,0,0:0:0:0:
320,192,5850,1,0,0:0:0:0:
192,192,5920,1,0,0:0:0:0:
64,192,5920,1,0,0:0:0:0:
320,192,5989,1,0,0:0:0:0:
448,192,6058,1,0,0:0:0:0:
320,192,6197,1,0,0:0:0:0:
192,192,6197,1,0,0:0:0:0:
64,192,6266,1,0,0:0:0:0:
192,192,6335,1,0,0:0:0:0:
64,192,6405,1,0,0:0:0:0:
192,192,6475,1,0,0:0:0:0:
448,192,6475,1,0,0:0:0:0:
320,192,6544,1,0,0:0:0:0:
192,192,6613,1,0,0:0:0:0:
320,192,6752,1,0,0:0:0:0:
448,192,6752,1,0,0:0:0:0:
192,192,6890,1,0,0:0:0:0:
320,192,6960,1,0,0:0:0:0:
192,192,7030,1,0,0:0:0:0:
64,192,7030,1,0,0:0:0:0:
320,192,7099,1,0,0:0:0:0:
448,192,7168,1,0,0:0:0:0:
192,192,7238,1,0,0:0:0:0:
64,192,7307,1,0,0:0:0:0:
320,192,7307,1,0,0:0:0:0:
192,192,7376,1,0,0:0:0:0:
320,192,7445,1,0,0:0:0:0:
64,192,7515,1,0,0:0:0:0:
192,192,7585,1,0,0:0:0:0:
320,192,7585,1,0,0:0:0:0:
448,192,7585,1,0,0:0:0:0:
64,192,7654,1,0,0:0:0:0:
320,192,7724,1,0,0:0:0:0:
192,192,7862,1,0,0:0:0:0:
64,192,7862,1,0,0:0:0:0:
448,192,8001,1,0,0:0:0:0:
320,192,8070,1,0,0:0:0:0:
192,192,8140,1,0,0:0:0:0:
64,192,8140,1,0,0:0:0:0:
320,192,8209,1,0,0:0:0:0:
64,192,8279,1,0,0:0:0:0:
448,192,8417,1,0,0:0:0:0:
320,192,8417,1,0,0:0:0:0:
192,192,8486,1,0,0:0:0:0:
64,192,8486,1,0,0:0:0:0:
448,192,8556,1,0,0:0:0:0:
320,192,8556,1,0,0:0:0:0:
192,192,8625,1,0,0:0:0:0:
64,192,8695,1,0,0:0:0:0:
448,192,8695,1,0,0:0:0:0:
320,192,8695,1,0,0:0:0:0:
192,192,8834,1,0,0:0:0:0:
64,192,8972,1,0,0:0:0:0:
448,192,8972,1,0,0:0:0:0:
320,192,8972,1,0,0:0:0:0:
448,192,9250,1,0,0:0:0:0:
64,192,9250,1,0,0:0:0:0:
192,192,9250,1,0,0:0:0:0:
192,192,9458,1,0,0:0:0:0:
320,192,9527,1,0,0:0:0:0:
448,192,9527,1,0,0:0:0:0:
64,192,9597,1,0,0:0:0:0:
192,192,9666,1,0,0:0:0:0:
320,192,9735,1,0,0:0:0:0:
192,192,9805,1,0,0:0:0:0:
64,192,9805,1,0,0:0:0:0:
448,192,9875,1,0,0:0:0:0:
64,192,9944,1,0,0:0:0:0:
192,192,10013,1,0,0:0:0:0:
320,192,10083,1,0,0:0:0:0:
448,192,10083,1,0,0:0:0:0:
192,192,10221,1,0,0:0:0:0:
320,192,10290,1,0,0:0:0:0:
64,192,10360,1,0,0:0:0:0:
192,192,10360,1,0,0:0:0:0:
448,192,10430,1,0,0:0:0:0:
64,192,10499,1,0,0:0:0:0:
320,192,10638,1,0,0:0:0:0:
448,192,10638,1,0,0:0:0:0:
192,192,10707,1,0,0:0:0:0:
320,192,10776,1,0,0:0:0:0:
448,192,10845,1,0,0:0:0:0:
192,192,10915,1,0,0:0:0:0:
320,192,10915,1,0,0:0:0:0:
64,192,10985,1,0,0:0:0:0:
192,192,11054,1,0,0:0:0:0:
320,192,11193,1,0,0:0:0:0:
448,192,11193,1,0,0:0:0:0:
64,192,11193,1,0,0:0:0:0:
448,192,11331,1,0,0:0:0:0:
320,192,11401,1,0,0:0:0:0:
192,192,11470,1,0,0:0:0:0:
64,192,11470,1,0,0:0:0:0:
320,192,11540,1,0,0:0:0:0:
448,192,11609,1,0,0:0:0:0:
320,192,11679,1,0,0:0:0:0:
192,192,11748,1,0,0:0:0:0:
64,192,11748,1,0,0:0:0:0:
448,192,11817,1,0,0:0:0:0:
192,192,11886,1,0,0:0:0:0:
64,192,11956,1,0,0:0:0:0:
192,192,12025,1,0,0:0:0:0:
320,192,12025,1,0,0:0:0:0:
448,192,12025,1,0,0:0:0:0:
64,192,12095,1,0,0:0:0:0:
192,192,12164,1,0,0:0:0:0:
320,192,12303,1,0,0:0:0:0:
448,192,12303,1,0,0:0:0:0:
448,192,12441,1,0,0:0:0:0:
320,192,12511,1,0,0:0:0:0:
192,192,12580,1,0,0:0:0:0:
64,192,12580,1,0,0:0:0:0:
448,192,12650,1,0,0:0:0:0:
64,192,12720,1,0,0:0:0:0:
192,192,12858,1,0,0:0:0:0:
320,192,12858,1,0,0:0:0:0:
448,192,12858,128,0,13135:0:0:0:0:
64,192,13135,128,0,13413:0:0:0:0:
192,192,13135,1,0,0:0:0:0:
320,192,13135,1,0,0:0:0:0:
448,192,13413,128,0,13690:0:0:0:0:
192,192,13413,1,0,0:0:0:0:
192,192,13690,1,0,0:0:0:0:
64,192,13690,1,0,0:0:0:0:
448,192,13899,1,0,0:0:0:0:
64,192,13968,1,0,0:0:0:0:
192,192,13968,1,0,0:0:0:0:
448,192,14038,1,0,0:0:0:0:
320,192,14107,1,0,0:0:0:0:
192,192,14176,1,0,0:0:0:0:
320,192,14245,1,0,0:0:0:0:
448,192,14245,1,0,0:0:0:0:
192,192,14315,1,0,0:0:0:0:
320,192,14385,1,0,0:0:0:0:
192,192,14454,1,0,0:0:0:0:
320,192,14523,1,0,0:0:0:0:
448,192,14523,1,0,0:0:0:0:
64,192,14523,1,0,0:0:0:0:
192,192,14662,1,0,0:0:0:0:
320,192,14731,1,0,0:0:0:0:
192,192,14800,1,0,0:0:0:0:
64,192,14800,1,0,0:0:0:0:
448,192,14870,1,0,0:0:0:0:
320,192,14940,1,0,0:0:0:0:
320,192,15079,1,0,0:0:0:0:
448,192,15079,1,0,0:0:0:0:
192,192,15148,1,0,0:0:0:0:
320,192,15217,1,0,0:0:0:0:
192,192,15286,1,0,0:0:0:0:
320,192,15356,1,0,0:0:0:0:
448,192,15356,1,0,0:0:0:0:
192,192,15425,1,0,0:0:0:0:
64,192,15495,1,0,0:0:0:0:
192,192,15634,1,0,0:0:0:0:
64,192,15634,1,0,0:0:0:0:
320,192,15634,1,0,0:0:0:0:
192,192,15772,1,0,0:0:0:0:
64,192,15841,1,0,0:0:0:0:
192,192,15911,1,0,0:0:0:0:
320,192,15911,1,0,0:0:0:0:
448,192,15980,1,0,0:0:0:0:
320,192,16050,1,0,0:0:0:0:
192,192,16119,1,0,0:0:0:0:
448,192,16189,1,0,0:0:0:0:
64,192,16189,1,0,0:0:0:0:
192,192,16258,1,0,0:0:0:0:
64,192,16327,1,0,0:0:0:0:
192,192,16397,1,0,0:0:0:0:
64,192,16466,1,0,0:0:0:0:
320,192,16466,1,0,0:0:0:0:
448,192,16466,1,0,0:0:0:0:
192,192,16535,1,0,0:0:0:0:
320,192,16605,1,0,0:0:0:0:
192,192,16744,1,0,0:0:0:0:
64,192,16744,1,0,0:0:0:0:
320,192,16813,1,0,0:0:0:0:
448,192,16882,1,0,0:0:0:0:
320,192,16952,1,0,0:0:0:0:
192,192,17021,1,0,0:0:0:0:
64,192,17021,1,0,0:0:0:0:
448,192,17090,1,0,0:0:0:0:
64,192,17160,1,0,0:0:0:0:
64,192,17299,1,0,0:0:0:0:
448,192,17299,1,0,0:0:0:0:
320,192,17368,1,0,0:0:0:0:
192,192,17368,1,0,0:0:0:0:
64,192,17437,1,0,0:0:0:0:
448,192,17437,1,0,0:0:0:0:
192,192,17507,1,0,0:0:0:0:
64,192,17576,1,0,0:0:0:0:
448,192,17576,1,0,0:0:0:0:
320,192,17576,1,0,0:0:0:0:
192,192,17715,1,0,0:0:0:0:
64,192,17854,1,0,0:0:0:0:
448,192,17854,1,0,0:0:0:0:
320,192,17854,1,0,0:0:0:0:
64,192,18131,1,0,0:0:0:0:
448,192,18131,1,0,0:0:0:0:
192,192,18131,1,0,0:0:0:0:
320,192,18270,1,0,0:0:0:0:
192,192,18340,1,0,0:0:0:0:
64,192,18409,1,0,0:0:0:0:
448,192,18409,1,0,0:0:0:0:
192,192,18478,1,0,0:0:0:0:
320,192,18548,1,0,0:0:0:0:
64,192,18617,1,0,0:0:0:0:
320,192,18686,1,0,0:0:0:0:
448,192,18686,1,0,0:0:0:0:
192,192,18756,1,0,0:0:0:0:
320,192,18825,1,0,0:0:0:0:
64,192,18895,1,0,0:0:0:0:
192,192,18964,1,0,0:0:0:0:
448,192,18964,1,0,0:0:0:0:
64,192,19103,1,0,0:0:0:0:
192,192,19172,1,0,0:0:0:0:
64,192,19241,1,0,0:0:0:0:
448,192,19241,1,0,0:0:0:0:
320,192,19311,1,0,0:0:0:0:
448,192,19380,1,0,0:0:0:0:
192,192,19519,1,0,0:0:0:0:
64,192,19519,1,0,0:0:0:0:
448,192,19519,1,0,0:0:0:0:
320,192,19589,1,0,0:0:0:0:
448,192,19658,1,0,0:0:0:0:
320,192,19727,1,0,0:0:0:0:
192,192,19796,1,0,0:0:0:0:
64,192,19796,1,0,0:0:0:0:
320,192,19866,1,0,0:0:0:0:
192,192,19935,1,0,0:0:0:0:
320,192,20075,1,0,0:0:0:0:
448,192,20075,1,0,0:0:0:0:
64,192,20075,1,0,0:0:0:0:
192,192,20213,1,0,0:0:0:0:
320,192,20282,1,0,0:0:0:0:
64,192,20352,1,0,0:0:0:0:
192,192,20352,1,0,0:0:0:0:
320,192,20421,1,0,0:0:0:0:
448,192,20490,1,0,0:0:0:0:
192,192,20560,1,0,0:0:0:0:
320,192,20630,1,0,0:0:0:0:
448,192,20630,1,0,0:0:0:0:
64,192,20699,1,0,0:0:0:0:
192,192,20768,1,0,0:0:0:0:
320,192,20837,1,0,0:0:0:0:
64,192,20907,1,0,0:0:0:0:
192,192,20907,1,0,0:0:0:0:
448,192,20907,1,0,0:0:0:0:
320,192,20976,1,0,0:0:0:0:
448,192,21045,1,0,0:0:0:0:
192,192,21185,1,0,0:0:0:0:
64,192,21185,1,0,0:0:0:0:
448,192,21185,1,0,0:0:0:0:
320,192,21323,1,0,0:0:0:0:
192,192,21393,1,0,0:0:0:0:
320,192,21462,1,0,0:0:0:0:
64,192,21462,1,0,0:0:0:0:
448,192,21531,1,0,0:0:0:0:
320,192,21600,1,0,0:0:0:0:
192,192,21740,128,0,22017:0:0:0:0:
64,192,21740,1,0,0:0:0:0:
320,192,22017,128,0,22295:0:0:0:0:
448,192,22017,1,0,0:0:0:0:
64,192,22295,1,0,0:0:0:0:
192,192,22364,1,0,0:0:0:0:
320,192,22433,1,0,0:0:0:0:
448,192,22433,1,0,0:0:0:0:
192,192,22503,1,0,0:0:0:0:
64,192,22572,1,0,0:0:0:0:
448,192,22572,1,0,0:0:0:0:
320,192,22641,1,0,0:0:0:0:
192,192,22711,1,0,0:0:0:0:
64,192,22711,1,0,0:0:0:0:
448,192,22780,1,0,0:0:0:0:
320,192,22850,1,0,0:0:0:0:
192,192,22850,1,0,0:0:0:0:
64,192,22919,1,0,0:0:0:0:
448,192,22989,1,0,0:0:0:0:
320,192,22989,1,0,0:0:0:0:
192,192,23058,1,0,0:0:0:0:
64,192,23127,1,0,0:0:0:0:
448,192,23127,1,0,0:0:0:0:
192,192,23196,1,0,0:0:0:0:
320,192,23266,1,0,0:0:0:0:
448,192,23266,1,0,0:0:0:0:
64,192,23335,1,0,0:0:0:0:
192,192,23405,1,0,0:0:0:0:
320,192,23405,1,0,0:0:0:0:
448,192,23474,1,0,0:0:0:0:
64,192,23544,1,0,0:0:0:0:
192,192,23544,1,0,0:0:0:0:
320,192,23613,1,0,0:0:0:0:
448,192,23682,1,0,0:0:0:0:
64,192,23682,1,0,0:0:0:0:
192,192,23752,1,0,0:0:0:0:
320,192,23821,1,0,0:0:0:0:
448,192,23821,1,0,0:0:0:0:
64,192,23890,1,0,0:0:0:0:
192,192,23960,1,0,0:0:0:0:
320,192,23960,1,0,0:0:0:0:
448,192,24030,1,0,0:0:0:0:
320,192,24099,1,0,0:0:0:0:
64,192,24099,1,0,0:0:0:0:
192,192,24168,1,0,0:0:0:0:
320,192,24237,1,0,0:0:0:0:
448,192,24237,1,0,0:0:0:0:
64,192,24307,1,0,0:0:0:0:
192,192,24376,1,0,0:0:0:0:
448,192,24376,1,0,0:0:0:0:
320,192,24445,1,0,0:0:0:0:
192,192,24515,1,0,0:0:0:0:
64,192,24515,1,0,0:0:0:0:
448,192,24585,1,0,0:0:0:0:
320,192,24654,1,0,0:0:0:0:
64,192,24654,1,0,0:0:0:0:
192,192,24723,1,0,0:0:0:0:
320,192,24792,1,0,0:0:0:0:
448,192,24792,1,0,0:0:0:0:
192,192,24862,1,0,0:0:0:0:
448,192,24931,1,0,0:0:0:0:
64,192,24931,1,0,0:0:0:0:
320,192,25000,1,0,0:0:0:0:
448,192,25070,1,0,0:0:0:0:
192,192,25070,1,0,0:0:0:0:
64,192,25140,1,0,0:0:0:0:
320,192,25209,1,0,0:0:0:0:
448,192,25209,1,0,0:0:0:0:
64,192,25278,1,0,0:0:0:0:
192,192,25348,1,0,0:0:0:0:
320,192,25348,1,0,0:0:0:0:
448,192,25417,1,0,0:0:0:0:
64,192,25486,1,0,0:0:0:0:
320,192,25486,1,0,0:0:0:0:
192,192,25555,1,0,0:0:0:0:
448,192,25625,1,0,0:0:0:0:
320,192,25625,1,0,0:0:0:0:
192,192,25695,1,0,0:0:0:0:
64,192,25695,1,0,0:0:0:0:
448,192,25764,1,0,0:0:0:0:
320,192,25764,1,0,0:0:0:0:
192,192,25833,1,0,0:0:0:0:
64,192,25833,1,0,0:0:0:0:
320,192,25903,1,0,0:0:0:0:
448,192,25903,1,0,0:0:0:0:
192,192,25972,1,0,0:0:0:0:
64,192,25972,1,0,0:0:0:0:
448,192,26041,1,0,0:0:0:0:
320,192,26041,1,0,0:0:0:0:
192,192,26110,1,0,0:0:0:0:
448,192,26180,1,0,0:0:0:0:
64,192,26180,1,0,0:0:0:0:
320,192,26250,1,0,0:0:0:0:
192,192,26250,1,0,0:0:0:0:
448,192,26319,1,0,0:0:0:0:
64,192,26319,1,0,0:0:0:0:
320,192,26389,1,0,0:0:0:0:
192,192,26389,1,0,0:0:0:0:
448,192,26458,1,0,0:0:0:0:
64,192,26458,1,0,0:0:0:0:
320,192,26527,1,0,0:0:0:0:
192,192,26596,1,0,0:0:0:0:
64,192,26596,1,0,0:0:0:0:
320,192,26666,1,0,0:0:0:0:
192,192,26735,1,0,0:0:0:0:
448,192,26735,1,0,0:0:0:0:
320,192,26805,1,0,0:0:0:0:
64,192,26874,1,0,0:0:0:0:
448,192,26874,1,0,0:0:0:0:
192,192,26944,1,0,0:0:0:0:
320,192,27013,1,0,0:0:0:0:
448,192,27013,1,0,0:0:0:0:
64,192,27082,1,0,0:0:0:0:
192,192,27151,1,0,0:0:0:0:
448,192,27151,1,0,0:0:0:0:
320,192,27221,1,0,0:0:0:0:
192,192,27290,1,0,0:0:0:0:
64,192,27290,1,0,0:0:0:0:
448,192,27360,1,0,0:0:0:0:
320,192,27429,1,0,0:0:0:0:
192,192,27429,1,0,0:0:0:0:
64,192,27499,1,0,0:0:0:0:
448,192,27568,1,0,0:0:0:0:
320,192,27568,1,0,0:0:0:0:
192,192,27637,1,0,0:0:0:0:
64,192,27707,1,0,0:0:0:0:
448,192,27707,1,0,0:0:0:0:
320,192,27776,1,0,0:0:0:0:
192,192,27845,1,0,0:0:0:0:
64,192,27845,1,0,0:0:0:0:
448,192,27915,1,0,0:0:0:0:
320,192,27985,1,0,0:0:0:0:
192,192,27985,1,0,0:0:0:0:
64,192,28054,1,0,0:0:0:0:
448,192,28123,1,0,0:0:0:0:
320,192,28123,1,0,0:0:0:0:
192,192,28192,1,0,0:0:0:0:
64,192,28262,1,0,0:0:0:0:
448,192,28262,1,0,0:0:0:0:
192,192,28331,1,0,0:0:0:0:
320,192,28400,1,0,0:0:0:0:
448,192,28400,1,0,0:0:0:0:
64,192,28470,1,0,0:0:0:0:
192,192,28540,1,0,0:0:0:0:
320,192,28540,1,0,0:0:0:0:
448,192,28609,1,0,0:0:0:0:
64,192,28678,1,0,0:0:0:0:
192,192,28678,1,0,0:0:0:0:
320,192,28748,1,0,0:0:0:0:
448,192,28817,1,0,0:0:0:0:
64,192,28817,1,0,0:0:0:0:
192,192,28886,1,0,0:0:0:0:
320,192,28955,1,0,0:0:0:0:
448,192,28955,1,0,0:0:0:0:
64,192,29025,1,0,0:0:0:0:
192,192,29095,1,0,0:0:0:0:
448,192,29095,1,0,0:0:0:0:
320,192,29164,1,0,0:0:0:0:
192,192,29233,1,0,0:0:0:0:
64,192,29233,1,0,0:0:0:0:
448,192,29303,1,0,0:0:0:0:
320,192,29372,1,0,0:0:0:0:
64,192,29372,1,0,0:0:0:0:
192,192,29441,1,0,0:0:0:0:
448,192,29441,1,0,0:0:0:0:
320,192,29510,1,0,0:0:0:0:
64,192,29510,1,0,0:0:0:0:
192,192,29580,1,0,0:0:0:0:
448,192,29580,1,0,0:0:0:0:
320,192,29650,1,0,0:0:0:0:
64,192,29650,1,0,0:0:0:0:
192,192,29719,1,0,0:0:0:0:
448,192,29719,1,0,0:0:0:0:
64,192,29788,1,0,0:0:0:0:
320,192,29788,1,0,0:0:0:0:
448,192,29858,1,0,0:0:0:0:
192,192,29858,1,0,0:0:0:0:
320,192,29927,1,0,0:0:0:0:
64,192,29927,1,0,0:0:0:0:
192,192,29996,1,0,0:0:0:0:
320,192,30066,1,0,0:0:0:0:
448,192,30066,1,0,0:0:0:0:
64,192,30135,1,0,0:0:0:0:
192,192,30205,1,0,0:0:0:0:
448,192,30205,1,0,0:0:0:0:
320,192,30274,1,0,0:0:0:0:
192,192,30344,1,0,0:0:0:0:
64,192,30344,1,0,0:0:0:0:
448,192,30413,1,0,0:0:0:0:
320,192,30482,1,0,0:0:0:0:
192,192,30482,1,0,0:0:0:0:
64,192,30551,1,0,0:0:0:0:
448,192,30621,1,0,0:0:0:0:
320,192,30621,1,0,0:0:0:0:
192,192,30690,1,0,0:0:0:0:
64,192,30690,1,0,0:0:0:0:
320,192,30760,1,0,0:0:0:0:
448,192,30760,1,0,0:0:0:0:
192,192,30829,1,0,0:0:0:0:
64,192,30829,1,0,0:0:0:0:
320,192,30899,1,0,0:0:0:0:
448,192,30899,1,0,0:0:0:0:
192,192,30968,1,0,0:0:0:0:
64,192,30968,1,0,0:0:0:0:
320,192,31037,1,0,0:0:0:0:
448,192,31037,1,0,0:0:0:0:
192,192,31106,1,0,0:0:0:0:
64,192,31106,1,0,0:0:0:0:
320,192,31176,1,0,0:0:0:0:
448,192,31176,1,0,0:0:0:0:
64,192,31245,1,0,0:0:0:0:
192,192,31315,1,0,0:0:0:0:
448,192,31315,1,0,0:0:0:0:
320,192,31385,1,0,0:0:0:0:
192,192,31454,1,0,0:0:0:0:
64,192,31454,1,0,0:0:0:0:
448,192,31523,1,0,0:0:0:0:
320,192,31592,1,0,0:0:0:0:
64,192,31592,1,0,0:0:0:0:
192,192,31662,1,0,0:0:0:0:
320,192,31731,1,0,0:0:0:0:
448,192,31731,1,0,0:0:0:0:
64,192,31800,1,0,0:0:0:0:
192,192,31870,1,0,0:0:0:0:
320,192,31870,1,0,0:0:0:0:
448,192,31940,1,0,0:0:0:0:
64,192,32009,1,0,0:0:0:0:
192,192,32009,1,0,0:0:0:0:
320,192,32078,1,0,0:0:0:0:
448,192,32147,1,0,0:0:0:0:
192,192,32147,1,0,0:0:0:0:
64,192,32217,1,0,0:0:0:0:
320,192,32286,1,0,0:0:0:0:
448,192,32286,1,0,0:0:0:0:
192,192,32355,1,0,0:0:0:0:
64,192,32425,1,0,0:0:0:0:
448,192,32425,1,0,0:0:0:0:
320,192,32495,1,0,0:0:0:0:
192,192,32564,1,0,0:0:0:0:
64,192,32564,1,0,0:0:0:0:
448,192,32633,1,0,0:0:0:0:
320,192,32703,1,0,0:0:0:0:
192,192,32703,1,0,0:0:0:0:
64,192,32772,1,0,0:0:0:0:
320,192,32841,1,0,0:0:0:0:
448,192,32841,1,0,0:0:0:0:
64,192,32910,1,0,0:0:0:0:
192,192,32980,1,0,0:0:0:0:
448,192,32980,1,0,0:0:0:0:
320,192,33050,1,0,0:0:0:0:
192,192,33119,1,0,0:0:0:0:
64,192,33119,1,0,0:0:0:0:
448,192,33188,1,0,0:0:0:0:
320,192,33258,1,0,0:0:0:0:
64,192,33258,1,0,0:0:0:0:
192,192,33327,1,0,0:0:0:0:
320,192,33396,1,0,0:0:0:0:
448,192,33396,1,0,0:0:0:0:
64,192,33465,1,0,0:0:0:0:
192,192,33535,1,0,0:0:0:0:
448,192,33535,1,0,0:0:0:0:
320,192,33605,1,0,0:0:0:0:
192,192,33674,1,0,0:0:0:0:
64,192,33674,1,0,0:0:0:0:
448,192,33744,1,0,0:0:0:0:
320,192,33813,1,0,0:0:0:0:
64,192,33813,1,0,0:0:0:0:
192,192,33882,1,0,0:0:0:0:
320,192,33951,1,0,0:0:0:0:
448,192,33951,1,0,0:0:0:0:
64,192,34021,1,0,0:0:0:0:
192,192,34090,1,0,0:0:0:0:
320,192,34090,1,0,0:0:0:0:
448,192,34160,1,0,0:0:0:0:
192,192,34229,1,0,0:0:0:0:
64,192,34229,1,0,0:0:0:0:
320,192,34299,1,0,0:0:0:0:
64,192,34368,1,0,0:0:0:0:
448,192,34368,1,0,0:0:0:0:
192,192,34437,1,0,0:0:0:0:
320,192,34506,1,0,0:0:0:0:
448,192,34506,1,0,0:0:0:0:
64,192,34576,1,0,0:0:0:0:
192,192,34576,1,0,0:0:0:0:
320,192,34645,1,0,0:0:0:0:
448,192,34645,1,0,0:0:0:0:
192,192,34715,1,0,0:0:0:0:
64,192,34715,1,0,0:0:0:0:
320,192,34784,1,0,0:0:0:0:
448,192,34784,1,0,0:0:0:0:
192,192,34854,1,0,0:0:0:0:
64,192,34854,1,0,0:0:0:0:
448,192,34923,1,0,0:0:0:0:
320,192,34923,1,0,0:0:0:0:
64,192,34992,1,0,0:0:0:0:
192,192,35062,1,0,0:0:0:0:
320,192,35062,1,0,0:0:0:0:
448,192,35131,1,0,0:0:0:0:
64,192,35131,1,0,0:0:0:0:
192,192,35200,1,0,0:0:0:0:
320,192,35200,1,0,0:0:0:0:
448,192,35270,1,0,0:0:0:0:
64,192,35270,1,0,0:0:0:0:
192,192,35340,1,0,0:0:0:0:
320,192,35340,1,0,0:0:0:0:
448,192,35409,1,0,0:0:0:0:
64,192,35409,1,0,0:0:0:0:
192,192,35478,1,0,0:0:0:0:
320,192,35478,1,0,0:0:0:0:
448,192,35547,1,0,0:0:0:0:
320,192,35617,1,0,0:0:0:0:
64,192,35617,1,0,0:0:0:0:
192,192,35686,1,0,0:0:0:0:
64,192,35755,1,0,0:0:0:0:
448,192,35755,1,0,0:0:0:0:
320,192,35825,1,0,0:0:0:0:
64,192,35895,1,0,0:0:0:0:
192,192,35895,1,0,0:0:0:0:
448,192,35964,1,0,0:0:0:0:
320,192,36033,1,0,0:0:0:0:
64,192,36033,1,0,0:0:0:0:
192,192,36102,1,0,0:0:0:0:
448,192,36172,1,0,0:0:0:0:
320,192,36172,1,0,0:0:0:0:
64,192,36241,1,0,0:0:0:0:
448,192,36310,1,0,0:0:0:0:
320,192,36310,1,0,0:0:0:0:
192,192,36380,1,0,0:0:0:0:
64,192,36450,1,0,0:0:0:0:
448,192,36450,1,0,0:0:0:0:
320,192,36519,1,0,0:0:0:0:
192,192,36588,1,0,0:0:0:0:
64,192,36588,1,0,0:0:0:0:
320,192,36658,1,0,0:0:0:0:
64,192,36727,1,0,0:0:0:0:
448,192,36727,1,0,0:0:0:0:
192,192,36796,1,0,0:0:0:0:
448,192,36865,1,0,0:0:0:0:
320,192,36865,1,0,0:0:0:0:
192,192,36935,1,0,0:0:0:0:
64,192,37005,1,0,0:0:0:0:
448,192,37005,1,0,0:0:0:0:
320,192,37074,1,0,0:0:0:0:
448,192,37143,1,0,0:0:0:0:
192,192,37143,1,0,0:0:0:0:
64,192,37213,1,0,0:0:0:0:
192,192,37282,1,0,0:0:0:0:
320,192,37282,1,0,0:0:0:0:
448,192,37351,1,0,0:0:0:0:
64,192,37421,1,0,0:0:0:0:
192,192,37421,1,0,0:0:0:0:
320,192,37490,1,0,0:0:0:0:
448,192,37560,1,0,0:0:0:0:
64,192,37560,1,0,0:0:0:0:
192,192,37629,1,0,0:0:0:0:
320,192,37699,1,0,0:0:0:0:
64,192,37699,1,0,0:0:0:0:
448,192,37768,1,0,0:0:0:0:
320,192,37837,1,0,0:0:0:0:
192,192,37837,1,0,0:0:0:0:
64,192,37906,1,0,0:0:0:0:
192,192,37976,1,0,0:0:0:0:
448,192,37976,1,0,0:0:0:0:
320,192,38045,1,0,0:0:0:0:
192,192,38115,1,0,0:0:0:0:
64,192,38115,1,0,0:0:0:0:
448,192,38184,1,0,0:0:0:0:
320,192,38254,1,0,0:0:0:0:
64,192,38254,1,0,0:0:0:0:
192,192,38323,1,0,0:0:0:0:
320,192,38392,1,0,0:0:0:0:
448,192,38392,1,0,0:0:0:0:
192,192,38461,1,0,0:0:0:0:
64,192,38531,1,0,0:0:0:0:
448,192,38531,1,0,0:0:0:0:
320,192,38600,1,0,0:0:0:0:
192,192,38670,1,0,0:0:0:0:
64,192,38670,1,0,0:0:0:0:
320,192,38740,1,0,0:0:0:0:
448,192,38809,1,0,0:0:0:0:
64,192,38809,1,0,0:0:0:0:
192,192,38878,1,0,0:0:0:0:
320,192,38947,1,0,0:0:0:0:
448,192,38947,1,0,0:0:0:0:
64,192,39017,1,0,0:0:0:0:
192,192,39086,1,0,0:0:0:0:
320,192,39086,1,0,0:0:0:0:
448,192,39155,1,0,0:0:0:0:
64,192,39225,1,0,0:0:0:0:
192,192,39225,1,0,0:0:0:0:
320,192,39295,1,0,0:0:0:0:
448,192,39364,1,0,0:0:0:0:
64,192,39364,1,0,0:0:0:0:
192,192,39433,1,0,0:0:0:0:
448,192,39502,1,0,0:0:0:0:
320,192,39502,1,0,0:0:0:0:
192,192,39572,1,0,0:0:0:0:
64,192,39572,1,0,0:0:0:0:
320,192,39641,1,0,0:0:0:0:
448,192,39641,1,0,0:0:0:0:
192,192,39710,1,0,0:0:0:0:
64,192,39710,1,0,0:0:0:0:
320,192,39780,1,0,0:0:0:0:
448,192,39780,1,0,0:0:0:0:
192,192,39850,1,0,0:0:0:0:
320,192,39919,1,0,0:0:0:0:
448,192,39919,1,0,0:0:0:0:
192,192,39988,1,0,0:0:0:0:
64,192,40058,1,0,0:0:0:0:
448,192,40058,1,0,0:0:0:0:
320,192,40127,1,0,0:0:0:0:
192,192,40196,1,0,0:0:0:0:
64,192,40196,1,0,0:0:0:0:
448,192,40265,1,0,0:0:0:0:
320,192,40335,1,0,0:0:0:0:
192,192,40335,1,0,0:0:0:0:
64,192,40405,1,0,0:0:0:0:
448,192,40474,1,0,0:0:0:0:
320,192,40474,1,0,0:0:0:0:
192,192,40543,1,0,0:0:0:0:
64,192,40613,1,0,0:0:0:0:
448,192,40613,1,0,0:0:0:0:
320,192,40682,1,0,0:0:0:0:
192,192,40751,1,0,0:0:0:0:
448,192,40751,1,0,0:0:0:0:
64,192,40820,1,0,0:0:0:0:
192,192,40890,1,0,0:0:0:0:
320,192,40890,1,0,0:0:0:0:
448,192,40960,1,0,0:0:0:0:
320,192,41029,1,0,0:0:0:0:
64,192,41029,1,0,0:0:0:0:
192,192,41098,1,0,0:0:0:0:
320,192,41168,1,0,0:0:0:0:
448,192,41168,1,0,0:0:0:0:
64,192,41237,1,0,0:0:0:0:
192,192,41306,1,0,0:0:0:0:
448,192,41306,1,0,0:0:0:0:
320,192,41376,1,0,0:0:0:0:
192,192,41445,1,0,0:0:0:0:
64,192,41445,1,0,0:0:0:0:
320,192,41515,1,0,0:0:0:0:
448,192,41584,1,0,0:0:0:0:
64,192,41584,1,0,0:0:0:0:
192,192,41654,1,0,0:0:0:0:
320,192,41723,1,0,0:0:0:0:
448,192,41723,1,0,0:0:0:0:
192,192,41792,1,0,0:0:0:0:
64,192,41861,1,0,0:0:0:0:
448,192,41861,1,0,0:0:0:0:
320,192,41931,1,0,0:0:0:0:
192,192,42000,1,0,0:0:0:0:
64,192,42000,1,0,0:0:0:0:
448,192,42070,1,0,0:0:0:0:
320,192,42139,1,0,0:0:0:0:
192,192,42139,1,0,0:0:0:0:
64,192,42209,1,0,0:0:0:0:
320,192,42278,1,0,0:0:0:0:
448,192,42278,1,0,0:0:0:0:
192,192,42347,1,0,0:0:0:0:
448,192,42417,1,0,0:0:0:0:
320,192,42417,1,0,0:0:0:0:
192,192,42486,1,0,0:0:0:0:
448,192,42555,1,0,0:0:0:0:
64,192,42555,1,0,0:0:0:0:
320,192,42625,1,0,0:0:0:0:
64,192,42695,1,0,0:0:0:0:
192,192,42695,1,0,0:0:0:0:
448,192,42764,1,0,0:0:0:0:
192,192,42833,1,0,0:0:0:0:
320,192,42833,1,0,0:0:0:0:
64,192,42902,1,0,0:0:0:0:
320,192,42972,1,0,0:0:0:0:
448,192,42972,1,0,0:0:0:0:
192,192,43041,1,0,0:0:0:0:
448,192,43110,1,0,0:0:0:0:
64,192,43110,1,0,0:0:0:0:
320,192,43180,1,0,0:0:0:0:
448,192,43250,1,0,0:0:0:0:
192,192,43250,1,0,0:0:0:0:
64,192,43319,1,0,0:0:0:0:
320,192,43388,1,0,0:0:0:0:
192,192,43388,1,0,0:0:0:0:
448,192,43457,1,0,0:0:0:0:
64,192,43527,1,0,0:0:0:0:
320,192,43527,1,0,0:0:0:0:
192,192,43596,1,0,0:0:0:0:
448,192,43665,1,0,0:0:0:0:
320,192,43665,1,0,0:0:0:0:
64,192,43735,1,0,0:0:0:0:
448,192,43805,1,0,0:0:0:0:
192,192,43805,1,0,0:0:0:0:
320,192,43874,1,0,0:0:0:0:
64,192,43943,1,0,0:0:0:0:
192,192,43943,1,0,0:0:0:0:
320,192,44013,1,0,0:0:0:0:
64,192,44082,1,0,0:0:0:0:
448,192,44082,1,0,0:0:0:0:
192,192,44151,1,0,0:0:0:0:
448,192,44220,1,0,0:0:0:0:
320,192,44220,1,0,0:0:0:0:
192,192,44290,1,0,0:0:0:0:
448,192,44360,1,0,0:0:0:0:
64,192,44360,1,0,0:0:0:0:
320,192,44429,1,0,0:0:0:0:
64,192,44498,1,0,0:0:0:0:
192,192,44498,1,0,0:0:0:0:
448,192,44568,1,0,0:0:0:0:
192,192,44637,1,0,0:0:0:0:
320,192,44637,1,0,0:0:0:0:
64,192,44706,1,0,0:0:0:0:
320,192,44775,1,0,0:0:0:0:
448,192,44775,1,0,0:0:0:0:
64,192,44845,1,0,0:0:0:0:
192,192,44915,1,0,0:0:0:0:
448,192,44915,1,0,0:0:0:0:
320,192,44984,1,0,0:0:0:0:
192,192,45054,1,0,0:0:0:0:
64,192,45054,1,0,0:0:0:0:
448,192,45123,1,0,0:0:0:0:
320,192,45192,1,0,0:0:0:0:
64,192,45192,1,0,0:0:0:0:
192,192,45261,1,0,0:0:0:0:
320,192,45331,1,0,0:0:0:0:
448,192,45331,1,0,0:0:0:0:
64,192,45400,1,0,0:0:0:0:
192,192,45470,1,0,0:0:0:0:
448,192,45470,1,0,0:0:0:0:
320,192,45539,1,0,0:0:0:0:
192,192,45609,1,0,0:0:0:0:
64,192,45609,1,0,0:0:0:0:
448,192,45678,1,0,0:0:0:0:
320,192,45747,1,0,0:0:0:0:
192,192,45747,1,0,0:0:0:0:
64,192,45816,1,0,0:0:0:0:
448,192,45886,1,0,0:0:0:0:
320,192,45886,1,0,0:0:0:0:
192,192,45955,1,0,0:0:0:0:
64,192,46025,1,0,0:0:0:0:
448,192,46025,1,0,0:0:0:0:
320,192,46094,1,0,0:0:0:0:
192,192,46164,1,0,0:0:0:0:
64,192,46164,1,0,0:0:0:0:
448,192,46233,1,0,0:0:0:0:
320,192,46302,1,0,0:0:0:0:
192,192,46302,1,0,0:0:0:0:
64,192,46372,1,0,0:0:0:0:
448,192,46441,1,0,0:0:0:0:
320,192,46441,1,0,0:0:0:0:
192,192,46510,1,0,0:0:0:0:
64,192,46580,1,0,0:0:0:0:
448,192,46580,1,0,0:0:0:0:
192,192,46650,1,0,0:0:0:0:
448,192,46719,1,0,0:0:0:0:
320,192,46719,1,0,0:0:0:0:
64,192,46719,1,0,0:0:0:0:
192,192,46788,1,0,0:0:0:0:
64,192,46857,1,0,0:0:0:0:
320,192,46927,1,0,0:0:0:0:
448,192,46996,1,0,0:0:0:0:
320,192,47065,1,0,0:0:0:0:
448,192,47135,1,0,0:0:0:0:
192,192,47205,1,0,0:0:0:0:
64,192,47274,1,0,0:0:0:0:
192,192,47343,1,0,0:0:0:0:
64,192,47413,1,0,0:0:0:0:
448,192,47482,1,0,0:0:0:0:
320,192,47551,1,0,0:0:0:0:
448,192,47620,1,0,0:0:0:0:
64,192,47690,1,0,0:0:0:0:
320,192,47690,1,0,0:0:0:0:
192,192,47760,1,0,0:0:0:0:
64,192,47829,1,0,0:0:0:0:
320,192,47829,1,0,0:0:0:0:
192,192,47898,1,0,0:0:0:0:
448,192,47968,1,0,0:0:0:0:
320,192,48037,1,0,0:0:0:0:
448,192,48106,1,0,0:0:0:0:
192,192,48106,1,0,0:0:0:0:
320,192,48175,1,0,0:0:0:0:
64,192,48245,1,0,0:0:0:0:
192,192,48245,1,0,0:0:0:0:
320,192,48315,1,0,0:0:0:0:
448,192,48384,1,0,0:0:0:0:
64,192,48453,1,0,0:0:0:0:
192,192,48523,1,0,0:0:0:0:
448,192,48523,1,0,0:0:0:0:
320,192,48592,1,0,0:0:0:0:
64,192,48661,1,0,0:0:0:0:
192,192,48661,1,0,0:0:0:0:
448,192,48731,1,0,0:0:0:0:
320,192,48800,1,0,0:0:0:0:
64,192,48800,1,0,0:0:0:0:
192,192,48870,1,0,0:0:0:0:
320,192,48939,1,0,0:0:0:0:
448,192,48939,1,0,0:0:0:0:
64,192,48939,1,0,0:0:0:0:
192,192,49009,1,0,0:0:0:0:
448,192,49078,1,0,0:0:0:0:
192,192,49147,1,0,0:0:0:0:
448,192,49216,1,0,0:0:0:0:
192,192,49286,1,0,0:0:0:0:
448,192,49355,1,0,0:0:0:0:
320,192,49425,1,0,0:0:0:0:
64,192,49494,1,0,0:0:0:0:
320,192,49564,1,0,0:0:0:0:
64,192,49633,1,0,0:0:0:0:
320,192,49702,1,0,0:0:0:0:
64,192,49771,1,0,0:0:0:0:
448,192,49841,1,0,0:0:0:0:
320,192,49910,1,0,0:0:0:0:
64,192,49910,1,0,0:0:0:0:
192,192,49980,1,0,0:0:0:0:
448,192,50050,1,0,0:0:0:0:
320,192,50050,1,0,0:0:0:0:
64,192,50119,1,0,0:0:0:0:
320,192,50188,1,0,0:0:0:0:
64,192,50257,1,0,0:0:0:0:
192,192,50327,1,0,0:0:0:0:
448,192,50327,1,0,0:0:0:0:
320,192,50396,1,0,0:0:0:0:
192,192,50465,1,0,0:0:0:0:
320,192,50535,1,0,0:0:0:0:
192,192,50605,1,0,0:0:0:0:
320,192,50674,1,0,0:0:0:0:
448,192,50743,1,0,0:0:0:0:
64,192,50743,1,0,0:0:0:0:
192,192,50812,1,0,0:0:0:0:
448,192,50882,1,0,0:0:0:0:
192,192,50951,1,0,0:0:0:0:
448,192,51020,1,0,0:0:0:0:
192,192,51090,1,0,0:0:0:0:
448,192,51160,1,0,0:0:0:0:
320,192,51160,1,0,0:0:0:0:
192,192,51229,1,0,0:0:0:0:
64,192,51229,1,0,0:0:0:0:
320,192,51298,1,0,0:0:0:0:
448,192,51298,1,0,0:0:0:0:
192,192,51368,1,0,0:0:0:0:
64,192,51368,1,0,0:0:0:0:
320,192,51437,1,0,0:0:0:0:
448,192,51437,1,0,0:0:0:0:
192,192,51506,1,0,0:0:0:0:
64,192,51506,1,0,0:0:0:0:
448,192,51575,1,0,0:0:0:0:
320,192,51575,1,0,0:0:0:0:
192,192,51645,1,0,0:0:0:0:
64,192,51715,1,0,0:0:0:0:
448,192,51715,1,0,0:0:0:0:
320,192,51784,1,0,0:0:0:0:
192,192,51784,1,0,0:0:0:0:
64,192,51853,1,0,0:0:0:0:
448,192,51853,1,0,0:0:0:0:
320,192,51923,1,0,0:0:0:0:
192,192,51923,1,0,0:0:0:0:
64,192,51992,1,0,0:0:0:0:
448,192,51992,1,0,0:0:0:0:
320,192,52061,1,0,0:0:0:0:
192,192,52061,1,0,0:0:0:0:
64,192,52130,1,0,0:0:0:0:
448,192,52130,1,0,0:0:0:0:
320,192,52200,1,0,0:0:0:0:
192,192,52270,1,0,0:0:0:0:
64,192,52270,1,0,0:0:0:0:
448,192,52339,1,0,0:0:0:0:
192,192,52409,1,0,0:0:0:0:
320,192,52409,1,0,0:0:0:0:
64,192,52478,1,0,0:0:0:0:
192,192,52547,1,0,0:0:0:0:
448,192,52547,1,0,0:0:0:0:
320,192,52616,1,0,0:0:0:0:
448,192,52686,1,0,0:0:0:0:
64,192,52686,1,0,0:0:0:0:
192,192,52755,1,0,0:0:0:0:
320,192,52825,1,0,0:0:0:0:
448,192,52825,1,0,0:0:0:0:
64,192,52894,1,0,0:0:0:0:
192,192,52894,1,0,0:0:0:0:
448,192,52964,1,0,0:0:0:0:
320,192,52964,1,0,0:0:0:0:
64,192,53033,1,0,0:0:0:0:
192,192,53102,1,0,0:0:0:0:
320,192,53102,1,0,0:0:0:0:
448,192,53171,1,0,0:0:0:0:
320,192,53241,1,0,0:0:0:0:
64,192,53241,1,0,0:0:0:0:
192,192,53310,1,0,0:0:0:0:
320,192,53380,1,0,0:0:0:0:
448,192,53380,1,0,0:0:0:0:
192,192,53449,1,0,0:0:0:0:
64,192,53449,1,0,0:0:0:0:
320,192,53519,1,0,0:0:0:0:
448,192,53519,1,0,0:0:0:0:
192,192,53588,1,0,0:0:0:0:
64,192,53588,1,0,0:0:0:0:
320,192,53657,1,0,0:0:0:0:
448,192,53657,1,0,0:0:0:0:
192,192,53727,1,0,0:0:0:0:
64,192,53727,1,0,0:0:0:0:
448,192,53796,1,0,0:0:0:0:
320,192,53796,1,0,0:0:0:0:
192,192,53865,1,0,0:0:0:0:
64,192,53935,1,0,0:0:0:0:
448,192,53935,1,0,0:0:0:0:
320,192,54005,1,0,0:0:0:0:
192,192,54005,1,0,0:0:0:0:
64,192,54074,1,0,0:0:0:0:
448,192,54074,1,0,0:0:0:0:
320,192,54143,1,0,0:0:0:0:
192,192,54143,1,0,0:0:0:0:
64,192,54212,1,0,0:0:0:0:
448,192,54212,1,0,0:0:0:0:
320,192,54282,1,0,0:0:0:0:
192,192,54282,1,0,0:0:0:0:
64,192,54351,1,0,0:0:0:0:
448,192,54351,1,0,0:0:0:0:
320,192,54420,1,0,0:0:0:0:
64,192,54490,1,0,0:0:0:0:
192,192,54490,1,0,0:0:0:0:
320,192,54560,1,0,0:0:0:0:
64,192,54629,1,0,0:0:0:0:
448,192,54629,1,0,0:0:0:0:
192,192,54698,1,0,0:0:0:0:
320,192,54767,1,0,0:0:0:0:
448,192,54767,1,0,0:0:0:0:
192,192,54837,1,0,0:0:0:0:
448,192,54906,1,0,0:0:0:0:
64,192,54906,1,0,0:0:0:0:
192,192,54975,1,0,0:0:0:0:
448,192,55045,1,0,0:0:0:0:
320,192,55045,1,0,0:0:0:0:
192,192,55115,1,0,0:0:0:0:
64,192,55115,1,0,0:0:0:0:
320,192,55184,1,0,0:0:0:0:
448,192,55184,1,0,0:0:0:0:
64,192,55253,1,0,0:0:0:0:
320,192,55323,1,0,0:0:0:0:
192,192,55323,1,0,0:0:0:0:
448,192,55392,1,0,0:0:0:0:
64,192,55461,1,0,0:0:0:0:
192,192,55461,1,0,0:0:0:0:
320,192,55530,1,0,0:0:0:0:
64,192,55600,1,0,0:0:0:0:
448,192,55600,1,0,0:0:0:0:
192,192,55670,1,0,0:0:0:0:
320,192,55739,1,0,0:0:0:0:
448,192,55739,1,0,0:0:0:0:
64,192,55808,1,0,0:0:0:0:
448,192,55878,1,0,0:0:0:0:
192,192,55878,1,0,0:0:0:0:
320,192,55947,1,0,0:0:0:0:
448,192,56016,1,0,0:0:0:0:
64,192,56016,1,0,0:0:0:0:
320,192,56086,1,0,0:0:0:0:
64,192,56155,1,0,0:0:0:0:
192,192,56155,1,0,0:0:0:0:
448,192,56225,1,0,0:0:0:0:
192,192,56294,1,0,0:0:0:0:
320,192,56294,1,0,0:0:0:0:
64,192,56364,1,0,0:0:0:0:
320,192,56433,1,0,0:0:0:0:
448,192,56433,1,0,0:0:0:0:
64,192,56502,1,0,0:0:0:0:
192,192,56571,1,0,0:0:0:0:
448,192,56571,1,0,0:0:0:0:
320,192,56641,1,0,0:0:0:0:
192,192,56710,1,0,0:0:0:0:
64,192,56710,1,0,0:0:0:0:
448,192,56780,1,0,0:0:0:0:
320,192,56849,1,0,0:0:0:0:
64,192,56849,1,0,0:0:0:0:
192,192,56919,1,0,0:0:0:0:
320,192,56988,1,0,0:0:0:0:
448,192,56988,1,0,0:0:0:0:
192,192,57057,1,0,0:0:0:0:
64,192,57126,1,0,0:0:0:0:
448,192,57126,1,0,0:0:0:0:
320,192,57196,1,0,0:0:0:0:
192,192,57265,1,0,0:0:0:0:
64,192,57265,1,0,0:0:0:0:
320,192,57335,1,0,0:0:0:0:
448,192,57405,1,0,0:0:0:0:
192,192,57405,1,0,0:0:0:0:
64,192,57474,1,0,0:0:0:0:
192,192,57543,1,0,0:0:0:0:
320,192,57543,1,0,0:0:0:0:
448,192,57612,1,0,0:0:0:0:
64,192,57682,1,0,0:0:0:0:
192,192,57682,1,0,0:0:0:0:
320,192,57751,1,0,0:0:0:0:
448,192,57751,1,0,0:0:0:0:
192,192,57820,1,0,0:0:0:0:
64,192,57820,1,0,0:0:0:0:
320,192,57890,1,0,0:0:0:0:
448,192,57890,1,0,0:0:0:0:
192,192,57960,1,0,0:0:0:0:
64,192,57960,1,0,0:0:0:0:
320,192,58029,1,0,0:0:0:0:
448,192,58029,1,0,0:0:0:0:
192,192,58098,1,0,0:0:0:0:
64,192,58098,1,0,0:0:0:0:
320,192,58167,1,0,0:0:0:0:
448,192,58167,1,0,0:0:0:0:
64,192,58237,1,0,0:0:0:0:
192,192,58237,1,0,0:0:0:0:
320,192,58306,1,0,0:0:0:0:
448,192,58306,1,0,0:0:0:0:
64,192,58375,1,0,0:0:0:0:
192,192,58375,1,0,0:0:0:0:
320,192,58445,1,0,0:0:0:0:
448,192,58445,1,0,0:0:0:0:
192,192,58515,1,0,0:0:0:0:
64,192,58515,1,0,0:0:0:0:
320,192,58584,1,0,0:0:0:0:
448,192,58584,1,0,0:0:0:0:
192,192,58653,1,0,0:0:0:0:
64,192,58653,1,0,0:0:0:0:
320,192,58723,1,0,0:0:0:0:
64,192,58792,1,0,0:0:0:0:
448,192,58792,1,0,0:0:0:0:
192,192,58861,1,0,0:0:0:0:
320,192,58930,1,0,0:0:0:0:
448,192,58930,1,0,0:0:0:0:
64,192,58930,1,0,0:0:0:0:
192,192,59000,1,0,0:0:0:0:
448,192,59070,1,0,0:0:0:0:
320,192,59070,1,0,0:0:0:0:
64,192,59139,1,0,0:0:0:0:
192,192,59208,1,0,0:0:0:0:
320,192,59208,1,0,0:0:0:0:
448,192,59208,1,0,0:0:0:0:
64,192,59278,1,0,0:0:0:0:
192,192,59347,1,0,0:0:0:0:
320,192,59347,1,0,0:0:0:0:
448,192,59347,1,0,0:0:0:0:
64,192,59416,1,0,0:0:0:0:
320,192,59485,1,0,0:0:0:0:
448,192,59485,1,0,0:0:0:0:
192,192,59555,1,0,0:0:0:0:
64,192,59555,1,0,0:0:0:0:
320,192,59625,1,0,0:0:0:0:
448,192,59625,1,0,0:0:0:0:
192,192,59694,1,0,0:0:0:0:
448,192,59763,1,0,0:0:0:0:
320,192,59763,1,0,0:0:0:0:
64,192,59833,1,0,0:0:0:0:
448,192,59902,1,0,0:0:0:0:
192,192,59902,1,0,0:0:0:0:
320,192,59971,1,0,0:0:0:0:
64,192,60041,1,0,0:0:0:0:
192,192,60041,1,0,0:0:0:0:
320,192,60110,1,0,0:0:0:0:
448,192,60110,1,0,0:0:0:0:
192,192,60180,1,0,0:0:0:0:
64,192,60180,1,0,0:0:0:0:
320,192,60249,1,0,0:0:0:0:
448,192,60249,1,0,0:0:0:0:
192,192,60319,1,0,0:0:0:0:
64,192,60319,1,0,0:0:0:0:
320,192,60388,1,0,0:0:0:0:
448,192,60388,1,0,0:0:0:0:
64,192,60457,1,0,0:0:0:0:
192,192,60457,1,0,0:0:0:0:
320,192,60526,1,0,0:0:0:0:
64,192,60596,1,0,0:0:0:0:
448,192,60596,1,0,0:0:0:0:
320,192,60665,1,0,0:0:0:0:
192,192,60665,1,0,0:0:0:0:
64,192,60735,1,0,0:0:0:0:
448,192,60735,1,0,0:0:0:0:
320,192,60804,1,0,0:0:0:0:
192,192,60804,1,0,0:0:0:0:
64,192,60874,1,0,0:0:0:0:
448,192,60874,1,0,0:0:0:0:
320,192,60943,1,0,0:0:0:0:
192,192,60943,1,0,0:0:0:0:
64,192,61012,1,0,0:0:0:0:
448,192,61012,1,0,0:0:0:0:
192,192,61082,1,0,0:0:0:0:
320,192,61151,1,0,0:0:0:0:
448,192,61151,1,0,0:0:0:0:
192,192,61220,1,0,0:0:0:0:
448,192,61290,1,0,0:0:0:0:
64,192,61290,1,0,0:0:0:0:
192,192,61360,1,0,0:0:0:0:
320,192,61429,1,0,0:0:0:0:
448,192,61429,1,0,0:0:0:0:
64,192,61498,1,0,0:0:0:0:
320,192,61567,1,0,0:0:0:0:
192,192,61567,1,0,0:0:0:0:
448,192,61637,1,0,0:0:0:0:
64,192,61706,1,0,0:0:0:0:
320,192,61706,1,0,0:0:0:0:
192,192,61775,1,0,0:0:0:0:
448,192,61775,1,0,0:0:0:0:
64,192,61845,1,0,0:0:0:0:
320,192,61845,1,0,0:0:0:0:
192,192,61915,1,0,0:0:0:0:
448,192,61984,1,0,0:0:0:0:
320,192,61984,1,0,0:0:0:0:
192,192,62053,1,0,0:0:0:0:
448,192,62122,1,0,0:0:0:0:
64,192,62122,1,0,0:0:0:0:
320,192,62192,1,0,0:0:0:0:
192,192,62261,1,0,0:0:0:0:
64,192,62261,1,0,0:0:0:0:
320,192,62330,1,0,0:0:0:0:
448,192,62330,1,0,0:0:0:0:
64,192,62400,1,0,0:0:0:0:
192,192,62400,1,0,0:0:0:0:
320,192,62470,1,0,0:0:0:0:
448,192,62470,1,0,0:0:0:0:
64,192,62539,1,0,0:0:0:0:
192,192,62539,1,0,0:0:0:0:
320,192,62608,1,0,0:0:0:0:
448,192,62608,1,0,0:0:0:0:
192,192,62678,1,0,0:0:0:0:
64,192,62678,1,0,0:0:0:0:
320,192,62747,1,0,0:0:0:0:
448,192,62816,1,0,0:0:0:0:
64,192,62816,1,0,0:0:0:0:
192,192,62885,1,0,0:0:0:0:
320,192,62885,1,0,0:0:0:0:
448,192,62955,1,0,0:0:0:0:
64,192,62955,1,0,0:0:0:0:
192,192,63025,1,0,0:0:0:0:
320,192,63025,1,0,0:0:0:0:
448,192,63094,1,0,0:0:0:0:
64,192,63094,1,0,0:0:0:0:
192,192,63163,1,0,0:0:0:0:
320,192,63163,1,0,0:0:0:0:
64,192,63233,1,0,0:0:0:0:
448,192,63233,1,0,0:0:0:0:
192,192,63302,1,0,0:0:0:0:
320,192,63371,1,0,0:0:0:0:
448,192,63371,1,0,0:0:0:0:
192,192,63440,1,0,0:0:0:0:
448,192,63510,1,0,0:0:0:0:
64,192,63510,1,0,0:0:0:0:
320,192,63580,1,0,0:0:0:0:
192,192,63649,1,0,0:0:0:0:
64,192,63649,1,0,0:0:0:0:
448,192,63719,1,0,0:0:0:0:
320,192,63788,1,0,0:0:0:0:
64,192,63788,1,0,0:0:0:0:
192,192,63857,1,0,0:0:0:0:
448,192,63926,1,0,0:0:0:0:
320,192,63926,1,0,0:0:0:0:
192,192,63996,1,0,0:0:0:0:
64,192,63996,1,0,0:0:0:0:
320,192,64065,1,0,0:0:0:0:
448,192,64065,1,0,0:0:0:0:
64,192,64135,1,0,0:0:0:0:
192,192,64204,1,0,0:0:0:0:
320,192,64204,1,0,0:0:0:0:
448,192,64274,1,0,0:0:0:0:
64,192,64343,1,0,0:0:0:0:
192,192,64343,1,0,0:0:0:0:
320,192,64412,1,0,0:0:0:0:
448,192,64481,1,0,0:0:0:0:
64,192,64481,1,0,0:0:0:0:
192,192,64551,1,0,0:0:0:0:
448,192,64620,1,0,0:0:0:0:
320,192,64620,1,0,0:0:0:0:
64,192,64690,1,0,0:0:0:0:
192,192,64759,1,0,0:0:0:0:
320,192,64759,1,0,0:0:0:0:
448,192,64829,1,0,0:0:0:0:
64,192,64898,1,0,0:0:0:0:
192,192,64898,1,0,0:0:0:0:
320,192,64967,1,0,0:0:0:0:
448,192,65037,1,0,0:0:0:0:
64,192,65037,1,0,0:0:0:0:
192,192,65106,1,0,0:0:0:0:
320,192,65175,1,0,0:0:0:0:
448,192,65175,1,0,0:0:0:0:
64,192,65245,1,0,0:0:0:0:
448,192,65315,1,0,0:0:0:0:
192,192,65315,1,0,0:0:0:0:
320,192,65384,1,0,0:0:0:0:
448,192,65453,1,0,0:0:0:0:
64,192,65453,1,0,0:0:0:0:
192,192,65522,1,0,0:0:0:0:
64,192,65592,1,0,0:0:0:0:
448,192,65592,1,0,0:0:0:0:
320,192,65661,1,0,0:0:0:0:
192,192,65730,1,0,0:0:0:0:
448,192,65730,1,0,0:0:0:0:
64,192,65800,1,0,0:0:0:0:
192,192,65870,1,0,0:0:0:0:
320,192,65870,1,0,0:0:0:0:
448,192,65939,1,0,0:0:0:0:
64,192,66008,1,0,0:0:0:0:
192,192,66008,1,0,0:0:0:0:
320,192,66078,1,0,0:0:0:0:
64,192,66147,1,0,0:0:0:0:
448,192,66147,1,0,0:0:0:0:
192,192,66216,1,0,0:0:0:0:
320,192,66285,1,0,0:0:0:0:
448,192,66285,1,0,0:0:0:0:
64,192,66355,1,0,0:0:0:0:
192,192,66425,1,0,0:0:0:0:
320,192,66425,1,0,0:0:0:0:
448,192,66494,1,0,0:0:0:0:
320,192,66563,1,0,0:0:0:0:
64,192,66563,1,0,0:0:0:0:
192,192,66633,1,0,0:0:0:0:
320,192,66702,1,0,0:0:0:0:
448,192,66702,1,0,0:0:0:0:
64,192,66771,1,0,0:0:0:0:
192,192,66771,1,0,0:0:0:0:
448,192,66840,1,0,0:0:0:0:
320,192,66840,1,0,0:0:0:0:
192,192,66910,1,0,0:0:0:0:
64,192,66910,1,0,0:0:0:0:
320,192,66980,1,0,0:0:0:0:
448,192,66980,1,0,0:0:0:0:
192,192,67049,1,0,0:0:0:0:
64,192,67049,1,0,0:0:0:0:
448,192,67118,1,0,0:0:0:0:
320,192,67118,1,0,0:0:0:0:
192,192,67188,1,0,0:0:0:0:
64,192,67188,1,0,0:0:0:0:
320,192,67257,1,0,0:0:0:0:
448,192,67257,1,0,0:0:0:0:
192,192,67326,1,0,0:0:0:0:
64,192,67326,1,0,0:0:0:0:
448,192,67396,1,0,0:0:0:0:
320,192,67396,1,0,0:0:0:0:
192,192,67465,1,0,0:0:0:0:
64,192,67465,1,0,0:0:0:0:
320,192,67535,1,0,0:0:0:0:
448,192,67535,1,0,0:0:0:0:
192,192,67604,1,0,0:0:0:0:
64,192,67674,1,0,0:0:0:0:
448,192,67674,1,0,0:0:0:0:
320,192,67743,1,0,0:0:0:0:
192,192,67812,1,0,0:0:0:0:
64,192,67812,1,0,0:0:0:0:
448,192,67881,1,0,0:0:0:0:
64,192,67951,1,0,0:0:0:0:
320,192,67951,1,0,0:0:0:0:
192,192,68020,1,0,0:0:0:0:
320,192,68090,1,0,0:0:0:0:
448,192,68090,1,0,0:0:0:0:
64,192,68159,1,0,0:0:0:0:
192,192,68229,1,0,0:0:0:0:
448,192,68229,1,0,0:0:0:0:
320,192,68298,1,0,0:0:0:0:
192,192,68367,1,0,0:0:0:0:
64,192,68367,1,0,0:0:0:0:
448,192,68506,1,0,0:0:0:0:
192,192,68645,1,0,0:0:0:0:
64,192,68784,1,0,0:0:0:0:
192,192,68922,1,0,0:0:0:0:
320,192,68922,1,0,0:0:0:0:
448,192,68922,1,0,0:0:0:0:
64,192,69200,1,0,0:0:0:0:
320,192,69200,1,0,0:0:0:0:
448,192,69200,1,0,0:0:0:0:
192,192,69408,1,0,0:0:0:0:
320,192,69477,1,0,0:0:0:0:
64,192,69477,1,0,0:0:0:0:
448,192,69547,1,0,0:0:0:0:
320,192,69616,1,0,0:0:0:0:
192,192,69685,1,0,0:0:0:0:
448,192,69755,1,0,0:0:0:0:
320,192,69755,1,0,0:0:0:0:
192,192,69825,1,0,0:0:0:0:
320,192,69894,1,0,0:0:0:0:
64,192,69963,1,0,0:0:0:0:
320,192,70033,1,0,0:0:0:0:
448,192,70033,1,0,0:0:0:0:
192,192,70171,1,0,0:0:0:0:
320,192,70240,1,0,0:0:0:0:
192,192,70310,1,0,0:0:0:0:
64,192,70310,1,0,0:0:0:0:
320,192,70380,1,0,0:0:0:0:
448,192,70449,1,0,0:0:0:0:
320,192,70588,1,0,0:0:0:0:
192,192,70588,1,0,0:0:0:0:
64,192,70657,1,0,0:0:0:0:
192,192,70726,1,0,0:0:0:0:
64,192,70795,1,0,0:0:0:0:
192,192,70865,1,0,0:0:0:0:
448,192,70865,1,0,0:0:0:0:
320,192,70935,1,0,0:0:0:0:
192,192,71004,1,0,0:0:0:0:
320,192,71143,1,0,0:0:0:0:
448,192,71143,1,0,0:0:0:0:
192,192,71281,1,0,0:0:0:0:
320,192,71351,1,0,0:0:0:0:
192,192,71420,1,0,0:0:0:0:
64,192,71420,1,0,0:0:0:0:
320,192,71490,1,0,0:0:0:0:
448,192,71559,1,0,0:0:0:0:
192,192,71629,1,0,0:0:0:0:
64,192,71698,1,0,0:0:0:0:
320,192,71698,1,0,0:0:0:0:
192,192,71767,1,0,0:0:0:0:
320,192,71836,1,0,0:0:0:0:
64,192,71906,1,0,0:0:0:0:
192,192,71975,1,0,0:0:0:0:
320,192,71975,1,0,0:0:0:0:
448,192,71975,1,0,0:0:0:0:
64,192,72045,1,0,0:0:0:0:
320,192,72114,1,0,0:0:0:0:
192,192,72253,1,0,0:0:0:0:
64,192,72253,1,0,0:0:0:0:
448,192,72392,1,0,0:0:0:0:
320,192,72461,1,0,0:0:0:0:
192,192,72530,1,0,0:0:0:0:
64,192,72530,1,0,0:0:0:0:
320,192,72600,1,0,0:0:0:0:
64,192,72670,1,0,0:0:0:0:
448,192,72808,1,0,0:0:0:0:
64,192,72808,1,0,0:0:0:0:
320,192,72877,1,0,0:0:0:0:
192,192,72877,1,0,0:0:0:0:
448,192,72947,1,0,0:0:0:0:
64,192,72947,1,0,0:0:0:0:
192,192,73016,1,0,0:0:0:0:
320,192,73085,1,0,0:0:0:0:
64,192,73085,1,0,0:0:0:0:
448,192,73085,1,0,0:0:0:0:
192,192,73225,1,0,0:0:0:0:
64,192,73363,1,0,0:0:0:0:
320,192,73363,1,0,0:0:0:0:
448,192,73363,1,0,0:0:0:0:
448,192,73640,1,0,0:0:0:0:
64,192,73640,1,0,0:0:0:0:
192,192,73640,1,0,0:0:0:0:
192,192,73849,1,0,0:0:0:0:
320,192,73918,1,0,0:0:0:0:
448,192,73918,1,0,0:0:0:0:
64,192,73988,1,0,0:0:0:0:
192,192,74057,1,0,0:0:0:0:
320,192,74126,1,0,0:0:0:0:
192,192,74195,1,0,0:0:0:0:
64,192,74195,1,0,0:0:0:0:
448,192,74265,1,0,0:0:0:0:
64,192,74335,1,0,0:0:0:0:
192,192,74404,1,0,0:0:0:0:
320,192,74473,1,0,0:0:0:0:
448,192,74473,1,0,0:0:0:0:
192,192,74612,1,0,0:0:0:0:
320,192,74681,1,0,0:0:0:0:
64,192,74751,1,0,0:0:0:0:
192,192,74751,1,0,0:0:0:0:
448,192,74820,1,0,0:0:0:0:
64,192,74890,1,0,0:0:0:0:
320,192,75029,1,0,0:0:0:0:
448,192,75029,1,0,0:0:0:0:
192,192,75098,1,0,0:0:0:0:
320,192,75167,1,0,0:0:0:0:
448,192,75236,1,0,0:0:0:0:
192,192,75306,1,0,0:0:0:0:
320,192,75306,1,0,0:0:0:0:
64,192,75375,1,0,0:0:0:0:
192,192,75445,1,0,0:0:0:0:
320,192,75584,1,0,0:0:0:0:
448,192,75584,1,0,0:0:0:0:
64,192,75584,1,0,0:0:0:0:
448,192,75722,1,0,0:0:0:0:
320,192,75791,1,0,0:0:0:0:
192,192,75861,1,0,0:0:0:0:
64,192,75861,1,0,0:0:0:0:
320,192,75930,1,0,0:0:0:0:
448,192,76000,1,0,0:0:0:0:
320,192,76070,1,0,0:0:0:0:
192,192,76139,1,0,0:0:0:0:
64,192,76139,1,0,0:0:0:0:
448,192,76208,1,0,0:0:0:0:
192,192,76277,1,0,0:0:0:0:
64,192,76347,1,0,0:0:0:0:
192,192,76416,1,0,0:0:0:0:
320,192,76416,1,0,0:0:0:0:
448,192,76416,1,0,0:0:0:0:
64,192,76485,1,0,0:0:0:0:
192,192,76555,1,0,0:0:0:0:
320,192,76694,1,0,0:0:0:0:
448,192,76694,1,0,0:0:0:0:
448,192,76832,1,0,0:0:0:0:
320,192,76902,1,0,0:0:0:0:
192,192,76971,1,0,0:0:0:0:
64,192,76971,1,0,0:0:0:0:
448,192,77040,1,0,0:0:0:0:
64,192,77110,1,0,0:0:0:0:
192,192,77249,1,0,0:0:0:0:
320,192,77249,1,0,0:0:0:0:
448,192,77249,128,0,77526:0:0:0:0:
64,192,77526,128,0,77804:0:0:0:0:
192,192,77526,1,0,0:0:0:0:
320,192,77526,1,0,0:0:0:0:
448,192,77804,128,0,78081:0:0:0:0:
192,192,77804,1,0,0:0:0:0:
192,192,78081,1,0,0:0:0:0:
64,192,78081,1,0,0:0:0:0:
448,192,78290,1,0,0:0:0:0:
64,192,78359,1,0,0:0:0:0:
192,192,78359,1,0,0:0:0:0:
448,192,78428,1,0,0:0:0:0:
320,192,78498,1,0,0:0:0:0:
192,192,78567,1,0,0:0:0:0:
320,192,78636,1,0,0:0:0:0:
448,192,78636,1,0,0:0:0:0:
192,192,78706,1,0,0:0:0:0:
320,192,78775,1,0,0:0:0:0:
192,192,78845,1,0,0:0:0:0:
320,192,78914,1,0,0:0:0:0:
448,192,78914,1,0,0:0:0:0:
64,192,78914,1,0,0:0:0:0:
192,192,79053,1,0,0:0:0:0:
320,192,79122,1,0,0:0:0:0:
192,192,79191,1,0,0:0:0:0:
64,192,79191,1,0,0:0:0:0:
448,192,79261,1,0,0:0:0:0:
320,192,79330,1,0,0:0:0:0:
320,192,79469,1,0,0:0:0:0:
448,192,79469,1,0,0:0:0:0:
192,192,79539,1,0,0:0:0:0:
320,192,79608,1,0,0:0:0:0:
192,192,79677,1,0,0:0:0:0:
320,192,79747,1,0,0:0:0:0:
448,192,79747,1,0,0:0:0:0:
192,192,79816,1,0,0:0:0:0:
64,192,79885,1,0,0:0:0:0:
192,192,80025,1,0,0:0:0:0:
64,192,80025,1,0,0:0:0:0:
320,192,80025,1,0,0:0:0:0:
192,192,80163,1,0,0:0:0:0:
64,192,80232,1,0,0:0:0:0:
192,192,80302,1,0,0:0:0:0:
320,192,80302,1,0,0:0:0:0:
448,192,80371,1,0,0:0:0:0:
320,192,80440,1,0,0:0:0:0:
192,192,80510,1,0,0:0:0:0:
448,192,80580,1,0,0:0:0:0:
64,192,80580,1,0,0:0:0:0:
192,192,80649,1,0,0:0:0:0:
64,192,80718,1,0,0:0:0:0:
192,192,80787,1,0,0:0:0:0:
64,192,80857,1,0,0:0:0:0:
320,192,80857,1,0,0:0:0:0:
448,192,80857,1,0,0:0:0:0:
192,192,80926,1,0,0:0:0:0:
320,192,80995,1,0,0:0:0:0:
192,192,81135,1,0,0:0:0:0:
64,192,81135,1,0,0:0:0:0:
320,192,81204,1,0,0:0:0:0:
448,192,81273,1,0,0:0:0:0:
320,192,81343,1,0,0:0:0:0:
192,192,81412,1,0,0:0:0:0:
64,192,81412,1,0,0:0:0:0:
448,192,81481,1,0,0:0:0:0:
64,192,81550,1,0,0:0:0:0:
64,192,81690,1,0,0:0:0:0:
192,192,81690,1,0,0:0:0:0:
320,192,81759,1,0,0:0:0:0:
448,192,81759,1,0,0:0:0:0:
64,192,81828,1,0,0:0:0:0:
192,192,81828,1,0,0:0:0:0:
320,192,81898,1,0,0:0:0:0:
64,192,81967,1,0,0:0:0:0:
448,192,81967,1,0,0:0:0:0:
192,192,81967,1,0,0:0:0:0:
320,192,82105,1,0,0:0:0:0:
192,192,82245,1,0,0:0:0:0:
64,192,82245,1,0,0:0:0:0:
448,192,82245,1,0,0:0:0:0:
64,192,82522,1,0,0:0:0:0:
320,192,82522,1,0,0:0:0:0:
448,192,82522,1,0,0:0:0:0:
192,192,82661,1,0,0:0:0:0:
320,192,82730,1,0,0:0:0:0:
64,192,82800,1,0,0:0:0:0:
448,192,82800,1,0,0:0:0:0:
192,192,82869,1,0,0:0:0:0:
320,192,82939,1,0,0:0:0:0:
64,192,83008,1,0,0:0:0:0:
320,192,83077,1,0,0:0:0:0:
448,192,83077,1,0,0:0:0:0:
192,192,83146,1,0,0:0:0:0:
320,192,83216,1,0,0:0:0:0:
64,192,83285,1,0,0:0:0:0:
192,192,83355,1,0,0:0:0:0:
448,192,83355,1,0,0:0:0:0:
64,192,83494,1,0,0:0:0:0:
192,192,83563,1,0,0:0:0:0:
64,192,83632,1,0,0:0:0:0:
448,192,83632,1,0,0:0:0:0:
320,192,83702,1,0,0:0:0:0:
448,192,83771,1,0,0:0:0:0:
192,192,83910,1,0,0:0:0:0:
64,192,83910,1,0,0:0:0:0:
448,192,83910,1,0,0:0:0:0:
320,192,83980,1,0,0:0:0:0:
448,192,84049,1,0,0:0:0:0:
320,192,84118,1,0,0:0:0:0:
192,192,84187,1,0,0:0:0:0:
64,192,84187,1,0,0:0:0:0:
320,192,84257,1,0,0:0:0:0:
192,192,84326,1,0,0:0:0:0:
320,192,84465,1,0,0:0:0:0:
448,192,84465,1,0,0:0:0:0:
64,192,84465,1,0,0:0:0:0:
192,192,84604,1,0,0:0:0:0:
320,192,84673,1,0,0:0:0:0:
64,192,84743,1,0,0:0:0:0:
192,192,84743,1,0,0:0:0:0:
320,192,84812,1,0,0:0:0:0:
448,192,84881,1,0,0:0:0:0:
192,192,84950,1,0,0:0:0:0:
320,192,85020,1,0,0:0:0:0:
448,192,85020,1,0,0:0:0:0:
64,192,85090,1,0,0:0:0:0:
192,192,85159,1,0,0:0:0:0:
320,192,85228,1,0,0:0:0:0:
64,192,85298,1,0,0:0:0:0:
192,192,85298,1,0,0:0:0:0:
448,192,85298,1,0,0:0:0:0:
320,192,85367,1,0,0:0:0:0:
448,192,85436,1,0,0:0:0:0:
192,192,85575,1,0,0:0:0:0:
64,192,85575,1,0,0:0:0:0:
448,192,85575,1,0,0:0:0:0:
320,192,85714,1,0,0:0:0:0:
192,192,85783,1,0,0:0:0:0:
320,192,85853,1,0,0:0:0:0:
64,192,85853,1,0,0:0:0:0:
448,192,85922,1,0,0:0:0:0:
320,192,85991,1,0,0:0:0:0:
192,192,86130,128,0,86408:0:0:0:0:
64,192,86130,1,0,0:0:0:0:
320,192,86408,128,0,86685:0:0:0:0:
448,192,86408,1,0,0:0:0:0:
192,192,86685,128,0,87518:0:0:0:0:
64,192,86685,128,0,88905:0:0:0:0:
