osu file format v14

[General]
AudioFilename: audio.mp3
AudioLeadIn: 0
PreviewTime: 42753
Countdown: 1
SampleSet: Normal
StackLeniency: 0.7
Mode: 0
LetterboxInBreaks: 0
WidescreenStoryboard: 1

[Editor]
Bookmarks: 474,21864,43254
DistanceSpacing: 1.2
BeatDivisor: 2
GridSize: 4
TimelineZoom: 1.8

[Metadata]
Title:Drrrrrrr!
TitleUnicode:Drrrrrrr!
Artist:DJ Sharpnel
ArtistUnicode:DJ Sharpnel
Creator:vipto
Version:Hard!
Source:Durarara!!
Tags:Cyclic drrr! remix Sharpnelsound
BeatmapID:1102845
BeatmapSetID:518920

[Difficulty]
HPDrainRate:6
CircleSize:4
OverallDifficulty:6.5
ApproachRate:7
SliderMultiplier:1.4
SliderTickRate:2

[Events]
//Background and Video events
0,0,"bg22.png",0,0
//Break Periods
//Storyboard Layer 0 (Background)
//Storyboard Layer 1 (Fail)
//Storyboard Layer 2 (Pass)
//Storyboard Layer 3 (Foreground)
//Storyboard Sound Samples

[TimingPoints]
474,334.224598930481,4,1,0,40,1,0
43254,-100,4,1,0,40,0,1
64645,-100,4,1,0,40,0,0
75340,-100,4,1,0,40,0,1
96730,-100,4,1,0,40,0,0

[Colours]
Combo1 : 245,82,82
Combo2 : 251,187,55
Combo3 : 207,69,128
Combo4 : 21,180,255

[HitObjects]
270,214,474,6,0,B|246:122|246:122|270:54,1,140
330,127,975,2,0,B|354:219|354:219|330:287,1,140
265,302,1476,2,0,L|170:296,1,70
128,245,1810,1,0,0:0:0:0:
171,172,1978,1,0,0:0:0:0:
114,108,2145,2,0,P|94:137|87:171,1,70
171,172,2479,2,0,L|267:160,1,70
323,152,2813,1,0,0:0:0:0:
372,83,2980,1,0,0:0:0:0:
408,158,3147,6,0,L|427:326,1,140
338,291,3649,2,0,L|322:151,1,140
281,78,4150,2,0,P|253:57|215:62,1,70
169,127,4484,2,0,P|136:154|102:147,1,70
30,126,4818,1,0,0:0:0:0:
30,126,4986,1,0,0:0:0:0:
48,207,5153,2,0,L|67:305,1,70
131,321,5487,2,0,P|164:297|203:278,1,70
272,298,5821,6,0,P|347:308|380:254,1,140
352,181,6322,2,0,P|277:171|244:225,1,140
175,169,6824,2,0,P|161:133|158:86,1,70
214,40,7158,1,0,0:0:0:0:
291,73,7325,1,0,0:0:0:0:
374,73,7492,2,0,L|447:57,1,70
499,119,7826,1,0,0:0:0:0:
441,181,7994,1,0,0:0:0:0:
459,262,8161,2,0,P|438:311|414:339,1,70
347,345,8495,6,0,B|301:332|301:332|257:346|257:346|208:331,1,140
205,248,8996,2,0,B|251:261|251:261|295:247|295:247|344:262,1,140
393,195,9498,2,0,P|408:138|409:110,1,70
380,48,9832,1,0,0:0:0:0:
302,79,9999,1,0,0:0:0:0:
233,30,10166,2,0,P|183:19|152:17,1,70
88,53,10500,2,0,P|64:94|54:127,1,70
53,199,10834,2,0,P|64:252|82:298,1,70
122,332,11169,6,0,B|193:347|193:347|235:352|259:322,1,140
201,261,11670,2,0,B|130:246|130:246|88:241|64:271,1,140
46,184,12171,2,0,L|39:108,1,70
99,54,12506,1,0,0:0:0:0:
163,108,12673,1,0,0:0:0:0:
244,87,12840,2,0,P|281:66|321:68,1,70
377,112,13174,1,0,0:0:0:0:
301,148,13341,1,0,0:0:0:0:
369,196,13508,2,0,P|400:223|416:261,1,70
333,274,13842,6,0,P|302:319|226:290,1,140
215,214,14344,2,0,P|154:188|111:237,1,140
99,320,14845,1,0,0:0:0:0:
33,267,15012,1,0,0:0:0:0:
33,183,15179,6,0,L|48:101,1,70
129,117,15514,2,0,L|144:35,1,70
212,92,15848,2,0,P|241:111|294:113,1,70
353,84,16182,2,0,P|394:66|436:62,1,70
484,114,16516,6,0,L|496:208,1,70
417,221,16851,2,0,L|429:315,1,70
349,325,17185,2,0,P|296:310|276:291,1,70
282,217,17519,2,0,P|298:169|301:128,1,70
269,72,17853,5,0,0:0:0:0:
188,46,18020,1,0,0:0:0:0:
116,89,18187,1,0,0:0:0:0:
114,173,18355,1,0,0:0:0:0:
95,254,18522,2,0,P|60:286|30:302,1,70
106,349,18856,2,0,L|196:360,1,70
248,315,19190,5,0,0:0:0:0:
290,242,19357,1,0,0:0:0:0:
293,158,19524,1,0,0:0:0:0:
239,92,19691,1,0,0:0:0:0:
156,75,19859,2,0,L|77:70,1,70
81,154,20193,2,0,L|150:158,1,70
147,242,20527,6,0,L|68:237,1,70
72,321,20861,2,0,L|141:325,1,70
225,334,21195,1,0,0:0:0:0:
298,291,21363,1,0,0:0:0:0:
363,343,21530,1,0,0:0:0:0:
431,294,21697,1,0,0:0:0:0:
456,214,21864,6,0,L|466:136,1,70
435,66,22198,1,0,0:0:0:0:
357,34,22365,1,0,0:0:0:0:
276,58,22532,2,0,P|236:98|250:192,1,140
312,135,23034,1,0,0:0:0:0:
311,218,23201,2,0,P|280:249|171:225,1,140
142,174,23702,2,0,L|117:32,1,140
41,72,24203,2,0,L|53:140,1,70
64,224,24538,6,0,P|56:266|35:308,1,70
127,306,24872,2,0,P|164:285|207:270,1,70
271,291,25206,2,0,P|308:304|421:314,1,140
470,258,25707,1,0,0:0:0:0:
473,173,25875,2,0,P|440:153|412:161,1,70
337,201,26209,2,0,P|295:203|271:181,1,70
231,114,26543,1,0,0:0:0:0:
234,30,26710,1,0,0:0:0:0:
160,71,26877,2,0,P|121:81|92:82,1,70
234,30,27211,6,0,P|334:21|380:23,1,140
448,60,27713,1,0,0:0:0:0:
398,127,27880,2,0,P|373:180|423:254,1,140
347,304,28381,2,0,L|200:314,1,140
138,265,28883,2,0,P|121:218|116:177,1,70
161,127,29217,2,0,P|182:96|189:56,1,70
53,23,29551,2,0,P|87:59|123:64,1,70
188,64,29885,6,0,P|232:57|258:56,1,70
316,116,30219,1,0,0:0:0:0:
279,192,30387,1,0,0:0:0:0:
329,258,30554,1,0,0:0:0:0:
278,324,30721,1,0,0:0:0:0:
198,295,30888,2,0,P|149:287|110:284,1,70
142,202,31222,2,0,P|191:210|230:213,1,70
292,192,31556,2,0,P|342:172|365:165,1,70
441,162,31891,1,0,0:0:0:0:
441,162,32058,1,0,0:0:0:0:
321,93,32225,2,0,P|290:73|263:49,1,70
189,88,32559,6,0,P|160:144|102:201,1,140
25,221,33060,1,0,0:0:0:0:
151,277,33228,2,0,P|191:274|221:269,1,70
294,228,33562,2,0,P|350:210|380:203,1,70
444,215,33896,1,0,0:0:0:0:
444,215,34063,1,0,0:0:0:0:
455,131,34230,2,0,P|443:96|423:57,1,70
344,64,34564,2,0,P|293:75|265:76,1,70
216,189,34899,2,0,P|267:178|295:177,1,70
359,214,35233,5,0,0:0:0:0:
370,297,35400,1,0,0:0:0:0:
303,348,35567,2,0,L|217:353,1,70
154,322,35901,2,0,P|126:281|116:254,1,70
153,185,36236,1,0,0:0:0:0:
99,119,36403,1,0,0:0:0:0:
164,66,36570,2,0,P|206:52|243:47,1,70
310,76,36904,1,0,0:0:0:0:
360,143,37071,1,0,0:0:0:0:
372,226,37238,2,0,P|417:203|433:103,1,140
360,143,37740,1,0,0:0:0:0:
294,195,37907,6,0,P|256:207|220:208,1,70
147,179,38241,2,0,P|103:166|55:181,1,70
101,250,38575,2,0,P|101:289|196:317,1,140
256,280,39076,1,0,0:0:0:0:
329,324,39244,2,0,P|394:314|411:250,1,140
372,175,39745,1,0,0:0:0:0:
335,99,39912,2,0,P|324:59|319:14,1,70
240,58,40246,2,0,P|202:71|167:79,1,70
90,63,40580,5,0,0:0:0:0:
90,63,40748,1,0,0:0:0:0:
38,171,40915,1,0,0:0:0:0:
38,171,41082,1,0,0:0:0:0:
112,264,41249,1,0,0:0:0:0:
112,264,41416,1,0,0:0:0:0:
224,224,41583,2,0,P|256:212|288:224,1,70
324,112,41917,2,0,B|256:96|256:96|188:112,1,140
156,192,42419,1,0,0:0:0:0:
156,192,42586,1,0,0:0:0:0:
188,268,42753,2,0,B|256:284|256:284|324:268,1,140
398,184,43254,6,0,P|413:146|420:113,1,70
397,36,43588,1,0,0:0:0:0:
478,57,43756,1,0,0:0:0:0:
338,96,43923,2,0,L|266:91,1,70
184,82,44257,1,0,0:0:0:0:
118,134,44424,2,0,P|98:73|158:0,1,140
241,42,44925,2,0,P|292:54|320:48,1,70
390,71,45260,2,0,P|418:95|446:132,1,70
392,190,45594,1,0,0:0:0:0:
398,301,45761,1,0,0:0:0:0:
287,309,45928,6,0,L|207:318,1,70
136,340,46262,1,0,0:0:0:0:
156,258,46429,1,0,0:0:0:0:
76,284,46596,2,0,L|-4:293,1,70
28,210,46931,1,0,0:0:0:0:
156,258,47098,2,0,P|195:224|196:138,1,140
172,60,47599,1,0,0:0:0:0:
61,43,47766,1,0,0:0:0:0:
172,60,47933,2,0,L|264:47,1,70
352,32,48268,1,0,0:0:0:0:
377,140,48435,6,0,L|388:290,1,140
315,323,48936,1,0,0:0:0:0:
315,323,49103,2,0,P|250:305|177:300,1,140
94,315,49605,1,0,0:0:0:0:
48,244,49772,2,0,P|31:170|22:96,1,140
75,40,50273,1,0,0:0:0:0:
75,40,50440,2,0,P|117:75|210:69,1,140
303,35,50941,2,0,P|357:24|392:26,1,70
464,87,51276,6,0,P|482:143|486:176,1,70
371,158,51610,2,0,P|364:222|354:253,1,70
253,201,51944,2,0,P|236:263|218:292,1,70
121,262,52278,2,0,P|78:293|37:299,1,70
60,129,52613,2,0,P|91:143|115:169,1,70
42,211,52947,1,0,0:0:0:0:
147,79,53114,2,0,L|296:75,1,140
341,139,53615,2,0,P|365:104|367:60,1,70
258,154,53949,6,0,L|265:237,1,70
269,307,54284,1,0,0:0:0:0:
269,307,54451,1,0,0:0:0:0:
157,293,54618,2,0,L|87:284,1,70
25,191,54952,1,0,0:0:0:0:
132,157,55119,2,0,L|275:174,1,140
351,148,55621,2,0,P|377:124|395:80,1,70
487,151,55955,2,0,L|485:238,1,70
457,329,56289,2,0,P|426:360|398:370,1,70
320,351,56623,5,0,0:0:0:0:
242,319,56790,1,0,0:0:0:0:
170,279,56957,2,0,L|120:231,1,70
91,121,57292,1,0,0:0:0:0:
91,121,57459,1,0,0:0:0:0:
174,111,57626,2,0,P|215:112|258:140,1,70
312,167,57960,2,0,P|351:135|440:152,1,140
470,253,58461,1,0,0:0:0:0:
382,323,58629,1,0,0:0:0:0:
288,264,58796,2,0,P|256:252|224:264,1,70
153,312,59130,6,0,P|137:270|203:184,1,140
256,156,59631,1,0,0:0:0:0:
331,191,59798,2,0,P|373:245|359:312,1,140
284,348,60300,1,0,0:0:0:0:
207,312,60467,2,0,P|161:295|56:280,1,140
38,203,60968,1,0,0:0:0:0:
121,192,61135,2,0,P|176:170|241:113,1,140
309,203,61637,2,0,P|335:226|387:255,1,70
474,223,61971,5,0,0:0:0:0:
474,223,62138,1,0,0:0:0:0:
500,114,62305,2,0,P|506:76|507:26,1,70
397,67,62639,2,0,P|358:84|325:93,1,70
226,52,62973,2,0,P|190:40|147:36,1,70
60,92,63308,2,0,P|38:145|73:218,1,140
148,248,63809,2,0,L|288:263,1,140
362,225,64310,1,0,0:0:0:0:
330,65,64645,5,0,0:0:0:0:
167,106,64979,2,0,L|86:89,1,70
49,159,65313,2,0,L|117:173,1,70
199,190,65647,1,0,0:0:0:0:
141,251,65814,1,0,0:0:0:0:
222,272,65982,2,0,P|256:292|295:335,1,70
362,311,66316,2,0,P|383:273|386:225,1,70
379,163,66650,1,0,0:0:0:0:
334,91,66817,1,0,0:0:0:0:
256,57,66984,2,0,L|160:33,1,70
134,136,67318,6,0,L|275:170,1,140
351,191,67820,1,0,0:0:0:0:
368,272,67987,2,0,P|411:247|430:218,1,70
286,251,68321,2,0,P|285:294|368:357,1,140
368,272,68822,1,0,0:0:0:0:
214,338,68990,2,0,L|144:336,1,70
114,257,69324,2,0,L|184:259,1,70
302,184,69658,2,0,L|162:180,1,140
97,126,70159,5,0,0:0:0:0:
176,98,70326,2,0,P|212:56|222:28,1,70
300,59,70661,2,0,P|340:76|391:85,1,70
449,79,70995,1,0,0:0:0:0:
412,154,71162,1,0,0:0:0:0:
465,219,71329,2,0,P|492:268|495:302,1,70
450,352,71663,2,0,P|421:362|355:349,1,70
305,324,71998,1,0,0:0:0:0:
224,346,72165,1,0,0:0:0:0:
165,256,72332,2,0,L|154:184,1,70
150,102,72666,6,0,P|170:56|189:31,1,70
264,117,73000,2,0,P|304:108|351:109,1,70
343,218,73334,2,0,P|397:243|424:263,1,70
340,340,73669,1,0,0:0:0:0:
340,340,73836,1,0,0:0:0:0:
262,308,74003,6,0,P|197:292|120:286,1,140
60,231,74504,2,0,P|41:170|81:102,1,140
158,92,75006,1,0,0:0:0:0:
240,79,75173,1,0,0:0:0:0:
323,66,75340,6,0,L|407:52,1,70
456,108,75674,1,0,0:0:0:0:
465,191,75841,1,0,0:0:0:0:
414,257,76008,2,0,P|368:280|341:284,1,70
282,193,76342,2,0,P|247:180|194:184,1,70
119,244,76677,2,0,P|61:221|38:143,1,140
70,75,77178,1,0,0:0:0:0:
150,99,77345,1,0,0:0:0:0:
220,53,77512,2,0,L|370:47,1,140
444,122,78014,6,0,P|462:165|467:198,1,70
407,248,78348,2,0,P|358:232|320:227,1,70
228,241,78682,1,0,0:0:0:0:
296,329,78849,1,0,0:0:0:0:
185,346,79016,1,0,0:0:0:0:
115,258,79183,2,0,P|142:165|201:132,1,140
257,154,79685,2,0,P|296:148|348:115,1,70
294,56,80019,2,0,P|255:62|203:95,1,70
173,141,80353,1,0,0:0:0:0:
167,252,80520,6,0,P|111:234|65:160,1,140
173,141,81022,1,0,0:0:0:0:
267,201,81189,2,0,L|292:338,1,140
375,347,81690,1,0,0:0:0:0:
406,268,81857,2,0,L|381:131,1,140
321,70,82359,2,0,P|279:42|249:28,1,70
192,81,82693,2,0,P|149:98|115:106,1,70
43,90,83027,1,0,0:0:0:0:
43,90,83194,1,0,0:0:0:0:
49,201,83361,6,0,L|74:287,1,70
147,189,83695,2,0,L|172:275,1,70
246,176,84030,2,0,L|271:262,1,70
344,164,84364,2,0,L|369:250,1,70
442,152,84698,2,0,L|481:286,1,140
418,342,85199,2,0,P|366:360|270:314,1,140
247,228,85701,2,0,L|236:152,1,70
313,77,86035,6,0,P|262:51|167:72,1,140
129,127,86536,1,0,0:0:0:0:
136,210,86703,2,0,L|146:279,1,70
241,237,87038,2,0,L|230:167,1,70
326,116,87372,2,0,L|346:254,1,140
385,328,87873,1,0,0:0:0:0:
456,242,88040,2,0,P|469:216|484:170,1,70
474,64,88375,1,0,0:0:0:0:
474,64,88542,1,0,0:0:0:0:
366,96,88709,6,0,P|297:101|219:77,1,140
155,42,89210,1,0,0:0:0:0:
98,138,89377,2,0,L|106:243,1,70
111,291,89711,1,0,0:0:0:0:
182,246,89879,1,0,0:0:0:0:
188,329,90046,2,0,L|344:336,1,140
402,295,90547,1,0,0:0:0:0:
390,211,90714,2,0,L|379:139,1,70
363,59,91048,1,0,0:0:0:0:
466,102,91215,6,0,L|487:240,1,140
453,317,91717,1,0,0:0:0:0:
403,249,91884,2,0,P|342:203|260:215,1,140
212,253,92385,1,0,0:0:0:0:
138,212,92552,2,0,P|88:166|92:90,1,140
164,132,93054,1,0,0:0:0:0:
190,52,93221,2,0,P|240:98|236:174,1,140
184,229,93722,1,0,0:0:0:0:
184,229,93889,1,0,0:0:0:0:
266,304,94056,6,0,P|298:327|341:337,1,70
350,225,94391,2,0,P|400:218|439:204,1,70
360,116,94725,2,0,P|410:76|419:45,1,70
309,25,95059,2,0,P|255:17|221:21,1,70
216,127,95393,2,0,P|181:153|159:254,1,140
206,343,95895,2,0,P|241:317|263:216,1,140
216,127,96396,2,0,L|143:85,1,70
256,40,96730,5,0,0:0:0:0:
