osu file format v14

[General]
AudioFilename: audio.mp3
AudioLeadIn: 1500
PreviewTime: 242501
Countdown: 0
SampleSet: Soft
StackLeniency: 0.7
Mode: 3
LetterboxInBreaks: 0
SpecialStyle: 0
WidescreenStoryboard: 0

[Editor]
Bookmarks: 14334,34476,44547,64688,84830,107489,127631,147773,167914,183020,203162,222045,243445,263587,278693,298835
DistanceSpacing: 1.7
BeatDivisor: 4
GridSize: 8
TimelineZoom: 1

[Metadata]
Title:Back to the Gate
TitleUnicode:Back to the Gate
Artist:DJ Sharpnel
ArtistUnicode:DJ Sharpnel
Creator:semyon422
Version:1.048596
Source:Steins;Gate: The Movie - Load Region of Déjà Vu
Tags:
BeatmapID:2144774
BeatmapSetID:1025458

[Difficulty]
HPDrainRate:8
CircleSize:4
OverallDifficulty:8
ApproachRate:9
SliderMultiplier:1.4
SliderTickRate:1

[Events]
//Background and Video events
0,0,"background.jpg",0,0
//Break Periods
//Storyboard Layer 0 (Background)
//Storyboard Layer 1 (Fail)
//Storyboard Layer 2 (Pass)
//Storyboard Layer 3 (Foreground)
//Storyboard Layer 4 (Overlay)
//Storyboard Sound Samples

[TimingPoints]
4264,314.7128,4,2,0,10,1,0
127631,-100,4,2,0,10,0,1
180503,-100,4,2,0,10,0,0
243445,-100,4,2,0,10,0,1
276176,-100,4,2,0,10,0,0

[HitObjects]
64,192,4263,5,0,0:0:0:0:
320,192,4263,1,0,0:0:0:0:
448,192,4263,1,0,0:0:0:0:
192,192,4342,1,0,0:0:0:0:
320,192,4421,1,0,0:0:0:0:
64,192,4500,1,0,0:0:0:0:
192,192,4578,1,0,0:0:0:0:
448,192,4578,1,0,0:0:0:0:
320,192,4657,1,0,0:0:0:0:
64,192,4736,1,0,0:0:0:0:
192,192,4736,1,0,0:0:0:0:
448,192,4736,1,0,0:0:0:0:
320,192,4814,1,0,0:0:0:0:
64,192,4893,1,0,0:0:0:0:
448,192,4893,1,0,0:0:0:0:
192,192,4972,1,0,0:0:0:0:
64,192,5050,1,0,0:0:0:0:
448,192,5129,1,0,0:0:0:0:
320,192,5208,1,0,0:0:0:0:
192,192,5208,1,0,0:0:0:0:
448,192,5286,1,0,0:0:0:0:
192,192,5365,1,0,0:0:0:0:
320,192,5444,1,0,0:0:0:0:
448,192,5522,1,0,0:0:0:0:
64,192,5522,1,0,0:0:0:0:
320,192,5601,1,0,0:0:0:0:
64,192,5680,1,0,0:0:0:0:
448,192,5758,1,0,0:0:0:0:
320,192,5837,1,0,0:0:0:0:
192,192,5837,1,0,0:0:0:0:
448,192,5916,1,0,0:0:0:0:
192,192,5994,1,0,0:0:0:0:
64,192,6073,1,0,0:0:0:0:
320,192,6152,1,0,0:0:0:0:
448,192,6152,1,0,0:0:0:0:
64,192,6230,1,0,0:0:0:0:
320,192,6309,1,0,0:0:0:0:
448,192,6388,1,0,0:0:0:0:
64,192,6466,1,0,0:0:0:0:
192,192,6466,1,0,0:0:0:0:
448,192,6545,1,0,0:0:0:0:
192,192,6624,1,0,0:0:0:0:
64,192,6703,1,0,0:0:0:0:
448,192,6781,1,0,0:0:0:0:
320,192,6781,1,0,0:0:0:0:
192,192,6860,1,0,0:0:0:0:
320,192,6939,1,0,0:0:0:0:
192,192,7017,1,0,0:0:0:0:
64,192,7096,1,0,0:0:0:0:
448,192,7096,1,0,0:0:0:0:
320,192,7175,1,0,0:0:0:0:
64,192,7253,1,0,0:0:0:0:
320,192,7332,1,0,0:0:0:0:
192,192,7411,1,0,0:0:0:0:
448,192,7411,1,0,0:0:0:0:
64,192,7489,1,0,0:0:0:0:
192,192,7568,1,0,0:0:0:0:
64,192,7647,1,0,0:0:0:0:
320,192,7725,1,0,0:0:0:0:
448,192,7725,1,0,0:0:0:0:
192,192,7804,1,0,0:0:0:0:
320,192,7883,1,0,0:0:0:0:
192,192,7961,1,0,0:0:0:0:
448,192,8040,1,0,0:0:0:0:
64,192,8040,1,0,0:0:0:0:
320,192,8119,1,0,0:0:0:0:
448,192,8197,1,0,0:0:0:0:
320,192,8276,1,0,0:0:0:0:
64,192,8355,1,0,0:0:0:0:
192,192,8355,1,0,0:0:0:0:
448,192,8433,1,0,0:0:0:0:
192,192,8512,1,0,0:0:0:0:
448,192,8591,1,0,0:0:0:0:
64,192,8669,1,0,0:0:0:0:
320,192,8669,1,0,0:0:0:0:
192,192,8748,1,0,0:0:0:0:
320,192,8827,1,0,0:0:0:0:
192,192,8906,1,0,0:0:0:0:
64,192,8984,1,0,0:0:0:0:
448,192,8984,1,0,0:0:0:0:
320,192,9063,1,0,0:0:0:0:
64,192,9142,1,0,0:0:0:0:
320,192,9220,1,0,0:0:0:0:
192,192,9299,1,0,0:0:0:0:
448,192,9299,1,0,0:0:0:0:
64,192,9299,1,0,0:0:0:0:
320,192,9378,1,0,0:0:0:0:
192,192,9456,1,0,0:0:0:0:
448,192,9535,1,0,0:0:0:0:
64,192,9614,1,0,0:0:0:0:
320,192,9614,1,0,0:0:0:0:
192,192,9692,1,0,0:0:0:0:
320,192,9771,1,0,0:0:0:0:
448,192,9771,1,0,0:0:0:0:
64,192,9771,1,0,0:0:0:0:
192,192,9850,1,0,0:0:0:0:
448,192,9928,1,0,0:0:0:0:
320,192,9928,1,0,0:0:0:0:
64,192,10007,1,0,0:0:0:0:
448,192,10086,1,0,0:0:0:0:
64,192,10164,1,0,0:0:0:0:
192,192,10243,1,0,0:0:0:0:
320,192,10243,1,0,0:0:0:0:
448,192,10322,1,0,0:0:0:0:
192,192,10400,1,0,0:0:0:0:
448,192,10479,1,0,0:0:0:0:
320,192,10558,1,0,0:0:0:0:
64,192,10558,1,0,0:0:0:0:
192,192,10636,1,0,0:0:0:0:
64,192,10715,1,0,0:0:0:0:
192,192,10794,1,0,0:0:0:0:
448,192,10872,1,0,0:0:0:0:
320,192,10872,1,0,0:0:0:0:
64,192,10951,1,0,0:0:0:0:
320,192,11030,1,0,0:0:0:0:
64,192,11109,1,0,0:0:0:0:
448,192,11187,1,0,0:0:0:0:
192,192,11187,1,0,0:0:0:0:
320,192,11266,1,0,0:0:0:0:
192,192,11345,1,0,0:0:0:0:
320,192,11423,1,0,0:0:0:0:
64,192,11502,1,0,0:0:0:0:
448,192,11502,1,0,0:0:0:0:
192,192,11581,1,0,0:0:0:0:
448,192,11659,1,0,0:0:0:0:
192,192,11738,1,0,0:0:0:0:
320,192,11817,1,0,0:0:0:0:
64,192,11817,1,0,0:0:0:0:
448,192,11895,1,0,0:0:0:0:
64,192,11974,1,0,0:0:0:0:
448,192,12053,1,0,0:0:0:0:
320,192,12131,1,0,0:0:0:0:
192,192,12131,1,0,0:0:0:0:
64,192,12210,1,0,0:0:0:0:
320,192,12289,1,0,0:0:0:0:
64,192,12367,1,0,0:0:0:0:
192,192,12446,1,0,0:0:0:0:
448,192,12446,1,0,0:0:0:0:
320,192,12525,1,0,0:0:0:0:
192,192,12603,1,0,0:0:0:0:
320,192,12682,1,0,0:0:0:0:
448,192,12761,1,0,0:0:0:0:
64,192,12761,1,0,0:0:0:0:
192,192,12839,1,0,0:0:0:0:
64,192,12918,1,0,0:0:0:0:
192,192,12997,1,0,0:0:0:0:
448,192,13075,1,0,0:0:0:0:
320,192,13075,1,0,0:0:0:0:
64,192,13154,1,0,0:0:0:0:
320,192,13233,1,0,0:0:0:0:
64,192,13311,1,0,0:0:0:0:
192,192,13390,1,0,0:0:0:0:
448,192,13390,1,0,0:0:0:0:
320,192,13469,5,0,0:0:0:0:
192,192,13548,1,0,0:0:0:0:
448,192,13626,1,0,0:0:0:0:
64,192,13705,1,0,0:0:0:0:
320,192,13705,1,0,0:0:0:0:
448,192,13784,1,0,0:0:0:0:
192,192,13862,1,0,0:0:0:0:
320,192,13941,1,0,0:0:0:0:
64,192,14020,5,0,0:0:0:0:
192,192,14020,1,0,0:0:0:0:
320,192,14098,1,0,0:0:0:0:
64,192,14177,1,0,0:0:0:0:
192,192,14177,1,0,0:0:0:0:
448,192,14177,1,0,0:0:0:0:
64,192,14334,1,0,0:0:0:0:
192,192,14334,1,0,0:0:0:0:
320,192,14334,1,0,0:0:0:0:
448,192,14413,1,0,0:0:0:0:
320,192,14492,1,0,0:0:0:0:
64,192,14570,1,0,0:0:0:0:
448,192,14649,1,0,0:0:0:0:
192,192,14649,1,0,0:0:0:0:
64,192,14728,1,0,0:0:0:0:
320,192,14806,1,0,0:0:0:0:
192,192,14806,1,0,0:0:0:0:
448,192,14806,1,0,0:0:0:0:
64,192,14885,1,0,0:0:0:0:
192,192,14964,1,0,0:0:0:0:
448,192,14964,1,0,0:0:0:0:
320,192,15042,1,0,0:0:0:0:
64,192,15121,1,0,0:0:0:0:
320,192,15200,1,0,0:0:0:0:
448,192,15278,1,0,0:0:0:0:
64,192,15278,1,0,0:0:0:0:
192,192,15357,1,0,0:0:0:0:
448,192,15436,1,0,0:0:0:0:
192,192,15514,1,0,0:0:0:0:
320,192,15593,1,0,0:0:0:0:
448,192,15593,1,0,0:0:0:0:
192,192,15672,1,0,0:0:0:0:
320,192,15751,1,0,0:0:0:0:
192,192,15829,1,0,0:0:0:0:
320,192,15908,1,0,0:0:0:0:
64,192,15908,1,0,0:0:0:0:
448,192,15987,1,0,0:0:0:0:
64,192,16065,1,0,0:0:0:0:
448,192,16144,1,0,0:0:0:0:
320,192,16223,1,0,0:0:0:0:
64,192,16223,1,0,0:0:0:0:
448,192,16301,1,0,0:0:0:0:
320,192,16380,1,0,0:0:0:0:
448,192,16459,1,0,0:0:0:0:
64,192,16537,1,0,0:0:0:0:
320,192,16537,1,0,0:0:0:0:
192,192,16616,1,0,0:0:0:0:
64,192,16695,1,0,0:0:0:0:
192,192,16773,1,0,0:0:0:0:
64,192,16852,1,0,0:0:0:0:
448,192,16852,1,0,0:0:0:0:
192,192,16931,1,0,0:0:0:0:
448,192,17009,1,0,0:0:0:0:
192,192,17088,1,0,0:0:0:0:
64,192,17167,1,0,0:0:0:0:
448,192,17167,1,0,0:0:0:0:
320,192,17245,1,0,0:0:0:0:
64,192,17324,1,0,0:0:0:0:
320,192,17403,1,0,0:0:0:0:
448,192,17481,1,0,0:0:0:0:
64,192,17481,1,0,0:0:0:0:
192,192,17560,1,0,0:0:0:0:
64,192,17639,1,0,0:0:0:0:
192,192,17717,1,0,0:0:0:0:
64,192,17796,1,0,0:0:0:0:
448,192,17796,1,0,0:0:0:0:
320,192,17875,1,0,0:0:0:0:
448,192,17954,1,0,0:0:0:0:
320,192,18032,1,0,0:0:0:0:
448,192,18111,1,0,0:0:0:0:
192,192,18111,1,0,0:0:0:0:
320,192,18190,1,0,0:0:0:0:
192,192,18268,1,0,0:0:0:0:
320,192,18347,1,0,0:0:0:0:
192,192,18426,1,0,0:0:0:0:
64,192,18426,1,0,0:0:0:0:
448,192,18504,1,0,0:0:0:0:
64,192,18583,1,0,0:0:0:0:
448,192,18662,1,0,0:0:0:0:
64,192,18740,1,0,0:0:0:0:
320,192,18740,1,0,0:0:0:0:
192,192,18819,1,0,0:0:0:0:
64,192,18898,1,0,0:0:0:0:
192,192,18976,1,0,0:0:0:0:
64,192,19055,1,0,0:0:0:0:
448,192,19055,1,0,0:0:0:0:
320,192,19134,1,0,0:0:0:0:
448,192,19212,1,0,0:0:0:0:
320,192,19291,1,0,0:0:0:0:
448,192,19370,1,0,0:0:0:0:
64,192,19370,1,0,0:0:0:0:
192,192,19370,1,0,0:0:0:0:
320,192,19448,1,0,0:0:0:0:
64,192,19527,1,0,0:0:0:0:
320,192,19606,1,0,0:0:0:0:
64,192,19684,1,0,0:0:0:0:
192,192,19684,1,0,0:0:0:0:
448,192,19763,1,0,0:0:0:0:
192,192,19842,1,0,0:0:0:0:
320,192,19842,1,0,0:0:0:0:
64,192,19842,1,0,0:0:0:0:
448,192,19920,1,0,0:0:0:0:
320,192,19999,1,0,0:0:0:0:
64,192,19999,1,0,0:0:0:0:
192,192,20078,1,0,0:0:0:0:
320,192,20156,1,0,0:0:0:0:
192,192,20235,1,0,0:0:0:0:
448,192,20314,1,0,0:0:0:0:
64,192,20314,1,0,0:0:0:0:
192,192,20393,1,0,0:0:0:0:
64,192,20471,1,0,0:0:0:0:
192,192,20550,1,0,0:0:0:0:
320,192,20629,1,0,0:0:0:0:
448,192,20629,1,0,0:0:0:0:
64,192,20707,1,0,0:0:0:0:
320,192,20786,1,0,0:0:0:0:
64,192,20865,1,0,0:0:0:0:
320,192,20943,1,0,0:0:0:0:
192,192,20943,1,0,0:0:0:0:
448,192,21022,1,0,0:0:0:0:
192,192,21101,1,0,0:0:0:0:
448,192,21179,1,0,0:0:0:0:
320,192,21258,1,0,0:0:0:0:
64,192,21258,1,0,0:0:0:0:
192,192,21337,1,0,0:0:0:0:
320,192,21415,1,0,0:0:0:0:
192,192,21494,1,0,0:0:0:0:
448,192,21573,1,0,0:0:0:0:
64,192,21573,1,0,0:0:0:0:
320,192,21651,1,0,0:0:0:0:
448,192,21730,1,0,0:0:0:0:
320,192,21809,1,0,0:0:0:0:
448,192,21887,1,0,0:0:0:0:
192,192,21887,1,0,0:0:0:0:
64,192,21966,1,0,0:0:0:0:
192,192,22045,1,0,0:0:0:0:
64,192,22123,1,0,0:0:0:0:
320,192,22202,1,0,0:0:0:0:
448,192,22202,1,0,0:0:0:0:
192,192,22281,1,0,0:0:0:0:
320,192,22359,1,0,0:0:0:0:
192,192,22438,1,0,0:0:0:0:
448,192,22517,1,0,0:0:0:0:
64,192,22517,1,0,0:0:0:0:
192,192,22596,1,0,0:0:0:0:
448,192,22674,1,0,0:0:0:0:
192,192,22753,1,0,0:0:0:0:
448,192,22832,1,0,0:0:0:0:
64,192,22832,1,0,0:0:0:0:
320,192,22910,1,0,0:0:0:0:
64,192,22989,1,0,0:0:0:0:
320,192,23068,1,0,0:0:0:0:
64,192,23146,1,0,0:0:0:0:
192,192,23146,1,0,0:0:0:0:
448,192,23146,1,0,0:0:0:0:
320,192,23225,1,0,0:0:0:0:
192,192,23304,1,0,0:0:0:0:
320,192,23382,1,0,0:0:0:0:
192,192,23461,1,0,0:0:0:0:
448,192,23461,1,0,0:0:0:0:
64,192,23461,1,0,0:0:0:0:
320,192,23540,1,0,0:0:0:0:
192,192,23618,1,0,0:0:0:0:
320,192,23776,1,0,0:0:0:0:
64,192,23776,1,0,0:0:0:0:
192,192,23854,1,0,0:0:0:0:
320,192,23933,1,0,0:0:0:0:
448,192,23933,1,0,0:0:0:0:
64,192,23972,1,0,0:0:0:0:
192,192,24012,1,0,0:0:0:0:
320,192,24090,1,0,0:0:0:0:
448,192,24090,1,0,0:0:0:0:
192,192,24130,1,0,0:0:0:0:
64,192,24169,1,0,0:0:0:0:
320,192,24248,1,0,0:0:0:0:
448,192,24248,1,0,0:0:0:0:
64,192,24287,1,0,0:0:0:0:
192,192,24326,1,0,0:0:0:0:
320,192,24405,1,0,0:0:0:0:
448,192,24405,1,0,0:0:0:0:
64,192,24405,1,0,0:0:0:0:
192,192,24484,1,0,0:0:0:0:
448,192,24562,1,0,0:0:0:0:
192,192,24641,1,0,0:0:0:0:
64,192,24720,1,0,0:0:0:0:
320,192,24720,1,0,0:0:0:0:
448,192,24799,1,0,0:0:0:0:
64,192,24877,1,0,0:0:0:0:
192,192,24877,1,0,0:0:0:0:
320,192,24877,1,0,0:0:0:0:
448,192,24956,1,0,0:0:0:0:
64,192,25035,1,0,0:0:0:0:
192,192,25035,1,0,0:0:0:0:
448,192,25113,1,0,0:0:0:0:
192,192,25192,1,0,0:0:0:0:
320,192,25271,1,0,0:0:0:0:
64,192,25349,1,0,0:0:0:0:
448,192,25349,1,0,0:0:0:0:
320,192,25428,1,0,0:0:0:0:
64,192,25507,1,0,0:0:0:0:
320,192,25585,1,0,0:0:0:0:
448,192,25664,1,0,0:0:0:0:
64,192,25664,1,0,0:0:0:0:
192,192,25743,1,0,0:0:0:0:
448,192,25821,1,0,0:0:0:0:
192,192,25900,1,0,0:0:0:0:
320,192,25979,1,0,0:0:0:0:
64,192,25979,1,0,0:0:0:0:
448,192,26057,1,0,0:0:0:0:
320,192,26136,1,0,0:0:0:0:
192,192,26136,1,0,0:0:0:0:
64,192,26215,1,0,0:0:0:0:
192,192,26293,1,0,0:0:0:0:
448,192,26293,1,0,0:0:0:0:
320,192,26372,1,0,0:0:0:0:
64,192,26451,1,0,0:0:0:0:
192,192,26451,1,0,0:0:0:0:
448,192,26451,1,0,0:0:0:0:
320,192,26529,1,0,0:0:0:0:
64,192,26608,1,0,0:0:0:0:
192,192,26608,1,0,0:0:0:0:
448,192,26608,1,0,0:0:0:0:
320,192,26687,1,0,0:0:0:0:
192,192,26765,1,0,0:0:0:0:
64,192,26765,1,0,0:0:0:0:
448,192,26765,1,0,0:0:0:0:
320,192,26844,1,0,0:0:0:0:
192,192,26923,1,0,0:0:0:0:
64,192,26923,1,0,0:0:0:0:
448,192,26923,1,0,0:0:0:0:
320,192,27001,1,0,0:0:0:0:
448,192,27080,1,0,0:0:0:0:
192,192,27159,1,0,0:0:0:0:
64,192,27238,1,0,0:0:0:0:
320,192,27238,1,0,0:0:0:0:
192,192,27316,1,0,0:0:0:0:
320,192,27395,1,0,0:0:0:0:
64,192,27395,1,0,0:0:0:0:
448,192,27395,1,0,0:0:0:0:
192,192,27474,1,0,0:0:0:0:
64,192,27552,1,0,0:0:0:0:
448,192,27552,1,0,0:0:0:0:
320,192,27631,1,0,0:0:0:0:
192,192,27710,1,0,0:0:0:0:
320,192,27788,1,0,0:0:0:0:
192,192,27867,1,0,0:0:0:0:
448,192,27867,1,0,0:0:0:0:
320,192,27946,1,0,0:0:0:0:
448,192,28024,1,0,0:0:0:0:
320,192,28103,1,0,0:0:0:0:
448,192,28182,1,0,0:0:0:0:
64,192,28182,1,0,0:0:0:0:
192,192,28260,1,0,0:0:0:0:
64,192,28339,1,0,0:0:0:0:
192,192,28418,1,0,0:0:0:0:
64,192,28496,1,0,0:0:0:0:
320,192,28496,1,0,0:0:0:0:
192,192,28575,1,0,0:0:0:0:
320,192,28654,1,0,0:0:0:0:
192,192,28732,1,0,0:0:0:0:
64,192,28811,1,0,0:0:0:0:
320,192,28811,1,0,0:0:0:0:
448,192,28890,1,0,0:0:0:0:
64,192,28968,1,0,0:0:0:0:
320,192,28968,1,0,0:0:0:0:
192,192,28968,1,0,0:0:0:0:
448,192,29047,1,0,0:0:0:0:
64,192,29126,1,0,0:0:0:0:
320,192,29126,1,0,0:0:0:0:
192,192,29126,1,0,0:0:0:0:
448,192,29204,1,0,0:0:0:0:
320,192,29283,1,0,0:0:0:0:
192,192,29283,1,0,0:0:0:0:
64,192,29283,1,0,0:0:0:0:
448,192,29362,1,0,0:0:0:0:
320,192,29441,1,0,0:0:0:0:
192,192,29441,1,0,0:0:0:0:
64,192,29441,1,0,0:0:0:0:
448,192,29519,1,0,0:0:0:0:
192,192,29598,1,0,0:0:0:0:
320,192,29677,1,0,0:0:0:0:
448,192,29755,1,0,0:0:0:0:
192,192,29755,1,0,0:0:0:0:
320,192,29834,1,0,0:0:0:0:
448,192,29913,1,0,0:0:0:0:
192,192,29991,1,0,0:0:0:0:
64,192,30070,1,0,0:0:0:0:
320,192,30070,1,0,0:0:0:0:
192,192,30149,1,0,0:0:0:0:
448,192,30227,1,0,0:0:0:0:
320,192,30227,1,0,0:0:0:0:
64,192,30227,1,0,0:0:0:0:
192,192,30306,1,0,0:0:0:0:
64,192,30385,1,0,0:0:0:0:
320,192,30385,1,0,0:0:0:0:
448,192,30385,1,0,0:0:0:0:
192,192,30463,1,0,0:0:0:0:
64,192,30542,1,0,0:0:0:0:
320,192,30542,1,0,0:0:0:0:
448,192,30542,1,0,0:0:0:0:
192,192,30621,1,0,0:0:0:0:
64,192,30699,1,0,0:0:0:0:
320,192,30699,1,0,0:0:0:0:
448,192,30699,1,0,0:0:0:0:
192,192,30778,1,0,0:0:0:0:
448,192,30857,1,0,0:0:0:0:
192,192,30935,1,0,0:0:0:0:
320,192,31014,1,0,0:0:0:0:
64,192,31014,1,0,0:0:0:0:
448,192,31093,1,0,0:0:0:0:
320,192,31171,1,0,0:0:0:0:
448,192,31250,1,0,0:0:0:0:
192,192,31329,1,0,0:0:0:0:
320,192,31329,1,0,0:0:0:0:
64,192,31407,1,0,0:0:0:0:
448,192,31486,1,0,0:0:0:0:
320,192,31486,1,0,0:0:0:0:
192,192,31486,1,0,0:0:0:0:
64,192,31565,1,0,0:0:0:0:
448,192,31644,1,0,0:0:0:0:
320,192,31644,1,0,0:0:0:0:
192,192,31644,1,0,0:0:0:0:
64,192,31722,1,0,0:0:0:0:
448,192,31801,1,0,0:0:0:0:
320,192,31801,1,0,0:0:0:0:
192,192,31801,1,0,0:0:0:0:
64,192,31880,1,0,0:0:0:0:
448,192,31958,1,0,0:0:0:0:
192,192,31958,1,0,0:0:0:0:
320,192,32037,1,0,0:0:0:0:
64,192,32116,1,0,0:0:0:0:
320,192,32194,1,0,0:0:0:0:
64,192,32273,1,0,0:0:0:0:
448,192,32273,1,0,0:0:0:0:
192,192,32352,1,0,0:0:0:0:
448,192,32430,1,0,0:0:0:0:
192,192,32509,1,0,0:0:0:0:
448,192,32588,1,0,0:0:0:0:
320,192,32588,1,0,0:0:0:0:
192,192,32666,1,0,0:0:0:0:
320,192,32745,1,0,0:0:0:0:
192,192,32824,1,0,0:0:0:0:
448,192,32902,1,0,0:0:0:0:
64,192,32902,1,0,0:0:0:0:
320,192,32981,1,0,0:0:0:0:
64,192,33060,1,0,0:0:0:0:
320,192,33138,1,0,0:0:0:0:
64,192,33217,1,0,0:0:0:0:
192,192,33217,1,0,0:0:0:0:
448,192,33296,1,0,0:0:0:0:
192,192,33374,1,0,0:0:0:0:
320,192,33453,1,0,0:0:0:0:
448,192,33532,1,0,0:0:0:0:
64,192,33532,1,0,0:0:0:0:
192,192,33610,1,0,0:0:0:0:
448,192,33689,1,0,0:0:0:0:
192,192,33768,1,0,0:0:0:0:
448,192,33847,1,0,0:0:0:0:
320,192,33847,1,0,0:0:0:0:
64,192,33925,5,0,0:0:0:0:
320,192,34004,1,0,0:0:0:0:
64,192,34083,1,0,0:0:0:0:
320,192,34161,1,0,0:0:0:0:
448,192,34161,1,0,0:0:0:0:
192,192,34240,1,0,0:0:0:0:
320,192,34319,1,0,0:0:0:0:
448,192,34319,1,0,0:0:0:0:
192,192,34397,1,0,0:0:0:0:
64,192,34476,5,0,0:0:0:0:
320,192,34476,1,0,0:0:0:0:
448,192,34476,1,0,0:0:0:0:
192,192,34555,1,0,0:0:0:0:
320,192,34633,1,0,0:0:0:0:
64,192,34633,1,0,0:0:0:0:
192,192,34712,1,0,0:0:0:0:
64,192,34791,1,0,0:0:0:0:
448,192,34791,1,0,0:0:0:0:
320,192,34869,1,0,0:0:0:0:
192,192,34948,1,0,0:0:0:0:
64,192,34948,1,0,0:0:0:0:
448,192,34948,1,0,0:0:0:0:
320,192,35027,1,0,0:0:0:0:
192,192,35105,1,0,0:0:0:0:
64,192,35105,1,0,0:0:0:0:
448,192,35184,1,0,0:0:0:0:
320,192,35263,1,0,0:0:0:0:
192,192,35263,1,0,0:0:0:0:
448,192,35341,1,0,0:0:0:0:
320,192,35420,1,0,0:0:0:0:
64,192,35420,1,0,0:0:0:0:
192,192,35499,1,0,0:0:0:0:
64,192,35577,1,0,0:0:0:0:
448,192,35577,1,0,0:0:0:0:
192,192,35656,1,0,0:0:0:0:
448,192,35735,1,0,0:0:0:0:
64,192,35735,1,0,0:0:0:0:
320,192,35813,1,0,0:0:0:0:
192,192,35892,1,0,0:0:0:0:
448,192,35892,1,0,0:0:0:0:
320,192,35971,1,0,0:0:0:0:
192,192,36049,1,0,0:0:0:0:
64,192,36049,1,0,0:0:0:0:
448,192,36128,1,0,0:0:0:0:
320,192,36207,1,0,0:0:0:0:
192,192,36207,1,0,0:0:0:0:
448,192,36286,1,0,0:0:0:0:
320,192,36364,1,0,0:0:0:0:
64,192,36364,1,0,0:0:0:0:
192,192,36443,1,0,0:0:0:0:
320,192,36522,1,0,0:0:0:0:
448,192,36522,1,0,0:0:0:0:
64,192,36522,1,0,0:0:0:0:
192,192,36600,1,0,0:0:0:0:
64,192,36679,1,0,0:0:0:0:
320,192,36679,1,0,0:0:0:0:
448,192,36679,1,0,0:0:0:0:
192,192,36758,1,0,0:0:0:0:
64,192,36836,1,0,0:0:0:0:
320,192,36836,1,0,0:0:0:0:
448,192,36836,1,0,0:0:0:0:
192,192,36915,1,0,0:0:0:0:
64,192,36994,1,0,0:0:0:0:
320,192,36994,1,0,0:0:0:0:
448,192,36994,1,0,0:0:0:0:
192,192,37072,1,0,0:0:0:0:
320,192,37151,1,0,0:0:0:0:
64,192,37151,1,0,0:0:0:0:
448,192,37230,1,0,0:0:0:0:
192,192,37308,1,0,0:0:0:0:
64,192,37308,1,0,0:0:0:0:
320,192,37387,1,0,0:0:0:0:
192,192,37466,1,0,0:0:0:0:
64,192,37466,1,0,0:0:0:0:
448,192,37466,1,0,0:0:0:0:
320,192,37544,1,0,0:0:0:0:
192,192,37623,1,0,0:0:0:0:
448,192,37623,1,0,0:0:0:0:
320,192,37702,1,0,0:0:0:0:
448,192,37780,1,0,0:0:0:0:
64,192,37780,1,0,0:0:0:0:
192,192,37859,1,0,0:0:0:0:
320,192,37938,1,0,0:0:0:0:
448,192,37938,1,0,0:0:0:0:
192,192,38016,1,0,0:0:0:0:
320,192,38095,1,0,0:0:0:0:
64,192,38095,1,0,0:0:0:0:
448,192,38174,1,0,0:0:0:0:
320,192,38252,1,0,0:0:0:0:
64,192,38252,1,0,0:0:0:0:
192,192,38331,1,0,0:0:0:0:
448,192,38410,1,0,0:0:0:0:
64,192,38410,1,0,0:0:0:0:
192,192,38489,1,0,0:0:0:0:
448,192,38567,1,0,0:0:0:0:
320,192,38567,1,0,0:0:0:0:
192,192,38646,1,0,0:0:0:0:
64,192,38725,1,0,0:0:0:0:
320,192,38725,1,0,0:0:0:0:
192,192,38803,1,0,0:0:0:0:
448,192,38882,1,0,0:0:0:0:
64,192,38882,1,0,0:0:0:0:
320,192,38961,1,0,0:0:0:0:
64,192,39039,1,0,0:0:0:0:
192,192,39039,1,0,0:0:0:0:
448,192,39039,1,0,0:0:0:0:
320,192,39118,1,0,0:0:0:0:
448,192,39197,1,0,0:0:0:0:
192,192,39197,1,0,0:0:0:0:
64,192,39197,1,0,0:0:0:0:
320,192,39275,1,0,0:0:0:0:
448,192,39354,1,0,0:0:0:0:
192,192,39354,1,0,0:0:0:0:
64,192,39354,1,0,0:0:0:0:
320,192,39433,1,0,0:0:0:0:
64,192,39511,1,0,0:0:0:0:
192,192,39511,1,0,0:0:0:0:
448,192,39511,1,0,0:0:0:0:
320,192,39590,1,0,0:0:0:0:
448,192,39669,1,0,0:0:0:0:
192,192,39669,1,0,0:0:0:0:
64,192,39747,1,0,0:0:0:0:
320,192,39826,1,0,0:0:0:0:
192,192,39826,1,0,0:0:0:0:
448,192,39905,1,0,0:0:0:0:
320,192,39983,1,0,0:0:0:0:
64,192,39983,1,0,0:0:0:0:
192,192,40062,1,0,0:0:0:0:
320,192,40141,1,0,0:0:0:0:
448,192,40141,1,0,0:0:0:0:
64,192,40219,1,0,0:0:0:0:
448,192,40298,1,0,0:0:0:0:
192,192,40298,1,0,0:0:0:0:
320,192,40298,1,0,0:0:0:0:
64,192,40377,1,0,0:0:0:0:
192,192,40455,1,0,0:0:0:0:
320,192,40455,1,0,0:0:0:0:
448,192,40455,1,0,0:0:0:0:
64,192,40534,1,0,0:0:0:0:
448,192,40613,1,0,0:0:0:0:
320,192,40613,1,0,0:0:0:0:
192,192,40613,1,0,0:0:0:0:
64,192,40692,1,0,0:0:0:0:
320,192,40770,1,0,0:0:0:0:
192,192,40770,1,0,0:0:0:0:
448,192,40770,1,0,0:0:0:0:
64,192,40849,1,0,0:0:0:0:
192,192,40928,1,0,0:0:0:0:
448,192,40928,1,0,0:0:0:0:
320,192,41006,1,0,0:0:0:0:
64,192,41085,1,0,0:0:0:0:
192,192,41085,1,0,0:0:0:0:
320,192,41164,1,0,0:0:0:0:
448,192,41242,1,0,0:0:0:0:
192,192,41242,1,0,0:0:0:0:
64,192,41321,1,0,0:0:0:0:
448,192,41400,1,0,0:0:0:0:
320,192,41400,1,0,0:0:0:0:
64,192,41478,1,0,0:0:0:0:
320,192,41557,1,0,0:0:0:0:
192,192,41557,1,0,0:0:0:0:
448,192,41636,1,0,0:0:0:0:
64,192,41714,1,0,0:0:0:0:
192,192,41714,1,0,0:0:0:0:
320,192,41714,1,0,0:0:0:0:
448,192,41793,1,0,0:0:0:0:
320,192,41872,1,0,0:0:0:0:
192,192,41872,1,0,0:0:0:0:
64,192,41872,1,0,0:0:0:0:
448,192,41950,1,0,0:0:0:0:
64,192,42029,1,0,0:0:0:0:
192,192,42029,1,0,0:0:0:0:
320,192,42108,1,0,0:0:0:0:
448,192,42186,1,0,0:0:0:0:
64,192,42186,1,0,0:0:0:0:
192,192,42265,1,0,0:0:0:0:
64,192,42344,1,0,0:0:0:0:
448,192,42344,1,0,0:0:0:0:
320,192,42422,1,0,0:0:0:0:
448,192,42501,1,0,0:0:0:0:
192,192,42501,1,0,0:0:0:0:
320,192,42580,1,0,0:0:0:0:
448,192,42658,1,0,0:0:0:0:
64,192,42658,1,0,0:0:0:0:
192,192,42737,1,0,0:0:0:0:
64,192,42816,1,0,0:0:0:0:
320,192,42816,1,0,0:0:0:0:
192,192,42894,1,0,0:0:0:0:
64,192,42973,1,0,0:0:0:0:
448,192,42973,1,0,0:0:0:0:
320,192,43052,1,0,0:0:0:0:
192,192,43131,1,0,0:0:0:0:
448,192,43131,1,0,0:0:0:0:
320,192,43209,1,0,0:0:0:0:
448,192,43288,1,0,0:0:0:0:
64,192,43288,1,0,0:0:0:0:
192,192,43288,1,0,0:0:0:0:
320,192,43367,1,0,0:0:0:0:
192,192,43445,1,0,0:0:0:0:
64,192,43445,1,0,0:0:0:0:
448,192,43524,1,0,0:0:0:0:
320,192,43524,1,0,0:0:0:0:
192,192,43603,1,0,0:0:0:0:
64,192,43603,1,0,0:0:0:0:
320,192,43760,1,0,0:0:0:0:
448,192,43760,1,0,0:0:0:0:
192,192,43839,1,0,0:0:0:0:
320,192,43917,1,0,0:0:0:0:
448,192,43917,1,0,0:0:0:0:
64,192,43917,1,0,0:0:0:0:
192,192,43996,1,0,0:0:0:0:
320,192,44075,1,0,0:0:0:0:
448,192,44075,1,0,0:0:0:0:
64,192,44114,1,0,0:0:0:0:
192,192,44153,1,0,0:0:0:0:
320,192,44232,1,0,0:0:0:0:
448,192,44232,1,0,0:0:0:0:
192,192,44271,1,0,0:0:0:0:
64,192,44311,1,0,0:0:0:0:
320,192,44389,1,0,0:0:0:0:
448,192,44389,1,0,0:0:0:0:
64,192,44429,1,0,0:0:0:0:
192,192,44468,1,0,0:0:0:0:
448,192,44547,5,0,0:0:0:0:
320,192,44547,1,0,0:0:0:0:
64,192,44547,1,0,0:0:0:0:
192,192,44625,1,0,0:0:0:0:
448,192,44704,1,0,0:0:0:0:
64,192,44704,1,0,0:0:0:0:
320,192,44783,1,0,0:0:0:0:
192,192,44861,1,0,0:0:0:0:
64,192,44861,1,0,0:0:0:0:
448,192,44940,1,0,0:0:0:0:
320,192,45019,1,0,0:0:0:0:
192,192,45019,1,0,0:0:0:0:
448,192,45097,1,0,0:0:0:0:
192,192,45176,1,0,0:0:0:0:
64,192,45176,1,0,0:0:0:0:
448,192,45255,1,0,0:0:0:0:
64,192,45334,1,0,0:0:0:0:
320,192,45334,1,0,0:0:0:0:
192,192,45412,1,0,0:0:0:0:
320,192,45491,1,0,0:0:0:0:
64,192,45491,1,0,0:0:0:0:
448,192,45491,1,0,0:0:0:0:
192,192,45570,1,0,0:0:0:0:
64,192,45648,1,0,0:0:0:0:
320,192,45648,1,0,0:0:0:0:
448,192,45648,1,0,0:0:0:0:
192,192,45727,1,0,0:0:0:0:
320,192,45806,1,0,0:0:0:0:
448,192,45806,1,0,0:0:0:0:
64,192,45806,1,0,0:0:0:0:
192,192,45884,1,0,0:0:0:0:
320,192,45963,1,0,0:0:0:0:
448,192,45963,1,0,0:0:0:0:
64,192,46042,1,0,0:0:0:0:
320,192,46120,1,0,0:0:0:0:
192,192,46120,1,0,0:0:0:0:
448,192,46120,1,0,0:0:0:0:
64,192,46199,1,0,0:0:0:0:
192,192,46278,1,0,0:0:0:0:
320,192,46278,1,0,0:0:0:0:
448,192,46356,1,0,0:0:0:0:
192,192,46435,1,0,0:0:0:0:
64,192,46435,1,0,0:0:0:0:
320,192,46435,1,0,0:0:0:0:
448,192,46514,1,0,0:0:0:0:
64,192,46592,1,0,0:0:0:0:
192,192,46592,1,0,0:0:0:0:
320,192,46671,1,0,0:0:0:0:
64,192,46750,1,0,0:0:0:0:
192,192,46750,1,0,0:0:0:0:
448,192,46750,1,0,0:0:0:0:
320,192,46828,1,0,0:0:0:0:
448,192,46907,1,0,0:0:0:0:
192,192,46907,1,0,0:0:0:0:
64,192,46986,1,0,0:0:0:0:
192,192,47064,1,0,0:0:0:0:
320,192,47064,1,0,0:0:0:0:
448,192,47064,1,0,0:0:0:0:
64,192,47143,1,0,0:0:0:0:
320,192,47222,1,0,0:0:0:0:
448,192,47222,1,0,0:0:0:0:
192,192,47300,1,0,0:0:0:0:
320,192,47379,1,0,0:0:0:0:
64,192,47379,1,0,0:0:0:0:
192,192,47458,1,0,0:0:0:0:
320,192,47537,1,0,0:0:0:0:
64,192,47537,1,0,0:0:0:0:
448,192,47615,1,0,0:0:0:0:
64,192,47694,1,0,0:0:0:0:
192,192,47694,1,0,0:0:0:0:
320,192,47773,1,0,0:0:0:0:
448,192,47851,1,0,0:0:0:0:
192,192,47851,1,0,0:0:0:0:
320,192,47930,1,0,0:0:0:0:
64,192,48009,1,0,0:0:0:0:
448,192,48009,1,0,0:0:0:0:
192,192,48009,1,0,0:0:0:0:
320,192,48087,1,0,0:0:0:0:
64,192,48166,1,0,0:0:0:0:
192,192,48166,1,0,0:0:0:0:
448,192,48166,1,0,0:0:0:0:
320,192,48245,1,0,0:0:0:0:
192,192,48323,1,0,0:0:0:0:
64,192,48323,1,0,0:0:0:0:
448,192,48323,1,0,0:0:0:0:
320,192,48402,1,0,0:0:0:0:
64,192,48481,1,0,0:0:0:0:
192,192,48481,1,0,0:0:0:0:
448,192,48559,1,0,0:0:0:0:
320,192,48638,1,0,0:0:0:0:
192,192,48638,1,0,0:0:0:0:
64,192,48638,1,0,0:0:0:0:
448,192,48717,1,0,0:0:0:0:
320,192,48795,1,0,0:0:0:0:
64,192,48795,1,0,0:0:0:0:
192,192,48874,1,0,0:0:0:0:
320,192,48953,1,0,0:0:0:0:
448,192,48953,1,0,0:0:0:0:
64,192,48953,1,0,0:0:0:0:
192,192,49031,1,0,0:0:0:0:
320,192,49110,1,0,0:0:0:0:
448,192,49110,1,0,0:0:0:0:
64,192,49189,1,0,0:0:0:0:
192,192,49267,1,0,0:0:0:0:
320,192,49267,1,0,0:0:0:0:
448,192,49267,1,0,0:0:0:0:
64,192,49346,1,0,0:0:0:0:
192,192,49425,1,0,0:0:0:0:
448,192,49425,1,0,0:0:0:0:
320,192,49503,1,0,0:0:0:0:
192,192,49582,1,0,0:0:0:0:
64,192,49582,1,0,0:0:0:0:
448,192,49582,1,0,0:0:0:0:
320,192,49661,1,0,0:0:0:0:
64,192,49739,1,0,0:0:0:0:
192,192,49739,1,0,0:0:0:0:
448,192,49818,1,0,0:0:0:0:
320,192,49897,1,0,0:0:0:0:
192,192,49897,1,0,0:0:0:0:
448,192,49976,1,0,0:0:0:0:
320,192,50054,1,0,0:0:0:0:
64,192,50054,1,0,0:0:0:0:
192,192,50133,1,0,0:0:0:0:
448,192,50212,1,0,0:0:0:0:
64,192,50212,1,0,0:0:0:0:
320,192,50290,1,0,0:0:0:0:
64,192,50369,1,0,0:0:0:0:
448,192,50369,1,0,0:0:0:0:
192,192,50448,1,0,0:0:0:0:
320,192,50526,1,0,0:0:0:0:
64,192,50526,1,0,0:0:0:0:
448,192,50526,1,0,0:0:0:0:
192,192,50605,1,0,0:0:0:0:
448,192,50684,1,0,0:0:0:0:
320,192,50684,1,0,0:0:0:0:
64,192,50684,1,0,0:0:0:0:
192,192,50762,1,0,0:0:0:0:
448,192,50841,1,0,0:0:0:0:
320,192,50841,1,0,0:0:0:0:
64,192,50841,1,0,0:0:0:0:
192,192,50920,1,0,0:0:0:0:
320,192,50998,1,0,0:0:0:0:
448,192,50998,1,0,0:0:0:0:
64,192,51077,1,0,0:0:0:0:
192,192,51156,1,0,0:0:0:0:
320,192,51156,1,0,0:0:0:0:
448,192,51156,1,0,0:0:0:0:
64,192,51234,1,0,0:0:0:0:
192,192,51313,1,0,0:0:0:0:
320,192,51313,1,0,0:0:0:0:
448,192,51392,1,0,0:0:0:0:
320,192,51470,1,0,0:0:0:0:
192,192,51470,1,0,0:0:0:0:
64,192,51470,1,0,0:0:0:0:
448,192,51549,1,0,0:0:0:0:
64,192,51628,1,0,0:0:0:0:
192,192,51628,1,0,0:0:0:0:
320,192,51706,1,0,0:0:0:0:
448,192,51785,1,0,0:0:0:0:
64,192,51785,1,0,0:0:0:0:
192,192,51785,1,0,0:0:0:0:
320,192,51864,1,0,0:0:0:0:
64,192,51942,1,0,0:0:0:0:
448,192,51942,1,0,0:0:0:0:
192,192,52021,1,0,0:0:0:0:
64,192,52100,1,0,0:0:0:0:
320,192,52100,1,0,0:0:0:0:
448,192,52100,1,0,0:0:0:0:
192,192,52179,1,0,0:0:0:0:
320,192,52257,1,0,0:0:0:0:
448,192,52257,1,0,0:0:0:0:
64,192,52336,1,0,0:0:0:0:
192,192,52415,1,0,0:0:0:0:
320,192,52415,1,0,0:0:0:0:
64,192,52493,1,0,0:0:0:0:
320,192,52572,1,0,0:0:0:0:
448,192,52572,1,0,0:0:0:0:
192,192,52651,1,0,0:0:0:0:
64,192,52729,1,0,0:0:0:0:
320,192,52729,1,0,0:0:0:0:
192,192,52808,1,0,0:0:0:0:
64,192,52887,1,0,0:0:0:0:
448,192,52887,1,0,0:0:0:0:
320,192,52965,1,0,0:0:0:0:
448,192,53044,1,0,0:0:0:0:
64,192,53044,1,0,0:0:0:0:
192,192,53044,1,0,0:0:0:0:
320,192,53123,1,0,0:0:0:0:
192,192,53201,1,0,0:0:0:0:
64,192,53201,1,0,0:0:0:0:
448,192,53201,1,0,0:0:0:0:
320,192,53280,1,0,0:0:0:0:
64,192,53359,1,0,0:0:0:0:
192,192,53359,1,0,0:0:0:0:
448,192,53359,1,0,0:0:0:0:
320,192,53437,1,0,0:0:0:0:
192,192,53516,1,0,0:0:0:0:
64,192,53516,1,0,0:0:0:0:
448,192,53595,1,0,0:0:0:0:
320,192,53673,1,0,0:0:0:0:
192,192,53673,1,0,0:0:0:0:
64,192,53673,1,0,0:0:0:0:
448,192,53752,1,0,0:0:0:0:
192,192,53831,1,0,0:0:0:0:
320,192,53831,1,0,0:0:0:0:
64,192,53909,1,0,0:0:0:0:
192,192,53988,1,0,0:0:0:0:
320,192,53988,1,0,0:0:0:0:
448,192,53988,1,0,0:0:0:0:
64,192,54067,1,0,0:0:0:0:
448,192,54145,1,0,0:0:0:0:
320,192,54145,1,0,0:0:0:0:
192,192,54224,1,0,0:0:0:0:
64,192,54303,1,0,0:0:0:0:
320,192,54303,1,0,0:0:0:0:
448,192,54303,1,0,0:0:0:0:
192,192,54382,1,0,0:0:0:0:
320,192,54460,1,0,0:0:0:0:
448,192,54460,1,0,0:0:0:0:
64,192,54460,1,0,0:0:0:0:
192,192,54539,1,0,0:0:0:0:
320,192,54618,1,0,0:0:0:0:
448,192,54618,1,0,0:0:0:0:
64,192,54618,1,0,0:0:0:0:
192,192,54696,1,0,0:0:0:0:
64,192,54775,1,0,0:0:0:0:
448,192,54775,1,0,0:0:0:0:
320,192,54854,1,0,0:0:0:0:
192,192,54932,1,0,0:0:0:0:
64,192,54932,1,0,0:0:0:0:
320,192,55011,1,0,0:0:0:0:
192,192,55090,1,0,0:0:0:0:
448,192,55090,1,0,0:0:0:0:
64,192,55168,1,0,0:0:0:0:
320,192,55247,1,0,0:0:0:0:
448,192,55247,1,0,0:0:0:0:
192,192,55326,1,0,0:0:0:0:
320,192,55404,1,0,0:0:0:0:
64,192,55404,1,0,0:0:0:0:
448,192,55483,1,0,0:0:0:0:
320,192,55562,1,0,0:0:0:0:
64,192,55562,1,0,0:0:0:0:
192,192,55562,1,0,0:0:0:0:
448,192,55640,1,0,0:0:0:0:
320,192,55719,1,0,0:0:0:0:
192,192,55719,1,0,0:0:0:0:
64,192,55719,1,0,0:0:0:0:
448,192,55798,1,0,0:0:0:0:
64,192,55876,1,0,0:0:0:0:
192,192,55876,1,0,0:0:0:0:
320,192,55876,1,0,0:0:0:0:
448,192,55955,1,0,0:0:0:0:
192,192,56034,1,0,0:0:0:0:
64,192,56034,1,0,0:0:0:0:
320,192,56112,1,0,0:0:0:0:
192,192,56191,1,0,0:0:0:0:
448,192,56191,1,0,0:0:0:0:
64,192,56191,1,0,0:0:0:0:
320,192,56270,1,0,0:0:0:0:
192,192,56348,1,0,0:0:0:0:
448,192,56348,1,0,0:0:0:0:
64,192,56427,1,0,0:0:0:0:
192,192,56506,1,0,0:0:0:0:
320,192,56506,1,0,0:0:0:0:
448,192,56506,1,0,0:0:0:0:
64,192,56585,1,0,0:0:0:0:
320,192,56663,1,0,0:0:0:0:
448,192,56663,1,0,0:0:0:0:
192,192,56742,1,0,0:0:0:0:
320,192,56821,1,0,0:0:0:0:
64,192,56821,1,0,0:0:0:0:
448,192,56821,1,0,0:0:0:0:
192,192,56899,1,0,0:0:0:0:
64,192,56978,1,0,0:0:0:0:
320,192,56978,1,0,0:0:0:0:
448,192,57057,1,0,0:0:0:0:
320,192,57135,1,0,0:0:0:0:
192,192,57135,1,0,0:0:0:0:
64,192,57135,1,0,0:0:0:0:
448,192,57214,1,0,0:0:0:0:
192,192,57293,1,0,0:0:0:0:
64,192,57293,1,0,0:0:0:0:
320,192,57371,1,0,0:0:0:0:
192,192,57450,1,0,0:0:0:0:
448,192,57450,1,0,0:0:0:0:
320,192,57529,1,0,0:0:0:0:
64,192,57607,1,0,0:0:0:0:
448,192,57607,1,0,0:0:0:0:
192,192,57686,1,0,0:0:0:0:
64,192,57765,1,0,0:0:0:0:
320,192,57765,1,0,0:0:0:0:
192,192,57843,1,0,0:0:0:0:
320,192,57922,1,0,0:0:0:0:
64,192,57922,1,0,0:0:0:0:
448,192,58001,1,0,0:0:0:0:
192,192,58079,1,0,0:0:0:0:
320,192,58079,1,0,0:0:0:0:
64,192,58079,1,0,0:0:0:0:
448,192,58158,1,0,0:0:0:0:
64,192,58237,1,0,0:0:0:0:
192,192,58237,1,0,0:0:0:0:
320,192,58237,1,0,0:0:0:0:
448,192,58315,1,0,0:0:0:0:
192,192,58394,1,0,0:0:0:0:
64,192,58394,1,0,0:0:0:0:
320,192,58394,1,0,0:0:0:0:
448,192,58473,1,0,0:0:0:0:
192,192,58551,1,0,0:0:0:0:
320,192,58551,1,0,0:0:0:0:
64,192,58630,1,0,0:0:0:0:
320,192,58709,1,0,0:0:0:0:
192,192,58709,1,0,0:0:0:0:
448,192,58709,1,0,0:0:0:0:
64,192,58787,1,0,0:0:0:0:
448,192,58866,1,0,0:0:0:0:
192,192,58866,1,0,0:0:0:0:
320,192,58945,1,0,0:0:0:0:
192,192,59024,1,0,0:0:0:0:
64,192,59024,1,0,0:0:0:0:
448,192,59024,1,0,0:0:0:0:
320,192,59102,1,0,0:0:0:0:
448,192,59181,1,0,0:0:0:0:
64,192,59181,1,0,0:0:0:0:
192,192,59260,1,0,0:0:0:0:
320,192,59338,1,0,0:0:0:0:
64,192,59338,1,0,0:0:0:0:
448,192,59338,1,0,0:0:0:0:
192,192,59417,1,0,0:0:0:0:
320,192,59496,1,0,0:0:0:0:
64,192,59496,1,0,0:0:0:0:
448,192,59574,1,0,0:0:0:0:
192,192,59653,1,0,0:0:0:0:
320,192,59653,1,0,0:0:0:0:
64,192,59653,1,0,0:0:0:0:
448,192,59732,1,0,0:0:0:0:
192,192,59810,1,0,0:0:0:0:
320,192,59810,1,0,0:0:0:0:
64,192,59889,1,0,0:0:0:0:
448,192,59968,1,0,0:0:0:0:
192,192,59968,1,0,0:0:0:0:
64,192,60046,1,0,0:0:0:0:
192,192,60125,1,0,0:0:0:0:
320,192,60125,1,0,0:0:0:0:
448,192,60204,1,0,0:0:0:0:
64,192,60282,1,0,0:0:0:0:
192,192,60282,1,0,0:0:0:0:
320,192,60361,1,0,0:0:0:0:
448,192,60440,1,0,0:0:0:0:
64,192,60440,1,0,0:0:0:0:
320,192,60518,1,0,0:0:0:0:
448,192,60597,1,0,0:0:0:0:
64,192,60597,1,0,0:0:0:0:
192,192,60597,1,0,0:0:0:0:
320,192,60676,1,0,0:0:0:0:
192,192,60754,1,0,0:0:0:0:
64,192,60754,1,0,0:0:0:0:
448,192,60754,1,0,0:0:0:0:
320,192,60833,1,0,0:0:0:0:
192,192,60912,1,0,0:0:0:0:
64,192,60912,1,0,0:0:0:0:
448,192,60912,1,0,0:0:0:0:
320,192,60990,1,0,0:0:0:0:
192,192,61069,1,0,0:0:0:0:
448,192,61069,1,0,0:0:0:0:
64,192,61148,1,0,0:0:0:0:
192,192,61227,1,0,0:0:0:0:
448,192,61227,1,0,0:0:0:0:
320,192,61227,1,0,0:0:0:0:
64,192,61305,1,0,0:0:0:0:
192,192,61384,1,0,0:0:0:0:
320,192,61384,1,0,0:0:0:0:
448,192,61463,1,0,0:0:0:0:
192,192,61541,1,0,0:0:0:0:
64,192,61541,1,0,0:0:0:0:
320,192,61541,1,0,0:0:0:0:
448,192,61620,1,0,0:0:0:0:
320,192,61699,1,0,0:0:0:0:
192,192,61699,1,0,0:0:0:0:
64,192,61777,1,0,0:0:0:0:
192,192,61856,1,0,0:0:0:0:
320,192,61856,1,0,0:0:0:0:
448,192,61856,1,0,0:0:0:0:
64,192,61935,1,0,0:0:0:0:
192,192,62013,1,0,0:0:0:0:
320,192,62013,1,0,0:0:0:0:
448,192,62092,1,0,0:0:0:0:
64,192,62171,1,0,0:0:0:0:
192,192,62171,1,0,0:0:0:0:
320,192,62249,1,0,0:0:0:0:
448,192,62289,1,0,0:0:0:0:
64,192,62328,1,0,0:0:0:0:
192,192,62367,1,0,0:0:0:0:
448,192,62446,1,0,0:0:0:0:
320,192,62446,1,0,0:0:0:0:
64,192,62485,1,0,0:0:0:0:
192,192,62525,1,0,0:0:0:0:
320,192,62564,1,0,0:0:0:0:
448,192,62603,1,0,0:0:0:0:
64,192,62643,1,0,0:0:0:0:
192,192,62682,1,0,0:0:0:0:
320,192,62721,1,0,0:0:0:0:
448,192,62761,1,0,0:0:0:0:
64,192,62800,1,0,0:0:0:0:
192,192,62800,1,0,0:0:0:0:
320,192,62879,1,0,0:0:0:0:
448,192,62918,1,0,0:0:0:0:
64,192,62957,1,0,0:0:0:0:
192,192,62997,1,0,0:0:0:0:
448,192,63075,1,0,0:0:0:0:
320,192,63075,1,0,0:0:0:0:
64,192,63115,1,0,0:0:0:0:
192,192,63154,1,0,0:0:0:0:
320,192,63193,1,0,0:0:0:0:
448,192,63233,1,0,0:0:0:0:
64,192,63272,1,0,0:0:0:0:
192,192,63311,1,0,0:0:0:0:
320,192,63351,1,0,0:0:0:0:
448,192,63390,1,0,0:0:0:0:
64,192,63430,1,0,0:0:0:0:
192,192,63430,1,0,0:0:0:0:
320,192,63508,1,0,0:0:0:0:
448,192,63548,1,0,0:0:0:0:
64,192,63587,1,0,0:0:0:0:
192,192,63626,1,0,0:0:0:0:
448,192,63705,1,0,0:0:0:0:
320,192,63705,1,0,0:0:0:0:
64,192,63744,1,0,0:0:0:0:
192,192,63784,1,0,0:0:0:0:
320,192,63823,1,0,0:0:0:0:
448,192,63862,1,0,0:0:0:0:
64,192,63902,1,0,0:0:0:0:
192,192,63941,1,0,0:0:0:0:
320,192,63980,1,0,0:0:0:0:
448,192,64020,1,0,0:0:0:0:
64,192,64059,1,0,0:0:0:0:
192,192,64098,1,0,0:0:0:0:
320,192,64138,1,0,0:0:0:0:
448,192,64177,1,0,0:0:0:0:
64,192,64216,1,0,0:0:0:0:
192,192,64256,1,0,0:0:0:0:
448,192,64334,1,0,0:0:0:0:
320,192,64334,1,0,0:0:0:0:
64,192,64374,1,0,0:0:0:0:
192,192,64413,1,0,0:0:0:0:
320,192,64452,1,0,0:0:0:0:
448,192,64492,1,0,0:0:0:0:
64,192,64531,1,0,0:0:0:0:
192,192,64570,1,0,0:0:0:0:
320,192,64610,1,0,0:0:0:0:
448,192,64649,1,0,0:0:0:0:
192,192,64688,1,0,0:0:0:0:
64,192,64688,128,0,65003:0:0:0:0:
320,192,65003,128,0,65318:0:0:0:0:
448,192,65003,1,0,0:0:0:0:
448,192,65318,128,0,65632:0:0:0:0:
64,192,65318,1,0,0:0:0:0:
192,192,65632,128,0,65790:0:0:0:0:
320,192,65790,128,0,66105:0:0:0:0:
64,192,65947,1,0,0:0:0:0:
448,192,65947,1,0,0:0:0:0:
192,192,66105,128,0,66419:0:0:0:0:
448,192,66262,1,0,0:0:0:0:
64,192,66419,128,0,66734:0:0:0:0:
320,192,66577,1,0,0:0:0:0:
192,192,66891,1,0,0:0:0:0:
320,192,67049,128,0,67206:0:0:0:0:
192,192,67206,1,0,0:0:0:0:
448,192,67206,1,0,0:0:0:0:
64,192,67206,128,0,67521:0:0:0:0:
448,192,67521,128,0,67678:0:0:0:0:
320,192,67521,1,0,0:0:0:0:
192,192,67678,128,0,67993:0:0:0:0:
320,192,67835,1,0,0:0:0:0:
320,192,68150,128,0,68308:0:0:0:0:
64,192,68150,1,0,0:0:0:0:
448,192,68308,128,0,69094:0:0:0:0:
192,192,68465,1,0,0:0:0:0:
64,192,68465,1,0,0:0:0:0:
320,192,68780,1,0,0:0:0:0:
64,192,69094,1,0,0:0:0:0:
192,192,69409,1,0,0:0:0:0:
448,192,69409,1,0,0:0:0:0:
320,192,69566,1,0,0:0:0:0:
64,192,69724,1,0,0:0:0:0:
448,192,69724,1,0,0:0:0:0:
192,192,70038,128,0,70196:0:0:0:0:
320,192,70038,1,0,0:0:0:0:
64,192,70196,128,0,70353:0:0:0:0:
448,192,70353,1,0,0:0:0:0:
320,192,70353,128,0,70668:0:0:0:0:
64,192,70668,1,0,0:0:0:0:
192,192,70668,128,0,70825:0:0:0:0:
448,192,70668,1,0,0:0:0:0:
320,192,70825,1,0,0:0:0:0:
64,192,70825,128,0,71140:0:0:0:0:
448,192,70983,1,0,0:0:0:0:
192,192,70983,1,0,0:0:0:0:
192,192,71297,128,0,71612:0:0:0:0:
320,192,71297,1,0,0:0:0:0:
448,192,71612,128,0,71927:0:0:0:0:
320,192,71612,1,0,0:0:0:0:
320,192,71927,128,0,72084:0:0:0:0:
192,192,71927,1,0,0:0:0:0:
64,192,71927,1,0,0:0:0:0:
64,192,72084,128,0,72556:0:0:0:0:
448,192,72084,1,0,0:0:0:0:
320,192,72241,1,0,0:0:0:0:
192,192,72241,1,0,0:0:0:0:
448,192,72556,1,0,0:0:0:0:
192,192,72871,1,0,0:0:0:0:
320,192,73186,128,0,73343:0:0:0:0:
64,192,73186,1,0,0:0:0:0:
448,192,73186,1,0,0:0:0:0:
448,192,73343,128,0,73658:0:0:0:0:
192,192,73343,1,0,0:0:0:0:
64,192,73500,1,0,0:0:0:0:
192,192,73815,1,0,0:0:0:0:
320,192,74130,1,0,0:0:0:0:
192,192,74444,1,0,0:0:0:0:
64,192,74444,128,0,74602:0:0:0:0:
320,192,74602,1,0,0:0:0:0:
192,192,74602,128,0,74759:0:0:0:0:
448,192,74759,1,0,0:0:0:0:
320,192,74759,128,0,74917:0:0:0:0:
64,192,74759,1,0,0:0:0:0:
64,192,74917,128,0,75074:0:0:0:0:
448,192,75074,128,0,75231:0:0:0:0:
192,192,75074,1,0,0:0:0:0:
64,192,75231,128,0,75389:0:0:0:0:
320,192,75389,128,0,75546:0:0:0:0:
192,192,75389,1,0,0:0:0:0:
64,192,75546,128,0,75703:0:0:0:0:
448,192,75703,128,0,75861:0:0:0:0:
320,192,75703,1,0,0:0:0:0:
64,192,75861,128,0,76018:0:0:0:0:
192,192,75861,128,0,76175:0:0:0:0:
448,192,76018,1,0,0:0:0:0:
320,192,76018,1,0,0:0:0:0:
320,192,76175,128,0,76333:0:0:0:0:
192,192,76333,1,0,0:0:0:0:
64,192,76333,128,0,76962:0:0:0:0:
320,192,76490,128,0,76647:0:0:0:0:
448,192,76647,1,0,0:0:0:0:
320,192,76805,128,0,76962:0:0:0:0:
448,192,76962,1,0,0:0:0:0:
192,192,76962,128,0,77120:0:0:0:0:
320,192,77120,128,0,77277:0:0:0:0:
448,192,77120,128,0,77277:0:0:0:0:
192,192,77277,1,0,0:0:0:0:
64,192,77277,128,0,77592:0:0:0:0:
448,192,77434,128,0,77592:0:0:0:0:
320,192,77592,1,0,0:0:0:0:
192,192,77592,128,0,77906:0:0:0:0:
448,192,77749,128,0,77906:0:0:0:0:
64,192,77906,1,0,0:0:0:0:
320,192,77906,128,0,78221:0:0:0:0:
448,192,78064,128,0,78221:0:0:0:0:
192,192,78221,1,0,0:0:0:0:
64,192,78221,128,0,78378:0:0:0:0:
448,192,78378,128,0,78536:0:0:0:0:
320,192,78378,128,0,79323:0:0:0:0:
64,192,78536,1,0,0:0:0:0:
192,192,78536,1,0,0:0:0:0:
192,192,78693,128,0,78850:0:0:0:0:
64,192,78850,1,0,0:0:0:0:
192,192,79008,128,0,79165:0:0:0:0:
448,192,79165,1,0,0:0:0:0:
192,192,79323,128,0,79480:0:0:0:0:
64,192,79480,1,0,0:0:0:0:
320,192,79480,1,0,0:0:0:0:
192,192,79637,128,0,79795:0:0:0:0:
320,192,79637,1,0,0:0:0:0:
448,192,79637,1,0,0:0:0:0:
448,192,79795,1,0,0:0:0:0:
64,192,79795,1,0,0:0:0:0:
320,192,79873,1,0,0:0:0:0:
192,192,79952,1,0,0:0:0:0:
448,192,80031,1,0,0:0:0:0:
192,192,80109,1,0,0:0:0:0:
64,192,80109,1,0,0:0:0:0:
448,192,80188,1,0,0:0:0:0:
320,192,80267,1,0,0:0:0:0:
64,192,80345,1,0,0:0:0:0:
448,192,80424,1,0,0:0:0:0:
320,192,80424,1,0,0:0:0:0:
64,192,80503,1,0,0:0:0:0:
448,192,80581,1,0,0:0:0:0:
320,192,80660,1,0,0:0:0:0:
64,192,80739,1,0,0:0:0:0:
192,192,80739,1,0,0:0:0:0:
448,192,80817,1,0,0:0:0:0:
192,192,80896,1,0,0:0:0:0:
320,192,80896,1,0,0:0:0:0:
64,192,80975,1,0,0:0:0:0:
448,192,81053,1,0,0:0:0:0:
320,192,81053,1,0,0:0:0:0:
192,192,81132,1,0,0:0:0:0:
64,192,81211,1,0,0:0:0:0:
320,192,81289,1,0,0:0:0:0:
64,192,81368,1,0,0:0:0:0:
192,192,81368,1,0,0:0:0:0:
320,192,81447,1,0,0:0:0:0:
448,192,81525,1,0,0:0:0:0:
192,192,81604,1,0,0:0:0:0:
448,192,81683,1,0,0:0:0:0:
320,192,81683,1,0,0:0:0:0:
192,192,81762,1,0,0:0:0:0:
64,192,81840,1,0,0:0:0:0:
320,192,81919,1,0,0:0:0:0:
448,192,81998,1,0,0:0:0:0:
192,192,81998,1,0,0:0:0:0:
64,192,82076,1,0,0:0:0:0:
320,192,82155,1,0,0:0:0:0:
192,192,82234,1,0,0:0:0:0:
448,192,82312,1,0,0:0:0:0:
320,192,82352,1,0,0:0:0:0:
192,192,82391,1,0,0:0:0:0:
64,192,82430,1,0,0:0:0:0:
448,192,82470,1,0,0:0:0:0:
320,192,82509,1,0,0:0:0:0:
192,192,82548,1,0,0:0:0:0:
64,192,82588,1,0,0:0:0:0:
448,192,82627,1,0,0:0:0:0:
320,192,82666,1,0,0:0:0:0:
192,192,82706,1,0,0:0:0:0:
64,192,82745,1,0,0:0:0:0:
448,192,82784,1,0,0:0:0:0:
320,192,82824,1,0,0:0:0:0:
192,192,82863,1,0,0:0:0:0:
64,192,82902,1,0,0:0:0:0:
448,192,82942,1,0,0:0:0:0:
320,192,82981,1,0,0:0:0:0:
192,192,83020,1,0,0:0:0:0:
64,192,83060,1,0,0:0:0:0:
448,192,83099,1,0,0:0:0:0:
320,192,83138,1,0,0:0:0:0:
192,192,83178,1,0,0:0:0:0:
64,192,83217,1,0,0:0:0:0:
448,192,83256,1,0,0:0:0:0:
320,192,83296,1,0,0:0:0:0:
192,192,83335,1,0,0:0:0:0:
64,192,83374,1,0,0:0:0:0:
448,192,83414,1,0,0:0:0:0:
320,192,83453,1,0,0:0:0:0:
192,192,83492,1,0,0:0:0:0:
64,192,83532,1,0,0:0:0:0:
448,192,83571,1,0,0:0:0:0:
320,192,83571,1,0,0:0:0:0:
192,192,83650,1,0,0:0:0:0:
64,192,83689,1,0,0:0:0:0:
448,192,83728,1,0,0:0:0:0:
320,192,83768,1,0,0:0:0:0:
192,192,83846,1,0,0:0:0:0:
64,192,83846,1,0,0:0:0:0:
448,192,83886,1,0,0:0:0:0:
320,192,83925,1,0,0:0:0:0:
192,192,83965,1,0,0:0:0:0:
64,192,84004,1,0,0:0:0:0:
448,192,84043,1,0,0:0:0:0:
320,192,84083,1,0,0:0:0:0:
192,192,84122,1,0,0:0:0:0:
64,192,84161,1,0,0:0:0:0:
448,192,84201,1,0,0:0:0:0:
320,192,84240,1,0,0:0:0:0:
192,192,84279,1,0,0:0:0:0:
64,192,84319,1,0,0:0:0:0:
448,192,84358,1,0,0:0:0:0:
320,192,84358,1,0,0:0:0:0:
192,192,84397,1,0,0:0:0:0:
64,192,84437,1,0,0:0:0:0:
448,192,84515,1,0,0:0:0:0:
320,192,84515,1,0,0:0:0:0:
192,192,84555,1,0,0:0:0:0:
64,192,84594,1,0,0:0:0:0:
448,192,84673,1,0,0:0:0:0:
320,192,84673,1,0,0:0:0:0:
192,192,84712,1,0,0:0:0:0:
64,192,84751,1,0,0:0:0:0:
320,192,84830,1,0,0:0:0:0:
448,192,84830,1,0,0:0:0:0:
192,192,84987,128,0,85145:0:0:0:0:
448,192,85145,1,0,0:0:0:0:
64,192,85145,1,0,0:0:0:0:
192,192,85302,128,0,85459:0:0:0:0:
320,192,85459,128,0,85774:0:0:0:0:
64,192,85459,1,0,0:0:0:0:
192,192,85617,128,0,85774:0:0:0:0:
64,192,85774,128,0,85931:0:0:0:0:
448,192,85774,1,0,0:0:0:0:
192,192,85931,128,0,86089:0:0:0:0:
448,192,85931,128,0,86246:0:0:0:0:
320,192,86089,1,0,0:0:0:0:
192,192,86246,128,0,86404:0:0:0:0:
320,192,86404,128,0,86718:0:0:0:0:
64,192,86404,1,0,0:0:0:0:
448,192,86404,1,0,0:0:0:0:
192,192,86561,128,0,86718:0:0:0:0:
64,192,86718,128,0,87033:0:0:0:0:
448,192,86718,1,0,0:0:0:0:
192,192,86876,128,0,87033:0:0:0:0:
448,192,87033,128,0,87190:0:0:0:0:
320,192,87033,1,0,0:0:0:0:
192,192,87190,128,0,87348:0:0:0:0:
320,192,87190,128,0,87505:0:0:0:0:
448,192,87348,1,0,0:0:0:0:
64,192,87505,128,0,87662:0:0:0:0:
192,192,87662,1,0,0:0:0:0:
320,192,87662,1,0,0:0:0:0:
64,192,87820,128,0,87977:0:0:0:0:
192,192,87977,128,0,88292:0:0:0:0:
448,192,87977,1,0,0:0:0:0:
64,192,88134,128,0,88292:0:0:0:0:
448,192,88292,128,0,88449:0:0:0:0:
320,192,88292,1,0,0:0:0:0:
64,192,88449,128,0,88607:0:0:0:0:
320,192,88449,128,0,88764:0:0:0:0:
192,192,88607,1,0,0:0:0:0:
64,192,88764,128,0,88921:0:0:0:0:
320,192,88921,128,0,89236:0:0:0:0:
448,192,88921,1,0,0:0:0:0:
192,192,88921,1,0,0:0:0:0:
64,192,89079,128,0,89236:0:0:0:0:
192,192,89236,128,0,89393:0:0:0:0:
448,192,89236,1,0,0:0:0:0:
64,192,89393,128,0,89551:0:0:0:0:
192,192,89551,128,0,89708:0:0:0:0:
320,192,89551,1,0,0:0:0:0:
448,192,89551,1,0,0:0:0:0:
64,192,89708,128,0,89865:0:0:0:0:
448,192,89708,128,0,90180:0:0:0:0:
192,192,89865,1,0,0:0:0:0:
320,192,90023,128,0,90180:0:0:0:0:
64,192,90180,1,0,0:0:0:0:
192,192,90180,1,0,0:0:0:0:
320,192,90337,128,0,90495:0:0:0:0:
64,192,90495,1,0,0:0:0:0:
320,192,90652,128,0,90810:0:0:0:0:
192,192,90810,128,0,90967:0:0:0:0:
448,192,90810,1,0,0:0:0:0:
64,192,90810,1,0,0:0:0:0:
320,192,90967,128,0,91124:0:0:0:0:
448,192,90967,128,0,91124:0:0:0:0:
64,192,91124,128,0,91439:0:0:0:0:
192,192,91124,1,0,0:0:0:0:
320,192,91282,128,0,91439:0:0:0:0:
448,192,91439,128,0,91596:0:0:0:0:
192,192,91439,1,0,0:0:0:0:
320,192,91596,128,0,91754:0:0:0:0:
192,192,91596,128,0,92068:0:0:0:0:
64,192,91754,1,0,0:0:0:0:
320,192,91911,128,0,92068:0:0:0:0:
64,192,92068,128,0,92383:0:0:0:0:
448,192,92068,1,0,0:0:0:0:
320,192,92226,128,0,92383:0:0:0:0:
448,192,92383,128,0,93327:0:0:0:0:
192,192,92383,1,0,0:0:0:0:
192,192,92540,128,0,92698:0:0:0:0:
320,192,92698,1,0,0:0:0:0:
64,192,92698,1,0,0:0:0:0:
192,192,92855,128,0,93013:0:0:0:0:
320,192,93013,1,0,0:0:0:0:
192,192,93170,128,0,93327:0:0:0:0:
320,192,93327,128,0,93485:0:0:0:0:
64,192,93327,1,0,0:0:0:0:
192,192,93485,128,0,93642:0:0:0:0:
64,192,93485,128,0,94114:0:0:0:0:
448,192,93642,1,0,0:0:0:0:
320,192,93799,128,0,93957:0:0:0:0:
448,192,93957,1,0,0:0:0:0:
192,192,93957,1,0,0:0:0:0:
320,192,94114,128,0,94271:0:0:0:0:
64,192,94271,128,0,94429:0:0:0:0:
192,192,94271,1,0,0:0:0:0:
448,192,94429,128,0,94586:0:0:0:0:
320,192,94429,128,0,94743:0:0:0:0:
192,192,94586,1,0,0:0:0:0:
64,192,94586,1,0,0:0:0:0:
448,192,94743,128,0,94901:0:0:0:0:
64,192,94743,1,0,0:0:0:0:
192,192,94743,1,0,0:0:0:0:
192,192,94901,1,0,0:0:0:0:
64,192,94901,1,0,0:0:0:0:
320,192,94901,1,0,0:0:0:0:
448,192,95058,128,0,95215:0:0:0:0:
64,192,95215,1,0,0:0:0:0:
192,192,95215,1,0,0:0:0:0:
448,192,95373,128,0,95530:0:0:0:0:
192,192,95530,128,0,95845:0:0:0:0:
320,192,95530,1,0,0:0:0:0:
448,192,95688,128,0,95845:0:0:0:0:
64,192,95845,128,0,96002:0:0:0:0:
320,192,95845,1,0,0:0:0:0:
448,192,96002,128,0,96160:0:0:0:0:
320,192,96002,128,0,96317:0:0:0:0:
192,192,96160,1,0,0:0:0:0:
448,192,96317,128,0,96474:0:0:0:0:
192,192,96474,128,0,96789:0:0:0:0:
64,192,96474,1,0,0:0:0:0:
320,192,96474,1,0,0:0:0:0:
448,192,96632,128,0,96789:0:0:0:0:
64,192,96789,128,0,97104:0:0:0:0:
320,192,96789,1,0,0:0:0:0:
448,192,96946,128,0,97104:0:0:0:0:
320,192,97104,128,0,97261:0:0:0:0:
192,192,97104,1,0,0:0:0:0:
448,192,97261,128,0,97418:0:0:0:0:
192,192,97261,128,0,97576:0:0:0:0:
320,192,97418,1,0,0:0:0:0:
64,192,97576,128,0,97733:0:0:0:0:
192,192,97733,1,0,0:0:0:0:
448,192,97733,1,0,0:0:0:0:
64,192,97891,128,0,98048:0:0:0:0:
320,192,98048,128,0,98363:0:0:0:0:
448,192,98048,1,0,0:0:0:0:
64,192,98205,128,0,98363:0:0:0:0:
192,192,98363,128,0,98520:0:0:0:0:
448,192,98363,1,0,0:0:0:0:
64,192,98520,128,0,98677:0:0:0:0:
448,192,98520,128,0,98835:0:0:0:0:
320,192,98677,1,0,0:0:0:0:
64,192,98835,128,0,98992:0:0:0:0:
320,192,98992,128,0,99307:0:0:0:0:
192,192,98992,1,0,0:0:0:0:
448,192,98992,1,0,0:0:0:0:
64,192,99149,128,0,99307:0:0:0:0:
192,192,99307,128,0,99621:0:0:0:0:
448,192,99307,1,0,0:0:0:0:
64,192,99464,128,0,99621:0:0:0:0:
448,192,99621,128,0,99779:0:0:0:0:
320,192,99621,1,0,0:0:0:0:
64,192,99779,128,0,99936:0:0:0:0:
320,192,99779,128,0,99936:0:0:0:0:
448,192,99936,1,0,0:0:0:0:
192,192,100015,1,0,0:0:0:0:
448,192,100094,1,0,0:0:0:0:
192,192,100172,1,0,0:0:0:0:
448,192,100251,1,0,0:0:0:0:
64,192,100251,1,0,0:0:0:0:
320,192,100330,1,0,0:0:0:0:
64,192,100408,1,0,0:0:0:0:
320,192,100487,1,0,0:0:0:0:
64,192,100566,1,0,0:0:0:0:
448,192,100566,1,0,0:0:0:0:
192,192,100644,1,0,0:0:0:0:
448,192,100723,1,0,0:0:0:0:
192,192,100802,1,0,0:0:0:0:
448,192,100880,1,0,0:0:0:0:
64,192,100880,1,0,0:0:0:0:
320,192,100959,1,0,0:0:0:0:
64,192,101038,1,0,0:0:0:0:
320,192,101116,1,0,0:0:0:0:
64,192,101195,1,0,0:0:0:0:
448,192,101195,1,0,0:0:0:0:
192,192,101274,1,0,0:0:0:0:
448,192,101352,1,0,0:0:0:0:
192,192,101431,1,0,0:0:0:0:
320,192,101510,1,0,0:0:0:0:
448,192,101510,1,0,0:0:0:0:
64,192,101588,1,0,0:0:0:0:
320,192,101667,1,0,0:0:0:0:
64,192,101746,1,0,0:0:0:0:
320,192,101824,1,0,0:0:0:0:
192,192,101824,1,0,0:0:0:0:
448,192,101903,1,0,0:0:0:0:
192,192,101982,1,0,0:0:0:0:
448,192,102061,1,0,0:0:0:0:
64,192,102139,1,0,0:0:0:0:
192,192,102139,1,0,0:0:0:0:
320,192,102218,1,0,0:0:0:0:
64,192,102297,1,0,0:0:0:0:
320,192,102375,1,0,0:0:0:0:
64,192,102454,1,0,0:0:0:0:
192,192,102454,1,0,0:0:0:0:
320,192,102533,1,0,0:0:0:0:
448,192,102572,1,0,0:0:0:0:
64,192,102611,1,0,0:0:0:0:
192,192,102651,1,0,0:0:0:0:
448,192,102729,1,0,0:0:0:0:
320,192,102729,1,0,0:0:0:0:
64,192,102769,1,0,0:0:0:0:
192,192,102808,1,0,0:0:0:0:
320,192,102847,1,0,0:0:0:0:
448,192,102887,1,0,0:0:0:0:
64,192,102926,1,0,0:0:0:0:
192,192,102965,1,0,0:0:0:0:
320,192,103005,1,0,0:0:0:0:
448,192,103044,1,0,0:0:0:0:
64,192,103083,1,0,0:0:0:0:
192,192,103083,1,0,0:0:0:0:
320,192,103162,1,0,0:0:0:0:
448,192,103201,1,0,0:0:0:0:
64,192,103241,1,0,0:0:0:0:
192,192,103280,1,0,0:0:0:0:
448,192,103359,1,0,0:0:0:0:
320,192,103359,1,0,0:0:0:0:
64,192,103398,1,0,0:0:0:0:
192,192,103437,1,0,0:0:0:0:
320,192,103477,1,0,0:0:0:0:
448,192,103516,1,0,0:0:0:0:
64,192,103555,1,0,0:0:0:0:
192,192,103595,1,0,0:0:0:0:
320,192,103634,1,0,0:0:0:0:
448,192,103673,1,0,0:0:0:0:
64,192,103713,1,0,0:0:0:0:
192,192,103713,1,0,0:0:0:0:
320,192,103791,1,0,0:0:0:0:
448,192,103831,1,0,0:0:0:0:
64,192,103870,1,0,0:0:0:0:
192,192,103909,1,0,0:0:0:0:
448,192,103988,1,0,0:0:0:0:
320,192,103988,1,0,0:0:0:0:
64,192,104027,1,0,0:0:0:0:
192,192,104067,1,0,0:0:0:0:
320,192,104106,1,0,0:0:0:0:
448,192,104145,1,0,0:0:0:0:
64,192,104185,1,0,0:0:0:0:
192,192,104224,1,0,0:0:0:0:
320,192,104263,1,0,0:0:0:0:
448,192,104303,1,0,0:0:0:0:
64,192,104342,1,0,0:0:0:0:
192,192,104382,1,0,0:0:0:0:
320,192,104421,1,0,0:0:0:0:
448,192,104460,1,0,0:0:0:0:
64,192,104500,1,0,0:0:0:0:
192,192,104500,1,0,0:0:0:0:
320,192,104539,1,0,0:0:0:0:
448,192,104578,1,0,0:0:0:0:
64,192,104657,1,0,0:0:0:0:
192,192,104657,1,0,0:0:0:0:
320,192,104696,1,0,0:0:0:0:
448,192,104736,1,0,0:0:0:0:
64,192,104814,1,0,0:0:0:0:
192,192,104814,1,0,0:0:0:0:
320,192,104854,1,0,0:0:0:0:
448,192,104893,1,0,0:0:0:0:
64,192,104972,128,0,107332:0:0:0:0:
192,192,104972,1,0,0:0:0:0:
192,192,105601,1,0,0:0:0:0:
192,192,106230,1,0,0:0:0:0:
320,192,106545,128,0,107175:0:0:0:0:
192,192,106860,1,0,0:0:0:0:
448,192,106860,128,0,107332:0:0:0:0:
192,192,107175,128,0,107489:0:0:0:0:
64,192,107489,1,0,0:0:0:0:
320,192,107489,1,0,0:0:0:0:
448,192,107489,1,0,0:0:0:0:
192,192,107568,1,0,0:0:0:0:
448,192,107647,1,0,0:0:0:0:
320,192,107725,1,0,0:0:0:0:
192,192,107804,1,0,0:0:0:0:
64,192,107804,1,0,0:0:0:0:
448,192,107883,1,0,0:0:0:0:
64,192,107961,1,0,0:0:0:0:
192,192,107961,1,0,0:0:0:0:
448,192,108040,1,0,0:0:0:0:
320,192,108119,1,0,0:0:0:0:
192,192,108119,1,0,0:0:0:0:
64,192,108197,1,0,0:0:0:0:
320,192,108276,1,0,0:0:0:0:
64,192,108355,1,0,0:0:0:0:
448,192,108433,1,0,0:0:0:0:
320,192,108433,1,0,0:0:0:0:
192,192,108512,1,0,0:0:0:0:
448,192,108591,1,0,0:0:0:0:
192,192,108669,1,0,0:0:0:0:
448,192,108748,1,0,0:0:0:0:
64,192,108748,1,0,0:0:0:0:
320,192,108827,1,0,0:0:0:0:
192,192,108906,1,0,0:0:0:0:
320,192,108984,1,0,0:0:0:0:
64,192,109063,1,0,0:0:0:0:
192,192,109063,1,0,0:0:0:0:
448,192,109142,1,0,0:0:0:0:
64,192,109220,1,0,0:0:0:0:
448,192,109299,1,0,0:0:0:0:
192,192,109378,1,0,0:0:0:0:
320,192,109378,1,0,0:0:0:0:
64,192,109456,1,0,0:0:0:0:
448,192,109535,1,0,0:0:0:0:
64,192,109614,1,0,0:0:0:0:
320,192,109692,1,0,0:0:0:0:
448,192,109692,1,0,0:0:0:0:
192,192,109771,1,0,0:0:0:0:
448,192,109850,1,0,0:0:0:0:
320,192,109928,1,0,0:0:0:0:
192,192,110007,1,0,0:0:0:0:
64,192,110007,1,0,0:0:0:0:
448,192,110086,1,0,0:0:0:0:
192,192,110164,1,0,0:0:0:0:
64,192,110164,1,0,0:0:0:0:
448,192,110243,1,0,0:0:0:0:
192,192,110322,1,0,0:0:0:0:
320,192,110322,1,0,0:0:0:0:
64,192,110400,1,0,0:0:0:0:
320,192,110479,1,0,0:0:0:0:
448,192,110479,1,0,0:0:0:0:
64,192,110558,1,0,0:0:0:0:
448,192,110636,1,0,0:0:0:0:
320,192,110636,1,0,0:0:0:0:
192,192,110715,1,0,0:0:0:0:
320,192,110794,1,0,0:0:0:0:
448,192,110872,1,0,0:0:0:0:
64,192,110951,1,0,0:0:0:0:
192,192,110951,1,0,0:0:0:0:
448,192,111030,1,0,0:0:0:0:
192,192,111108,1,0,0:0:0:0:
64,192,111108,1,0,0:0:0:0:
320,192,111187,1,0,0:0:0:0:
192,192,111266,1,0,0:0:0:0:
448,192,111266,1,0,0:0:0:0:
64,192,111345,1,0,0:0:0:0:
448,192,111423,1,0,0:0:0:0:
320,192,111423,1,0,0:0:0:0:
192,192,111502,1,0,0:0:0:0:
64,192,111581,1,0,0:0:0:0:
448,192,111581,1,0,0:0:0:0:
320,192,111659,1,0,0:0:0:0:
192,192,111738,1,0,0:0:0:0:
64,192,111738,1,0,0:0:0:0:
320,192,111817,1,0,0:0:0:0:
448,192,111895,1,0,0:0:0:0:
192,192,111895,1,0,0:0:0:0:
320,192,111974,1,0,0:0:0:0:
448,192,112053,1,0,0:0:0:0:
192,192,112131,1,0,0:0:0:0:
64,192,112210,1,0,0:0:0:0:
320,192,112210,1,0,0:0:0:0:
192,192,112289,1,0,0:0:0:0:
320,192,112367,1,0,0:0:0:0:
448,192,112367,1,0,0:0:0:0:
64,192,112446,1,0,0:0:0:0:
448,192,112525,1,0,0:0:0:0:
320,192,112525,1,0,0:0:0:0:
192,192,112603,1,0,0:0:0:0:
448,192,112682,1,0,0:0:0:0:
64,192,112761,1,0,0:0:0:0:
192,192,112839,1,0,0:0:0:0:
320,192,112839,1,0,0:0:0:0:
64,192,112918,1,0,0:0:0:0:
192,192,112997,1,0,0:0:0:0:
320,192,112997,1,0,0:0:0:0:
448,192,113075,1,0,0:0:0:0:
64,192,113154,1,0,0:0:0:0:
320,192,113154,1,0,0:0:0:0:
448,192,113233,1,0,0:0:0:0:
192,192,113311,1,0,0:0:0:0:
64,192,113390,1,0,0:0:0:0:
192,192,113469,1,0,0:0:0:0:
320,192,113469,1,0,0:0:0:0:
448,192,113548,1,0,0:0:0:0:
192,192,113626,1,0,0:0:0:0:
64,192,113626,1,0,0:0:0:0:
320,192,113705,1,0,0:0:0:0:
64,192,113784,1,0,0:0:0:0:
192,192,113784,1,0,0:0:0:0:
320,192,113862,1,0,0:0:0:0:
448,192,113941,1,0,0:0:0:0:
64,192,114020,1,0,0:0:0:0:
320,192,114098,1,0,0:0:0:0:
192,192,114098,1,0,0:0:0:0:
448,192,114177,1,0,0:0:0:0:
320,192,114256,1,0,0:0:0:0:
192,192,114256,1,0,0:0:0:0:
448,192,114334,1,0,0:0:0:0:
64,192,114413,1,0,0:0:0:0:
320,192,114413,1,0,0:0:0:0:
192,192,114492,1,0,0:0:0:0:
320,192,114570,1,0,0:0:0:0:
192,192,114649,1,0,0:0:0:0:
448,192,114728,1,0,0:0:0:0:
64,192,114728,1,0,0:0:0:0:
320,192,114806,1,0,0:0:0:0:
64,192,114885,1,0,0:0:0:0:
192,192,114964,1,0,0:0:0:0:
320,192,115042,1,0,0:0:0:0:
448,192,115042,1,0,0:0:0:0:
64,192,115121,1,0,0:0:0:0:
320,192,115200,1,0,0:0:0:0:
448,192,115200,1,0,0:0:0:0:
64,192,115278,1,0,0:0:0:0:
320,192,115357,1,0,0:0:0:0:
192,192,115357,1,0,0:0:0:0:
448,192,115436,1,0,0:0:0:0:
192,192,115514,1,0,0:0:0:0:
320,192,115514,1,0,0:0:0:0:
448,192,115593,1,0,0:0:0:0:
192,192,115672,1,0,0:0:0:0:
64,192,115672,1,0,0:0:0:0:
320,192,115751,1,0,0:0:0:0:
64,192,115829,1,0,0:0:0:0:
192,192,115829,1,0,0:0:0:0:
320,192,115908,1,0,0:0:0:0:
64,192,115987,1,0,0:0:0:0:
448,192,115987,1,0,0:0:0:0:
192,192,116065,1,0,0:0:0:0:
320,192,116144,1,0,0:0:0:0:
448,192,116144,1,0,0:0:0:0:
64,192,116223,1,0,0:0:0:0:
320,192,116301,1,0,0:0:0:0:
192,192,116301,1,0,0:0:0:0:
448,192,116380,1,0,0:0:0:0:
192,192,116459,1,0,0:0:0:0:
448,192,116537,1,0,0:0:0:0:
64,192,116616,1,0,0:0:0:0:
192,192,116616,1,0,0:0:0:0:
320,192,116695,1,0,0:0:0:0:
64,192,116773,1,0,0:0:0:0:
320,192,116852,1,0,0:0:0:0:
64,192,116931,1,0,0:0:0:0:
448,192,116931,1,0,0:0:0:0:
192,192,117009,1,0,0:0:0:0:
448,192,117088,1,0,0:0:0:0:
192,192,117167,1,0,0:0:0:0:
320,192,117245,1,0,0:0:0:0:
448,192,117245,1,0,0:0:0:0:
64,192,117324,1,0,0:0:0:0:
448,192,117403,1,0,0:0:0:0:
320,192,117403,1,0,0:0:0:0:
64,192,117481,1,0,0:0:0:0:
320,192,117560,1,0,0:0:0:0:
448,192,117560,1,0,0:0:0:0:
192,192,117560,1,0,0:0:0:0:
64,192,117639,1,0,0:0:0:0:
192,192,117717,1,0,0:0:0:0:
320,192,117796,1,0,0:0:0:0:
448,192,117875,1,0,0:0:0:0:
192,192,117875,1,0,0:0:0:0:
320,192,117953,1,0,0:0:0:0:
64,192,118032,1,0,0:0:0:0:
320,192,118111,1,0,0:0:0:0:
64,192,118190,1,0,0:0:0:0:
192,192,118190,1,0,0:0:0:0:
448,192,118268,1,0,0:0:0:0:
192,192,118347,1,0,0:0:0:0:
448,192,118426,1,0,0:0:0:0:
64,192,118504,1,0,0:0:0:0:
320,192,118504,1,0,0:0:0:0:
448,192,118583,1,0,0:0:0:0:
320,192,118662,1,0,0:0:0:0:
192,192,118662,1,0,0:0:0:0:
64,192,118740,1,0,0:0:0:0:
192,192,118819,1,0,0:0:0:0:
448,192,118819,1,0,0:0:0:0:
64,192,118898,1,0,0:0:0:0:
320,192,118976,1,0,0:0:0:0:
192,192,119055,1,0,0:0:0:0:
448,192,119134,1,0,0:0:0:0:
320,192,119134,1,0,0:0:0:0:
192,192,119212,1,0,0:0:0:0:
64,192,119291,1,0,0:0:0:0:
192,192,119370,1,0,0:0:0:0:
64,192,119448,1,0,0:0:0:0:
320,192,119448,1,0,0:0:0:0:
448,192,119527,1,0,0:0:0:0:
320,192,119606,1,0,0:0:0:0:
448,192,119684,1,0,0:0:0:0:
192,192,119763,1,0,0:0:0:0:
64,192,119763,1,0,0:0:0:0:
320,192,119842,1,0,0:0:0:0:
192,192,119920,1,0,0:0:0:0:
64,192,119920,1,0,0:0:0:0:
320,192,119999,1,0,0:0:0:0:
64,192,120078,1,0,0:0:0:0:
192,192,120078,1,0,0:0:0:0:
448,192,120156,1,0,0:0:0:0:
192,192,120235,1,0,0:0:0:0:
448,192,120314,1,0,0:0:0:0:
320,192,120393,1,0,0:0:0:0:
64,192,120393,1,0,0:0:0:0:
192,192,120471,1,0,0:0:0:0:
320,192,120550,1,0,0:0:0:0:
192,192,120629,1,0,0:0:0:0:
448,192,120707,1,0,0:0:0:0:
320,192,120707,1,0,0:0:0:0:
64,192,120786,1,0,0:0:0:0:
448,192,120865,1,0,0:0:0:0:
64,192,120943,1,0,0:0:0:0:
320,192,121022,1,0,0:0:0:0:
192,192,121022,1,0,0:0:0:0:
448,192,121101,1,0,0:0:0:0:
192,192,121179,1,0,0:0:0:0:
320,192,121179,1,0,0:0:0:0:
448,192,121258,1,0,0:0:0:0:
64,192,121337,1,0,0:0:0:0:
320,192,121337,1,0,0:0:0:0:
448,192,121415,1,0,0:0:0:0:
64,192,121494,1,0,0:0:0:0:
192,192,121494,1,0,0:0:0:0:
320,192,121573,1,0,0:0:0:0:
64,192,121651,1,0,0:0:0:0:
448,192,121651,1,0,0:0:0:0:
192,192,121730,1,0,0:0:0:0:
320,192,121809,1,0,0:0:0:0:
448,192,121809,1,0,0:0:0:0:
192,192,121887,1,0,0:0:0:0:
320,192,121966,1,0,0:0:0:0:
64,192,121966,1,0,0:0:0:0:
448,192,122045,1,0,0:0:0:0:
192,192,122123,1,0,0:0:0:0:
448,192,122202,1,0,0:0:0:0:
64,192,122281,1,0,0:0:0:0:
192,192,122281,1,0,0:0:0:0:
320,192,122359,1,0,0:0:0:0:
64,192,122438,1,0,0:0:0:0:
320,192,122517,1,0,0:0:0:0:
448,192,122596,1,0,0:0:0:0:
192,192,122596,1,0,0:0:0:0:
64,192,122674,1,0,0:0:0:0:
320,192,122753,1,0,0:0:0:0:
192,192,122832,1,0,0:0:0:0:
320,192,122910,1,0,0:0:0:0:
448,192,122910,1,0,0:0:0:0:
64,192,122989,1,0,0:0:0:0:
192,192,123068,1,0,0:0:0:0:
448,192,123146,1,0,0:0:0:0:
320,192,123225,1,0,0:0:0:0:
192,192,123225,1,0,0:0:0:0:
64,192,123304,1,0,0:0:0:0:
320,192,123382,1,0,0:0:0:0:
448,192,123461,1,0,0:0:0:0:
192,192,123540,1,0,0:0:0:0:
64,192,123540,1,0,0:0:0:0:
320,192,123618,1,0,0:0:0:0:
64,192,123697,1,0,0:0:0:0:
448,192,123776,1,0,0:0:0:0:
320,192,123854,1,0,0:0:0:0:
192,192,123854,1,0,0:0:0:0:
448,192,123933,1,0,0:0:0:0:
192,192,124012,1,0,0:0:0:0:
64,192,124090,1,0,0:0:0:0:
320,192,124169,1,0,0:0:0:0:
448,192,124169,1,0,0:0:0:0:
192,192,124248,1,0,0:0:0:0:
320,192,124326,1,0,0:0:0:0:
448,192,124326,1,0,0:0:0:0:
64,192,124405,1,0,0:0:0:0:
192,192,124484,1,0,0:0:0:0:
448,192,124484,1,0,0:0:0:0:
64,192,124562,1,0,0:0:0:0:
192,192,124641,1,0,0:0:0:0:
320,192,124720,1,0,0:0:0:0:
64,192,124799,1,0,0:0:0:0:
192,192,124799,1,0,0:0:0:0:
448,192,124877,1,0,0:0:0:0:
320,192,124956,1,0,0:0:0:0:
448,192,125035,1,0,0:0:0:0:
320,192,125113,1,0,0:0:0:0:
192,192,125113,1,0,0:0:0:0:
64,192,125192,1,0,0:0:0:0:
320,192,125271,1,0,0:0:0:0:
64,192,125349,1,0,0:0:0:0:
448,192,125428,1,0,0:0:0:0:
320,192,125428,1,0,0:0:0:0:
192,192,125507,1,0,0:0:0:0:
448,192,125585,1,0,0:0:0:0:
192,192,125664,1,0,0:0:0:0:
448,192,125743,1,0,0:0:0:0:
64,192,125743,1,0,0:0:0:0:
320,192,125821,1,0,0:0:0:0:
64,192,125900,1,0,0:0:0:0:
320,192,125979,1,0,0:0:0:0:
192,192,126057,1,0,0:0:0:0:
64,192,126057,1,0,0:0:0:0:
448,192,126136,1,0,0:0:0:0:
192,192,126215,1,0,0:0:0:0:
320,192,126293,1,0,0:0:0:0:
64,192,126372,1,0,0:0:0:0:
192,192,126372,1,0,0:0:0:0:
448,192,126372,1,0,0:0:0:0:
320,192,126687,1,0,0:0:0:0:
448,192,126687,1,0,0:0:0:0:
192,192,126687,128,0,126765:0:0:0:0:
192,192,127001,1,0,0:0:0:0:
320,192,127001,1,0,0:0:0:0:
64,192,127001,128,0,127080:0:0:0:0:
320,192,127159,1,0,0:0:0:0:
448,192,127159,1,0,0:0:0:0:
64,192,127198,1,0,0:0:0:0:
192,192,127238,1,0,0:0:0:0:
448,192,127316,1,0,0:0:0:0:
320,192,127316,1,0,0:0:0:0:
192,192,127356,1,0,0:0:0:0:
64,192,127395,1,0,0:0:0:0:
320,192,127474,1,0,0:0:0:0:
448,192,127474,1,0,0:0:0:0:
64,192,127513,1,0,0:0:0:0:
192,192,127552,1,0,0:0:0:0:
320,192,127631,1,0,0:0:0:0:
448,192,127631,1,0,0:0:0:0:
64,192,127631,1,0,0:0:0:0:
192,192,127710,1,0,0:0:0:0:
64,192,127788,1,0,0:0:0:0:
320,192,127788,1,0,0:0:0:0:
448,192,127867,1,0,0:0:0:0:
192,192,127946,1,0,0:0:0:0:
64,192,127946,1,0,0:0:0:0:
448,192,128024,1,0,0:0:0:0:
64,192,128103,1,0,0:0:0:0:
192,192,128103,1,0,0:0:0:0:
320,192,128182,1,0,0:0:0:0:
448,192,128260,1,0,0:0:0:0:
192,192,128260,1,0,0:0:0:0:
320,192,128339,1,0,0:0:0:0:
64,192,128418,1,0,0:0:0:0:
448,192,128418,1,0,0:0:0:0:
192,192,128496,1,0,0:0:0:0:
320,192,128575,1,0,0:0:0:0:
64,192,128575,1,0,0:0:0:0:
192,192,128654,1,0,0:0:0:0:
448,192,128732,1,0,0:0:0:0:
320,192,128732,1,0,0:0:0:0:
64,192,128811,1,0,0:0:0:0:
192,192,128890,1,0,0:0:0:0:
448,192,128890,1,0,0:0:0:0:
320,192,128968,1,0,0:0:0:0:
64,192,129047,1,0,0:0:0:0:
448,192,129047,1,0,0:0:0:0:
320,192,129126,1,0,0:0:0:0:
192,192,129204,1,0,0:0:0:0:
64,192,129204,1,0,0:0:0:0:
448,192,129283,1,0,0:0:0:0:
320,192,129362,1,0,0:0:0:0:
64,192,129362,1,0,0:0:0:0:
448,192,129441,1,0,0:0:0:0:
320,192,129519,1,0,0:0:0:0:
192,192,129519,1,0,0:0:0:0:
64,192,129598,1,0,0:0:0:0:
192,192,129677,1,0,0:0:0:0:
448,192,129677,1,0,0:0:0:0:
64,192,129755,1,0,0:0:0:0:
320,192,129834,1,0,0:0:0:0:
448,192,129834,1,0,0:0:0:0:
192,192,129913,1,0,0:0:0:0:
448,192,129991,1,0,0:0:0:0:
320,192,130070,1,0,0:0:0:0:
192,192,130149,1,0,0:0:0:0:
64,192,130149,1,0,0:0:0:0:
448,192,130227,1,0,0:0:0:0:
192,192,130306,1,0,0:0:0:0:
64,192,130306,1,0,0:0:0:0:
448,192,130385,1,0,0:0:0:0:
320,192,130463,1,0,0:0:0:0:
192,192,130463,1,0,0:0:0:0:
64,192,130542,1,0,0:0:0:0:
320,192,130621,1,0,0:0:0:0:
448,192,130621,1,0,0:0:0:0:
64,192,130699,1,0,0:0:0:0:
448,192,130778,1,0,0:0:0:0:
320,192,130778,1,0,0:0:0:0:
192,192,130857,1,0,0:0:0:0:
448,192,130935,1,0,0:0:0:0:
64,192,131014,1,0,0:0:0:0:
320,192,131093,1,0,0:0:0:0:
192,192,131093,1,0,0:0:0:0:
64,192,131171,1,0,0:0:0:0:
320,192,131250,1,0,0:0:0:0:
192,192,131250,1,0,0:0:0:0:
448,192,131329,1,0,0:0:0:0:
320,192,131407,1,0,0:0:0:0:
64,192,131407,1,0,0:0:0:0:
448,192,131486,1,0,0:0:0:0:
64,192,131565,1,0,0:0:0:0:
192,192,131565,1,0,0:0:0:0:
448,192,131644,1,0,0:0:0:0:
320,192,131722,1,0,0:0:0:0:
64,192,131722,1,0,0:0:0:0:
448,192,131801,1,0,0:0:0:0:
192,192,131880,1,0,0:0:0:0:
320,192,131880,1,0,0:0:0:0:
64,192,131958,1,0,0:0:0:0:
448,192,132037,1,0,0:0:0:0:
192,192,132037,1,0,0:0:0:0:
320,192,132116,1,0,0:0:0:0:
448,192,132194,1,0,0:0:0:0:
192,192,132194,1,0,0:0:0:0:
64,192,132273,1,0,0:0:0:0:
320,192,132352,1,0,0:0:0:0:
448,192,132352,1,0,0:0:0:0:
64,192,132430,1,0,0:0:0:0:
192,192,132509,1,0,0:0:0:0:
320,192,132509,1,0,0:0:0:0:
448,192,132588,1,0,0:0:0:0:
192,192,132666,1,0,0:0:0:0:
64,192,132666,1,0,0:0:0:0:
448,192,132745,1,0,0:0:0:0:
320,192,132824,1,0,0:0:0:0:
64,192,132824,1,0,0:0:0:0:
192,192,132902,1,0,0:0:0:0:
448,192,132981,1,0,0:0:0:0:
320,192,132981,1,0,0:0:0:0:
64,192,133060,1,0,0:0:0:0:
448,192,133138,1,0,0:0:0:0:
320,192,133138,1,0,0:0:0:0:
64,192,133217,1,0,0:0:0:0:
192,192,133296,1,0,0:0:0:0:
448,192,133296,1,0,0:0:0:0:
320,192,133374,1,0,0:0:0:0:
448,192,133453,1,0,0:0:0:0:
192,192,133453,1,0,0:0:0:0:
64,192,133532,1,0,0:0:0:0:
448,192,133610,1,0,0:0:0:0:
192,192,133610,1,0,0:0:0:0:
320,192,133689,1,0,0:0:0:0:
192,192,133768,1,0,0:0:0:0:
64,192,133768,1,0,0:0:0:0:
320,192,133846,1,0,0:0:0:0:
64,192,133925,1,0,0:0:0:0:
192,192,133925,1,0,0:0:0:0:
320,192,134004,1,0,0:0:0:0:
448,192,134083,1,0,0:0:0:0:
64,192,134083,1,0,0:0:0:0:
192,192,134161,1,0,0:0:0:0:
320,192,134240,1,0,0:0:0:0:
448,192,134240,1,0,0:0:0:0:
192,192,134319,1,0,0:0:0:0:
320,192,134397,1,0,0:0:0:0:
448,192,134397,1,0,0:0:0:0:
192,192,134476,1,0,0:0:0:0:
64,192,134555,1,0,0:0:0:0:
320,192,134555,1,0,0:0:0:0:
192,192,134633,1,0,0:0:0:0:
64,192,134712,1,0,0:0:0:0:
448,192,134712,1,0,0:0:0:0:
320,192,134791,1,0,0:0:0:0:
448,192,134869,1,0,0:0:0:0:
192,192,134869,1,0,0:0:0:0:
320,192,134948,1,0,0:0:0:0:
64,192,135027,1,0,0:0:0:0:
448,192,135027,1,0,0:0:0:0:
192,192,135105,1,0,0:0:0:0:
320,192,135184,1,0,0:0:0:0:
448,192,135184,1,0,0:0:0:0:
64,192,135263,1,0,0:0:0:0:
320,192,135341,1,0,0:0:0:0:
448,192,135341,1,0,0:0:0:0:
64,192,135420,1,0,0:0:0:0:
320,192,135499,1,0,0:0:0:0:
192,192,135499,1,0,0:0:0:0:
448,192,135577,1,0,0:0:0:0:
192,192,135656,1,0,0:0:0:0:
320,192,135656,1,0,0:0:0:0:
448,192,135735,1,0,0:0:0:0:
192,192,135813,1,0,0:0:0:0:
64,192,135813,1,0,0:0:0:0:
320,192,135892,1,0,0:0:0:0:
64,192,135971,1,0,0:0:0:0:
192,192,135971,1,0,0:0:0:0:
320,192,136049,1,0,0:0:0:0:
64,192,136128,1,0,0:0:0:0:
448,192,136128,1,0,0:0:0:0:
192,192,136207,1,0,0:0:0:0:
448,192,136286,1,0,0:0:0:0:
320,192,136286,1,0,0:0:0:0:
64,192,136364,1,0,0:0:0:0:
192,192,136443,1,0,0:0:0:0:
320,192,136443,1,0,0:0:0:0:
64,192,136522,1,0,0:0:0:0:
192,192,136600,1,0,0:0:0:0:
448,192,136600,1,0,0:0:0:0:
64,192,136679,1,0,0:0:0:0:
320,192,136758,1,0,0:0:0:0:
192,192,136758,1,0,0:0:0:0:
448,192,136836,1,0,0:0:0:0:
320,192,136915,1,0,0:0:0:0:
64,192,136915,1,0,0:0:0:0:
448,192,136994,1,0,0:0:0:0:
320,192,137072,1,0,0:0:0:0:
192,192,137072,1,0,0:0:0:0:
64,192,137151,1,0,0:0:0:0:
448,192,137230,1,0,0:0:0:0:
192,192,137230,1,0,0:0:0:0:
64,192,137308,1,0,0:0:0:0:
320,192,137387,1,0,0:0:0:0:
448,192,137387,1,0,0:0:0:0:
192,192,137466,1,0,0:0:0:0:
448,192,137544,1,0,0:0:0:0:
320,192,137544,1,0,0:0:0:0:
192,192,137623,1,0,0:0:0:0:
320,192,137702,1,0,0:0:0:0:
448,192,137702,1,0,0:0:0:0:
64,192,137702,1,0,0:0:0:0:
192,192,137780,1,0,0:0:0:0:
64,192,137859,1,0,0:0:0:0:
320,192,137859,1,0,0:0:0:0:
192,192,137938,1,0,0:0:0:0:
64,192,138016,1,0,0:0:0:0:
448,192,138016,1,0,0:0:0:0:
320,192,138095,1,0,0:0:0:0:
448,192,138174,1,0,0:0:0:0:
192,192,138174,1,0,0:0:0:0:
320,192,138252,1,0,0:0:0:0:
192,192,138331,1,0,0:0:0:0:
64,192,138331,1,0,0:0:0:0:
320,192,138410,1,0,0:0:0:0:
448,192,138489,1,0,0:0:0:0:
64,192,138489,1,0,0:0:0:0:
192,192,138567,1,0,0:0:0:0:
64,192,138646,1,0,0:0:0:0:
320,192,138646,1,0,0:0:0:0:
192,192,138725,1,0,0:0:0:0:
320,192,138803,1,0,0:0:0:0:
448,192,138803,1,0,0:0:0:0:
64,192,138882,1,0,0:0:0:0:
192,192,138961,1,0,0:0:0:0:
448,192,138961,1,0,0:0:0:0:
320,192,139039,1,0,0:0:0:0:
448,192,139118,1,0,0:0:0:0:
192,192,139118,1,0,0:0:0:0:
64,192,139197,1,0,0:0:0:0:
320,192,139275,1,0,0:0:0:0:
448,192,139275,1,0,0:0:0:0:
192,192,139354,1,0,0:0:0:0:
320,192,139433,1,0,0:0:0:0:
64,192,139433,1,0,0:0:0:0:
192,192,139511,1,0,0:0:0:0:
64,192,139590,1,0,0:0:0:0:
448,192,139590,1,0,0:0:0:0:
320,192,139669,1,0,0:0:0:0:
448,192,139747,1,0,0:0:0:0:
192,192,139747,1,0,0:0:0:0:
320,192,139826,1,0,0:0:0:0:
192,192,139905,1,0,0:0:0:0:
64,192,139905,1,0,0:0:0:0:
448,192,139983,1,0,0:0:0:0:
64,192,140062,1,0,0:0:0:0:
192,192,140062,1,0,0:0:0:0:
448,192,140141,1,0,0:0:0:0:
192,192,140219,1,0,0:0:0:0:
64,192,140219,1,0,0:0:0:0:
320,192,140298,1,0,0:0:0:0:
448,192,140377,1,0,0:0:0:0:
64,192,140377,1,0,0:0:0:0:
192,192,140455,1,0,0:0:0:0:
64,192,140534,1,0,0:0:0:0:
448,192,140534,1,0,0:0:0:0:
320,192,140613,1,0,0:0:0:0:
192,192,140691,1,0,0:0:0:0:
448,192,140691,1,0,0:0:0:0:
320,192,140770,1,0,0:0:0:0:
192,192,140849,1,0,0:0:0:0:
64,192,140849,1,0,0:0:0:0:
448,192,140928,1,0,0:0:0:0:
320,192,141006,1,0,0:0:0:0:
64,192,141006,1,0,0:0:0:0:
192,192,141085,1,0,0:0:0:0:
320,192,141164,1,0,0:0:0:0:
448,192,141164,1,0,0:0:0:0:
192,192,141242,1,0,0:0:0:0:
448,192,141321,1,0,0:0:0:0:
320,192,141321,1,0,0:0:0:0:
64,192,141400,1,0,0:0:0:0:
192,192,141478,1,0,0:0:0:0:
448,192,141478,1,0,0:0:0:0:
64,192,141557,1,0,0:0:0:0:
320,192,141636,1,0,0:0:0:0:
192,192,141636,1,0,0:0:0:0:
448,192,141714,1,0,0:0:0:0:
320,192,141793,1,0,0:0:0:0:
64,192,141793,1,0,0:0:0:0:
448,192,141872,1,0,0:0:0:0:
192,192,141950,1,0,0:0:0:0:
64,192,141950,1,0,0:0:0:0:
320,192,142029,1,0,0:0:0:0:
448,192,142108,1,0,0:0:0:0:
192,192,142108,1,0,0:0:0:0:
320,192,142186,1,0,0:0:0:0:
64,192,142265,1,0,0:0:0:0:
448,192,142265,1,0,0:0:0:0:
192,192,142344,1,0,0:0:0:0:
64,192,142422,1,0,0:0:0:0:
320,192,142422,1,0,0:0:0:0:
192,192,142501,1,0,0:0:0:0:
448,192,142580,1,0,0:0:0:0:
320,192,142580,1,0,0:0:0:0:
192,192,142658,1,0,0:0:0:0:
64,192,142658,1,0,0:0:0:0:
320,192,142737,1,0,0:0:0:0:
448,192,142737,1,0,0:0:0:0:
64,192,142816,1,0,0:0:0:0:
320,192,142894,1,0,0:0:0:0:
448,192,142894,1,0,0:0:0:0:
192,192,142973,1,0,0:0:0:0:
64,192,142973,1,0,0:0:0:0:
448,192,143052,1,0,0:0:0:0:
64,192,143131,1,0,0:0:0:0:
192,192,143131,1,0,0:0:0:0:
320,192,143209,1,0,0:0:0:0:
448,192,143209,1,0,0:0:0:0:
192,192,143288,1,0,0:0:0:0:
448,192,143367,1,0,0:0:0:0:
320,192,143367,1,0,0:0:0:0:
192,192,143445,1,0,0:0:0:0:
448,192,143524,1,0,0:0:0:0:
320,192,143524,1,0,0:0:0:0:
192,192,143603,1,0,0:0:0:0:
64,192,143603,1,0,0:0:0:0:
320,192,143681,1,0,0:0:0:0:
64,192,143760,1,0,0:0:0:0:
192,192,143760,1,0,0:0:0:0:
320,192,143839,1,0,0:0:0:0:
448,192,143839,1,0,0:0:0:0:
64,192,143917,1,0,0:0:0:0:
448,192,143996,1,0,0:0:0:0:
320,192,143996,1,0,0:0:0:0:
64,192,144075,1,0,0:0:0:0:
320,192,144153,1,0,0:0:0:0:
448,192,144153,1,0,0:0:0:0:
192,192,144232,1,0,0:0:0:0:
64,192,144232,1,0,0:0:0:0:
448,192,144311,1,0,0:0:0:0:
192,192,144389,1,0,0:0:0:0:
64,192,144389,1,0,0:0:0:0:
320,192,144468,1,0,0:0:0:0:
448,192,144468,1,0,0:0:0:0:
192,192,144547,1,0,0:0:0:0:
320,192,144625,1,0,0:0:0:0:
448,192,144625,1,0,0:0:0:0:
192,192,144704,1,0,0:0:0:0:
320,192,144783,1,0,0:0:0:0:
448,192,144783,1,0,0:0:0:0:
192,192,144861,1,0,0:0:0:0:
64,192,144861,1,0,0:0:0:0:
320,192,144940,1,0,0:0:0:0:
64,192,145019,1,0,0:0:0:0:
192,192,145019,1,0,0:0:0:0:
320,192,145097,1,0,0:0:0:0:
448,192,145097,1,0,0:0:0:0:
192,192,145176,1,0,0:0:0:0:
64,192,145255,1,0,0:0:0:0:
320,192,145255,1,0,0:0:0:0:
448,192,145334,1,0,0:0:0:0:
64,192,145412,1,0,0:0:0:0:
320,192,145412,1,0,0:0:0:0:
448,192,145491,1,0,0:0:0:0:
192,192,145491,1,0,0:0:0:0:
64,192,145570,1,0,0:0:0:0:
448,192,145648,1,0,0:0:0:0:
192,192,145648,1,0,0:0:0:0:
64,192,145727,1,0,0:0:0:0:
320,192,145727,1,0,0:0:0:0:
192,192,145806,1,0,0:0:0:0:
64,192,145884,1,0,0:0:0:0:
320,192,145884,1,0,0:0:0:0:
448,192,145963,1,0,0:0:0:0:
64,192,146042,1,0,0:0:0:0:
320,192,146042,1,0,0:0:0:0:
448,192,146120,1,0,0:0:0:0:
192,192,146120,1,0,0:0:0:0:
320,192,146199,1,0,0:0:0:0:
192,192,146278,1,0,0:0:0:0:
448,192,146278,1,0,0:0:0:0:
320,192,146356,1,0,0:0:0:0:
64,192,146356,1,0,0:0:0:0:
192,192,146435,1,0,0:0:0:0:
64,192,146514,1,0,0:0:0:0:
448,192,146514,1,0,0:0:0:0:
320,192,146592,1,0,0:0:0:0:
64,192,146671,1,0,0:0:0:0:
448,192,146671,1,0,0:0:0:0:
320,192,146750,1,0,0:0:0:0:
192,192,146750,1,0,0:0:0:0:
64,192,146828,1,0,0:0:0:0:
192,192,146907,1,0,0:0:0:0:
320,192,146907,1,0,0:0:0:0:
448,192,146986,1,0,0:0:0:0:
64,192,146986,1,0,0:0:0:0:
192,192,147064,1,0,0:0:0:0:
448,192,147143,1,0,0:0:0:0:
320,192,147143,1,0,0:0:0:0:
192,192,147222,1,0,0:0:0:0:
64,192,147222,1,0,0:0:0:0:
320,192,147300,1,0,0:0:0:0:
448,192,147300,1,0,0:0:0:0:
192,192,147379,1,0,0:0:0:0:
64,192,147379,1,0,0:0:0:0:
448,192,147458,1,0,0:0:0:0:
64,192,147537,1,0,0:0:0:0:
320,192,147537,1,0,0:0:0:0:
192,192,147615,1,0,0:0:0:0:
448,192,147615,1,0,0:0:0:0:
320,192,147694,1,0,0:0:0:0:
64,192,147773,1,0,0:0:0:0:
192,192,147773,1,0,0:0:0:0:
448,192,147773,1,0,0:0:0:0:
320,192,147851,1,0,0:0:0:0:
64,192,147930,1,0,0:0:0:0:
448,192,147930,1,0,0:0:0:0:
320,192,148009,1,0,0:0:0:0:
192,192,148087,1,0,0:0:0:0:
64,192,148087,1,0,0:0:0:0:
448,192,148166,1,0,0:0:0:0:
64,192,148245,1,0,0:0:0:0:
192,192,148245,1,0,0:0:0:0:
320,192,148323,1,0,0:0:0:0:
192,192,148402,1,0,0:0:0:0:
448,192,148402,1,0,0:0:0:0:
320,192,148481,1,0,0:0:0:0:
448,192,148559,1,0,0:0:0:0:
64,192,148559,1,0,0:0:0:0:
192,192,148638,1,0,0:0:0:0:
320,192,148717,1,0,0:0:0:0:
64,192,148717,1,0,0:0:0:0:
192,192,148795,1,0,0:0:0:0:
320,192,148874,1,0,0:0:0:0:
448,192,148874,1,0,0:0:0:0:
192,192,148953,1,0,0:0:0:0:
448,192,149031,1,0,0:0:0:0:
64,192,149031,1,0,0:0:0:0:
320,192,149110,1,0,0:0:0:0:
448,192,149189,1,0,0:0:0:0:
192,192,149189,1,0,0:0:0:0:
320,192,149267,1,0,0:0:0:0:
64,192,149346,1,0,0:0:0:0:
192,192,149346,1,0,0:0:0:0:
448,192,149425,1,0,0:0:0:0:
320,192,149503,1,0,0:0:0:0:
64,192,149503,1,0,0:0:0:0:
448,192,149582,1,0,0:0:0:0:
192,192,149661,1,0,0:0:0:0:
320,192,149661,1,0,0:0:0:0:
64,192,149739,1,0,0:0:0:0:
192,192,149818,1,0,0:0:0:0:
448,192,149818,1,0,0:0:0:0:
64,192,149897,1,0,0:0:0:0:
320,192,149976,1,0,0:0:0:0:
448,192,149976,1,0,0:0:0:0:
192,192,150054,1,0,0:0:0:0:
320,192,150133,1,0,0:0:0:0:
64,192,150133,1,0,0:0:0:0:
192,192,150212,1,0,0:0:0:0:
320,192,150290,1,0,0:0:0:0:
448,192,150290,1,0,0:0:0:0:
64,192,150369,1,0,0:0:0:0:
448,192,150448,1,0,0:0:0:0:
320,192,150448,1,0,0:0:0:0:
64,192,150526,1,0,0:0:0:0:
320,192,150605,1,0,0:0:0:0:
192,192,150605,1,0,0:0:0:0:
448,192,150684,1,0,0:0:0:0:
192,192,150762,1,0,0:0:0:0:
64,192,150762,1,0,0:0:0:0:
448,192,150841,1,0,0:0:0:0:
192,192,150920,1,0,0:0:0:0:
64,192,150920,1,0,0:0:0:0:
320,192,150998,1,0,0:0:0:0:
64,192,151077,1,0,0:0:0:0:
448,192,151077,1,0,0:0:0:0:
192,192,151156,1,0,0:0:0:0:
320,192,151234,1,0,0:0:0:0:
448,192,151234,1,0,0:0:0:0:
192,192,151313,1,0,0:0:0:0:
320,192,151392,1,0,0:0:0:0:
448,192,151392,1,0,0:0:0:0:
64,192,151470,1,0,0:0:0:0:
192,192,151549,1,0,0:0:0:0:
448,192,151549,1,0,0:0:0:0:
64,192,151628,1,0,0:0:0:0:
320,192,151706,1,0,0:0:0:0:
192,192,151706,1,0,0:0:0:0:
448,192,151785,1,0,0:0:0:0:
320,192,151864,1,0,0:0:0:0:
64,192,151864,1,0,0:0:0:0:
448,192,151942,1,0,0:0:0:0:
64,192,152021,1,0,0:0:0:0:
192,192,152021,1,0,0:0:0:0:
320,192,152100,1,0,0:0:0:0:
64,192,152179,1,0,0:0:0:0:
448,192,152179,1,0,0:0:0:0:
192,192,152257,1,0,0:0:0:0:
64,192,152336,1,0,0:0:0:0:
448,192,152336,1,0,0:0:0:0:
320,192,152415,1,0,0:0:0:0:
64,192,152493,1,0,0:0:0:0:
192,192,152493,1,0,0:0:0:0:
448,192,152572,1,0,0:0:0:0:
192,192,152651,1,0,0:0:0:0:
320,192,152651,1,0,0:0:0:0:
64,192,152729,1,0,0:0:0:0:
448,192,152808,1,0,0:0:0:0:
320,192,152808,1,0,0:0:0:0:
64,192,152887,1,0,0:0:0:0:
192,192,152965,1,0,0:0:0:0:
448,192,152965,1,0,0:0:0:0:
320,192,153044,1,0,0:0:0:0:
64,192,153123,1,0,0:0:0:0:
192,192,153123,1,0,0:0:0:0:
320,192,153201,1,0,0:0:0:0:
192,192,153280,1,0,0:0:0:0:
64,192,153280,1,0,0:0:0:0:
448,192,153359,1,0,0:0:0:0:
320,192,153437,1,0,0:0:0:0:
64,192,153437,1,0,0:0:0:0:
192,192,153516,1,0,0:0:0:0:
448,192,153595,1,0,0:0:0:0:
320,192,153595,1,0,0:0:0:0:
192,192,153673,1,0,0:0:0:0:
448,192,153752,1,0,0:0:0:0:
64,192,153752,1,0,0:0:0:0:
192,192,153831,1,0,0:0:0:0:
320,192,153909,1,0,0:0:0:0:
448,192,153909,1,0,0:0:0:0:
64,192,153988,1,0,0:0:0:0:
448,192,154067,1,0,0:0:0:0:
320,192,154067,1,0,0:0:0:0:
192,192,154145,1,0,0:0:0:0:
320,192,154224,1,0,0:0:0:0:
64,192,154224,1,0,0:0:0:0:
448,192,154303,1,0,0:0:0:0:
64,192,154382,1,0,0:0:0:0:
192,192,154382,1,0,0:0:0:0:
320,192,154460,1,0,0:0:0:0:
64,192,154539,1,0,0:0:0:0:
192,192,154539,1,0,0:0:0:0:
320,192,154618,1,0,0:0:0:0:
192,192,154696,1,0,0:0:0:0:
448,192,154696,1,0,0:0:0:0:
320,192,154775,1,0,0:0:0:0:
64,192,154854,1,0,0:0:0:0:
448,192,154854,1,0,0:0:0:0:
192,192,154932,1,0,0:0:0:0:
64,192,155011,1,0,0:0:0:0:
320,192,155011,1,0,0:0:0:0:
192,192,155090,1,0,0:0:0:0:
64,192,155168,1,0,0:0:0:0:
448,192,155168,1,0,0:0:0:0:
320,192,155247,1,0,0:0:0:0:
64,192,155326,1,0,0:0:0:0:
192,192,155326,1,0,0:0:0:0:
448,192,155404,1,0,0:0:0:0:
192,192,155483,1,0,0:0:0:0:
64,192,155483,1,0,0:0:0:0:
448,192,155562,1,0,0:0:0:0:
320,192,155640,1,0,0:0:0:0:
192,192,155640,1,0,0:0:0:0:
64,192,155719,1,0,0:0:0:0:
192,192,155798,1,0,0:0:0:0:
320,192,155798,1,0,0:0:0:0:
64,192,155876,1,0,0:0:0:0:
320,192,155955,1,0,0:0:0:0:
448,192,155955,1,0,0:0:0:0:
192,192,156034,1,0,0:0:0:0:
448,192,156112,1,0,0:0:0:0:
320,192,156112,1,0,0:0:0:0:
192,192,156191,1,0,0:0:0:0:
64,192,156270,1,0,0:0:0:0:
448,192,156270,1,0,0:0:0:0:
192,192,156348,1,0,0:0:0:0:
64,192,156427,1,0,0:0:0:0:
320,192,156427,1,0,0:0:0:0:
192,192,156506,1,0,0:0:0:0:
64,192,156584,1,0,0:0:0:0:
448,192,156584,1,0,0:0:0:0:
320,192,156663,1,0,0:0:0:0:
192,192,156742,1,0,0:0:0:0:
448,192,156742,1,0,0:0:0:0:
320,192,156821,1,0,0:0:0:0:
64,192,156899,1,0,0:0:0:0:
448,192,156899,1,0,0:0:0:0:
192,192,156978,1,0,0:0:0:0:
320,192,157057,1,0,0:0:0:0:
64,192,157057,1,0,0:0:0:0:
192,192,157135,1,0,0:0:0:0:
448,192,157214,1,0,0:0:0:0:
64,192,157214,1,0,0:0:0:0:
320,192,157293,1,0,0:0:0:0:
192,192,157371,1,0,0:0:0:0:
448,192,157371,1,0,0:0:0:0:
320,192,157450,1,0,0:0:0:0:
192,192,157529,1,0,0:0:0:0:
64,192,157529,1,0,0:0:0:0:
448,192,157607,1,0,0:0:0:0:
192,192,157686,1,0,0:0:0:0:
64,192,157686,1,0,0:0:0:0:
448,192,157765,1,0,0:0:0:0:
64,192,157843,1,0,0:0:0:0:
192,192,157843,1,0,0:0:0:0:
320,192,157843,1,0,0:0:0:0:
448,192,157922,1,0,0:0:0:0:
64,192,158001,1,0,0:0:0:0:
320,192,158001,1,0,0:0:0:0:
192,192,158079,1,0,0:0:0:0:
448,192,158158,1,0,0:0:0:0:
320,192,158158,1,0,0:0:0:0:
192,192,158237,1,0,0:0:0:0:
448,192,158315,1,0,0:0:0:0:
64,192,158315,1,0,0:0:0:0:
320,192,158394,1,0,0:0:0:0:
64,192,158473,1,0,0:0:0:0:
192,192,158473,1,0,0:0:0:0:
320,192,158551,1,0,0:0:0:0:
192,192,158630,1,0,0:0:0:0:
448,192,158630,1,0,0:0:0:0:
320,192,158709,1,0,0:0:0:0:
64,192,158787,1,0,0:0:0:0:
448,192,158787,1,0,0:0:0:0:
192,192,158866,1,0,0:0:0:0:
320,192,158945,1,0,0:0:0:0:
448,192,158945,1,0,0:0:0:0:
192,192,159024,1,0,0:0:0:0:
320,192,159102,1,0,0:0:0:0:
64,192,159102,1,0,0:0:0:0:
448,192,159181,1,0,0:0:0:0:
320,192,159260,1,0,0:0:0:0:
192,192,159260,1,0,0:0:0:0:
64,192,159338,1,0,0:0:0:0:
192,192,159417,1,0,0:0:0:0:
448,192,159417,1,0,0:0:0:0:
64,192,159496,1,0,0:0:0:0:
320,192,159574,1,0,0:0:0:0:
448,192,159574,1,0,0:0:0:0:
192,192,159653,1,0,0:0:0:0:
320,192,159732,1,0,0:0:0:0:
64,192,159732,1,0,0:0:0:0:
448,192,159810,1,0,0:0:0:0:
320,192,159889,1,0,0:0:0:0:
192,192,159889,1,0,0:0:0:0:
448,192,159968,1,0,0:0:0:0:
192,192,160046,1,0,0:0:0:0:
64,192,160046,1,0,0:0:0:0:
320,192,160125,1,0,0:0:0:0:
192,192,160204,1,0,0:0:0:0:
64,192,160204,1,0,0:0:0:0:
320,192,160282,1,0,0:0:0:0:
64,192,160361,1,0,0:0:0:0:
192,192,160361,1,0,0:0:0:0:
320,192,160440,1,0,0:0:0:0:
64,192,160518,1,0,0:0:0:0:
448,192,160518,1,0,0:0:0:0:
192,192,160597,1,0,0:0:0:0:
64,192,160676,1,0,0:0:0:0:
448,192,160676,1,0,0:0:0:0:
320,192,160754,1,0,0:0:0:0:
448,192,160833,1,0,0:0:0:0:
192,192,160833,1,0,0:0:0:0:
320,192,160912,1,0,0:0:0:0:
64,192,160990,1,0,0:0:0:0:
192,192,160990,1,0,0:0:0:0:
320,192,161069,1,0,0:0:0:0:
64,192,161148,1,0,0:0:0:0:
448,192,161148,1,0,0:0:0:0:
192,192,161227,1,0,0:0:0:0:
448,192,161305,1,0,0:0:0:0:
320,192,161305,1,0,0:0:0:0:
64,192,161384,1,0,0:0:0:0:
448,192,161463,1,0,0:0:0:0:
320,192,161463,1,0,0:0:0:0:
64,192,161541,1,0,0:0:0:0:
192,192,161620,1,0,0:0:0:0:
448,192,161620,1,0,0:0:0:0:
64,192,161699,1,0,0:0:0:0:
320,192,161777,1,0,0:0:0:0:
192,192,161777,1,0,0:0:0:0:
448,192,161856,1,0,0:0:0:0:
320,192,161935,1,0,0:0:0:0:
64,192,161935,1,0,0:0:0:0:
448,192,162013,1,0,0:0:0:0:
192,192,162092,1,0,0:0:0:0:
64,192,162092,1,0,0:0:0:0:
320,192,162171,1,0,0:0:0:0:
192,192,162249,1,0,0:0:0:0:
448,192,162249,1,0,0:0:0:0:
320,192,162328,1,0,0:0:0:0:
64,192,162407,1,0,0:0:0:0:
448,192,162407,1,0,0:0:0:0:
192,192,162485,1,0,0:0:0:0:
64,192,162564,1,0,0:0:0:0:
320,192,162564,1,0,0:0:0:0:
448,192,162643,1,0,0:0:0:0:
192,192,162721,1,0,0:0:0:0:
64,192,162721,1,0,0:0:0:0:
320,192,162800,1,0,0:0:0:0:
448,192,162800,1,0,0:0:0:0:
192,192,162879,1,0,0:0:0:0:
64,192,162879,1,0,0:0:0:0:
320,192,162957,1,0,0:0:0:0:
192,192,163036,1,0,0:0:0:0:
64,192,163036,1,0,0:0:0:0:
320,192,163115,1,0,0:0:0:0:
448,192,163115,1,0,0:0:0:0:
192,192,163193,1,0,0:0:0:0:
320,192,163272,1,0,0:0:0:0:
448,192,163272,1,0,0:0:0:0:
192,192,163351,1,0,0:0:0:0:
64,192,163351,1,0,0:0:0:0:
448,192,163429,1,0,0:0:0:0:
64,192,163508,1,0,0:0:0:0:
192,192,163508,1,0,0:0:0:0:
448,192,163587,1,0,0:0:0:0:
192,192,163666,1,0,0:0:0:0:
64,192,163666,1,0,0:0:0:0:
320,192,163744,1,0,0:0:0:0:
448,192,163744,1,0,0:0:0:0:
64,192,163823,1,0,0:0:0:0:
448,192,163902,1,0,0:0:0:0:
320,192,163902,1,0,0:0:0:0:
192,192,163980,1,0,0:0:0:0:
64,192,163980,1,0,0:0:0:0:
320,192,164059,1,0,0:0:0:0:
64,192,164138,1,0,0:0:0:0:
192,192,164138,1,0,0:0:0:0:
320,192,164216,1,0,0:0:0:0:
192,192,164295,1,0,0:0:0:0:
64,192,164295,1,0,0:0:0:0:
448,192,164374,1,0,0:0:0:0:
320,192,164374,1,0,0:0:0:0:
192,192,164452,1,0,0:0:0:0:
320,192,164531,1,0,0:0:0:0:
448,192,164531,1,0,0:0:0:0:
64,192,164610,1,0,0:0:0:0:
192,192,164610,1,0,0:0:0:0:
448,192,164688,1,0,0:0:0:0:
64,192,164767,1,0,0:0:0:0:
192,192,164767,1,0,0:0:0:0:
448,192,164846,1,0,0:0:0:0:
192,192,164924,1,0,0:0:0:0:
64,192,164924,1,0,0:0:0:0:
448,192,165003,1,0,0:0:0:0:
320,192,165003,1,0,0:0:0:0:
64,192,165082,1,0,0:0:0:0:
448,192,165160,1,0,0:0:0:0:
320,192,165160,1,0,0:0:0:0:
64,192,165239,1,0,0:0:0:0:
192,192,165239,1,0,0:0:0:0:
320,192,165318,1,0,0:0:0:0:
192,192,165396,1,0,0:0:0:0:
448,192,165396,1,0,0:0:0:0:
64,192,165475,1,0,0:0:0:0:
448,192,165554,1,0,0:0:0:0:
192,192,165554,1,0,0:0:0:0:
64,192,165632,1,0,0:0:0:0:
320,192,165632,1,0,0:0:0:0:
448,192,165711,1,0,0:0:0:0:
64,192,165790,1,0,0:0:0:0:
320,192,165790,1,0,0:0:0:0:
448,192,165869,1,0,0:0:0:0:
192,192,165869,1,0,0:0:0:0:
320,192,165947,1,0,0:0:0:0:
448,192,166026,1,0,0:0:0:0:
192,192,166026,1,0,0:0:0:0:
64,192,166105,1,0,0:0:0:0:
448,192,166183,1,0,0:0:0:0:
192,192,166183,1,0,0:0:0:0:
64,192,166262,1,0,0:0:0:0:
320,192,166262,1,0,0:0:0:0:
192,192,166341,1,0,0:0:0:0:
64,192,166419,1,0,0:0:0:0:
320,192,166419,1,0,0:0:0:0:
192,192,166498,1,0,0:0:0:0:
448,192,166498,1,0,0:0:0:0:
320,192,166577,1,0,0:0:0:0:
448,192,166655,1,0,0:0:0:0:
64,192,166655,1,0,0:0:0:0:
192,192,166734,1,0,0:0:0:0:
64,192,166813,1,0,0:0:0:0:
448,192,166813,1,0,0:0:0:0:
320,192,166891,1,0,0:0:0:0:
192,192,166891,1,0,0:0:0:0:
64,192,166970,1,0,0:0:0:0:
192,192,167049,1,0,0:0:0:0:
320,192,167049,1,0,0:0:0:0:
448,192,167127,1,0,0:0:0:0:
64,192,167127,1,0,0:0:0:0:
320,192,167206,1,0,0:0:0:0:
64,192,167285,1,0,0:0:0:0:
192,192,167285,1,0,0:0:0:0:
320,192,167363,1,0,0:0:0:0:
448,192,167363,1,0,0:0:0:0:
64,192,167442,1,0,0:0:0:0:
320,192,167521,1,0,0:0:0:0:
448,192,167521,1,0,0:0:0:0:
192,192,167599,1,0,0:0:0:0:
64,192,167678,1,0,0:0:0:0:
448,192,167678,1,0,0:0:0:0:
320,192,167757,1,0,0:0:0:0:
192,192,167757,1,0,0:0:0:0:
448,192,167835,1,0,0:0:0:0:
320,192,167914,1,0,0:0:0:0:
192,192,167914,1,0,0:0:0:0:
64,192,167914,1,0,0:0:0:0:
448,192,167993,1,0,0:0:0:0:
64,192,168072,1,0,0:0:0:0:
192,192,168072,1,0,0:0:0:0:
320,192,168150,1,0,0:0:0:0:
448,192,168150,1,0,0:0:0:0:
64,192,168229,1,0,0:0:0:0:
320,192,168308,1,0,0:0:0:0:
448,192,168308,1,0,0:0:0:0:
192,192,168386,1,0,0:0:0:0:
64,192,168386,1,0,0:0:0:0:
320,192,168465,1,0,0:0:0:0:
64,192,168544,1,0,0:0:0:0:
448,192,168544,1,0,0:0:0:0:
192,192,168622,1,0,0:0:0:0:
64,192,168701,1,0,0:0:0:0:
320,192,168701,1,0,0:0:0:0:
448,192,168780,1,0,0:0:0:0:
192,192,168780,1,0,0:0:0:0:
64,192,168858,1,0,0:0:0:0:
192,192,168937,1,0,0:0:0:0:
448,192,168937,1,0,0:0:0:0:
320,192,169016,1,0,0:0:0:0:
64,192,169016,1,0,0:0:0:0:
448,192,169094,1,0,0:0:0:0:
320,192,169173,1,0,0:0:0:0:
192,192,169173,1,0,0:0:0:0:
448,192,169252,1,0,0:0:0:0:
192,192,169330,1,0,0:0:0:0:
64,192,169330,1,0,0:0:0:0:
320,192,169409,1,0,0:0:0:0:
448,192,169409,1,0,0:0:0:0:
192,192,169488,1,0,0:0:0:0:
320,192,169566,1,0,0:0:0:0:
448,192,169566,1,0,0:0:0:0:
192,192,169645,1,0,0:0:0:0:
64,192,169645,1,0,0:0:0:0:
448,192,169724,1,0,0:0:0:0:
320,192,169802,1,0,0:0:0:0:
64,192,169802,1,0,0:0:0:0:
192,192,169881,1,0,0:0:0:0:
448,192,169960,1,0,0:0:0:0:
64,192,169960,1,0,0:0:0:0:
320,192,170038,1,0,0:0:0:0:
192,192,170038,1,0,0:0:0:0:
448,192,170117,1,0,0:0:0:0:
192,192,170196,1,0,0:0:0:0:
320,192,170196,1,0,0:0:0:0:
64,192,170275,1,0,0:0:0:0:
448,192,170275,1,0,0:0:0:0:
320,192,170353,1,0,0:0:0:0:
448,192,170432,1,0,0:0:0:0:
64,192,170432,1,0,0:0:0:0:
192,192,170511,1,0,0:0:0:0:
320,192,170589,1,0,0:0:0:0:
448,192,170589,1,0,0:0:0:0:
192,192,170668,1,0,0:0:0:0:
64,192,170668,1,0,0:0:0:0:
320,192,170747,1,0,0:0:0:0:
192,192,170825,1,0,0:0:0:0:
64,192,170825,1,0,0:0:0:0:
320,192,170904,1,0,0:0:0:0:
448,192,170904,1,0,0:0:0:0:
64,192,170983,1,0,0:0:0:0:
192,192,171061,1,0,0:0:0:0:
448,192,171061,1,0,0:0:0:0:
64,192,171140,1,0,0:0:0:0:
192,192,171219,1,0,0:0:0:0:
320,192,171219,1,0,0:0:0:0:
448,192,171297,1,0,0:0:0:0:
64,192,171297,1,0,0:0:0:0:
320,192,171376,1,0,0:0:0:0:
64,192,171455,1,0,0:0:0:0:
448,192,171455,1,0,0:0:0:0:
192,192,171533,1,0,0:0:0:0:
320,192,171533,1,0,0:0:0:0:
448,192,171612,1,0,0:0:0:0:
64,192,171691,1,0,0:0:0:0:
192,192,171691,1,0,0:0:0:0:
320,192,171769,1,0,0:0:0:0:
192,192,171848,1,0,0:0:0:0:
64,192,171848,1,0,0:0:0:0:
320,192,171927,1,0,0:0:0:0:
448,192,171927,1,0,0:0:0:0:
64,192,172005,1,0,0:0:0:0:
320,192,172084,1,0,0:0:0:0:
448,192,172084,1,0,0:0:0:0:
192,192,172163,1,0,0:0:0:0:
64,192,172163,1,0,0:0:0:0:
448,192,172241,1,0,0:0:0:0:
320,192,172320,1,0,0:0:0:0:
192,192,172320,1,0,0:0:0:0:
64,192,172399,1,0,0:0:0:0:
192,192,172477,1,0,0:0:0:0:
448,192,172477,1,0,0:0:0:0:
320,192,172556,1,0,0:0:0:0:
64,192,172556,1,0,0:0:0:0:
448,192,172635,1,0,0:0:0:0:
320,192,172714,1,0,0:0:0:0:
64,192,172714,1,0,0:0:0:0:
192,192,172792,1,0,0:0:0:0:
448,192,172792,1,0,0:0:0:0:
64,192,172871,1,0,0:0:0:0:
320,192,172950,1,0,0:0:0:0:
192,192,172950,1,0,0:0:0:0:
64,192,173028,1,0,0:0:0:0:
320,192,173107,1,0,0:0:0:0:
448,192,173107,1,0,0:0:0:0:
64,192,173186,1,0,0:0:0:0:
192,192,173186,1,0,0:0:0:0:
448,192,173264,1,0,0:0:0:0:
192,192,173343,1,0,0:0:0:0:
64,192,173343,1,0,0:0:0:0:
320,192,173422,1,0,0:0:0:0:
448,192,173422,1,0,0:0:0:0:
64,192,173500,1,0,0:0:0:0:
192,192,173579,1,0,0:0:0:0:
320,192,173579,1,0,0:0:0:0:
448,192,173658,1,0,0:0:0:0:
320,192,173736,1,0,0:0:0:0:
192,192,173736,1,0,0:0:0:0:
64,192,173815,1,0,0:0:0:0:
448,192,173815,1,0,0:0:0:0:
192,192,173894,1,0,0:0:0:0:
448,192,173972,1,0,0:0:0:0:
64,192,173972,1,0,0:0:0:0:
192,192,174051,1,0,0:0:0:0:
320,192,174051,1,0,0:0:0:0:
64,192,174130,1,0,0:0:0:0:
448,192,174208,1,0,0:0:0:0:
192,192,174208,1,0,0:0:0:0:
320,192,174287,1,0,0:0:0:0:
192,192,174366,1,0,0:0:0:0:
64,192,174366,1,0,0:0:0:0:
320,192,174444,1,0,0:0:0:0:
448,192,174444,1,0,0:0:0:0:
64,192,174523,1,0,0:0:0:0:
320,192,174602,1,0,0:0:0:0:
448,192,174602,1,0,0:0:0:0:
192,192,174680,1,0,0:0:0:0:
64,192,174680,1,0,0:0:0:0:
448,192,174759,1,0,0:0:0:0:
320,192,174838,1,0,0:0:0:0:
192,192,174838,1,0,0:0:0:0:
64,192,174917,1,0,0:0:0:0:
192,192,174995,1,0,0:0:0:0:
448,192,174995,1,0,0:0:0:0:
320,192,175074,1,0,0:0:0:0:
64,192,175074,1,0,0:0:0:0:
448,192,175153,1,0,0:0:0:0:
320,192,175231,1,0,0:0:0:0:
64,192,175231,1,0,0:0:0:0:
192,192,175310,1,0,0:0:0:0:
448,192,175310,1,0,0:0:0:0:
64,192,175389,1,0,0:0:0:0:
448,192,175467,1,0,0:0:0:0:
320,192,175467,1,0,0:0:0:0:
192,192,175467,1,0,0:0:0:0:
64,192,175546,1,0,0:0:0:0:
320,192,175625,1,0,0:0:0:0:
448,192,175625,1,0,0:0:0:0:
64,192,175703,1,0,0:0:0:0:
192,192,175703,1,0,0:0:0:0:
320,192,175782,1,0,0:0:0:0:
192,192,175861,1,0,0:0:0:0:
64,192,175861,1,0,0:0:0:0:
448,192,175939,1,0,0:0:0:0:
320,192,175939,1,0,0:0:0:0:
64,192,176018,1,0,0:0:0:0:
192,192,176097,1,0,0:0:0:0:
448,192,176097,1,0,0:0:0:0:
320,192,176175,1,0,0:0:0:0:
448,192,176254,1,0,0:0:0:0:
64,192,176254,1,0,0:0:0:0:
192,192,176333,1,0,0:0:0:0:
320,192,176333,1,0,0:0:0:0:
64,192,176411,1,0,0:0:0:0:
320,192,176490,1,0,0:0:0:0:
192,192,176490,1,0,0:0:0:0:
448,192,176569,1,0,0:0:0:0:
64,192,176569,1,0,0:0:0:0:
192,192,176647,1,0,0:0:0:0:
320,192,176726,1,0,0:0:0:0:
448,192,176726,1,0,0:0:0:0:
64,192,176805,1,0,0:0:0:0:
320,192,176883,1,0,0:0:0:0:
448,192,176883,1,0,0:0:0:0:
192,192,176962,1,0,0:0:0:0:
64,192,176962,1,0,0:0:0:0:
320,192,177041,1,0,0:0:0:0:
192,192,177120,1,0,0:0:0:0:
64,192,177120,1,0,0:0:0:0:
320,192,177198,1,0,0:0:0:0:
448,192,177198,1,0,0:0:0:0:
192,192,177277,1,0,0:0:0:0:
448,192,177356,1,0,0:0:0:0:
64,192,177356,1,0,0:0:0:0:
320,192,177434,1,0,0:0:0:0:
192,192,177513,1,0,0:0:0:0:
448,192,177513,1,0,0:0:0:0:
320,192,177592,1,0,0:0:0:0:
64,192,177670,1,0,0:0:0:0:
192,192,177670,1,0,0:0:0:0:
320,192,177749,1,0,0:0:0:0:
192,192,177828,1,0,0:0:0:0:
64,192,177828,1,0,0:0:0:0:
448,192,177828,1,0,0:0:0:0:
320,192,177906,1,0,0:0:0:0:
64,192,177985,1,0,0:0:0:0:
192,192,177985,1,0,0:0:0:0:
448,192,177985,1,0,0:0:0:0:
320,192,178064,1,0,0:0:0:0:
192,192,178142,1,0,0:0:0:0:
448,192,178142,1,0,0:0:0:0:
64,192,178221,1,0,0:0:0:0:
320,192,178221,1,0,0:0:0:0:
448,192,178300,1,0,0:0:0:0:
320,192,178378,1,0,0:0:0:0:
64,192,178378,1,0,0:0:0:0:
192,192,178457,1,0,0:0:0:0:
448,192,178457,1,0,0:0:0:0:
64,192,178536,1,0,0:0:0:0:
320,192,178614,1,0,0:0:0:0:
448,192,178614,1,0,0:0:0:0:
64,192,178693,1,0,0:0:0:0:
192,192,178772,1,0,0:0:0:0:
320,192,178772,1,0,0:0:0:0:
448,192,178850,1,0,0:0:0:0:
64,192,178850,1,0,0:0:0:0:
192,192,178929,1,0,0:0:0:0:
64,192,179008,1,0,0:0:0:0:
448,192,179008,1,0,0:0:0:0:
192,192,179086,1,0,0:0:0:0:
320,192,179086,1,0,0:0:0:0:
448,192,179165,1,0,0:0:0:0:
320,192,179244,1,0,0:0:0:0:
192,192,179244,1,0,0:0:0:0:
448,192,179322,1,0,0:0:0:0:
320,192,179401,1,0,0:0:0:0:
64,192,179401,1,0,0:0:0:0:
192,192,179480,1,0,0:0:0:0:
448,192,179480,1,0,0:0:0:0:
64,192,179559,1,0,0:0:0:0:
192,192,179637,1,0,0:0:0:0:
448,192,179637,1,0,0:0:0:0:
320,192,179716,1,0,0:0:0:0:
64,192,179716,1,0,0:0:0:0:
192,192,179795,1,0,0:0:0:0:
448,192,179873,1,0,0:0:0:0:
64,192,179873,1,0,0:0:0:0:
320,192,179952,1,0,0:0:0:0:
192,192,179952,1,0,0:0:0:0:
448,192,180031,1,0,0:0:0:0:
192,192,180109,1,0,0:0:0:0:
320,192,180109,1,0,0:0:0:0:
64,192,180188,1,0,0:0:0:0:
448,192,180188,1,0,0:0:0:0:
192,192,180267,1,0,0:0:0:0:
320,192,180345,1,0,0:0:0:0:
64,192,180345,1,0,0:0:0:0:
192,192,180424,1,0,0:0:0:0:
64,192,180503,1,0,0:0:0:0:
320,192,180503,1,0,0:0:0:0:
448,192,180503,1,0,0:0:0:0:
192,192,180660,1,0,0:0:0:0:
320,192,180817,1,0,0:0:0:0:
448,192,180817,1,0,0:0:0:0:
192,192,180975,1,0,0:0:0:0:
192,192,181289,1,0,0:0:0:0:
320,192,181447,1,0,0:0:0:0:
448,192,181447,1,0,0:0:0:0:
192,192,181604,1,0,0:0:0:0:
320,192,181762,1,0,0:0:0:0:
448,192,181762,1,0,0:0:0:0:
192,192,181840,1,0,0:0:0:0:
64,192,181840,1,0,0:0:0:0:
192,192,181998,1,0,0:0:0:0:
64,192,181998,1,0,0:0:0:0:
320,192,182076,1,0,0:0:0:0:
448,192,182076,1,0,0:0:0:0:
448,192,182234,1,0,0:0:0:0:
320,192,182234,1,0,0:0:0:0:
192,192,182312,1,0,0:0:0:0:
64,192,182312,1,0,0:0:0:0:
192,192,182470,1,0,0:0:0:0:
64,192,182470,1,0,0:0:0:0:
320,192,182548,1,0,0:0:0:0:
448,192,182548,1,0,0:0:0:0:
64,192,182706,1,0,0:0:0:0:
192,192,182745,1,0,0:0:0:0:
320,192,182784,1,0,0:0:0:0:
448,192,182824,1,0,0:0:0:0:
64,192,182863,1,0,0:0:0:0:
192,192,182902,1,0,0:0:0:0:
320,192,182942,1,0,0:0:0:0:
448,192,182981,1,0,0:0:0:0:
64,192,183020,1,0,0:0:0:0:
192,192,183020,1,0,0:0:0:0:
320,192,183099,1,0,0:0:0:0:
448,192,183178,1,0,0:0:0:0:
192,192,183178,1,0,0:0:0:0:
320,192,183256,1,0,0:0:0:0:
448,192,183335,1,0,0:0:0:0:
64,192,183335,1,0,0:0:0:0:
192,192,183414,1,0,0:0:0:0:
64,192,183492,1,0,0:0:0:0:
448,192,183492,1,0,0:0:0:0:
192,192,183571,1,0,0:0:0:0:
64,192,183650,1,0,0:0:0:0:
320,192,183650,1,0,0:0:0:0:
448,192,183728,1,0,0:0:0:0:
320,192,183807,1,0,0:0:0:0:
192,192,183807,1,0,0:0:0:0:
64,192,183886,1,0,0:0:0:0:
192,192,183965,1,0,0:0:0:0:
320,192,183965,1,0,0:0:0:0:
448,192,183965,1,0,0:0:0:0:
64,192,184043,1,0,0:0:0:0:
320,192,184122,1,0,0:0:0:0:
192,192,184122,1,0,0:0:0:0:
448,192,184122,1,0,0:0:0:0:
64,192,184201,1,0,0:0:0:0:
448,192,184279,1,0,0:0:0:0:
320,192,184279,1,0,0:0:0:0:
192,192,184279,1,0,0:0:0:0:
64,192,184358,1,0,0:0:0:0:
448,192,184437,1,0,0:0:0:0:
192,192,184437,1,0,0:0:0:0:
320,192,184515,1,0,0:0:0:0:
64,192,184594,1,0,0:0:0:0:
192,192,184594,1,0,0:0:0:0:
448,192,184594,1,0,0:0:0:0:
320,192,184673,1,0,0:0:0:0:
64,192,184751,1,0,0:0:0:0:
448,192,184751,1,0,0:0:0:0:
192,192,184830,1,0,0:0:0:0:
64,192,184909,1,0,0:0:0:0:
320,192,184909,1,0,0:0:0:0:
448,192,184909,1,0,0:0:0:0:
192,192,184987,1,0,0:0:0:0:
320,192,185066,1,0,0:0:0:0:
64,192,185066,1,0,0:0:0:0:
448,192,185145,1,0,0:0:0:0:
320,192,185223,1,0,0:0:0:0:
192,192,185223,1,0,0:0:0:0:
64,192,185223,1,0,0:0:0:0:
448,192,185302,1,0,0:0:0:0:
192,192,185381,1,0,0:0:0:0:
320,192,185381,1,0,0:0:0:0:
64,192,185459,1,0,0:0:0:0:
192,192,185538,1,0,0:0:0:0:
320,192,185538,1,0,0:0:0:0:
448,192,185538,1,0,0:0:0:0:
64,192,185617,1,0,0:0:0:0:
192,192,185695,1,0,0:0:0:0:
448,192,185695,1,0,0:0:0:0:
320,192,185774,1,0,0:0:0:0:
64,192,185853,1,0,0:0:0:0:
192,192,185853,1,0,0:0:0:0:
320,192,185931,1,0,0:0:0:0:
64,192,186010,1,0,0:0:0:0:
448,192,186010,1,0,0:0:0:0:
192,192,186089,1,0,0:0:0:0:
448,192,186167,1,0,0:0:0:0:
320,192,186167,1,0,0:0:0:0:
192,192,186246,1,0,0:0:0:0:
64,192,186325,1,0,0:0:0:0:
320,192,186325,1,0,0:0:0:0:
192,192,186404,1,0,0:0:0:0:
448,192,186482,1,0,0:0:0:0:
320,192,186482,1,0,0:0:0:0:
64,192,186482,1,0,0:0:0:0:
192,192,186561,1,0,0:0:0:0:
320,192,186640,1,0,0:0:0:0:
64,192,186640,1,0,0:0:0:0:
448,192,186640,1,0,0:0:0:0:
192,192,186718,1,0,0:0:0:0:
320,192,186797,1,0,0:0:0:0:
64,192,186797,1,0,0:0:0:0:
448,192,186797,1,0,0:0:0:0:
192,192,186876,1,0,0:0:0:0:
64,192,186954,1,0,0:0:0:0:
448,192,186954,1,0,0:0:0:0:
320,192,187033,1,0,0:0:0:0:
64,192,187112,1,0,0:0:0:0:
192,192,187112,1,0,0:0:0:0:
448,192,187112,1,0,0:0:0:0:
320,192,187190,1,0,0:0:0:0:
192,192,187269,1,0,0:0:0:0:
448,192,187269,1,0,0:0:0:0:
64,192,187348,1,0,0:0:0:0:
192,192,187426,1,0,0:0:0:0:
320,192,187426,1,0,0:0:0:0:
448,192,187426,1,0,0:0:0:0:
64,192,187505,1,0,0:0:0:0:
320,192,187584,1,0,0:0:0:0:
192,192,187584,1,0,0:0:0:0:
448,192,187662,1,0,0:0:0:0:
192,192,187741,1,0,0:0:0:0:
320,192,187741,1,0,0:0:0:0:
64,192,187741,1,0,0:0:0:0:
448,192,187820,1,0,0:0:0:0:
192,192,187898,1,0,0:0:0:0:
320,192,187898,1,0,0:0:0:0:
64,192,187977,1,0,0:0:0:0:
320,192,188056,1,0,0:0:0:0:
192,192,188056,1,0,0:0:0:0:
448,192,188056,1,0,0:0:0:0:
64,192,188134,1,0,0:0:0:0:
448,192,188213,1,0,0:0:0:0:
320,192,188213,1,0,0:0:0:0:
192,192,188292,1,0,0:0:0:0:
64,192,188370,1,0,0:0:0:0:
448,192,188370,1,0,0:0:0:0:
192,192,188449,1,0,0:0:0:0:
64,192,188528,1,0,0:0:0:0:
320,192,188528,1,0,0:0:0:0:
192,192,188607,1,0,0:0:0:0:
448,192,188685,1,0,0:0:0:0:
320,192,188685,1,0,0:0:0:0:
64,192,188764,1,0,0:0:0:0:
448,192,188843,1,0,0:0:0:0:
192,192,188843,1,0,0:0:0:0:
320,192,188921,1,0,0:0:0:0:
448,192,189000,1,0,0:0:0:0:
64,192,189000,1,0,0:0:0:0:
192,192,189000,1,0,0:0:0:0:
320,192,189079,1,0,0:0:0:0:
192,192,189157,1,0,0:0:0:0:
64,192,189157,1,0,0:0:0:0:
448,192,189157,1,0,0:0:0:0:
320,192,189236,1,0,0:0:0:0:
192,192,189315,1,0,0:0:0:0:
64,192,189315,1,0,0:0:0:0:
448,192,189315,1,0,0:0:0:0:
320,192,189393,1,0,0:0:0:0:
64,192,189472,1,0,0:0:0:0:
192,192,189472,1,0,0:0:0:0:
448,192,189551,1,0,0:0:0:0:
64,192,189629,1,0,0:0:0:0:
320,192,189629,1,0,0:0:0:0:
192,192,189629,1,0,0:0:0:0:
448,192,189708,1,0,0:0:0:0:
64,192,189787,1,0,0:0:0:0:
320,192,189787,1,0,0:0:0:0:
192,192,189865,1,0,0:0:0:0:
448,192,189944,1,0,0:0:0:0:
320,192,189944,1,0,0:0:0:0:
64,192,189944,1,0,0:0:0:0:
192,192,190023,1,0,0:0:0:0:
320,192,190101,1,0,0:0:0:0:
448,192,190101,1,0,0:0:0:0:
64,192,190180,1,0,0:0:0:0:
192,192,190259,1,0,0:0:0:0:
320,192,190259,1,0,0:0:0:0:
448,192,190259,1,0,0:0:0:0:
64,192,190337,1,0,0:0:0:0:
192,192,190416,1,0,0:0:0:0:
448,192,190416,1,0,0:0:0:0:
320,192,190495,1,0,0:0:0:0:
192,192,190573,1,0,0:0:0:0:
64,192,190573,1,0,0:0:0:0:
448,192,190573,1,0,0:0:0:0:
320,192,190652,1,0,0:0:0:0:
192,192,190731,1,0,0:0:0:0:
64,192,190731,1,0,0:0:0:0:
320,192,190810,1,0,0:0:0:0:
448,192,190810,1,0,0:0:0:0:
64,192,190888,1,0,0:0:0:0:
320,192,190967,1,0,0:0:0:0:
448,192,190967,1,0,0:0:0:0:
192,192,191046,1,0,0:0:0:0:
64,192,191046,1,0,0:0:0:0:
448,192,191124,1,0,0:0:0:0:
320,192,191203,1,0,0:0:0:0:
192,192,191203,1,0,0:0:0:0:
64,192,191282,1,0,0:0:0:0:
320,192,191360,1,0,0:0:0:0:
448,192,191360,1,0,0:0:0:0:
192,192,191439,1,0,0:0:0:0:
64,192,191439,1,0,0:0:0:0:
448,192,191518,1,0,0:0:0:0:
192,192,191596,1,0,0:0:0:0:
64,192,191596,1,0,0:0:0:0:
320,192,191675,1,0,0:0:0:0:
448,192,191675,1,0,0:0:0:0:
192,192,191754,1,0,0:0:0:0:
64,192,191832,1,0,0:0:0:0:
320,192,191832,1,0,0:0:0:0:
192,192,191911,1,0,0:0:0:0:
320,192,191990,1,0,0:0:0:0:
448,192,191990,1,0,0:0:0:0:
64,192,192068,1,0,0:0:0:0:
192,192,192068,1,0,0:0:0:0:
448,192,192147,1,0,0:0:0:0:
192,192,192226,1,0,0:0:0:0:
64,192,192226,1,0,0:0:0:0:
320,192,192304,1,0,0:0:0:0:
448,192,192304,1,0,0:0:0:0:
64,192,192383,1,0,0:0:0:0:
192,192,192462,1,0,0:0:0:0:
320,192,192462,1,0,0:0:0:0:
448,192,192540,1,0,0:0:0:0:
64,192,192540,1,0,0:0:0:0:
192,192,192619,1,0,0:0:0:0:
64,192,192698,1,0,0:0:0:0:
320,192,192698,1,0,0:0:0:0:
448,192,192776,1,0,0:0:0:0:
192,192,192776,1,0,0:0:0:0:
320,192,192855,1,0,0:0:0:0:
192,192,192934,1,0,0:0:0:0:
64,192,192934,1,0,0:0:0:0:
320,192,193013,1,0,0:0:0:0:
192,192,193091,1,0,0:0:0:0:
64,192,193091,1,0,0:0:0:0:
448,192,193091,1,0,0:0:0:0:
320,192,193170,1,0,0:0:0:0:
192,192,193249,1,0,0:0:0:0:
64,192,193249,1,0,0:0:0:0:
448,192,193327,1,0,0:0:0:0:
320,192,193327,1,0,0:0:0:0:
192,192,193406,1,0,0:0:0:0:
320,192,193485,1,0,0:0:0:0:
448,192,193485,1,0,0:0:0:0:
192,192,193563,1,0,0:0:0:0:
64,192,193563,1,0,0:0:0:0:
448,192,193642,1,0,0:0:0:0:
320,192,193721,1,0,0:0:0:0:
64,192,193721,1,0,0:0:0:0:
448,192,193799,1,0,0:0:0:0:
64,192,193878,1,0,0:0:0:0:
320,192,193878,1,0,0:0:0:0:
192,192,193957,1,0,0:0:0:0:
448,192,193957,1,0,0:0:0:0:
64,192,194035,1,0,0:0:0:0:
192,192,194114,1,0,0:0:0:0:
448,192,194114,1,0,0:0:0:0:
64,192,194193,1,0,0:0:0:0:
320,192,194193,1,0,0:0:0:0:
192,192,194271,1,0,0:0:0:0:
448,192,194350,1,0,0:0:0:0:
320,192,194350,1,0,0:0:0:0:
192,192,194429,1,0,0:0:0:0:
320,192,194507,1,0,0:0:0:0:
448,192,194507,1,0,0:0:0:0:
192,192,194586,1,0,0:0:0:0:
64,192,194586,1,0,0:0:0:0:
448,192,194665,1,0,0:0:0:0:
64,192,194743,1,0,0:0:0:0:
192,192,194743,1,0,0:0:0:0:
320,192,194822,1,0,0:0:0:0:
448,192,194822,1,0,0:0:0:0:
64,192,194901,1,0,0:0:0:0:
192,192,194979,1,0,0:0:0:0:
320,192,194979,1,0,0:0:0:0:
448,192,195058,1,0,0:0:0:0:
192,192,195137,1,0,0:0:0:0:
320,192,195137,1,0,0:0:0:0:
448,192,195215,1,0,0:0:0:0:
64,192,195215,1,0,0:0:0:0:
320,192,195294,1,0,0:0:0:0:
448,192,195373,1,0,0:0:0:0:
64,192,195373,1,0,0:0:0:0:
192,192,195452,1,0,0:0:0:0:
320,192,195452,1,0,0:0:0:0:
64,192,195530,1,0,0:0:0:0:
448,192,195609,1,0,0:0:0:0:
192,192,195609,1,0,0:0:0:0:
320,192,195688,1,0,0:0:0:0:
192,192,195766,1,0,0:0:0:0:
64,192,195766,1,0,0:0:0:0:
320,192,195845,1,0,0:0:0:0:
448,192,195845,1,0,0:0:0:0:
192,192,195924,1,0,0:0:0:0:
320,192,196002,1,0,0:0:0:0:
448,192,196002,1,0,0:0:0:0:
192,192,196081,1,0,0:0:0:0:
64,192,196081,1,0,0:0:0:0:
448,192,196160,1,0,0:0:0:0:
64,192,196238,1,0,0:0:0:0:
320,192,196238,1,0,0:0:0:0:
192,192,196317,1,0,0:0:0:0:
320,192,196396,1,0,0:0:0:0:
64,192,196396,1,0,0:0:0:0:
192,192,196474,1,0,0:0:0:0:
448,192,196474,1,0,0:0:0:0:
64,192,196553,1,0,0:0:0:0:
192,192,196632,1,0,0:0:0:0:
448,192,196632,1,0,0:0:0:0:
320,192,196710,1,0,0:0:0:0:
64,192,196710,1,0,0:0:0:0:
448,192,196789,1,0,0:0:0:0:
192,192,196868,1,0,0:0:0:0:
320,192,196868,1,0,0:0:0:0:
64,192,196946,1,0,0:0:0:0:
320,192,197025,1,0,0:0:0:0:
448,192,197025,1,0,0:0:0:0:
192,192,197104,1,0,0:0:0:0:
64,192,197104,1,0,0:0:0:0:
448,192,197182,1,0,0:0:0:0:
192,192,197261,1,0,0:0:0:0:
64,192,197261,1,0,0:0:0:0:
320,192,197340,1,0,0:0:0:0:
448,192,197340,1,0,0:0:0:0:
64,192,197418,1,0,0:0:0:0:
320,192,197497,1,0,0:0:0:0:
192,192,197497,1,0,0:0:0:0:
448,192,197576,1,0,0:0:0:0:
64,192,197576,1,0,0:0:0:0:
192,192,197655,1,0,0:0:0:0:
320,192,197733,1,0,0:0:0:0:
64,192,197733,1,0,0:0:0:0:
192,192,197812,1,0,0:0:0:0:
448,192,197812,1,0,0:0:0:0:
320,192,197891,1,0,0:0:0:0:
192,192,197969,1,0,0:0:0:0:
64,192,197969,1,0,0:0:0:0:
448,192,198048,1,0,0:0:0:0:
320,192,198048,1,0,0:0:0:0:
192,192,198127,1,0,0:0:0:0:
64,192,198127,1,0,0:0:0:0:
320,192,198205,1,0,0:0:0:0:
64,192,198284,1,0,0:0:0:0:
192,192,198284,1,0,0:0:0:0:
320,192,198363,1,0,0:0:0:0:
448,192,198363,1,0,0:0:0:0:
64,192,198441,1,0,0:0:0:0:
320,192,198520,1,0,0:0:0:0:
448,192,198520,1,0,0:0:0:0:
192,192,198599,1,0,0:0:0:0:
64,192,198599,1,0,0:0:0:0:
448,192,198677,1,0,0:0:0:0:
320,192,198756,1,0,0:0:0:0:
192,192,198756,1,0,0:0:0:0:
64,192,198835,1,0,0:0:0:0:
448,192,198913,1,0,0:0:0:0:
192,192,198913,1,0,0:0:0:0:
320,192,198992,1,0,0:0:0:0:
64,192,198992,1,0,0:0:0:0:
448,192,199071,1,0,0:0:0:0:
320,192,199149,1,0,0:0:0:0:
64,192,199149,1,0,0:0:0:0:
192,192,199228,1,0,0:0:0:0:
448,192,199228,1,0,0:0:0:0:
64,192,199307,1,0,0:0:0:0:
320,192,199385,1,0,0:0:0:0:
448,192,199385,1,0,0:0:0:0:
192,192,199464,1,0,0:0:0:0:
320,192,199543,1,0,0:0:0:0:
448,192,199543,1,0,0:0:0:0:
192,192,199621,1,0,0:0:0:0:
64,192,199621,1,0,0:0:0:0:
320,192,199700,1,0,0:0:0:0:
192,192,199779,1,0,0:0:0:0:
64,192,199779,1,0,0:0:0:0:
320,192,199858,1,0,0:0:0:0:
448,192,199858,1,0,0:0:0:0:
192,192,199936,1,0,0:0:0:0:
320,192,200015,1,0,0:0:0:0:
64,192,200015,1,0,0:0:0:0:
448,192,200094,1,0,0:0:0:0:
192,192,200172,1,0,0:0:0:0:
320,192,200172,1,0,0:0:0:0:
448,192,200251,1,0,0:0:0:0:
64,192,200251,1,0,0:0:0:0:
192,192,200330,1,0,0:0:0:0:
448,192,200408,1,0,0:0:0:0:
64,192,200408,1,0,0:0:0:0:
192,192,200487,1,0,0:0:0:0:
320,192,200487,1,0,0:0:0:0:
448,192,200566,1,0,0:0:0:0:
192,192,200644,1,0,0:0:0:0:
64,192,200644,1,0,0:0:0:0:
448,192,200723,1,0,0:0:0:0:
192,192,200802,1,0,0:0:0:0:
64,192,200802,1,0,0:0:0:0:
320,192,200880,1,0,0:0:0:0:
448,192,200880,1,0,0:0:0:0:
64,192,200959,1,0,0:0:0:0:
320,192,201038,1,0,0:0:0:0:
448,192,201038,1,0,0:0:0:0:
192,192,201116,1,0,0:0:0:0:
64,192,201116,1,0,0:0:0:0:
448,192,201195,1,0,0:0:0:0:
320,192,201274,1,0,0:0:0:0:
192,192,201274,1,0,0:0:0:0:
64,192,201352,1,0,0:0:0:0:
192,192,201431,1,0,0:0:0:0:
448,192,201431,1,0,0:0:0:0:
320,192,201510,1,0,0:0:0:0:
64,192,201510,1,0,0:0:0:0:
448,192,201588,1,0,0:0:0:0:
64,192,201667,1,0,0:0:0:0:
320,192,201667,1,0,0:0:0:0:
192,192,201746,1,0,0:0:0:0:
448,192,201746,1,0,0:0:0:0:
320,192,201824,1,0,0:0:0:0:
64,192,201903,1,0,0:0:0:0:
448,192,201903,1,0,0:0:0:0:
192,192,201982,1,0,0:0:0:0:
320,192,202060,1,0,0:0:0:0:
448,192,202060,1,0,0:0:0:0:
192,192,202139,1,0,0:0:0:0:
64,192,202139,1,0,0:0:0:0:
320,192,202218,1,0,0:0:0:0:
192,192,202297,1,0,0:0:0:0:
64,192,202297,1,0,0:0:0:0:
320,192,202375,1,0,0:0:0:0:
448,192,202375,1,0,0:0:0:0:
64,192,202454,1,0,0:0:0:0:
448,192,202533,1,0,0:0:0:0:
192,192,202533,1,0,0:0:0:0:
64,192,202611,1,0,0:0:0:0:
320,192,202611,1,0,0:0:0:0:
192,192,202690,1,0,0:0:0:0:
448,192,202769,1,0,0:0:0:0:
64,192,202769,1,0,0:0:0:0:
192,192,202847,1,0,0:0:0:0:
320,192,202847,1,0,0:0:0:0:
64,192,202926,1,0,0:0:0:0:
448,192,203005,1,0,0:0:0:0:
320,192,203005,1,0,0:0:0:0:
192,192,203083,1,0,0:0:0:0:
320,192,203162,1,0,0:0:0:0:
448,192,203162,1,0,0:0:0:0:
64,192,203162,1,0,0:0:0:0:
192,192,203241,1,0,0:0:0:0:
448,192,203319,1,0,0:0:0:0:
320,192,203319,1,0,0:0:0:0:
192,192,203398,1,0,0:0:0:0:
64,192,203398,1,0,0:0:0:0:
448,192,203477,1,0,0:0:0:0:
192,192,203555,1,0,0:0:0:0:
64,192,203555,1,0,0:0:0:0:
320,192,203634,1,0,0:0:0:0:
448,192,203634,1,0,0:0:0:0:
64,192,203713,1,0,0:0:0:0:
320,192,203791,1,0,0:0:0:0:
192,192,203791,1,0,0:0:0:0:
64,192,203870,1,0,0:0:0:0:
448,192,203949,1,0,0:0:0:0:
192,192,203949,1,0,0:0:0:0:
64,192,204027,1,0,0:0:0:0:
320,192,204027,1,0,0:0:0:0:
448,192,204106,1,0,0:0:0:0:
320,192,204185,1,0,0:0:0:0:
64,192,204185,1,0,0:0:0:0:
192,192,204263,1,0,0:0:0:0:
448,192,204263,1,0,0:0:0:0:
320,192,204342,1,0,0:0:0:0:
448,192,204421,1,0,0:0:0:0:
64,192,204421,1,0,0:0:0:0:
192,192,204500,1,0,0:0:0:0:
320,192,204578,1,0,0:0:0:0:
448,192,204578,1,0,0:0:0:0:
192,192,204657,1,0,0:0:0:0:
64,192,204657,1,0,0:0:0:0:
320,192,204736,1,0,0:0:0:0:
192,192,204814,1,0,0:0:0:0:
64,192,204814,1,0,0:0:0:0:
320,192,204893,1,0,0:0:0:0:
448,192,204893,1,0,0:0:0:0:
64,192,204972,1,0,0:0:0:0:
192,192,205050,1,0,0:0:0:0:
448,192,205050,1,0,0:0:0:0:
320,192,205129,1,0,0:0:0:0:
64,192,205208,1,0,0:0:0:0:
448,192,205208,1,0,0:0:0:0:
192,192,205286,1,0,0:0:0:0:
320,192,205286,1,0,0:0:0:0:
64,192,205365,1,0,0:0:0:0:
320,192,205444,1,0,0:0:0:0:
192,192,205444,1,0,0:0:0:0:
448,192,205522,1,0,0:0:0:0:
64,192,205522,1,0,0:0:0:0:
192,192,205601,1,0,0:0:0:0:
64,192,205680,1,0,0:0:0:0:
448,192,205680,1,0,0:0:0:0:
320,192,205758,1,0,0:0:0:0:
192,192,205837,1,0,0:0:0:0:
64,192,205837,1,0,0:0:0:0:
320,192,205916,1,0,0:0:0:0:
448,192,205916,1,0,0:0:0:0:
192,192,205994,1,0,0:0:0:0:
320,192,206073,1,0,0:0:0:0:
448,192,206073,1,0,0:0:0:0:
192,192,206152,1,0,0:0:0:0:
64,192,206152,1,0,0:0:0:0:
448,192,206230,1,0,0:0:0:0:
320,192,206309,1,0,0:0:0:0:
64,192,206309,1,0,0:0:0:0:
448,192,206388,1,0,0:0:0:0:
320,192,206466,1,0,0:0:0:0:
192,192,206466,1,0,0:0:0:0:
64,192,206545,1,0,0:0:0:0:
448,192,206545,1,0,0:0:0:0:
192,192,206624,1,0,0:0:0:0:
448,192,206703,1,0,0:0:0:0:
64,192,206703,1,0,0:0:0:0:
320,192,206781,1,0,0:0:0:0:
192,192,206781,1,0,0:0:0:0:
64,192,206860,1,0,0:0:0:0:
448,192,206939,1,0,0:0:0:0:
320,192,206939,1,0,0:0:0:0:
192,192,207017,1,0,0:0:0:0:
320,192,207096,1,0,0:0:0:0:
448,192,207096,1,0,0:0:0:0:
192,192,207175,1,0,0:0:0:0:
64,192,207175,1,0,0:0:0:0:
448,192,207253,1,0,0:0:0:0:
192,192,207332,1,0,0:0:0:0:
64,192,207332,1,0,0:0:0:0:
320,192,207411,1,0,0:0:0:0:
448,192,207411,1,0,0:0:0:0:
64,192,207489,1,0,0:0:0:0:
192,192,207568,1,0,0:0:0:0:
320,192,207568,1,0,0:0:0:0:
448,192,207647,1,0,0:0:0:0:
320,192,207725,1,0,0:0:0:0:
64,192,207725,1,0,0:0:0:0:
192,192,207804,1,0,0:0:0:0:
448,192,207804,1,0,0:0:0:0:
64,192,207883,1,0,0:0:0:0:
192,192,207961,1,0,0:0:0:0:
448,192,207961,1,0,0:0:0:0:
320,192,208040,1,0,0:0:0:0:
64,192,208040,1,0,0:0:0:0:
448,192,208119,1,0,0:0:0:0:
192,192,208197,1,0,0:0:0:0:
320,192,208197,1,0,0:0:0:0:
448,192,208276,1,0,0:0:0:0:
192,192,208355,1,0,0:0:0:0:
64,192,208355,1,0,0:0:0:0:
448,192,208433,1,0,0:0:0:0:
320,192,208433,1,0,0:0:0:0:
64,192,208512,1,0,0:0:0:0:
320,192,208591,1,0,0:0:0:0:
448,192,208591,1,0,0:0:0:0:
192,192,208669,1,0,0:0:0:0:
64,192,208669,1,0,0:0:0:0:
320,192,208748,1,0,0:0:0:0:
448,192,208827,1,0,0:0:0:0:
192,192,208827,1,0,0:0:0:0:
64,192,208905,1,0,0:0:0:0:
192,192,208984,1,0,0:0:0:0:
320,192,208984,1,0,0:0:0:0:
448,192,209063,1,0,0:0:0:0:
64,192,209063,1,0,0:0:0:0:
320,192,209142,1,0,0:0:0:0:
64,192,209220,1,0,0:0:0:0:
448,192,209220,1,0,0:0:0:0:
320,192,209299,1,0,0:0:0:0:
192,192,209299,1,0,0:0:0:0:
448,192,209378,1,0,0:0:0:0:
64,192,209456,1,0,0:0:0:0:
320,192,209456,1,0,0:0:0:0:
192,192,209535,1,0,0:0:0:0:
320,192,209614,1,0,0:0:0:0:
448,192,209614,1,0,0:0:0:0:
192,192,209692,1,0,0:0:0:0:
64,192,209692,1,0,0:0:0:0:
448,192,209771,1,0,0:0:0:0:
192,192,209850,1,0,0:0:0:0:
64,192,209850,1,0,0:0:0:0:
320,192,209928,1,0,0:0:0:0:
448,192,209928,1,0,0:0:0:0:
64,192,210007,1,0,0:0:0:0:
192,192,210086,1,0,0:0:0:0:
320,192,210086,1,0,0:0:0:0:
448,192,210164,1,0,0:0:0:0:
320,192,210243,1,0,0:0:0:0:
64,192,210243,1,0,0:0:0:0:
192,192,210322,1,0,0:0:0:0:
448,192,210322,1,0,0:0:0:0:
64,192,210400,1,0,0:0:0:0:
192,192,210479,1,0,0:0:0:0:
448,192,210479,1,0,0:0:0:0:
320,192,210558,1,0,0:0:0:0:
64,192,210558,1,0,0:0:0:0:
448,192,210636,1,0,0:0:0:0:
64,192,210715,1,0,0:0:0:0:
192,192,210715,1,0,0:0:0:0:
320,192,210794,1,0,0:0:0:0:
192,192,210872,1,0,0:0:0:0:
64,192,210872,1,0,0:0:0:0:
448,192,210951,1,0,0:0:0:0:
320,192,210951,1,0,0:0:0:0:
192,192,211030,1,0,0:0:0:0:
320,192,211108,1,0,0:0:0:0:
448,192,211108,1,0,0:0:0:0:
64,192,211187,1,0,0:0:0:0:
192,192,211187,1,0,0:0:0:0:
448,192,211266,1,0,0:0:0:0:
320,192,211345,1,0,0:0:0:0:
64,192,211345,1,0,0:0:0:0:
192,192,211423,1,0,0:0:0:0:
64,192,211502,1,0,0:0:0:0:
448,192,211502,1,0,0:0:0:0:
320,192,211581,1,0,0:0:0:0:
192,192,211581,1,0,0:0:0:0:
448,192,211659,1,0,0:0:0:0:
192,192,211738,1,0,0:0:0:0:
320,192,211738,1,0,0:0:0:0:
64,192,211817,1,0,0:0:0:0:
448,192,211817,1,0,0:0:0:0:
320,192,211895,1,0,0:0:0:0:
192,192,211974,1,0,0:0:0:0:
64,192,211974,1,0,0:0:0:0:
448,192,212053,1,0,0:0:0:0:
192,192,212131,1,0,0:0:0:0:
64,192,212131,1,0,0:0:0:0:
320,192,212210,1,0,0:0:0:0:
448,192,212210,1,0,0:0:0:0:
192,192,212289,1,0,0:0:0:0:
320,192,212367,1,0,0:0:0:0:
448,192,212367,1,0,0:0:0:0:
192,192,212446,1,0,0:0:0:0:
64,192,212446,1,0,0:0:0:0:
320,192,212525,1,0,0:0:0:0:
64,192,212603,1,0,0:0:0:0:
448,192,212603,1,0,0:0:0:0:
192,192,212682,1,0,0:0:0:0:
320,192,212682,1,0,0:0:0:0:
64,192,212761,1,0,0:0:0:0:
192,192,212839,1,0,0:0:0:0:
448,192,212839,1,0,0:0:0:0:
320,192,212918,1,0,0:0:0:0:
64,192,212918,1,0,0:0:0:0:
448,192,212997,1,0,0:0:0:0:
192,192,213075,1,0,0:0:0:0:
64,192,213075,1,0,0:0:0:0:
320,192,213154,1,0,0:0:0:0:
192,192,213233,1,0,0:0:0:0:
64,192,213233,1,0,0:0:0:0:
448,192,213233,1,0,0:0:0:0:
320,192,213311,1,0,0:0:0:0:
192,192,213390,1,0,0:0:0:0:
64,192,213390,1,0,0:0:0:0:
448,192,213469,1,0,0:0:0:0:
320,192,213469,1,0,0:0:0:0:
192,192,213548,1,0,0:0:0:0:
320,192,213626,1,0,0:0:0:0:
448,192,213626,1,0,0:0:0:0:
192,192,213705,1,0,0:0:0:0:
64,192,213705,1,0,0:0:0:0:
448,192,213784,1,0,0:0:0:0:
320,192,213862,1,0,0:0:0:0:
64,192,213862,1,0,0:0:0:0:
448,192,213941,1,0,0:0:0:0:
64,192,214020,1,0,0:0:0:0:
320,192,214020,1,0,0:0:0:0:
192,192,214098,1,0,0:0:0:0:
448,192,214098,1,0,0:0:0:0:
64,192,214177,1,0,0:0:0:0:
192,192,214256,1,0,0:0:0:0:
448,192,214256,1,0,0:0:0:0:
64,192,214334,1,0,0:0:0:0:
320,192,214334,1,0,0:0:0:0:
192,192,214413,1,0,0:0:0:0:
448,192,214492,1,0,0:0:0:0:
320,192,214492,1,0,0:0:0:0:
192,192,214570,1,0,0:0:0:0:
320,192,214649,1,0,0:0:0:0:
448,192,214649,1,0,0:0:0:0:
192,192,214728,1,0,0:0:0:0:
64,192,214728,1,0,0:0:0:0:
448,192,214806,1,0,0:0:0:0:
64,192,214885,1,0,0:0:0:0:
192,192,214885,1,0,0:0:0:0:
320,192,214964,1,0,0:0:0:0:
448,192,214964,1,0,0:0:0:0:
64,192,215042,1,0,0:0:0:0:
192,192,215121,1,0,0:0:0:0:
320,192,215121,1,0,0:0:0:0:
448,192,215200,1,0,0:0:0:0:
192,192,215278,1,0,0:0:0:0:
320,192,215278,1,0,0:0:0:0:
448,192,215357,1,0,0:0:0:0:
64,192,215357,1,0,0:0:0:0:
320,192,215436,1,0,0:0:0:0:
448,192,215514,1,0,0:0:0:0:
64,192,215514,1,0,0:0:0:0:
192,192,215593,1,0,0:0:0:0:
320,192,215593,1,0,0:0:0:0:
64,192,215672,1,0,0:0:0:0:
448,192,215751,1,0,0:0:0:0:
192,192,215751,1,0,0:0:0:0:
320,192,215829,1,0,0:0:0:0:
192,192,215908,1,0,0:0:0:0:
64,192,215908,1,0,0:0:0:0:
320,192,215987,1,0,0:0:0:0:
448,192,215987,1,0,0:0:0:0:
192,192,216065,1,0,0:0:0:0:
320,192,216144,1,0,0:0:0:0:
448,192,216144,1,0,0:0:0:0:
192,192,216223,1,0,0:0:0:0:
64,192,216223,1,0,0:0:0:0:
448,192,216301,1,0,0:0:0:0:
64,192,216380,1,0,0:0:0:0:
320,192,216380,1,0,0:0:0:0:
192,192,216459,1,0,0:0:0:0:
320,192,216537,1,0,0:0:0:0:
64,192,216537,1,0,0:0:0:0:
192,192,216616,1,0,0:0:0:0:
448,192,216616,1,0,0:0:0:0:
64,192,216695,1,0,0:0:0:0:
192,192,216773,1,0,0:0:0:0:
448,192,216773,1,0,0:0:0:0:
320,192,216852,1,0,0:0:0:0:
64,192,216852,1,0,0:0:0:0:
448,192,216931,1,0,0:0:0:0:
192,192,217009,1,0,0:0:0:0:
320,192,217009,1,0,0:0:0:0:
64,192,217088,1,0,0:0:0:0:
320,192,217167,1,0,0:0:0:0:
448,192,217167,1,0,0:0:0:0:
192,192,217245,1,0,0:0:0:0:
64,192,217245,1,0,0:0:0:0:
448,192,217324,1,0,0:0:0:0:
192,192,217403,1,0,0:0:0:0:
64,192,217403,1,0,0:0:0:0:
320,192,217481,1,0,0:0:0:0:
448,192,217481,1,0,0:0:0:0:
64,192,217560,1,0,0:0:0:0:
320,192,217639,1,0,0:0:0:0:
192,192,217639,1,0,0:0:0:0:
448,192,217717,1,0,0:0:0:0:
64,192,217717,1,0,0:0:0:0:
192,192,217796,1,0,0:0:0:0:
320,192,217875,1,0,0:0:0:0:
64,192,217875,1,0,0:0:0:0:
448,192,217953,1,0,0:0:0:0:
192,192,217953,1,0,0:0:0:0:
320,192,218032,1,0,0:0:0:0:
192,192,218111,1,0,0:0:0:0:
64,192,218111,1,0,0:0:0:0:
448,192,218190,1,0,0:0:0:0:
320,192,218190,1,0,0:0:0:0:
192,192,218268,1,0,0:0:0:0:
64,192,218268,1,0,0:0:0:0:
320,192,218347,1,0,0:0:0:0:
192,192,218426,1,0,0:0:0:0:
64,192,218426,1,0,0:0:0:0:
448,192,218504,1,0,0:0:0:0:
192,192,218583,1,0,0:0:0:0:
320,192,218583,1,0,0:0:0:0:
64,192,218662,1,0,0:0:0:0:
320,192,218740,1,0,0:0:0:0:
192,192,218740,1,0,0:0:0:0:
64,192,218819,1,0,0:0:0:0:
320,192,218898,1,0,0:0:0:0:
448,192,218898,1,0,0:0:0:0:
192,192,218976,1,0,0:0:0:0:
320,192,219055,1,0,0:0:0:0:
448,192,219055,1,0,0:0:0:0:
64,192,219134,1,0,0:0:0:0:
320,192,219212,1,0,0:0:0:0:
192,192,219212,1,0,0:0:0:0:
448,192,219291,1,0,0:0:0:0:
320,192,219370,1,0,0:0:0:0:
192,192,219370,1,0,0:0:0:0:
448,192,219448,1,0,0:0:0:0:
192,192,219527,1,0,0:0:0:0:
64,192,219527,1,0,0:0:0:0:
320,192,219606,1,0,0:0:0:0:
64,192,219684,1,0,0:0:0:0:
192,192,219684,1,0,0:0:0:0:
448,192,219763,1,0,0:0:0:0:
320,192,219842,1,0,0:0:0:0:
192,192,219842,1,0,0:0:0:0:
64,192,219920,1,0,0:0:0:0:
320,192,219999,1,0,0:0:0:0:
192,192,219999,1,0,0:0:0:0:
64,192,220078,1,0,0:0:0:0:
320,192,220156,1,0,0:0:0:0:
448,192,220156,1,0,0:0:0:0:
192,192,220235,1,0,0:0:0:0:
320,192,220314,1,0,0:0:0:0:
448,192,220314,1,0,0:0:0:0:
64,192,220393,1,0,0:0:0:0:
192,192,220471,1,0,0:0:0:0:
320,192,220471,1,0,0:0:0:0:
448,192,220550,1,0,0:0:0:0:
192,192,220629,1,0,0:0:0:0:
320,192,220629,1,0,0:0:0:0:
448,192,220707,1,0,0:0:0:0:
192,192,220786,1,0,0:0:0:0:
64,192,220786,1,0,0:0:0:0:
320,192,220865,1,0,0:0:0:0:
448,192,220865,1,0,0:0:0:0:
192,192,220943,1,0,0:0:0:0:
64,192,220943,1,0,0:0:0:0:
320,192,221022,1,0,0:0:0:0:
448,192,221022,1,0,0:0:0:0:
192,192,221101,1,0,0:0:0:0:
64,192,221101,1,0,0:0:0:0:
320,192,221179,1,0,0:0:0:0:
448,192,221179,1,0,0:0:0:0:
192,192,221258,1,0,0:0:0:0:
64,192,221258,1,0,0:0:0:0:
320,192,221337,1,0,0:0:0:0:
448,192,221337,1,0,0:0:0:0:
64,192,221415,1,0,0:0:0:0:
192,192,221415,1,0,0:0:0:0:
320,192,221494,1,0,0:0:0:0:
448,192,221494,1,0,0:0:0:0:
64,192,221573,1,0,0:0:0:0:
192,192,221573,1,0,0:0:0:0:
320,192,221651,1,0,0:0:0:0:
448,192,221651,1,0,0:0:0:0:
64,192,221730,1,0,0:0:0:0:
192,192,221730,1,0,0:0:0:0:
320,192,221809,1,0,0:0:0:0:
448,192,221809,1,0,0:0:0:0:
64,192,221887,1,0,0:0:0:0:
192,192,221887,1,0,0:0:0:0:
448,192,221966,1,0,0:0:0:0:
192,192,222045,1,0,0:0:0:0:
64,192,222045,1,0,0:0:0:0:
320,192,222045,1,0,0:0:0:0:
320,192,222359,128,0,222517:0:0:0:0:
320,192,222674,128,0,222832:0:0:0:0:
64,192,222832,128,0,222989:0:0:0:0:
320,192,222989,128,0,223146:0:0:0:0:
192,192,222989,128,0,223146:0:0:0:0:
64,192,223146,128,0,223304:0:0:0:0:
192,192,223304,128,0,223461:0:0:0:0:
320,192,223304,128,0,223618:0:0:0:0:
448,192,223304,1,0,0:0:0:0:
448,192,223461,128,0,223618:0:0:0:0:
64,192,223618,128,0,223776:0:0:0:0:
192,192,223618,1,0,0:0:0:0:
192,192,223776,128,0,224720:0:0:0:0:
448,192,223933,1,0,0:0:0:0:
448,192,224248,128,0,224405:0:0:0:0:
64,192,224248,1,0,0:0:0:0:
320,192,224405,128,0,224562:0:0:0:0:
448,192,224562,128,0,224720:0:0:0:0:
64,192,224562,1,0,0:0:0:0:
64,192,224720,128,0,224877:0:0:0:0:
320,192,224877,128,0,225192:0:0:0:0:
448,192,224877,128,0,225035:0:0:0:0:
192,192,224877,1,0,0:0:0:0:
64,192,225035,128,0,225192:0:0:0:0:
192,192,225192,128,0,225507:0:0:0:0:
448,192,225192,128,0,225349:0:0:0:0:
64,192,225507,128,0,225821:0:0:0:0:
320,192,225507,1,0,0:0:0:0:
192,192,225821,1,0,0:0:0:0:
448,192,225821,128,0,225979:0:0:0:0:
64,192,225979,128,0,226136:0:0:0:0:
448,192,226136,128,0,226293:0:0:0:0:
192,192,226136,1,0,0:0:0:0:
64,192,226293,128,0,226451:0:0:0:0:
448,192,226451,128,0,226765:0:0:0:0:
320,192,226451,1,0,0:0:0:0:
192,192,226765,128,0,226923:0:0:0:0:
64,192,226765,1,0,0:0:0:0:
320,192,226923,128,0,227238:0:0:0:0:
448,192,227080,1,0,0:0:0:0:
192,192,227238,128,0,227552:0:0:0:0:
320,192,227395,1,0,0:0:0:0:
64,192,227552,128,0,227867:0:0:0:0:
192,192,227710,1,0,0:0:0:0:
320,192,228024,1,0,0:0:0:0:
192,192,228182,128,0,228339:0:0:0:0:
320,192,228339,128,0,228654:0:0:0:0:
64,192,228339,1,0,0:0:0:0:
448,192,228654,1,0,0:0:0:0:
192,192,228654,1,0,0:0:0:0:
448,192,228811,128,0,229283:0:0:0:0:
64,192,228968,1,0,0:0:0:0:
192,192,229283,1,0,0:0:0:0:
320,192,229441,128,0,229598:0:0:0:0:
64,192,229598,128,0,229913:0:0:0:0:
448,192,229598,1,0,0:0:0:0:
192,192,229913,128,0,230070:0:0:0:0:
320,192,229913,1,0,0:0:0:0:
448,192,230070,128,0,230857:0:0:0:0:
64,192,230227,1,0,0:0:0:0:
192,192,230542,1,0,0:0:0:0:
320,192,230857,128,0,231014:0:0:0:0:
192,192,230857,1,0,0:0:0:0:
64,192,231014,128,0,231171:0:0:0:0:
320,192,231171,128,0,231329:0:0:0:0:
448,192,231171,1,0,0:0:0:0:
64,192,231329,128,0,231486:0:0:0:0:
320,192,231486,128,0,231643:0:0:0:0:
448,192,231486,1,0,0:0:0:0:
192,192,231643,128,0,231958:0:0:0:0:
64,192,231801,1,0,0:0:0:0:
448,192,231958,128,0,232745:0:0:0:0:
64,192,232116,1,0,0:0:0:0:
192,192,232430,1,0,0:0:0:0:
192,192,232745,1,0,0:0:0:0:
320,192,233060,128,0,233217:0:0:0:0:
64,192,233060,1,0,0:0:0:0:
192,192,233217,128,0,233374:0:0:0:0:
64,192,233374,128,0,234004:0:0:0:0:
448,192,233374,1,0,0:0:0:0:
320,192,233532,1,0,0:0:0:0:
448,192,233689,1,0,0:0:0:0:
320,192,233689,1,0,0:0:0:0:
192,192,233846,1,0,0:0:0:0:
320,192,234004,128,0,234476:0:0:0:0:
448,192,234004,1,0,0:0:0:0:
192,192,234161,1,0,0:0:0:0:
192,192,234319,1,0,0:0:0:0:
64,192,234319,1,0,0:0:0:0:
448,192,234476,128,0,235105:0:0:0:0:
64,192,234476,1,0,0:0:0:0:
192,192,234633,1,0,0:0:0:0:
320,192,234791,1,0,0:0:0:0:
320,192,234948,1,0,0:0:0:0:
192,192,234948,1,0,0:0:0:0:
64,192,235105,1,0,0:0:0:0:
320,192,235263,1,0,0:0:0:0:
192,192,235420,1,0,0:0:0:0:
192,192,235577,1,0,0:0:0:0:
448,192,235577,1,0,0:0:0:0:
64,192,235577,128,0,235735:0:0:0:0:
320,192,235735,128,0,235892:0:0:0:0:
448,192,235735,1,0,0:0:0:0:
192,192,235892,128,0,236522:0:0:0:0:
64,192,235892,1,0,0:0:0:0:
320,192,236049,1,0,0:0:0:0:
448,192,236207,1,0,0:0:0:0:
320,192,236207,1,0,0:0:0:0:
64,192,236364,1,0,0:0:0:0:
448,192,236522,128,0,236836:0:0:0:0:
320,192,236522,1,0,0:0:0:0:
192,192,236679,1,0,0:0:0:0:
64,192,236836,128,0,236994:0:0:0:0:
192,192,236836,1,0,0:0:0:0:
320,192,236836,1,0,0:0:0:0:
320,192,236994,128,0,237308:0:0:0:0:
448,192,236994,1,0,0:0:0:0:
192,192,237151,1,0,0:0:0:0:
192,192,237308,128,0,237623:0:0:0:0:
64,192,237308,1,0,0:0:0:0:
64,192,237466,1,0,0:0:0:0:
320,192,237466,1,0,0:0:0:0:
448,192,237623,128,0,238252:0:0:0:0:
320,192,237623,1,0,0:0:0:0:
64,192,237780,128,0,238410:0:0:0:0:
192,192,237780,1,0,0:0:0:0:
320,192,237938,1,0,0:0:0:0:
320,192,238095,1,0,0:0:0:0:
192,192,238095,1,0,0:0:0:0:
192,192,238252,1,0,0:0:0:0:
192,192,238410,128,0,239039:0:0:0:0:
448,192,238410,1,0,0:0:0:0:
64,192,238567,1,0,0:0:0:0:
448,192,238725,128,0,239039:0:0:0:0:
320,192,238725,1,0,0:0:0:0:
64,192,238725,1,0,0:0:0:0:
320,192,238882,1,0,0:0:0:0:
64,192,239039,128,0,239669:0:0:0:0:
320,192,239039,128,0,239354:0:0:0:0:
448,192,239197,1,0,0:0:0:0:
192,192,239354,128,0,239669:0:0:0:0:
448,192,239354,1,0,0:0:0:0:
320,192,239511,1,0,0:0:0:0:
448,192,239669,128,0,240298:0:0:0:0:
320,192,239669,128,0,239983:0:0:0:0:
64,192,239826,1,0,0:0:0:0:
192,192,239983,128,0,240141:0:0:0:0:
64,192,239983,1,0,0:0:0:0:
64,192,240141,128,0,240298:0:0:0:0:
320,192,240141,1,0,0:0:0:0:
320,192,240298,128,0,240928:0:0:0:0:
192,192,240298,1,0,0:0:0:0:
448,192,240455,1,0,0:0:0:0:
64,192,240613,128,0,240928:0:0:0:0:
448,192,240613,1,0,0:0:0:0:
192,192,240613,1,0,0:0:0:0:
192,192,240770,1,0,0:0:0:0:
448,192,240928,128,0,241557:0:0:0:0:
192,192,240928,128,0,242186:0:0:0:0:
320,192,241085,1,0,0:0:0:0:
64,192,241242,1,0,0:0:0:0:
320,192,241242,1,0,0:0:0:0:
64,192,241400,1,0,0:0:0:0:
320,192,241557,128,0,242186:0:0:0:0:
64,192,241557,1,0,0:0:0:0:
448,192,241714,1,0,0:0:0:0:
64,192,241872,1,0,0:0:0:0:
448,192,241872,1,0,0:0:0:0:
64,192,242029,1,0,0:0:0:0:
64,192,242186,128,0,243288:0:0:0:0:
320,192,242501,128,0,242816:0:0:0:0:
448,192,242501,1,0,0:0:0:0:
192,192,242501,1,0,0:0:0:0:
192,192,242816,128,0,242973:0:0:0:0:
448,192,242816,128,0,243288:0:0:0:0:
320,192,243131,128,0,243288:0:0:0:0:
192,192,243131,1,0,0:0:0:0:
192,192,243288,128,0,243445:0:0:0:0:
64,192,243445,5,0,0:0:0:0:
448,192,243445,1,0,0:0:0:0:
320,192,243445,1,0,0:0:0:0:
192,192,243524,1,0,0:0:0:0:
320,192,243603,1,0,0:0:0:0:
64,192,243603,1,0,0:0:0:0:
192,192,243681,1,0,0:0:0:0:
320,192,243760,1,0,0:0:0:0:
448,192,243760,1,0,0:0:0:0:
64,192,243839,1,0,0:0:0:0:
320,192,243917,1,0,0:0:0:0:
448,192,243917,1,0,0:0:0:0:
192,192,243996,1,0,0:0:0:0:
448,192,244075,1,0,0:0:0:0:
64,192,244075,1,0,0:0:0:0:
192,192,244153,1,0,0:0:0:0:
320,192,244232,1,0,0:0:0:0:
64,192,244232,1,0,0:0:0:0:
448,192,244311,1,0,0:0:0:0:
192,192,244389,1,0,0:0:0:0:
320,192,244389,1,0,0:0:0:0:
448,192,244468,1,0,0:0:0:0:
64,192,244547,1,0,0:0:0:0:
192,192,244547,1,0,0:0:0:0:
320,192,244625,1,0,0:0:0:0:
64,192,244704,1,0,0:0:0:0:
448,192,244704,1,0,0:0:0:0:
320,192,244783,1,0,0:0:0:0:
192,192,244861,1,0,0:0:0:0:
448,192,244861,1,0,0:0:0:0:
320,192,244940,1,0,0:0:0:0:
192,192,245019,1,0,0:0:0:0:
64,192,245019,1,0,0:0:0:0:
448,192,245097,1,0,0:0:0:0:
64,192,245176,1,0,0:0:0:0:
320,192,245176,1,0,0:0:0:0:
448,192,245255,1,0,0:0:0:0:
320,192,245334,1,0,0:0:0:0:
192,192,245334,1,0,0:0:0:0:
64,192,245412,1,0,0:0:0:0:
448,192,245491,1,0,0:0:0:0:
192,192,245491,1,0,0:0:0:0:
64,192,245570,1,0,0:0:0:0:
320,192,245648,1,0,0:0:0:0:
448,192,245648,1,0,0:0:0:0:
192,192,245727,1,0,0:0:0:0:
320,192,245806,1,0,0:0:0:0:
64,192,245806,1,0,0:0:0:0:
448,192,245884,1,0,0:0:0:0:
192,192,245963,1,0,0:0:0:0:
64,192,245963,1,0,0:0:0:0:
320,192,246042,1,0,0:0:0:0:
192,192,246120,1,0,0:0:0:0:
64,192,246120,1,0,0:0:0:0:
448,192,246199,1,0,0:0:0:0:
320,192,246278,1,0,0:0:0:0:
192,192,246278,1,0,0:0:0:0:
64,192,246356,1,0,0:0:0:0:
320,192,246435,1,0,0:0:0:0:
448,192,246435,1,0,0:0:0:0:
192,192,246514,1,0,0:0:0:0:
320,192,246592,1,0,0:0:0:0:
448,192,246592,1,0,0:0:0:0:
64,192,246671,1,0,0:0:0:0:
192,192,246750,1,0,0:0:0:0:
448,192,246750,1,0,0:0:0:0:
320,192,246828,1,0,0:0:0:0:
192,192,246907,1,0,0:0:0:0:
64,192,246907,1,0,0:0:0:0:
320,192,246986,1,0,0:0:0:0:
64,192,247064,1,0,0:0:0:0:
192,192,247064,1,0,0:0:0:0:
448,192,247143,1,0,0:0:0:0:
320,192,247222,1,0,0:0:0:0:
64,192,247222,1,0,0:0:0:0:
192,192,247300,1,0,0:0:0:0:
320,192,247379,1,0,0:0:0:0:
448,192,247379,1,0,0:0:0:0:
192,192,247458,1,0,0:0:0:0:
448,192,247536,1,0,0:0:0:0:
64,192,247536,1,0,0:0:0:0:
320,192,247615,1,0,0:0:0:0:
64,192,247694,1,0,0:0:0:0:
192,192,247694,1,0,0:0:0:0:
320,192,247773,1,0,0:0:0:0:
64,192,247851,1,0,0:0:0:0:
448,192,247851,1,0,0:0:0:0:
320,192,247930,1,0,0:0:0:0:
448,192,248009,1,0,0:0:0:0:
192,192,248009,1,0,0:0:0:0:
64,192,248087,1,0,0:0:0:0:
320,192,248166,1,0,0:0:0:0:
448,192,248166,1,0,0:0:0:0:
64,192,248245,1,0,0:0:0:0:
192,192,248323,1,0,0:0:0:0:
320,192,248323,1,0,0:0:0:0:
448,192,248402,1,0,0:0:0:0:
192,192,248481,1,0,0:0:0:0:
64,192,248481,1,0,0:0:0:0:
448,192,248559,1,0,0:0:0:0:
64,192,248638,1,0,0:0:0:0:
320,192,248638,1,0,0:0:0:0:
192,192,248717,1,0,0:0:0:0:
448,192,248795,1,0,0:0:0:0:
320,192,248795,1,0,0:0:0:0:
192,192,248874,1,0,0:0:0:0:
320,192,248953,1,0,0:0:0:0:
448,192,248953,1,0,0:0:0:0:
64,192,249031,1,0,0:0:0:0:
320,192,249110,1,0,0:0:0:0:
192,192,249110,1,0,0:0:0:0:
64,192,249189,1,0,0:0:0:0:
192,192,249267,1,0,0:0:0:0:
448,192,249267,1,0,0:0:0:0:
320,192,249346,1,0,0:0:0:0:
64,192,249425,1,0,0:0:0:0:
448,192,249425,1,0,0:0:0:0:
320,192,249503,1,0,0:0:0:0:
64,192,249582,1,0,0:0:0:0:
192,192,249582,1,0,0:0:0:0:
448,192,249661,1,0,0:0:0:0:
64,192,249739,1,0,0:0:0:0:
192,192,249739,1,0,0:0:0:0:
448,192,249818,1,0,0:0:0:0:
320,192,249897,1,0,0:0:0:0:
64,192,249897,1,0,0:0:0:0:
192,192,249976,1,0,0:0:0:0:
448,192,250054,1,0,0:0:0:0:
320,192,250054,1,0,0:0:0:0:
192,192,250133,1,0,0:0:0:0:
448,192,250212,1,0,0:0:0:0:
320,192,250212,1,0,0:0:0:0:
64,192,250290,1,0,0:0:0:0:
448,192,250369,1,0,0:0:0:0:
192,192,250369,1,0,0:0:0:0:
320,192,250448,1,0,0:0:0:0:
64,192,250526,1,0,0:0:0:0:
192,192,250526,1,0,0:0:0:0:
448,192,250605,1,0,0:0:0:0:
64,192,250684,1,0,0:0:0:0:
320,192,250684,1,0,0:0:0:0:
192,192,250762,1,0,0:0:0:0:
64,192,250841,1,0,0:0:0:0:
448,192,250841,1,0,0:0:0:0:
192,192,250920,1,0,0:0:0:0:
320,192,250998,1,0,0:0:0:0:
448,192,250998,1,0,0:0:0:0:
64,192,251077,1,0,0:0:0:0:
320,192,251156,1,0,0:0:0:0:
448,192,251156,1,0,0:0:0:0:
64,192,251234,1,0,0:0:0:0:
320,192,251313,1,0,0:0:0:0:
192,192,251313,1,0,0:0:0:0:
448,192,251392,1,0,0:0:0:0:
192,192,251470,1,0,0:0:0:0:
320,192,251470,1,0,0:0:0:0:
448,192,251549,1,0,0:0:0:0:
192,192,251628,1,0,0:0:0:0:
64,192,251628,1,0,0:0:0:0:
320,192,251706,1,0,0:0:0:0:
192,192,251785,1,0,0:0:0:0:
64,192,251785,1,0,0:0:0:0:
320,192,251864,1,0,0:0:0:0:
64,192,251942,1,0,0:0:0:0:
448,192,251942,1,0,0:0:0:0:
192,192,252021,1,0,0:0:0:0:
448,192,252100,1,0,0:0:0:0:
320,192,252100,1,0,0:0:0:0:
192,192,252179,1,0,0:0:0:0:
64,192,252257,1,0,0:0:0:0:
320,192,252257,1,0,0:0:0:0:
192,192,252336,1,0,0:0:0:0:
448,192,252415,1,0,0:0:0:0:
64,192,252415,1,0,0:0:0:0:
320,192,252493,1,0,0:0:0:0:
448,192,252572,1,0,0:0:0:0:
192,192,252572,1,0,0:0:0:0:
320,192,252651,1,0,0:0:0:0:
448,192,252729,1,0,0:0:0:0:
64,192,252729,1,0,0:0:0:0:
192,192,252808,1,0,0:0:0:0:
320,192,252887,1,0,0:0:0:0:
64,192,252887,1,0,0:0:0:0:
192,192,252965,1,0,0:0:0:0:
448,192,253044,1,0,0:0:0:0:
64,192,253044,1,0,0:0:0:0:
192,192,253123,1,0,0:0:0:0:
320,192,253201,1,0,0:0:0:0:
448,192,253201,1,0,0:0:0:0:
64,192,253280,1,0,0:0:0:0:
320,192,253359,1,0,0:0:0:0:
448,192,253359,1,0,0:0:0:0:
64,192,253437,1,0,0:0:0:0:
448,192,253516,1,0,0:0:0:0:
320,192,253516,1,0,0:0:0:0:
192,192,253516,1,0,0:0:0:0:
64,192,253595,1,0,0:0:0:0:
192,192,253673,1,0,0:0:0:0:
320,192,253673,1,0,0:0:0:0:
448,192,253752,1,0,0:0:0:0:
64,192,253831,1,0,0:0:0:0:
192,192,253831,1,0,0:0:0:0:
448,192,253909,1,0,0:0:0:0:
320,192,253988,1,0,0:0:0:0:
64,192,253988,1,0,0:0:0:0:
192,192,254067,1,0,0:0:0:0:
448,192,254145,1,0,0:0:0:0:
320,192,254145,1,0,0:0:0:0:
192,192,254224,1,0,0:0:0:0:
448,192,254303,1,0,0:0:0:0:
64,192,254303,1,0,0:0:0:0:
320,192,254381,1,0,0:0:0:0:
64,192,254460,1,0,0:0:0:0:
448,192,254460,1,0,0:0:0:0:
320,192,254539,1,0,0:0:0:0:
192,192,254618,1,0,0:0:0:0:
64,192,254618,1,0,0:0:0:0:
320,192,254696,1,0,0:0:0:0:
192,192,254775,1,0,0:0:0:0:
448,192,254775,1,0,0:0:0:0:
64,192,254854,1,0,0:0:0:0:
448,192,254932,1,0,0:0:0:0:
192,192,254932,1,0,0:0:0:0:
320,192,255011,1,0,0:0:0:0:
64,192,255090,1,0,0:0:0:0:
448,192,255090,1,0,0:0:0:0:
192,192,255168,1,0,0:0:0:0:
64,192,255247,1,0,0:0:0:0:
320,192,255247,1,0,0:0:0:0:
192,192,255326,1,0,0:0:0:0:
448,192,255404,1,0,0:0:0:0:
320,192,255404,1,0,0:0:0:0:
192,192,255483,1,0,0:0:0:0:
64,192,255562,1,0,0:0:0:0:
320,192,255562,1,0,0:0:0:0:
448,192,255640,1,0,0:0:0:0:
192,192,255719,1,0,0:0:0:0:
64,192,255719,1,0,0:0:0:0:
320,192,255798,1,0,0:0:0:0:
64,192,255876,1,0,0:0:0:0:
192,192,255876,1,0,0:0:0:0:
320,192,255955,1,0,0:0:0:0:
64,192,256034,1,0,0:0:0:0:
192,192,256034,1,0,0:0:0:0:
320,192,256112,1,0,0:0:0:0:
64,192,256191,1,0,0:0:0:0:
448,192,256191,1,0,0:0:0:0:
320,192,256270,1,0,0:0:0:0:
192,192,256348,1,0,0:0:0:0:
448,192,256348,1,0,0:0:0:0:
320,192,256427,1,0,0:0:0:0:
448,192,256506,1,0,0:0:0:0:
64,192,256506,1,0,0:0:0:0:
192,192,256584,1,0,0:0:0:0:
448,192,256663,1,0,0:0:0:0:
320,192,256663,1,0,0:0:0:0:
192,192,256742,1,0,0:0:0:0:
320,192,256821,1,0,0:0:0:0:
64,192,256821,1,0,0:0:0:0:
448,192,256899,1,0,0:0:0:0:
320,192,256978,1,0,0:0:0:0:
192,192,256978,1,0,0:0:0:0:
64,192,257057,1,0,0:0:0:0:
320,192,257135,1,0,0:0:0:0:
192,192,257135,1,0,0:0:0:0:
64,192,257214,1,0,0:0:0:0:
448,192,257293,1,0,0:0:0:0:
192,192,257293,1,0,0:0:0:0:
320,192,257371,1,0,0:0:0:0:
192,192,257450,1,0,0:0:0:0:
64,192,257450,1,0,0:0:0:0:
448,192,257529,1,0,0:0:0:0:
320,192,257607,1,0,0:0:0:0:
64,192,257607,1,0,0:0:0:0:
448,192,257686,1,0,0:0:0:0:
320,192,257765,1,0,0:0:0:0:
192,192,257765,1,0,0:0:0:0:
64,192,257843,1,0,0:0:0:0:
448,192,257922,1,0,0:0:0:0:
192,192,257922,1,0,0:0:0:0:
64,192,258001,1,0,0:0:0:0:
320,192,258079,1,0,0:0:0:0:
192,192,258079,1,0,0:0:0:0:
448,192,258158,1,0,0:0:0:0:
64,192,258237,1,0,0:0:0:0:
320,192,258237,1,0,0:0:0:0:
448,192,258315,1,0,0:0:0:0:
192,192,258394,1,0,0:0:0:0:
64,192,258394,1,0,0:0:0:0:
320,192,258473,1,0,0:0:0:0:
448,192,258473,1,0,0:0:0:0:
192,192,258551,1,0,0:0:0:0:
64,192,258551,1,0,0:0:0:0:
320,192,258630,1,0,0:0:0:0:
64,192,258709,1,0,0:0:0:0:
192,192,258709,1,0,0:0:0:0:
320,192,258787,1,0,0:0:0:0:
448,192,258787,1,0,0:0:0:0:
192,192,258866,1,0,0:0:0:0:
320,192,258945,1,0,0:0:0:0:
448,192,258945,1,0,0:0:0:0:
192,192,259024,1,0,0:0:0:0:
64,192,259024,1,0,0:0:0:0:
448,192,259102,1,0,0:0:0:0:
192,192,259181,1,0,0:0:0:0:
64,192,259181,1,0,0:0:0:0:
448,192,259260,1,0,0:0:0:0:
192,192,259338,1,0,0:0:0:0:
64,192,259338,1,0,0:0:0:0:
320,192,259417,1,0,0:0:0:0:
448,192,259417,1,0,0:0:0:0:
64,192,259496,1,0,0:0:0:0:
320,192,259574,1,0,0:0:0:0:
448,192,259574,1,0,0:0:0:0:
192,192,259653,1,0,0:0:0:0:
64,192,259653,1,0,0:0:0:0:
320,192,259732,1,0,0:0:0:0:
192,192,259810,1,0,0:0:0:0:
64,192,259810,1,0,0:0:0:0:
320,192,259889,1,0,0:0:0:0:
192,192,259968,1,0,0:0:0:0:
64,192,259968,1,0,0:0:0:0:
320,192,260046,1,0,0:0:0:0:
448,192,260046,1,0,0:0:0:0:
192,192,260125,1,0,0:0:0:0:
320,192,260204,1,0,0:0:0:0:
448,192,260204,1,0,0:0:0:0:
192,192,260282,1,0,0:0:0:0:
64,192,260282,1,0,0:0:0:0:
448,192,260361,1,0,0:0:0:0:
192,192,260440,1,0,0:0:0:0:
64,192,260440,1,0,0:0:0:0:
448,192,260518,1,0,0:0:0:0:
192,192,260597,1,0,0:0:0:0:
64,192,260597,1,0,0:0:0:0:
320,192,260676,1,0,0:0:0:0:
448,192,260676,1,0,0:0:0:0:
64,192,260754,1,0,0:0:0:0:
320,192,260833,1,0,0:0:0:0:
448,192,260833,1,0,0:0:0:0:
192,192,260912,1,0,0:0:0:0:
64,192,260912,1,0,0:0:0:0:
320,192,260990,1,0,0:0:0:0:
192,192,261069,1,0,0:0:0:0:
448,192,261069,1,0,0:0:0:0:
64,192,261148,1,0,0:0:0:0:
448,192,261227,1,0,0:0:0:0:
192,192,261227,1,0,0:0:0:0:
64,192,261305,1,0,0:0:0:0:
320,192,261305,1,0,0:0:0:0:
448,192,261384,1,0,0:0:0:0:
64,192,261463,1,0,0:0:0:0:
320,192,261463,1,0,0:0:0:0:
448,192,261541,1,0,0:0:0:0:
192,192,261541,1,0,0:0:0:0:
64,192,261620,1,0,0:0:0:0:
448,192,261699,1,0,0:0:0:0:
192,192,261699,1,0,0:0:0:0:
320,192,261777,1,0,0:0:0:0:
448,192,261856,1,0,0:0:0:0:
192,192,261856,1,0,0:0:0:0:
64,192,261935,1,0,0:0:0:0:
320,192,261935,1,0,0:0:0:0:
192,192,262013,1,0,0:0:0:0:
64,192,262092,1,0,0:0:0:0:
320,192,262092,1,0,0:0:0:0:
448,192,262171,1,0,0:0:0:0:
192,192,262171,1,0,0:0:0:0:
320,192,262249,1,0,0:0:0:0:
448,192,262328,1,0,0:0:0:0:
64,192,262328,1,0,0:0:0:0:
192,192,262407,1,0,0:0:0:0:
64,192,262485,1,0,0:0:0:0:
448,192,262485,1,0,0:0:0:0:
320,192,262564,1,0,0:0:0:0:
192,192,262564,1,0,0:0:0:0:
448,192,262643,1,0,0:0:0:0:
192,192,262721,1,0,0:0:0:0:
320,192,262721,1,0,0:0:0:0:
448,192,262800,1,0,0:0:0:0:
64,192,262800,1,0,0:0:0:0:
320,192,262879,1,0,0:0:0:0:
192,192,262957,1,0,0:0:0:0:
64,192,262957,1,0,0:0:0:0:
320,192,263036,1,0,0:0:0:0:
448,192,263036,1,0,0:0:0:0:
192,192,263115,1,0,0:0:0:0:
64,192,263115,1,0,0:0:0:0:
320,192,263193,1,0,0:0:0:0:
448,192,263193,1,0,0:0:0:0:
64,192,263272,1,0,0:0:0:0:
192,192,263351,1,0,0:0:0:0:
320,192,263351,1,0,0:0:0:0:
448,192,263429,1,0,0:0:0:0:
64,192,263429,1,0,0:0:0:0:
192,192,263508,1,0,0:0:0:0:
448,192,263587,1,0,0:0:0:0:
64,192,263587,1,0,0:0:0:0:
320,192,263587,1,0,0:0:0:0:
192,192,263666,1,0,0:0:0:0:
320,192,263744,1,0,0:0:0:0:
448,192,263744,1,0,0:0:0:0:
64,192,263823,1,0,0:0:0:0:
192,192,263823,1,0,0:0:0:0:
320,192,263902,1,0,0:0:0:0:
192,192,263980,1,0,0:0:0:0:
64,192,263980,1,0,0:0:0:0:
320,192,264059,1,0,0:0:0:0:
448,192,264059,1,0,0:0:0:0:
64,192,264138,1,0,0:0:0:0:
192,192,264216,1,0,0:0:0:0:
448,192,264216,1,0,0:0:0:0:
64,192,264295,1,0,0:0:0:0:
448,192,264374,1,0,0:0:0:0:
192,192,264374,1,0,0:0:0:0:
320,192,264452,1,0,0:0:0:0:
64,192,264452,1,0,0:0:0:0:
448,192,264531,1,0,0:0:0:0:
320,192,264610,1,0,0:0:0:0:
64,192,264610,1,0,0:0:0:0:
448,192,264688,1,0,0:0:0:0:
192,192,264688,1,0,0:0:0:0:
320,192,264767,1,0,0:0:0:0:
64,192,264846,1,0,0:0:0:0:
192,192,264846,1,0,0:0:0:0:
320,192,264924,1,0,0:0:0:0:
192,192,265003,1,0,0:0:0:0:
64,192,265003,1,0,0:0:0:0:
320,192,265082,1,0,0:0:0:0:
448,192,265082,1,0,0:0:0:0:
64,192,265160,1,0,0:0:0:0:
448,192,265239,1,0,0:0:0:0:
320,192,265239,1,0,0:0:0:0:
192,192,265318,1,0,0:0:0:0:
64,192,265318,1,0,0:0:0:0:
448,192,265396,1,0,0:0:0:0:
320,192,265475,1,0,0:0:0:0:
192,192,265475,1,0,0:0:0:0:
64,192,265554,1,0,0:0:0:0:
320,192,265632,1,0,0:0:0:0:
192,192,265632,1,0,0:0:0:0:
64,192,265711,1,0,0:0:0:0:
448,192,265711,1,0,0:0:0:0:
192,192,265790,1,0,0:0:0:0:
64,192,265869,1,0,0:0:0:0:
448,192,265869,1,0,0:0:0:0:
320,192,265947,1,0,0:0:0:0:
192,192,265947,1,0,0:0:0:0:
448,192,266026,1,0,0:0:0:0:
64,192,266105,1,0,0:0:0:0:
320,192,266105,1,0,0:0:0:0:
192,192,266183,1,0,0:0:0:0:
320,192,266262,1,0,0:0:0:0:
448,192,266262,1,0,0:0:0:0:
192,192,266341,1,0,0:0:0:0:
64,192,266341,1,0,0:0:0:0:
320,192,266419,1,0,0:0:0:0:
192,192,266498,1,0,0:0:0:0:
64,192,266498,1,0,0:0:0:0:
320,192,266577,1,0,0:0:0:0:
448,192,266577,1,0,0:0:0:0:
64,192,266655,1,0,0:0:0:0:
448,192,266734,1,0,0:0:0:0:
192,192,266734,1,0,0:0:0:0:
320,192,266813,1,0,0:0:0:0:
192,192,266891,1,0,0:0:0:0:
448,192,266891,1,0,0:0:0:0:
320,192,266970,1,0,0:0:0:0:
64,192,266970,1,0,0:0:0:0:
448,192,267049,1,0,0:0:0:0:
320,192,267127,1,0,0:0:0:0:
64,192,267127,1,0,0:0:0:0:
192,192,267206,1,0,0:0:0:0:
448,192,267206,1,0,0:0:0:0:
64,192,267285,1,0,0:0:0:0:
320,192,267363,1,0,0:0:0:0:
192,192,267363,1,0,0:0:0:0:
448,192,267442,1,0,0:0:0:0:
192,192,267521,1,0,0:0:0:0:
64,192,267521,1,0,0:0:0:0:
320,192,267599,1,0,0:0:0:0:
448,192,267599,1,0,0:0:0:0:
64,192,267678,1,0,0:0:0:0:
320,192,267757,1,0,0:0:0:0:
448,192,267757,1,0,0:0:0:0:
192,192,267835,1,0,0:0:0:0:
64,192,267835,1,0,0:0:0:0:
448,192,267914,1,0,0:0:0:0:
192,192,267993,1,0,0:0:0:0:
320,192,267993,1,0,0:0:0:0:
64,192,268072,1,0,0:0:0:0:
320,192,268150,1,0,0:0:0:0:
192,192,268150,1,0,0:0:0:0:
64,192,268229,1,0,0:0:0:0:
448,192,268229,1,0,0:0:0:0:
192,192,268308,1,0,0:0:0:0:
448,192,268386,1,0,0:0:0:0:
64,192,268386,1,0,0:0:0:0:
320,192,268465,1,0,0:0:0:0:
192,192,268465,1,0,0:0:0:0:
64,192,268544,1,0,0:0:0:0:
320,192,268622,1,0,0:0:0:0:
448,192,268622,1,0,0:0:0:0:
192,192,268701,1,0,0:0:0:0:
448,192,268780,1,0,0:0:0:0:
320,192,268780,1,0,0:0:0:0:
192,192,268858,1,0,0:0:0:0:
64,192,268858,1,0,0:0:0:0:
448,192,268937,1,0,0:0:0:0:
192,192,269016,1,0,0:0:0:0:
64,192,269016,1,0,0:0:0:0:
320,192,269094,1,0,0:0:0:0:
448,192,269094,1,0,0:0:0:0:
64,192,269173,1,0,0:0:0:0:
192,192,269252,1,0,0:0:0:0:
320,192,269252,1,0,0:0:0:0:
448,192,269330,1,0,0:0:0:0:
64,192,269409,1,0,0:0:0:0:
320,192,269409,1,0,0:0:0:0:
192,192,269488,1,0,0:0:0:0:
448,192,269488,1,0,0:0:0:0:
64,192,269566,1,0,0:0:0:0:
192,192,269645,1,0,0:0:0:0:
448,192,269645,1,0,0:0:0:0:
320,192,269724,1,0,0:0:0:0:
64,192,269724,1,0,0:0:0:0:
448,192,269802,1,0,0:0:0:0:
192,192,269881,1,0,0:0:0:0:
64,192,269881,1,0,0:0:0:0:
320,192,269960,1,0,0:0:0:0:
192,192,270038,1,0,0:0:0:0:
64,192,270038,1,0,0:0:0:0:
320,192,270117,1,0,0:0:0:0:
448,192,270117,1,0,0:0:0:0:
192,192,270196,1,0,0:0:0:0:
320,192,270274,1,0,0:0:0:0:
448,192,270274,1,0,0:0:0:0:
192,192,270353,1,0,0:0:0:0:
64,192,270353,1,0,0:0:0:0:
320,192,270432,1,0,0:0:0:0:
192,192,270511,1,0,0:0:0:0:
448,192,270511,1,0,0:0:0:0:
64,192,270589,1,0,0:0:0:0:
320,192,270668,1,0,0:0:0:0:
192,192,270668,1,0,0:0:0:0:
64,192,270747,1,0,0:0:0:0:
448,192,270747,1,0,0:0:0:0:
320,192,270825,1,0,0:0:0:0:
64,192,270904,1,0,0:0:0:0:
448,192,270904,1,0,0:0:0:0:
320,192,270983,1,0,0:0:0:0:
192,192,270983,1,0,0:0:0:0:
64,192,271061,1,0,0:0:0:0:
320,192,271140,1,0,0:0:0:0:
448,192,271140,1,0,0:0:0:0:
192,192,271140,1,0,0:0:0:0:
64,192,271219,1,0,0:0:0:0:
320,192,271297,1,0,0:0:0:0:
448,192,271297,1,0,0:0:0:0:
192,192,271376,1,0,0:0:0:0:
64,192,271376,1,0,0:0:0:0:
448,192,271455,1,0,0:0:0:0:
192,192,271533,1,0,0:0:0:0:
64,192,271533,1,0,0:0:0:0:
320,192,271612,1,0,0:0:0:0:
448,192,271612,1,0,0:0:0:0:
64,192,271691,1,0,0:0:0:0:
192,192,271769,1,0,0:0:0:0:
320,192,271769,1,0,0:0:0:0:
448,192,271848,1,0,0:0:0:0:
320,192,271927,1,0,0:0:0:0:
64,192,271927,1,0,0:0:0:0:
192,192,272005,1,0,0:0:0:0:
448,192,272005,1,0,0:0:0:0:
64,192,272084,1,0,0:0:0:0:
448,192,272163,1,0,0:0:0:0:
192,192,272163,1,0,0:0:0:0:
320,192,272241,1,0,0:0:0:0:
64,192,272241,1,0,0:0:0:0:
192,192,272320,1,0,0:0:0:0:
448,192,272399,1,0,0:0:0:0:
64,192,272399,1,0,0:0:0:0:
320,192,272477,1,0,0:0:0:0:
192,192,272556,1,0,0:0:0:0:
64,192,272556,1,0,0:0:0:0:
320,192,272635,1,0,0:0:0:0:
448,192,272635,1,0,0:0:0:0:
192,192,272714,1,0,0:0:0:0:
320,192,272792,1,0,0:0:0:0:
448,192,272792,1,0,0:0:0:0:
192,192,272871,1,0,0:0:0:0:
64,192,272871,1,0,0:0:0:0:
448,192,272950,1,0,0:0:0:0:
64,192,273028,1,0,0:0:0:0:
320,192,273028,1,0,0:0:0:0:
192,192,273028,1,0,0:0:0:0:
448,192,273107,1,0,0:0:0:0:
320,192,273186,1,0,0:0:0:0:
64,192,273186,1,0,0:0:0:0:
192,192,273264,1,0,0:0:0:0:
320,192,273343,1,0,0:0:0:0:
448,192,273343,1,0,0:0:0:0:
192,192,273422,1,0,0:0:0:0:
448,192,273500,1,0,0:0:0:0:
320,192,273500,1,0,0:0:0:0:
64,192,273500,1,0,0:0:0:0:
192,192,273579,1,0,0:0:0:0:
320,192,273658,1,0,0:0:0:0:
448,192,273658,1,0,0:0:0:0:
64,192,273658,1,0,0:0:0:0:
192,192,273736,1,0,0:0:0:0:
320,192,273815,1,0,0:0:0:0:
448,192,273815,1,0,0:0:0:0:
64,192,273894,1,0,0:0:0:0:
320,192,273972,1,0,0:0:0:0:
192,192,273972,1,0,0:0:0:0:
448,192,274051,1,0,0:0:0:0:
192,192,274130,1,0,0:0:0:0:
320,192,274130,1,0,0:0:0:0:
448,192,274208,1,0,0:0:0:0:
192,192,274287,1,0,0:0:0:0:
64,192,274287,1,0,0:0:0:0:
320,192,274366,1,0,0:0:0:0:
192,192,274444,1,0,0:0:0:0:
64,192,274444,1,0,0:0:0:0:
448,192,274523,1,0,0:0:0:0:
192,192,274602,1,0,0:0:0:0:
320,192,274602,1,0,0:0:0:0:
64,192,274680,1,0,0:0:0:0:
192,192,274759,1,0,0:0:0:0:
320,192,274759,1,0,0:0:0:0:
64,192,274838,1,0,0:0:0:0:
320,192,274917,1,0,0:0:0:0:
448,192,274917,1,0,0:0:0:0:
192,192,274995,1,0,0:0:0:0:
64,192,274995,1,0,0:0:0:0:
320,192,275074,1,0,0:0:0:0:
448,192,275074,1,0,0:0:0:0:
192,192,275153,1,0,0:0:0:0:
64,192,275153,1,0,0:0:0:0:
320,192,275231,1,0,0:0:0:0:
448,192,275231,1,0,0:0:0:0:
192,192,275310,1,0,0:0:0:0:
64,192,275310,1,0,0:0:0:0:
320,192,275389,1,0,0:0:0:0:
448,192,275389,1,0,0:0:0:0:
192,192,275467,1,0,0:0:0:0:
64,192,275467,1,0,0:0:0:0:
448,192,275546,1,0,0:0:0:0:
320,192,275546,1,0,0:0:0:0:
192,192,275625,1,0,0:0:0:0:
64,192,275625,1,0,0:0:0:0:
448,192,275703,1,0,0:0:0:0:
320,192,275703,1,0,0:0:0:0:
192,192,275782,1,0,0:0:0:0:
64,192,275782,1,0,0:0:0:0:
448,192,275861,1,0,0:0:0:0:
320,192,275861,1,0,0:0:0:0:
192,192,275939,1,0,0:0:0:0:
64,192,275939,1,0,0:0:0:0:
448,192,276018,1,0,0:0:0:0:
320,192,276018,1,0,0:0:0:0:
64,192,276097,1,0,0:0:0:0:
320,192,276175,1,0,0:0:0:0:
448,192,276175,1,0,0:0:0:0:
192,192,276175,1,0,0:0:0:0:
64,192,276333,1,0,0:0:0:0:
448,192,276490,1,0,0:0:0:0:
320,192,276490,1,0,0:0:0:0:
64,192,276647,1,0,0:0:0:0:
64,192,276962,1,0,0:0:0:0:
448,192,277119,1,0,0:0:0:0:
320,192,277119,1,0,0:0:0:0:
64,192,277277,1,0,0:0:0:0:
320,192,277434,1,0,0:0:0:0:
448,192,277434,1,0,0:0:0:0:
192,192,277513,1,0,0:0:0:0:
64,192,277513,1,0,0:0:0:0:
64,192,277670,1,0,0:0:0:0:
192,192,277670,1,0,0:0:0:0:
320,192,277749,1,0,0:0:0:0:
448,192,277749,1,0,0:0:0:0:
320,192,277906,1,0,0:0:0:0:
448,192,277906,1,0,0:0:0:0:
192,192,277985,1,0,0:0:0:0:
64,192,277985,1,0,0:0:0:0:
64,192,278142,1,0,0:0:0:0:
192,192,278142,1,0,0:0:0:0:
320,192,278221,1,0,0:0:0:0:
448,192,278221,1,0,0:0:0:0:
64,192,278378,1,0,0:0:0:0:
192,192,278418,1,0,0:0:0:0:
320,192,278457,1,0,0:0:0:0:
448,192,278496,1,0,0:0:0:0:
64,192,278536,1,0,0:0:0:0:
192,192,278575,1,0,0:0:0:0:
320,192,278614,1,0,0:0:0:0:
448,192,278654,1,0,0:0:0:0:
192,192,278693,1,0,0:0:0:0:
64,192,278693,1,0,0:0:0:0:
320,192,278772,1,0,0:0:0:0:
192,192,278850,1,0,0:0:0:0:
448,192,278850,1,0,0:0:0:0:
320,192,278929,1,0,0:0:0:0:
64,192,278929,1,0,0:0:0:0:
448,192,279008,1,0,0:0:0:0:
64,192,279086,1,0,0:0:0:0:
320,192,279086,1,0,0:0:0:0:
192,192,279165,1,0,0:0:0:0:
448,192,279165,1,0,0:0:0:0:
64,192,279244,1,0,0:0:0:0:
320,192,279322,1,0,0:0:0:0:
448,192,279322,1,0,0:0:0:0:
64,192,279401,1,0,0:0:0:0:
192,192,279480,1,0,0:0:0:0:
320,192,279480,1,0,0:0:0:0:
64,192,279559,1,0,0:0:0:0:
448,192,279559,1,0,0:0:0:0:
192,192,279637,1,0,0:0:0:0:
64,192,279716,1,0,0:0:0:0:
448,192,279716,1,0,0:0:0:0:
320,192,279795,1,0,0:0:0:0:
192,192,279795,1,0,0:0:0:0:
448,192,279873,1,0,0:0:0:0:
64,192,279952,1,0,0:0:0:0:
192,192,279952,1,0,0:0:0:0:
320,192,280031,1,0,0:0:0:0:
64,192,280109,1,0,0:0:0:0:
448,192,280109,1,0,0:0:0:0:
320,192,280188,1,0,0:0:0:0:
192,192,280188,1,0,0:0:0:0:
64,192,280267,1,0,0:0:0:0:
192,192,280345,1,0,0:0:0:0:
320,192,280345,1,0,0:0:0:0:
448,192,280424,1,0,0:0:0:0:
64,192,280424,1,0,0:0:0:0:
192,192,280503,1,0,0:0:0:0:
448,192,280581,1,0,0:0:0:0:
320,192,280581,1,0,0:0:0:0:
192,192,280660,1,0,0:0:0:0:
64,192,280739,1,0,0:0:0:0:
320,192,280739,1,0,0:0:0:0:
448,192,280817,1,0,0:0:0:0:
192,192,280817,1,0,0:0:0:0:
320,192,280896,1,0,0:0:0:0:
448,192,280975,1,0,0:0:0:0:
192,192,280975,1,0,0:0:0:0:
64,192,281053,1,0,0:0:0:0:
320,192,281053,1,0,0:0:0:0:
192,192,281132,1,0,0:0:0:0:
448,192,281211,1,0,0:0:0:0:
320,192,281211,1,0,0:0:0:0:
64,192,281289,1,0,0:0:0:0:
448,192,281368,1,0,0:0:0:0:
192,192,281368,1,0,0:0:0:0:
320,192,281447,1,0,0:0:0:0:
64,192,281447,1,0,0:0:0:0:
192,192,281525,1,0,0:0:0:0:
320,192,281604,1,0,0:0:0:0:
64,192,281604,1,0,0:0:0:0:
192,192,281683,1,0,0:0:0:0:
448,192,281683,1,0,0:0:0:0:
320,192,281762,1,0,0:0:0:0:
192,192,281840,1,0,0:0:0:0:
64,192,281840,1,0,0:0:0:0:
320,192,281919,1,0,0:0:0:0:
448,192,281998,1,0,0:0:0:0:
64,192,281998,1,0,0:0:0:0:
192,192,282076,1,0,0:0:0:0:
320,192,282076,1,0,0:0:0:0:
448,192,282155,1,0,0:0:0:0:
320,192,282234,1,0,0:0:0:0:
192,192,282234,1,0,0:0:0:0:
64,192,282312,1,0,0:0:0:0:
448,192,282312,1,0,0:0:0:0:
192,192,282391,1,0,0:0:0:0:
320,192,282470,1,0,0:0:0:0:
448,192,282470,1,0,0:0:0:0:
192,192,282548,1,0,0:0:0:0:
64,192,282627,1,0,0:0:0:0:
320,192,282627,1,0,0:0:0:0:
192,192,282706,1,0,0:0:0:0:
448,192,282706,1,0,0:0:0:0:
64,192,282784,1,0,0:0:0:0:
192,192,282863,1,0,0:0:0:0:
448,192,282863,1,0,0:0:0:0:
320,192,282942,1,0,0:0:0:0:
64,192,282942,1,0,0:0:0:0:
448,192,283020,1,0,0:0:0:0:
320,192,283099,1,0,0:0:0:0:
192,192,283099,1,0,0:0:0:0:
64,192,283178,1,0,0:0:0:0:
448,192,283178,1,0,0:0:0:0:
192,192,283256,1,0,0:0:0:0:
320,192,283335,1,0,0:0:0:0:
64,192,283335,1,0,0:0:0:0:
192,192,283414,1,0,0:0:0:0:
448,192,283414,1,0,0:0:0:0:
64,192,283492,1,0,0:0:0:0:
320,192,283571,1,0,0:0:0:0:
448,192,283571,1,0,0:0:0:0:
192,192,283650,1,0,0:0:0:0:
64,192,283650,1,0,0:0:0:0:
320,192,283728,1,0,0:0:0:0:
448,192,283728,1,0,0:0:0:0:
192,192,283807,1,0,0:0:0:0:
448,192,283886,1,0,0:0:0:0:
64,192,283886,1,0,0:0:0:0:
320,192,283965,1,0,0:0:0:0:
192,192,283965,1,0,0:0:0:0:
64,192,284043,1,0,0:0:0:0:
192,192,284122,1,0,0:0:0:0:
320,192,284122,1,0,0:0:0:0:
448,192,284201,1,0,0:0:0:0:
64,192,284201,1,0,0:0:0:0:
320,192,284279,1,0,0:0:0:0:
192,192,284358,1,0,0:0:0:0:
64,192,284358,1,0,0:0:0:0:
448,192,284437,1,0,0:0:0:0:
64,192,284515,1,0,0:0:0:0:
320,192,284515,1,0,0:0:0:0:
192,192,284594,1,0,0:0:0:0:
448,192,284594,1,0,0:0:0:0:
320,192,284673,1,0,0:0:0:0:
192,192,284751,1,0,0:0:0:0:
448,192,284751,1,0,0:0:0:0:
64,192,284830,1,0,0:0:0:0:
320,192,284830,1,0,0:0:0:0:
192,192,284909,1,0,0:0:0:0:
64,192,284987,1,0,0:0:0:0:
448,192,284987,1,0,0:0:0:0:
320,192,285066,1,0,0:0:0:0:
64,192,285145,1,0,0:0:0:0:
448,192,285145,1,0,0:0:0:0:
320,192,285223,1,0,0:0:0:0:
192,192,285223,1,0,0:0:0:0:
448,192,285302,1,0,0:0:0:0:
192,192,285381,1,0,0:0:0:0:
320,192,285381,1,0,0:0:0:0:
64,192,285459,1,0,0:0:0:0:
448,192,285459,1,0,0:0:0:0:
192,192,285538,1,0,0:0:0:0:
320,192,285617,1,0,0:0:0:0:
448,192,285617,1,0,0:0:0:0:
192,192,285695,1,0,0:0:0:0:
64,192,285774,1,0,0:0:0:0:
320,192,285774,1,0,0:0:0:0:
192,192,285853,1,0,0:0:0:0:
448,192,285853,1,0,0:0:0:0:
64,192,285931,1,0,0:0:0:0:
192,192,286010,1,0,0:0:0:0:
448,192,286010,1,0,0:0:0:0:
64,192,286089,1,0,0:0:0:0:
320,192,286089,1,0,0:0:0:0:
448,192,286167,1,0,0:0:0:0:
320,192,286246,1,0,0:0:0:0:
64,192,286246,1,0,0:0:0:0:
192,192,286325,1,0,0:0:0:0:
448,192,286404,1,0,0:0:0:0:
64,192,286404,1,0,0:0:0:0:
192,192,286482,1,0,0:0:0:0:
320,192,286482,1,0,0:0:0:0:
448,192,286561,1,0,0:0:0:0:
320,192,286640,1,0,0:0:0:0:
192,192,286640,1,0,0:0:0:0:
64,192,286718,1,0,0:0:0:0:
448,192,286718,1,0,0:0:0:0:
320,192,286797,1,0,0:0:0:0:
192,192,286876,1,0,0:0:0:0:
64,192,286876,1,0,0:0:0:0:
320,192,286954,1,0,0:0:0:0:
448,192,287033,1,0,0:0:0:0:
192,192,287033,1,0,0:0:0:0:
320,192,287112,1,0,0:0:0:0:
64,192,287112,1,0,0:0:0:0:
448,192,287190,1,0,0:0:0:0:
64,192,287269,1,0,0:0:0:0:
320,192,287269,1,0,0:0:0:0:
192,192,287348,1,0,0:0:0:0:
448,192,287348,1,0,0:0:0:0:
64,192,287426,1,0,0:0:0:0:
320,192,287505,1,0,0:0:0:0:
448,192,287505,1,0,0:0:0:0:
192,192,287584,1,0,0:0:0:0:
64,192,287662,1,0,0:0:0:0:
320,192,287662,1,0,0:0:0:0:
448,192,287741,1,0,0:0:0:0:
192,192,287820,1,0,0:0:0:0:
320,192,287820,1,0,0:0:0:0:
64,192,287898,1,0,0:0:0:0:
448,192,287898,1,0,0:0:0:0:
192,192,287977,1,0,0:0:0:0:
64,192,288056,1,0,0:0:0:0:
448,192,288056,1,0,0:0:0:0:
320,192,288134,1,0,0:0:0:0:
192,192,288134,1,0,0:0:0:0:
448,192,288213,1,0,0:0:0:0:
64,192,288213,1,0,0:0:0:0:
320,192,288292,1,0,0:0:0:0:
192,192,288370,1,0,0:0:0:0:
448,192,288370,1,0,0:0:0:0:
320,192,288449,1,0,0:0:0:0:
64,192,288449,1,0,0:0:0:0:
192,192,288528,1,0,0:0:0:0:
320,192,288607,1,0,0:0:0:0:
448,192,288607,1,0,0:0:0:0:
64,192,288685,1,0,0:0:0:0:
448,192,288764,1,0,0:0:0:0:
320,192,288764,1,0,0:0:0:0:
192,192,288764,1,0,0:0:0:0:
64,192,288843,1,0,0:0:0:0:
320,192,288921,1,0,0:0:0:0:
192,192,288921,1,0,0:0:0:0:
448,192,289000,1,0,0:0:0:0:
64,192,289000,1,0,0:0:0:0:
192,192,289079,1,0,0:0:0:0:
448,192,289157,1,0,0:0:0:0:
64,192,289157,1,0,0:0:0:0:
192,192,289236,1,0,0:0:0:0:
320,192,289236,1,0,0:0:0:0:
64,192,289315,1,0,0:0:0:0:
448,192,289393,1,0,0:0:0:0:
320,192,289393,1,0,0:0:0:0:
192,192,289472,1,0,0:0:0:0:
320,192,289551,1,0,0:0:0:0:
64,192,289551,1,0,0:0:0:0:
192,192,289629,1,0,0:0:0:0:
448,192,289629,1,0,0:0:0:0:
64,192,289708,1,0,0:0:0:0:
192,192,289787,1,0,0:0:0:0:
448,192,289787,1,0,0:0:0:0:
320,192,289865,1,0,0:0:0:0:
64,192,289865,1,0,0:0:0:0:
448,192,289944,1,0,0:0:0:0:
192,192,290023,1,0,0:0:0:0:
64,192,290023,1,0,0:0:0:0:
320,192,290101,1,0,0:0:0:0:
448,192,290180,1,0,0:0:0:0:
192,192,290180,1,0,0:0:0:0:
64,192,290259,1,0,0:0:0:0:
320,192,290259,1,0,0:0:0:0:
448,192,290337,1,0,0:0:0:0:
320,192,290416,1,0,0:0:0:0:
64,192,290416,1,0,0:0:0:0:
192,192,290495,1,0,0:0:0:0:
448,192,290495,1,0,0:0:0:0:
64,192,290573,1,0,0:0:0:0:
192,192,290652,1,0,0:0:0:0:
320,192,290652,1,0,0:0:0:0:
448,192,290731,1,0,0:0:0:0:
64,192,290731,1,0,0:0:0:0:
320,192,290810,1,0,0:0:0:0:
448,192,290888,1,0,0:0:0:0:
64,192,290888,1,0,0:0:0:0:
320,192,290967,1,0,0:0:0:0:
192,192,290967,1,0,0:0:0:0:
64,192,291046,1,0,0:0:0:0:
448,192,291124,1,0,0:0:0:0:
192,192,291124,1,0,0:0:0:0:
320,192,291203,1,0,0:0:0:0:
192,192,291282,1,0,0:0:0:0:
64,192,291282,1,0,0:0:0:0:
448,192,291360,1,0,0:0:0:0:
320,192,291439,1,0,0:0:0:0:
64,192,291439,1,0,0:0:0:0:
448,192,291518,1,0,0:0:0:0:
192,192,291518,1,0,0:0:0:0:
64,192,291596,1,0,0:0:0:0:
192,192,291675,1,0,0:0:0:0:
448,192,291675,1,0,0:0:0:0:
64,192,291754,1,0,0:0:0:0:
320,192,291754,1,0,0:0:0:0:
192,192,291832,1,0,0:0:0:0:
320,192,291911,1,0,0:0:0:0:
448,192,291911,1,0,0:0:0:0:
192,192,291990,1,0,0:0:0:0:
448,192,292068,1,0,0:0:0:0:
64,192,292068,1,0,0:0:0:0:
192,192,292147,1,0,0:0:0:0:
320,192,292147,1,0,0:0:0:0:
64,192,292226,1,0,0:0:0:0:
320,192,292304,1,0,0:0:0:0:
192,192,292304,1,0,0:0:0:0:
64,192,292383,1,0,0:0:0:0:
448,192,292383,1,0,0:0:0:0:
320,192,292462,1,0,0:0:0:0:
192,192,292540,1,0,0:0:0:0:
448,192,292540,1,0,0:0:0:0:
64,192,292619,1,0,0:0:0:0:
448,192,292698,1,0,0:0:0:0:
192,192,292698,1,0,0:0:0:0:
320,192,292776,1,0,0:0:0:0:
64,192,292776,1,0,0:0:0:0:
448,192,292855,1,0,0:0:0:0:
320,192,292934,1,0,0:0:0:0:
64,192,292934,1,0,0:0:0:0:
448,192,293012,1,0,0:0:0:0:
192,192,293012,1,0,0:0:0:0:
320,192,293091,1,0,0:0:0:0:
192,192,293170,1,0,0:0:0:0:
64,192,293170,1,0,0:0:0:0:
448,192,293249,1,0,0:0:0:0:
320,192,293249,1,0,0:0:0:0:
64,192,293327,1,0,0:0:0:0:
192,192,293406,1,0,0:0:0:0:
448,192,293406,1,0,0:0:0:0:
64,192,293485,1,0,0:0:0:0:
320,192,293485,1,0,0:0:0:0:
192,192,293563,1,0,0:0:0:0:
448,192,293642,1,0,0:0:0:0:
320,192,293642,1,0,0:0:0:0:
192,192,293721,1,0,0:0:0:0:
64,192,293721,1,0,0:0:0:0:
448,192,293799,1,0,0:0:0:0:
320,192,293799,1,0,0:0:0:0:
64,192,293878,1,0,0:0:0:0:
448,192,293957,1,0,0:0:0:0:
192,192,293957,1,0,0:0:0:0:
320,192,294035,1,0,0:0:0:0:
64,192,294035,1,0,0:0:0:0:
192,192,294114,1,0,0:0:0:0:
320,192,294193,1,0,0:0:0:0:
64,192,294193,1,0,0:0:0:0:
448,192,294271,1,0,0:0:0:0:
192,192,294271,1,0,0:0:0:0:
64,192,294350,1,0,0:0:0:0:
320,192,294429,1,0,0:0:0:0:
448,192,294429,1,0,0:0:0:0:
192,192,294507,1,0,0:0:0:0:
64,192,294586,1,0,0:0:0:0:
448,192,294586,1,0,0:0:0:0:
320,192,294665,1,0,0:0:0:0:
192,192,294665,1,0,0:0:0:0:
448,192,294743,1,0,0:0:0:0:
192,192,294822,1,0,0:0:0:0:
320,192,294822,1,0,0:0:0:0:
64,192,294901,1,0,0:0:0:0:
448,192,294901,1,0,0:0:0:0:
320,192,294979,1,0,0:0:0:0:
192,192,295058,1,0,0:0:0:0:
64,192,295058,1,0,0:0:0:0:
448,192,295137,1,0,0:0:0:0:
64,192,295215,1,0,0:0:0:0:
320,192,295215,1,0,0:0:0:0:
448,192,295294,1,0,0:0:0:0:
192,192,295294,1,0,0:0:0:0:
64,192,295373,1,0,0:0:0:0:
192,192,295452,1,0,0:0:0:0:
448,192,295452,1,0,0:0:0:0:
320,192,295530,1,0,0:0:0:0:
64,192,295530,1,0,0:0:0:0:
192,192,295609,1,0,0:0:0:0:
320,192,295688,1,0,0:0:0:0:
448,192,295688,1,0,0:0:0:0:
64,192,295766,1,0,0:0:0:0:
192,192,295845,1,0,0:0:0:0:
448,192,295845,1,0,0:0:0:0:
320,192,295924,1,0,0:0:0:0:
64,192,295924,1,0,0:0:0:0:
448,192,296002,1,0,0:0:0:0:
320,192,296081,1,0,0:0:0:0:
64,192,296081,1,0,0:0:0:0:
448,192,296160,1,0,0:0:0:0:
192,192,296160,1,0,0:0:0:0:
320,192,296238,1,0,0:0:0:0:
192,192,296317,1,0,0:0:0:0:
64,192,296317,1,0,0:0:0:0:
320,192,296396,1,0,0:0:0:0:
448,192,296474,1,0,0:0:0:0:
64,192,296474,1,0,0:0:0:0:
192,192,296553,1,0,0:0:0:0:
320,192,296553,1,0,0:0:0:0:
64,192,296632,1,0,0:0:0:0:
320,192,296710,1,0,0:0:0:0:
192,192,296710,1,0,0:0:0:0:
64,192,296789,1,0,0:0:0:0:
448,192,296789,1,0,0:0:0:0:
192,192,296868,1,0,0:0:0:0:
320,192,296946,1,0,0:0:0:0:
448,192,296946,1,0,0:0:0:0:
192,192,297025,1,0,0:0:0:0:
320,192,297104,1,0,0:0:0:0:
64,192,297104,1,0,0:0:0:0:
192,192,297182,1,0,0:0:0:0:
448,192,297182,1,0,0:0:0:0:
320,192,297261,1,0,0:0:0:0:
192,192,297340,1,0,0:0:0:0:
448,192,297340,1,0,0:0:0:0:
64,192,297418,1,0,0:0:0:0:
320,192,297418,1,0,0:0:0:0:
448,192,297497,1,0,0:0:0:0:
64,192,297576,1,0,0:0:0:0:
192,192,297576,1,0,0:0:0:0:
320,192,297655,1,0,0:0:0:0:
448,192,297733,1,0,0:0:0:0:
192,192,297733,1,0,0:0:0:0:
64,192,297812,1,0,0:0:0:0:
320,192,297812,1,0,0:0:0:0:
192,192,297891,1,0,0:0:0:0:
64,192,297969,1,0,0:0:0:0:
320,192,297969,1,0,0:0:0:0:
448,192,298048,1,0,0:0:0:0:
192,192,298048,1,0,0:0:0:0:
320,192,298127,1,0,0:0:0:0:
64,192,298205,1,0,0:0:0:0:
192,192,298205,1,0,0:0:0:0:
320,192,298284,1,0,0:0:0:0:
448,192,298284,1,0,0:0:0:0:
64,192,298363,1,0,0:0:0:0:
192,192,298441,1,0,0:0:0:0:
448,192,298441,1,0,0:0:0:0:
320,192,298520,1,0,0:0:0:0:
64,192,298520,1,0,0:0:0:0:
192,192,298599,1,0,0:0:0:0:
448,192,298677,1,0,0:0:0:0:
320,192,298677,1,0,0:0:0:0:
192,192,298756,1,0,0:0:0:0:
448,192,298835,1,0,0:0:0:0:
320,192,298835,1,0,0:0:0:0:
64,192,298835,1,0,0:0:0:0:
192,192,298992,1,0,0:0:0:0:
320,192,299071,1,0,0:0:0:0:
448,192,299149,1,0,0:0:0:0:
64,192,299149,1,0,0:0:0:0:
320,192,299228,1,0,0:0:0:0:
192,192,299307,1,0,0:0:0:0:
64,192,299307,1,0,0:0:0:0:
448,192,299464,1,0,0:0:0:0:
192,192,299464,1,0,0:0:0:0:
320,192,299621,1,0,0:0:0:0:
192,192,299700,1,0,0:0:0:0:
320,192,299779,1,0,0:0:0:0:
64,192,299779,1,0,0:0:0:0:
192,192,299857,1,0,0:0:0:0:
448,192,299936,1,0,0:0:0:0:
448,192,300094,1,0,0:0:0:0:
64,192,300094,1,0,0:0:0:0:
192,192,300251,1,0,0:0:0:0:
320,192,300330,1,0,0:0:0:0:
448,192,300408,1,0,0:0:0:0:
192,192,300408,1,0,0:0:0:0:
320,192,300487,1,0,0:0:0:0:
64,192,300566,1,0,0:0:0:0:
448,192,300723,1,0,0:0:0:0:
192,192,300723,1,0,0:0:0:0:
64,192,300802,1,0,0:0:0:0:
192,192,300880,1,0,0:0:0:0:
320,192,300880,1,0,0:0:0:0:
448,192,300959,1,0,0:0:0:0:
192,192,301038,1,0,0:0:0:0:
64,192,301038,1,0,0:0:0:0:
448,192,301116,1,0,0:0:0:0:
192,192,301195,1,0,0:0:0:0:
320,192,301195,1,0,0:0:0:0:
64,192,301274,1,0,0:0:0:0:
448,192,301352,1,0,0:0:0:0:
320,192,301352,1,0,0:0:0:0:
448,192,301510,1,0,0:0:0:0:
64,192,301510,1,0,0:0:0:0:
192,192,301588,1,0,0:0:0:0:
320,192,301667,1,0,0:0:0:0:
64,192,301667,1,0,0:0:0:0:
192,192,301746,1,0,0:0:0:0:
320,192,301824,1,0,0:0:0:0:
448,192,301824,1,0,0:0:0:0:
64,192,301982,1,0,0:0:0:0:
448,192,301982,1,0,0:0:0:0:
192,192,302139,1,0,0:0:0:0:
320,192,302218,1,0,0:0:0:0:
192,192,302297,1,0,0:0:0:0:
448,192,302297,1,0,0:0:0:0:
320,192,302375,1,0,0:0:0:0:
64,192,302454,1,0,0:0:0:0:
64,192,302611,1,0,0:0:0:0:
320,192,302611,1,0,0:0:0:0:
448,192,302769,1,0,0:0:0:0:
192,192,302847,1,0,0:0:0:0:
64,192,302926,1,0,0:0:0:0:
320,192,302926,1,0,0:0:0:0:
192,192,303005,1,0,0:0:0:0:
320,192,303083,1,0,0:0:0:0:
192,192,303241,1,0,0:0:0:0:
448,192,303241,1,0,0:0:0:0:
320,192,303319,1,0,0:0:0:0:
64,192,303319,1,0,0:0:0:0:
448,192,303398,1,0,0:0:0:0:
320,192,303477,1,0,0:0:0:0:
192,192,303477,1,0,0:0:0:0:
448,192,303555,1,0,0:0:0:0:
64,192,303555,1,0,0:0:0:0:
320,192,303634,1,0,0:0:0:0:
192,192,303713,1,0,0:0:0:0:
64,192,303713,1,0,0:0:0:0:
320,192,303791,1,0,0:0:0:0:
448,192,303791,1,0,0:0:0:0:
192,192,303870,1,0,0:0:0:0:
64,192,303870,1,0,0:0:0:0:
448,192,304027,1,0,0:0:0:0:
192,192,304106,1,0,0:0:0:0:
320,192,304185,1,0,0:0:0:0:
64,192,304185,1,0,0:0:0:0:
192,192,304263,1,0,0:0:0:0:
448,192,304342,1,0,0:0:0:0:
320,192,304342,1,0,0:0:0:0:
448,192,304500,1,0,0:0:0:0:
64,192,304500,1,0,0:0:0:0:
192,192,304657,1,0,0:0:0:0:
320,192,304736,1,0,0:0:0:0:
192,192,304814,1,0,0:0:0:0:
448,192,304814,1,0,0:0:0:0:
320,192,304893,1,0,0:0:0:0:
64,192,304972,1,0,0:0:0:0:
64,192,305129,1,0,0:0:0:0:
320,192,305129,1,0,0:0:0:0:
192,192,305286,1,0,0:0:0:0:
64,192,305365,1,0,0:0:0:0:
192,192,305444,1,0,0:0:0:0:
448,192,305444,1,0,0:0:0:0:
64,192,305522,1,0,0:0:0:0:
320,192,305601,1,0,0:0:0:0:
320,192,305758,1,0,0:0:0:0:
64,192,305758,1,0,0:0:0:0:
448,192,305916,1,0,0:0:0:0:
192,192,305916,1,0,0:0:0:0:
320,192,305994,1,0,0:0:0:0:
192,192,306073,1,0,0:0:0:0:
64,192,306073,1,0,0:0:0:0:
448,192,306152,1,0,0:0:0:0:
192,192,306230,1,0,0:0:0:0:
320,192,306230,1,0,0:0:0:0:
64,192,306309,1,0,0:0:0:0:
448,192,306388,1,0,0:0:0:0:
320,192,306388,1,0,0:0:0:0:
448,192,306545,1,0,0:0:0:0:
192,192,306624,1,0,0:0:0:0:
320,192,306703,1,0,0:0:0:0:
64,192,306703,1,0,0:0:0:0:
192,192,306781,1,0,0:0:0:0:
320,192,306860,1,0,0:0:0:0:
448,192,306860,1,0,0:0:0:0:
64,192,307017,1,0,0:0:0:0:
320,192,307017,1,0,0:0:0:0:
448,192,307175,1,0,0:0:0:0:
64,192,307253,1,0,0:0:0:0:
448,192,307332,1,0,0:0:0:0:
192,192,307332,1,0,0:0:0:0:
64,192,307411,1,0,0:0:0:0:
320,192,307489,1,0,0:0:0:0:
320,192,307647,1,0,0:0:0:0:
192,192,307647,1,0,0:0:0:0:
192,192,307804,1,0,0:0:0:0:
448,192,307883,1,0,0:0:0:0:
192,192,307961,1,0,0:0:0:0:
64,192,307961,1,0,0:0:0:0:
448,192,308040,1,0,0:0:0:0:
320,192,308119,1,0,0:0:0:0:
64,192,308276,1,0,0:0:0:0:
448,192,308276,1,0,0:0:0:0:
320,192,308355,1,0,0:0:0:0:
192,192,308355,1,0,0:0:0:0:
64,192,308433,1,0,0:0:0:0:
192,192,308512,1,0,0:0:0:0:
448,192,308512,1,0,0:0:0:0:
320,192,308591,1,0,0:0:0:0:
64,192,308591,1,0,0:0:0:0:
448,192,308669,1,0,0:0:0:0:
192,192,308748,1,0,0:0:0:0:
64,192,308748,1,0,0:0:0:0:
320,192,308827,1,0,0:0:0:0:
192,192,308905,1,0,0:0:0:0:
64,192,308905,1,0,0:0:0:0:
448,192,308905,1,0,0:0:0:0:
320,192,308945,1,0,0:0:0:0:
192,192,309063,1,0,0:0:0:0:
64,192,309102,1,0,0:0:0:0:
320,192,309142,1,0,0:0:0:0:
192,192,309220,1,0,0:0:0:0:
448,192,309220,1,0,0:0:0:0:
320,192,309299,1,0,0:0:0:0:
64,192,309378,1,0,0:0:0:0:
448,192,309378,1,0,0:0:0:0:
192,192,309417,1,0,0:0:0:0:
448,192,309535,1,0,0:0:0:0:
64,192,309535,1,0,0:0:0:0:
320,192,309574,1,0,0:0:0:0:
192,192,309692,1,0,0:0:0:0:
64,192,309771,1,0,0:0:0:0:
448,192,309850,1,0,0:0:0:0:
320,192,309850,1,0,0:0:0:0:
192,192,309889,1,0,0:0:0:0:
64,192,309928,1,0,0:0:0:0:
320,192,310007,1,0,0:0:0:0:
448,192,310046,1,0,0:0:0:0:
64,192,310164,1,0,0:0:0:0:
192,192,310164,1,0,0:0:0:0:
320,192,310204,1,0,0:0:0:0:
64,192,310322,1,0,0:0:0:0:
192,192,310361,1,0,0:0:0:0:
448,192,310400,1,0,0:0:0:0:
64,192,310479,1,0,0:0:0:0:
320,192,310479,1,0,0:0:0:0:
192,192,310558,1,0,0:0:0:0:
448,192,310636,1,0,0:0:0:0:
320,192,310676,1,0,0:0:0:0:
192,192,310794,1,0,0:0:0:0:
64,192,310794,1,0,0:0:0:0:
320,192,310833,1,0,0:0:0:0:
192,192,310951,1,0,0:0:0:0:
448,192,310951,1,0,0:0:0:0:
64,192,311030,1,0,0:0:0:0:
320,192,311108,1,0,0:0:0:0:
448,192,311108,1,0,0:0:0:0:
192,192,311148,1,0,0:0:0:0:
64,192,311187,1,0,0:0:0:0:
320,192,311266,1,0,0:0:0:0:
448,192,311266,1,0,0:0:0:0:
192,192,311305,1,0,0:0:0:0:
64,192,311345,1,0,0:0:0:0:
320,192,311423,1,0,0:0:0:0:
192,192,311423,1,0,0:0:0:0:
448,192,311463,1,0,0:0:0:0:
64,192,311581,1,0,0:0:0:0:
192,192,311620,1,0,0:0:0:0:
448,192,311659,1,0,0:0:0:0:
64,192,311738,1,0,0:0:0:0:
320,192,311738,1,0,0:0:0:0:
448,192,311817,1,0,0:0:0:0:
192,192,311895,1,0,0:0:0:0:
64,192,311935,1,0,0:0:0:0:
192,192,312053,1,0,0:0:0:0:
448,192,312053,1,0,0:0:0:0:
320,192,312092,1,0,0:0:0:0:
64,192,312210,1,0,0:0:0:0:
192,192,312289,1,0,0:0:0:0:
64,192,312367,1,0,0:0:0:0:
448,192,312367,1,0,0:0:0:0:
320,192,312407,1,0,0:0:0:0:
192,192,312446,1,0,0:0:0:0:
64,192,312525,1,0,0:0:0:0:
448,192,312525,1,0,0:0:0:0:
320,192,312564,1,0,0:0:0:0:
192,192,312682,1,0,0:0:0:0:
448,192,312682,1,0,0:0:0:0:
64,192,312721,1,0,0:0:0:0:
320,192,312839,1,0,0:0:0:0:
448,192,312839,1,0,0:0:0:0:
192,192,312879,1,0,0:0:0:0:
64,192,312918,1,0,0:0:0:0:
320,192,312997,1,0,0:0:0:0:
192,192,312997,1,0,0:0:0:0:
64,192,313075,1,0,0:0:0:0:
192,192,313154,1,0,0:0:0:0:
448,192,313154,1,0,0:0:0:0:
320,192,313193,1,0,0:0:0:0:
64,192,313311,1,0,0:0:0:0:
448,192,313311,1,0,0:0:0:0:
192,192,313390,1,0,0:0:0:0:
320,192,313390,1,0,0:0:0:0:
64,192,313469,1,0,0:0:0:0:
192,192,313548,1,0,0:0:0:0:
448,192,313548,1,0,0:0:0:0:
320,192,313626,1,0,0:0:0:0:
64,192,313626,1,0,0:0:0:0:
448,192,313666,1,0,0:0:0:0:
192,192,313784,1,0,0:0:0:0:
320,192,313784,1,0,0:0:0:0:
64,192,313823,1,0,0:0:0:0:
448,192,313862,1,0,0:0:0:0:
320,192,313941,1,0,0:0:0:0:
192,192,313941,1,0,0:0:0:0:
64,192,313980,1,0,0:0:0:0:
448,192,314098,1,0,0:0:0:0:
320,192,314138,1,0,0:0:0:0:
64,192,314177,1,0,0:0:0:0:
192,192,314256,1,0,0:0:0:0:
448,192,314256,1,0,0:0:0:0:
64,192,314334,1,0,0:0:0:0:
320,192,314413,1,0,0:0:0:0:
192,192,314452,1,0,0:0:0:0:
448,192,314570,1,0,0:0:0:0:
64,192,314570,1,0,0:0:0:0:
192,192,314610,1,0,0:0:0:0:
448,192,314728,1,0,0:0:0:0:
192,192,314806,1,0,0:0:0:0:
320,192,314885,1,0,0:0:0:0:
64,192,314885,1,0,0:0:0:0:
192,192,314964,1,0,0:0:0:0:
320,192,315042,1,0,0:0:0:0:
64,192,315200,1,0,0:0:0:0:
192,192,315200,1,0,0:0:0:0:
448,192,315278,1,0,0:0:0:0:
192,192,315357,1,0,0:0:0:0:
64,192,315357,1,0,0:0:0:0:
448,192,315436,1,0,0:0:0:0:
320,192,315514,1,0,0:0:0:0:
192,192,315514,1,0,0:0:0:0:
64,192,315593,1,0,0:0:0:0:
192,192,315672,1,0,0:0:0:0:
320,192,315672,1,0,0:0:0:0:
64,192,315750,1,0,0:0:0:0:
320,192,315829,1,0,0:0:0:0:
448,192,315829,1,0,0:0:0:0:
192,192,315908,1,0,0:0:0:0:
320,192,315987,1,0,0:0:0:0:
448,192,315987,1,0,0:0:0:0:
64,192,316065,1,0,0:0:0:0:
192,192,316144,1,0,0:0:0:0:
448,192,316144,1,0,0:0:0:0:
320,192,316183,1,0,0:0:0:0:
64,192,316223,1,0,0:0:0:0:
192,192,316301,1,0,0:0:0:0:
448,192,316301,1,0,0:0:0:0:
320,192,316341,1,0,0:0:0:0:
64,192,316380,1,0,0:0:0:0:
192,192,316459,1,0,0:0:0:0:
320,192,316459,1,0,0:0:0:0:
64,192,316498,1,0,0:0:0:0:
448,192,316537,1,0,0:0:0:0:
192,192,316616,1,0,0:0:0:0:
320,192,316616,1,0,0:0:0:0:
64,192,316655,1,0,0:0:0:0:
448,192,316695,1,0,0:0:0:0:
320,192,316773,1,0,0:0:0:0:
64,192,316773,1,0,0:0:0:0:
448,192,316852,1,0,0:0:0:0:
320,192,316931,1,0,0:0:0:0:
64,192,316931,1,0,0:0:0:0:
448,192,317009,1,0,0:0:0:0:
192,192,317088,1,0,0:0:0:0:
64,192,317088,1,0,0:0:0:0:
320,192,317167,1,0,0:0:0:0:
192,192,317245,1,0,0:0:0:0:
64,192,317245,1,0,0:0:0:0:
320,192,317324,1,0,0:0:0:0:
448,192,317403,1,0,0:0:0:0:
64,192,317403,1,0,0:0:0:0:
192,192,317481,1,0,0:0:0:0:
64,192,317560,1,0,0:0:0:0:
448,192,317560,1,0,0:0:0:0:
192,192,317639,1,0,0:0:0:0:
64,192,317717,1,0,0:0:0:0:
448,192,317717,1,0,0:0:0:0:
320,192,317796,1,0,0:0:0:0:
192,192,317875,1,0,0:0:0:0:
320,192,317953,1,0,0:0:0:0:
192,192,318032,1,0,0:0:0:0:
64,192,318032,1,0,0:0:0:0:
320,192,318111,1,0,0:0:0:0:
192,192,318190,1,0,0:0:0:0:
320,192,318268,1,0,0:0:0:0:
192,192,318347,1,0,0:0:0:0:
64,192,318347,1,0,0:0:0:0:
320,192,318426,1,0,0:0:0:0:
448,192,318426,1,0,0:0:0:0:
64,192,318504,1,0,0:0:0:0:
320,192,318583,1,0,0:0:0:0:
448,192,318583,1,0,0:0:0:0:
192,192,318662,1,0,0:0:0:0:
64,192,318662,1,0,0:0:0:0:
448,192,318740,1,0,0:0:0:0:
192,192,318819,1,0,0:0:0:0:
64,192,318819,1,0,0:0:0:0:
320,192,318898,1,0,0:0:0:0:
448,192,318898,1,0,0:0:0:0:
