osu file format v14

[General]
AudioFilename: audio_0.85.mp3
AudioLeadIn: 0
PreviewTime: 67269
Countdown: 0
SampleSet: Soft
StackLeniency: 0.7
Mode: 3
LetterboxInBreaks: 0
SpecialStyle: 0
WidescreenStoryboard: 1

[Editor]
DistanceSpacing: 0.8
BeatDivisor: 8
GridSize: 32
TimelineZoom: 2.7

[Metadata]
Title:Aim Burst
TitleUnicode:Aim Burst
Artist:DJ Sharpnel
ArtistUnicode:DJ Sharpnel
Creator:frolica
Version:Coin-Flipping x0.85
Source:
Tags:
BeatmapID:1523423
BeatmapSetID:721458

[Difficulty]
HPDrainRate:8.5
CircleSize:4
OverallDifficulty:7
ApproachRate:5
SliderMultiplier:1.4
SliderTickRate:1

[Events]
//Background and Video events
0,0,"BG01.jpg",0,0
//Break Periods
//Storyboard Layer 0 (Background)
//Storyboard Layer 1 (Fail)
//Storyboard Layer 2 (Pass)
//Storyboard Layer 3 (Foreground)
//Storyboard Sound Samples

[TimingPoints]
3703,369.571912534647,4,2,0,0,1,0

[HitObjects]
320,192,745,128,0,3610:0:0:0:0:
448,192,745,128,0,3610:0:0:0:0:
64,192,2224,128,0,3610:0:0:0:0:
192,192,2224,128,0,3610:0:0:0:0:
64,192,3702,1,0,0:0:0:0:
192,192,3702,1,0,0:0:0:0:
320,192,3702,1,0,0:0:0:0:
448,192,3702,1,0,0:0:0:0:
192,192,3888,1,0,0:0:0:0:
64,192,4072,1,0,0:0:0:0:
320,192,4072,1,0,0:0:0:0:
448,192,4072,1,0,0:0:0:0:
320,192,4257,1,0,0:0:0:0:
64,192,4442,1,0,0:0:0:0:
192,192,4442,1,0,0:0:0:0:
192,192,4627,1,0,0:0:0:0:
64,192,4811,1,0,0:0:0:0:
320,192,4811,1,0,0:0:0:0:
448,192,4811,1,0,0:0:0:0:
320,192,4996,1,0,0:0:0:0:
192,192,5181,1,0,0:0:0:0:
448,192,5181,1,0,0:0:0:0:
192,192,5365,1,0,0:0:0:0:
64,192,5550,1,0,0:0:0:0:
320,192,5550,1,0,0:0:0:0:
448,192,5550,1,0,0:0:0:0:
64,192,5735,1,0,0:0:0:0:
192,192,5920,1,0,0:0:0:0:
320,192,5920,1,0,0:0:0:0:
192,192,6104,1,0,0:0:0:0:
64,192,6289,1,0,0:0:0:0:
320,192,6289,1,0,0:0:0:0:
448,192,6289,1,0,0:0:0:0:
320,192,6475,1,0,0:0:0:0:
192,192,6660,1,0,0:0:0:0:
448,192,6660,1,0,0:0:0:0:
192,192,6844,1,0,0:0:0:0:
64,192,7029,1,0,0:0:0:0:
320,192,7029,1,0,0:0:0:0:
448,192,7029,1,0,0:0:0:0:
320,192,7214,1,0,0:0:0:0:
64,192,7398,1,0,0:0:0:0:
192,192,7398,1,0,0:0:0:0:
192,192,7583,1,0,0:0:0:0:
64,192,7768,1,0,0:0:0:0:
320,192,7768,1,0,0:0:0:0:
448,192,7768,1,0,0:0:0:0:
320,192,7952,1,0,0:0:0:0:
192,192,8137,1,0,0:0:0:0:
448,192,8137,1,0,0:0:0:0:
192,192,8322,1,0,0:0:0:0:
64,192,8507,1,0,0:0:0:0:
320,192,8507,1,0,0:0:0:0:
448,192,8507,1,0,0:0:0:0:
64,192,8691,1,0,0:0:0:0:
192,192,8876,1,0,0:0:0:0:
320,192,8876,1,0,0:0:0:0:
192,192,9061,1,0,0:0:0:0:
64,192,9247,1,0,0:0:0:0:
320,192,9247,1,0,0:0:0:0:
448,192,9247,1,0,0:0:0:0:
320,192,9431,1,0,0:0:0:0:
448,192,9431,1,0,0:0:0:0:
64,192,9431,1,0,0:0:0:0:
192,192,9431,1,0,0:0:0:0:
192,192,9523,1,0,0:0:0:0:
64,192,9523,1,0,0:0:0:0:
320,192,9523,1,0,0:0:0:0:
448,192,9523,1,0,0:0:0:0:
448,192,9616,1,0,0:0:0:0:
320,192,9616,1,0,0:0:0:0:
192,192,9616,1,0,0:0:0:0:
64,192,9616,1,0,0:0:0:0:
320,192,9801,1,0,0:0:0:0:
448,192,9985,1,0,0:0:0:0:
192,192,9985,1,0,0:0:0:0:
64,192,9985,1,0,0:0:0:0:
192,192,10170,1,0,0:0:0:0:
448,192,10355,1,0,0:0:0:0:
320,192,10355,1,0,0:0:0:0:
320,192,10540,1,0,0:0:0:0:
448,192,10724,1,0,0:0:0:0:
192,192,10724,1,0,0:0:0:0:
64,192,10724,1,0,0:0:0:0:
192,192,10909,1,0,0:0:0:0:
320,192,11094,1,0,0:0:0:0:
64,192,11094,1,0,0:0:0:0:
320,192,11278,1,0,0:0:0:0:
448,192,11463,1,0,0:0:0:0:
192,192,11463,1,0,0:0:0:0:
64,192,11463,1,0,0:0:0:0:
448,192,11648,1,0,0:0:0:0:
320,192,11832,1,0,0:0:0:0:
192,192,11832,1,0,0:0:0:0:
320,192,12018,1,0,0:0:0:0:
448,192,12203,1,0,0:0:0:0:
192,192,12203,1,0,0:0:0:0:
64,192,12203,1,0,0:0:0:0:
192,192,12388,1,0,0:0:0:0:
320,192,12572,1,0,0:0:0:0:
64,192,12572,1,0,0:0:0:0:
320,192,12757,1,0,0:0:0:0:
448,192,12942,1,0,0:0:0:0:
192,192,12942,1,0,0:0:0:0:
64,192,12942,1,0,0:0:0:0:
192,192,13127,1,0,0:0:0:0:
448,192,13311,1,0,0:0:0:0:
320,192,13311,1,0,0:0:0:0:
320,192,13496,1,0,0:0:0:0:
448,192,13681,1,0,0:0:0:0:
192,192,13681,1,0,0:0:0:0:
64,192,13681,1,0,0:0:0:0:
448,192,13865,1,0,0:0:0:0:
320,192,14050,1,0,0:0:0:0:
192,192,14050,1,0,0:0:0:0:
320,192,14143,1,0,0:0:0:0:
192,192,14143,1,0,0:0:0:0:
448,192,14420,1,0,0:0:0:0:
192,192,14420,1,0,0:0:0:0:
64,192,14420,1,0,0:0:0:0:
320,192,14605,1,0,0:0:0:0:
192,192,14605,1,0,0:0:0:0:
320,192,14790,1,0,0:0:0:0:
64,192,14790,1,0,0:0:0:0:
448,192,14790,1,0,0:0:0:0:
448,192,15067,1,0,0:0:0:0:
320,192,15067,1,0,0:0:0:0:
64,192,15067,1,0,0:0:0:0:
320,192,15344,1,0,0:0:0:0:
64,192,15344,1,0,0:0:0:0:
448,192,15344,1,0,0:0:0:0:
448,192,15529,1,0,0:0:0:0:
320,192,15529,1,0,0:0:0:0:
64,192,15529,1,0,0:0:0:0:
192,192,15529,1,0,0:0:0:0:
64,192,15714,1,0,0:0:0:0:
320,192,15714,1,0,0:0:0:0:
192,192,15898,1,0,0:0:0:0:
448,192,15898,1,0,0:0:0:0:
320,192,15898,1,0,0:0:0:0:
64,192,16083,1,0,0:0:0:0:
192,192,16083,1,0,0:0:0:0:
320,192,16176,1,0,0:0:0:0:
448,192,16176,1,0,0:0:0:0:
64,192,16268,1,0,0:0:0:0:
192,192,16268,1,0,0:0:0:0:
448,192,16268,1,0,0:0:0:0:
64,192,16452,1,0,0:0:0:0:
192,192,16452,1,0,0:0:0:0:
320,192,16637,1,0,0:0:0:0:
448,192,16637,1,0,0:0:0:0:
192,192,16637,1,0,0:0:0:0:
64,192,16822,1,0,0:0:0:0:
320,192,16822,1,0,0:0:0:0:
192,192,16915,1,0,0:0:0:0:
448,192,16915,1,0,0:0:0:0:
64,192,17007,1,0,0:0:0:0:
320,192,17007,1,0,0:0:0:0:
448,192,17007,1,0,0:0:0:0:
64,192,17191,1,0,0:0:0:0:
320,192,17191,1,0,0:0:0:0:
192,192,17377,1,0,0:0:0:0:
448,192,17377,1,0,0:0:0:0:
320,192,17377,1,0,0:0:0:0:
64,192,17562,1,0,0:0:0:0:
192,192,17562,1,0,0:0:0:0:
320,192,17654,1,0,0:0:0:0:
448,192,17654,1,0,0:0:0:0:
64,192,17747,1,0,0:0:0:0:
192,192,17747,1,0,0:0:0:0:
448,192,17747,1,0,0:0:0:0:
64,192,17931,1,0,0:0:0:0:
192,192,17931,1,0,0:0:0:0:
320,192,18116,1,0,0:0:0:0:
448,192,18116,1,0,0:0:0:0:
64,192,18116,1,0,0:0:0:0:
320,192,18301,1,0,0:0:0:0:
192,192,18301,1,0,0:0:0:0:
448,192,18392,1,0,0:0:0:0:
64,192,18392,1,0,0:0:0:0:
320,192,18485,1,0,0:0:0:0:
192,192,18485,1,0,0:0:0:0:
64,192,18485,1,0,0:0:0:0:
448,192,18670,1,0,0:0:0:0:
192,192,18670,1,0,0:0:0:0:
320,192,18855,1,0,0:0:0:0:
64,192,18855,1,0,0:0:0:0:
192,192,18855,1,0,0:0:0:0:
448,192,19040,1,0,0:0:0:0:
320,192,19040,1,0,0:0:0:0:
192,192,19132,1,0,0:0:0:0:
64,192,19132,1,0,0:0:0:0:
448,192,19224,1,0,0:0:0:0:
320,192,19224,1,0,0:0:0:0:
64,192,19224,1,0,0:0:0:0:
448,192,19409,1,0,0:0:0:0:
320,192,19409,1,0,0:0:0:0:
192,192,19594,1,0,0:0:0:0:
64,192,19594,1,0,0:0:0:0:
320,192,19594,1,0,0:0:0:0:
448,192,19778,1,0,0:0:0:0:
192,192,19778,1,0,0:0:0:0:
320,192,19871,1,0,0:0:0:0:
64,192,19871,1,0,0:0:0:0:
448,192,19963,1,0,0:0:0:0:
192,192,19963,1,0,0:0:0:0:
64,192,19963,1,0,0:0:0:0:
448,192,20149,1,0,0:0:0:0:
192,192,20149,1,0,0:0:0:0:
320,192,20334,1,0,0:0:0:0:
64,192,20334,1,0,0:0:0:0:
192,192,20334,1,0,0:0:0:0:
448,192,20518,1,0,0:0:0:0:
320,192,20518,1,0,0:0:0:0:
192,192,20610,1,0,0:0:0:0:
64,192,20610,1,0,0:0:0:0:
448,192,20703,1,0,0:0:0:0:
320,192,20703,1,0,0:0:0:0:
64,192,20703,1,0,0:0:0:0:
448,192,20888,1,0,0:0:0:0:
320,192,20888,1,0,0:0:0:0:
192,192,21072,1,0,0:0:0:0:
64,192,21072,1,0,0:0:0:0:
448,192,21072,1,0,0:0:0:0:
192,192,21257,1,0,0:0:0:0:
320,192,21257,1,0,0:0:0:0:
64,192,21349,1,0,0:0:0:0:
448,192,21349,1,0,0:0:0:0:
192,192,21442,1,0,0:0:0:0:
320,192,21442,1,0,0:0:0:0:
448,192,21442,1,0,0:0:0:0:
320,192,21627,1,0,0:0:0:0:
64,192,21627,1,0,0:0:0:0:
448,192,21811,1,0,0:0:0:0:
192,192,21811,1,0,0:0:0:0:
320,192,21811,1,0,0:0:0:0:
192,192,21996,1,0,0:0:0:0:
64,192,21996,1,0,0:0:0:0:
448,192,22089,1,0,0:0:0:0:
320,192,22089,1,0,0:0:0:0:
192,192,22181,1,0,0:0:0:0:
64,192,22181,1,0,0:0:0:0:
320,192,22181,1,0,0:0:0:0:
192,192,22365,1,0,0:0:0:0:
64,192,22365,1,0,0:0:0:0:
448,192,22550,1,0,0:0:0:0:
320,192,22550,1,0,0:0:0:0:
192,192,22550,1,0,0:0:0:0:
320,192,22736,1,0,0:0:0:0:
64,192,22736,1,0,0:0:0:0:
448,192,22828,1,0,0:0:0:0:
192,192,22828,1,0,0:0:0:0:
320,192,22921,1,0,0:0:0:0:
64,192,22921,1,0,0:0:0:0:
448,192,22921,1,0,0:0:0:0:
320,192,23105,1,0,0:0:0:0:
64,192,23105,1,0,0:0:0:0:
448,192,23290,1,0,0:0:0:0:
192,192,23290,1,0,0:0:0:0:
320,192,23290,1,0,0:0:0:0:
192,192,23475,1,0,0:0:0:0:
64,192,23475,1,0,0:0:0:0:
448,192,23567,1,0,0:0:0:0:
320,192,23567,1,0,0:0:0:0:
192,192,23660,1,0,0:0:0:0:
64,192,23660,1,0,0:0:0:0:
320,192,23660,1,0,0:0:0:0:
192,192,23844,1,0,0:0:0:0:
64,192,23844,1,0,0:0:0:0:
448,192,24029,1,0,0:0:0:0:
320,192,24029,1,0,0:0:0:0:
192,192,24029,1,0,0:0:0:0:
320,192,24214,1,0,0:0:0:0:
64,192,24214,1,0,0:0:0:0:
448,192,24307,1,0,0:0:0:0:
192,192,24307,1,0,0:0:0:0:
320,192,24398,1,0,0:0:0:0:
64,192,24398,1,0,0:0:0:0:
448,192,24398,1,0,0:0:0:0:
448,192,24583,1,0,0:0:0:0:
192,192,24583,1,0,0:0:0:0:
320,192,24768,1,0,0:0:0:0:
64,192,24768,1,0,0:0:0:0:
192,192,24768,1,0,0:0:0:0:
448,192,24952,1,0,0:0:0:0:
320,192,24952,1,0,0:0:0:0:
192,192,25045,1,0,0:0:0:0:
64,192,25045,1,0,0:0:0:0:
448,192,25137,1,0,0:0:0:0:
320,192,25137,1,0,0:0:0:0:
192,192,25137,1,0,0:0:0:0:
448,192,25322,1,0,0:0:0:0:
320,192,25322,1,0,0:0:0:0:
192,192,25508,1,0,0:0:0:0:
64,192,25508,1,0,0:0:0:0:
320,192,25508,1,0,0:0:0:0:
448,192,25692,1,0,0:0:0:0:
64,192,25692,1,0,0:0:0:0:
192,192,25784,1,0,0:0:0:0:
320,192,25784,1,0,0:0:0:0:
320,192,25877,1,0,0:0:0:0:
448,192,25877,1,0,0:0:0:0:
64,192,25877,1,0,0:0:0:0:
320,192,25969,1,0,0:0:0:0:
192,192,25969,1,0,0:0:0:0:
448,192,25969,1,0,0:0:0:0:
64,192,26247,1,0,0:0:0:0:
320,192,26247,1,0,0:0:0:0:
448,192,26247,1,0,0:0:0:0:
192,192,26431,1,0,0:0:0:0:
320,192,26431,1,0,0:0:0:0:
192,192,26616,1,0,0:0:0:0:
448,192,26616,1,0,0:0:0:0:
64,192,26616,1,0,0:0:0:0:
320,192,26801,1,0,0:0:0:0:
64,192,26894,1,0,0:0:0:0:
192,192,26894,1,0,0:0:0:0:
448,192,26894,1,0,0:0:0:0:
320,192,27078,1,0,0:0:0:0:
192,192,27170,1,0,0:0:0:0:
448,192,27170,1,0,0:0:0:0:
64,192,27170,1,0,0:0:0:0:
64,192,27355,1,0,0:0:0:0:
320,192,27355,1,0,0:0:0:0:
448,192,27355,1,0,0:0:0:0:
192,192,27448,1,0,0:0:0:0:
320,192,27540,1,0,0:0:0:0:
192,192,27632,1,0,0:0:0:0:
64,192,27724,1,0,0:0:0:0:
320,192,27724,1,0,0:0:0:0:
448,192,27724,1,0,0:0:0:0:
192,192,27817,1,0,0:0:0:0:
320,192,27909,1,0,0:0:0:0:
192,192,28002,1,0,0:0:0:0:
64,192,28094,1,0,0:0:0:0:
448,192,28094,1,0,0:0:0:0:
192,192,28187,1,0,0:0:0:0:
320,192,28280,1,0,0:0:0:0:
192,192,28371,1,0,0:0:0:0:
64,192,28464,1,0,0:0:0:0:
320,192,28464,1,0,0:0:0:0:
448,192,28464,1,0,0:0:0:0:
192,192,28556,1,0,0:0:0:0:
64,192,28649,1,0,0:0:0:0:
448,192,28649,1,0,0:0:0:0:
320,192,28741,1,0,0:0:0:0:
64,192,28834,1,0,0:0:0:0:
192,192,28834,1,0,0:0:0:0:
448,192,28834,1,0,0:0:0:0:
320,192,28925,1,0,0:0:0:0:
192,192,29018,1,0,0:0:0:0:
320,192,29110,1,0,0:0:0:0:
64,192,29203,1,0,0:0:0:0:
192,192,29203,1,0,0:0:0:0:
448,192,29203,1,0,0:0:0:0:
320,192,29295,1,0,0:0:0:0:
192,192,29388,1,0,0:0:0:0:
320,192,29480,1,0,0:0:0:0:
64,192,29572,1,0,0:0:0:0:
448,192,29572,1,0,0:0:0:0:
320,192,29665,1,0,0:0:0:0:
192,192,29757,1,0,0:0:0:0:
320,192,29850,1,0,0:0:0:0:
64,192,29942,1,0,0:0:0:0:
192,192,29942,1,0,0:0:0:0:
448,192,29942,1,0,0:0:0:0:
320,192,30035,1,0,0:0:0:0:
64,192,30127,1,0,0:0:0:0:
448,192,30127,1,0,0:0:0:0:
192,192,30220,1,0,0:0:0:0:
64,192,30311,1,0,0:0:0:0:
320,192,30311,1,0,0:0:0:0:
448,192,30311,1,0,0:0:0:0:
192,192,30404,1,0,0:0:0:0:
320,192,30496,1,0,0:0:0:0:
192,192,30589,1,0,0:0:0:0:
64,192,30681,1,0,0:0:0:0:
320,192,30681,1,0,0:0:0:0:
448,192,30681,1,0,0:0:0:0:
192,192,30774,1,0,0:0:0:0:
320,192,30867,1,0,0:0:0:0:
192,192,30958,1,0,0:0:0:0:
64,192,31051,1,0,0:0:0:0:
448,192,31051,1,0,0:0:0:0:
192,192,31143,1,0,0:0:0:0:
320,192,31236,1,0,0:0:0:0:
192,192,31328,1,0,0:0:0:0:
64,192,31421,1,0,0:0:0:0:
320,192,31421,1,0,0:0:0:0:
448,192,31421,1,0,0:0:0:0:
192,192,31512,1,0,0:0:0:0:
64,192,31605,1,0,0:0:0:0:
448,192,31605,1,0,0:0:0:0:
320,192,31697,1,0,0:0:0:0:
64,192,31790,1,0,0:0:0:0:
192,192,31790,1,0,0:0:0:0:
448,192,31790,1,0,0:0:0:0:
320,192,31882,1,0,0:0:0:0:
192,192,31975,1,0,0:0:0:0:
320,192,32067,1,0,0:0:0:0:
64,192,32160,1,0,0:0:0:0:
192,192,32160,1,0,0:0:0:0:
448,192,32160,1,0,0:0:0:0:
320,192,32252,1,0,0:0:0:0:
192,192,32344,1,0,0:0:0:0:
320,192,32437,1,0,0:0:0:0:
64,192,32529,1,0,0:0:0:0:
448,192,32529,1,0,0:0:0:0:
320,192,32622,1,0,0:0:0:0:
192,192,32714,1,0,0:0:0:0:
320,192,32807,1,0,0:0:0:0:
64,192,32898,1,0,0:0:0:0:
192,192,32898,1,0,0:0:0:0:
448,192,32898,1,0,0:0:0:0:
320,192,32991,1,0,0:0:0:0:
64,192,33083,1,0,0:0:0:0:
448,192,33083,1,0,0:0:0:0:
192,192,33176,1,0,0:0:0:0:
320,192,33176,1,0,0:0:0:0:
64,192,33268,1,0,0:0:0:0:
320,192,33268,1,0,0:0:0:0:
448,192,33268,1,0,0:0:0:0:
192,192,33361,1,0,0:0:0:0:
320,192,33452,1,0,0:0:0:0:
192,192,33545,1,0,0:0:0:0:
64,192,33638,1,0,0:0:0:0:
320,192,33638,1,0,0:0:0:0:
448,192,33638,1,0,0:0:0:0:
192,192,33730,1,0,0:0:0:0:
320,192,33823,1,0,0:0:0:0:
64,192,33915,1,0,0:0:0:0:
448,192,34008,1,0,0:0:0:0:
192,192,34008,1,0,0:0:0:0:
64,192,34100,1,0,0:0:0:0:
320,192,34192,1,0,0:0:0:0:
192,192,34284,1,0,0:0:0:0:
64,192,34377,1,0,0:0:0:0:
320,192,34377,1,0,0:0:0:0:
448,192,34377,1,0,0:0:0:0:
192,192,34469,1,0,0:0:0:0:
64,192,34562,1,0,0:0:0:0:
448,192,34562,1,0,0:0:0:0:
320,192,34654,1,0,0:0:0:0:
64,192,34747,1,0,0:0:0:0:
192,192,34747,1,0,0:0:0:0:
448,192,34747,1,0,0:0:0:0:
320,192,34838,1,0,0:0:0:0:
192,192,34931,1,0,0:0:0:0:
320,192,35024,1,0,0:0:0:0:
64,192,35116,1,0,0:0:0:0:
192,192,35116,1,0,0:0:0:0:
448,192,35116,1,0,0:0:0:0:
320,192,35209,1,0,0:0:0:0:
192,192,35301,1,0,0:0:0:0:
448,192,35394,1,0,0:0:0:0:
64,192,35485,1,0,0:0:0:0:
320,192,35485,1,0,0:0:0:0:
448,192,35578,1,0,0:0:0:0:
192,192,35670,1,0,0:0:0:0:
320,192,35763,1,0,0:0:0:0:
64,192,35855,1,0,0:0:0:0:
192,192,35855,1,0,0:0:0:0:
448,192,35855,1,0,0:0:0:0:
320,192,35948,1,0,0:0:0:0:
64,192,36040,1,0,0:0:0:0:
448,192,36040,1,0,0:0:0:0:
192,192,36132,1,0,0:0:0:0:
64,192,36224,1,0,0:0:0:0:
320,192,36224,1,0,0:0:0:0:
448,192,36224,1,0,0:0:0:0:
192,192,36317,1,0,0:0:0:0:
320,192,36410,1,0,0:0:0:0:
192,192,36502,1,0,0:0:0:0:
64,192,36595,1,0,0:0:0:0:
320,192,36595,1,0,0:0:0:0:
448,192,36595,1,0,0:0:0:0:
192,192,36687,1,0,0:0:0:0:
320,192,36780,1,0,0:0:0:0:
64,192,36871,1,0,0:0:0:0:
448,192,36964,1,0,0:0:0:0:
192,192,36964,1,0,0:0:0:0:
64,192,37056,1,0,0:0:0:0:
320,192,37149,1,0,0:0:0:0:
192,192,37241,1,0,0:0:0:0:
64,192,37334,1,0,0:0:0:0:
320,192,37334,1,0,0:0:0:0:
448,192,37334,1,0,0:0:0:0:
192,192,37425,1,0,0:0:0:0:
64,192,37518,1,0,0:0:0:0:
448,192,37518,1,0,0:0:0:0:
320,192,37610,1,0,0:0:0:0:
64,192,37703,1,0,0:0:0:0:
192,192,37703,1,0,0:0:0:0:
448,192,37703,1,0,0:0:0:0:
64,192,37796,1,0,0:0:0:0:
192,192,37796,1,0,0:0:0:0:
320,192,37796,1,0,0:0:0:0:
64,192,38072,1,0,0:0:0:0:
448,192,38072,1,0,0:0:0:0:
192,192,38072,1,0,0:0:0:0:
320,192,38257,1,0,0:0:0:0:
192,192,38257,1,0,0:0:0:0:
64,192,38442,1,0,0:0:0:0:
448,192,38442,1,0,0:0:0:0:
320,192,38442,1,0,0:0:0:0:
192,192,38627,1,0,0:0:0:0:
64,192,38720,1,0,0:0:0:0:
448,192,38720,1,0,0:0:0:0:
320,192,38720,1,0,0:0:0:0:
192,192,38904,1,0,0:0:0:0:
64,192,38996,1,0,0:0:0:0:
448,192,38996,1,0,0:0:0:0:
320,192,38996,1,0,0:0:0:0:
448,192,39182,1,0,0:0:0:0:
192,192,39182,1,0,0:0:0:0:
64,192,39182,1,0,0:0:0:0:
320,192,39274,1,0,0:0:0:0:
192,192,39367,1,0,0:0:0:0:
320,192,39458,1,0,0:0:0:0:
448,192,39551,1,0,0:0:0:0:
192,192,39551,1,0,0:0:0:0:
64,192,39551,1,0,0:0:0:0:
320,192,39643,1,0,0:0:0:0:
192,192,39736,1,0,0:0:0:0:
320,192,39828,1,0,0:0:0:0:
448,192,39921,1,0,0:0:0:0:
64,192,39921,1,0,0:0:0:0:
320,192,40012,1,0,0:0:0:0:
192,192,40105,1,0,0:0:0:0:
320,192,40197,1,0,0:0:0:0:
448,192,40290,1,0,0:0:0:0:
192,192,40290,1,0,0:0:0:0:
64,192,40290,1,0,0:0:0:0:
320,192,40383,1,0,0:0:0:0:
448,192,40475,1,0,0:0:0:0:
64,192,40475,1,0,0:0:0:0:
192,192,40568,1,0,0:0:0:0:
448,192,40660,1,0,0:0:0:0:
320,192,40660,1,0,0:0:0:0:
64,192,40660,1,0,0:0:0:0:
192,192,40752,1,0,0:0:0:0:
320,192,40844,1,0,0:0:0:0:
192,192,40937,1,0,0:0:0:0:
448,192,41029,1,0,0:0:0:0:
320,192,41029,1,0,0:0:0:0:
64,192,41029,1,0,0:0:0:0:
192,192,41122,1,0,0:0:0:0:
320,192,41214,1,0,0:0:0:0:
192,192,41307,1,0,0:0:0:0:
448,192,41398,1,0,0:0:0:0:
64,192,41398,1,0,0:0:0:0:
192,192,41491,1,0,0:0:0:0:
320,192,41583,1,0,0:0:0:0:
192,192,41676,1,0,0:0:0:0:
448,192,41769,1,0,0:0:0:0:
320,192,41769,1,0,0:0:0:0:
64,192,41769,1,0,0:0:0:0:
192,192,41861,1,0,0:0:0:0:
448,192,41954,1,0,0:0:0:0:
64,192,41954,1,0,0:0:0:0:
320,192,42045,1,0,0:0:0:0:
448,192,42138,1,0,0:0:0:0:
192,192,42138,1,0,0:0:0:0:
64,192,42138,1,0,0:0:0:0:
320,192,42230,1,0,0:0:0:0:
192,192,42323,1,0,0:0:0:0:
320,192,42415,1,0,0:0:0:0:
448,192,42508,1,0,0:0:0:0:
192,192,42508,1,0,0:0:0:0:
64,192,42508,1,0,0:0:0:0:
320,192,42600,1,0,0:0:0:0:
192,192,42692,1,0,0:0:0:0:
320,192,42784,1,0,0:0:0:0:
448,192,42877,1,0,0:0:0:0:
64,192,42877,1,0,0:0:0:0:
320,192,42969,1,0,0:0:0:0:
192,192,43062,1,0,0:0:0:0:
320,192,43155,1,0,0:0:0:0:
448,192,43247,1,0,0:0:0:0:
192,192,43247,1,0,0:0:0:0:
64,192,43247,1,0,0:0:0:0:
320,192,43340,1,0,0:0:0:0:
448,192,43431,1,0,0:0:0:0:
64,192,43431,1,0,0:0:0:0:
192,192,43524,1,0,0:0:0:0:
448,192,43616,1,0,0:0:0:0:
320,192,43616,1,0,0:0:0:0:
64,192,43616,1,0,0:0:0:0:
192,192,43709,1,0,0:0:0:0:
320,192,43801,1,0,0:0:0:0:
192,192,43894,1,0,0:0:0:0:
448,192,43985,1,0,0:0:0:0:
320,192,43985,1,0,0:0:0:0:
64,192,43985,1,0,0:0:0:0:
192,192,44078,1,0,0:0:0:0:
320,192,44170,1,0,0:0:0:0:
192,192,44263,1,0,0:0:0:0:
448,192,44355,1,0,0:0:0:0:
64,192,44355,1,0,0:0:0:0:
192,192,44448,1,0,0:0:0:0:
320,192,44541,1,0,0:0:0:0:
192,192,44632,1,0,0:0:0:0:
448,192,44725,1,0,0:0:0:0:
320,192,44725,1,0,0:0:0:0:
64,192,44725,1,0,0:0:0:0:
192,192,44817,1,0,0:0:0:0:
448,192,44910,5,0,0:0:0:0:
64,192,44910,1,0,0:0:0:0:
320,192,45002,5,0,0:0:0:0:
192,192,45002,1,0,0:0:0:0:
448,192,45095,1,0,0:0:0:0:
192,192,45095,1,0,0:0:0:0:
64,192,45095,1,0,0:0:0:0:
320,192,45187,1,0,0:0:0:0:
192,192,45280,1,0,0:0:0:0:
320,192,45371,1,0,0:0:0:0:
448,192,45464,1,0,0:0:0:0:
192,192,45464,1,0,0:0:0:0:
64,192,45464,1,0,0:0:0:0:
320,192,45556,1,0,0:0:0:0:
192,192,45649,1,0,0:0:0:0:
448,192,45741,1,0,0:0:0:0:
64,192,45834,1,0,0:0:0:0:
320,192,45834,1,0,0:0:0:0:
448,192,45927,1,0,0:0:0:0:
192,192,46018,1,0,0:0:0:0:
320,192,46111,1,0,0:0:0:0:
448,192,46203,1,0,0:0:0:0:
192,192,46203,1,0,0:0:0:0:
64,192,46203,1,0,0:0:0:0:
320,192,46296,1,0,0:0:0:0:
64,192,46388,1,0,0:0:0:0:
192,192,46418,1,0,0:0:0:0:
320,192,46450,1,0,0:0:0:0:
448,192,46481,1,0,0:0:0:0:
64,192,46511,1,0,0:0:0:0:
192,192,46542,1,0,0:0:0:0:
320,192,46572,1,0,0:0:0:0:
448,192,46603,1,0,0:0:0:0:
64,192,46635,1,0,0:0:0:0:
192,192,46665,1,0,0:0:0:0:
320,192,46696,1,0,0:0:0:0:
448,192,46727,1,0,0:0:0:0:
64,192,46757,1,0,0:0:0:0:
192,192,46789,1,0,0:0:0:0:
320,192,46820,1,0,0:0:0:0:
448,192,46850,1,0,0:0:0:0:
64,192,46881,1,0,0:0:0:0:
192,192,46911,1,0,0:0:0:0:
320,192,46942,1,0,0:0:0:0:
448,192,46974,1,0,0:0:0:0:
64,192,47004,1,0,0:0:0:0:
192,192,47035,1,0,0:0:0:0:
320,192,47065,1,0,0:0:0:0:
448,192,47096,1,0,0:0:0:0:
64,192,47127,1,0,0:0:0:0:
192,192,47158,1,0,0:0:0:0:
320,192,47189,1,0,0:0:0:0:
448,192,47220,1,0,0:0:0:0:
64,192,47250,1,0,0:0:0:0:
192,192,47281,1,0,0:0:0:0:
320,192,47312,1,0,0:0:0:0:
448,192,47343,1,0,0:0:0:0:
64,192,47374,1,0,0:0:0:0:
192,192,47404,1,0,0:0:0:0:
320,192,47435,1,0,0:0:0:0:
448,192,47465,1,0,0:0:0:0:
64,192,47497,1,0,0:0:0:0:
192,192,47528,1,0,0:0:0:0:
320,192,47558,1,0,0:0:0:0:
448,192,47589,1,0,0:0:0:0:
64,192,47620,1,0,0:0:0:0:
192,192,47651,1,0,0:0:0:0:
320,192,47682,1,0,0:0:0:0:
448,192,47712,1,0,0:0:0:0:
64,192,47743,1,0,0:0:0:0:
192,192,47774,1,0,0:0:0:0:
320,192,47804,1,0,0:0:0:0:
448,192,47836,1,0,0:0:0:0:
64,192,47867,1,0,0:0:0:0:
192,192,47897,1,0,0:0:0:0:
320,192,47928,1,0,0:0:0:0:
448,192,47958,1,0,0:0:0:0:
64,192,47989,1,0,0:0:0:0:
192,192,48021,1,0,0:0:0:0:
320,192,48051,1,0,0:0:0:0:
448,192,48082,1,0,0:0:0:0:
64,192,48112,1,0,0:0:0:0:
192,192,48143,1,0,0:0:0:0:
320,192,48175,1,0,0:0:0:0:
448,192,48205,1,0,0:0:0:0:
64,192,48236,1,0,0:0:0:0:
192,192,48267,1,0,0:0:0:0:
320,192,48297,1,0,0:0:0:0:
448,192,48328,1,0,0:0:0:0:
64,192,48360,1,0,0:0:0:0:
192,192,48390,1,0,0:0:0:0:
320,192,48421,1,0,0:0:0:0:
448,192,48451,1,0,0:0:0:0:
64,192,48482,1,0,0:0:0:0:
192,192,48514,1,0,0:0:0:0:
320,192,48544,1,0,0:0:0:0:
448,192,48575,1,0,0:0:0:0:
64,192,48605,1,0,0:0:0:0:
192,192,48636,1,0,0:0:0:0:
320,192,48667,1,0,0:0:0:0:
448,192,48698,1,0,0:0:0:0:
64,192,48729,1,0,0:0:0:0:
192,192,48760,1,0,0:0:0:0:
320,192,48790,1,0,0:0:0:0:
448,192,48821,1,0,0:0:0:0:
64,192,48851,1,0,0:0:0:0:
192,192,48883,1,0,0:0:0:0:
320,192,48914,1,0,0:0:0:0:
448,192,48944,1,0,0:0:0:0:
64,192,48975,1,0,0:0:0:0:
192,192,49005,1,0,0:0:0:0:
320,192,49037,1,0,0:0:0:0:
448,192,49068,1,0,0:0:0:0:
64,192,49098,1,0,0:0:0:0:
192,192,49129,1,0,0:0:0:0:
320,192,49160,1,0,0:0:0:0:
448,192,49190,1,0,0:0:0:0:
64,192,49222,1,0,0:0:0:0:
192,192,49252,1,0,0:0:0:0:
320,192,49283,1,0,0:0:0:0:
448,192,49314,1,0,0:0:0:0:
64,192,49344,1,0,0:0:0:0:
192,192,49375,1,0,0:0:0:0:
320,192,49407,1,0,0:0:0:0:
448,192,49437,1,0,0:0:0:0:
64,192,49468,1,0,0:0:0:0:
192,192,49498,1,0,0:0:0:0:
448,192,49529,1,0,0:0:0:0:
320,192,49561,1,0,0:0:0:0:
64,192,49591,1,0,0:0:0:0:
192,192,49622,1,0,0:0:0:0:
448,192,49652,1,0,0:0:0:0:
320,192,49683,1,0,0:0:0:0:
64,192,49714,1,0,0:0:0:0:
192,192,49745,1,0,0:0:0:0:
448,192,49776,1,0,0:0:0:0:
320,192,49807,1,0,0:0:0:0:
64,192,49837,1,0,0:0:0:0:
192,192,49868,1,0,0:0:0:0:
448,192,49900,1,0,0:0:0:0:
320,192,49930,1,0,0:0:0:0:
64,192,49961,1,0,0:0:0:0:
192,192,49991,1,0,0:0:0:0:
448,192,50022,1,0,0:0:0:0:
320,192,50052,1,0,0:0:0:0:
64,192,50084,1,0,0:0:0:0:
192,192,50115,1,0,0:0:0:0:
448,192,50145,1,0,0:0:0:0:
320,192,50176,1,0,0:0:0:0:
64,192,50207,1,0,0:0:0:0:
192,192,50237,1,0,0:0:0:0:
448,192,50269,1,0,0:0:0:0:
320,192,50300,1,0,0:0:0:0:
64,192,50330,1,0,0:0:0:0:
192,192,50361,1,0,0:0:0:0:
448,192,50391,1,0,0:0:0:0:
320,192,50423,1,0,0:0:0:0:
64,192,50454,1,0,0:0:0:0:
192,192,50454,1,0,0:0:0:0:
320,192,50638,1,0,0:0:0:0:
448,192,50638,1,0,0:0:0:0:
64,192,50823,1,0,0:0:0:0:
192,192,50823,1,0,0:0:0:0:
64,192,51008,1,0,0:0:0:0:
192,192,51008,1,0,0:0:0:0:
320,192,51008,1,0,0:0:0:0:
448,192,51008,1,0,0:0:0:0:
64,192,51192,1,0,0:0:0:0:
320,192,51192,1,0,0:0:0:0:
192,192,51285,1,0,0:0:0:0:
448,192,51285,1,0,0:0:0:0:
448,192,51377,1,0,0:0:0:0:
320,192,51377,1,0,0:0:0:0:
64,192,51377,1,0,0:0:0:0:
192,192,51562,1,0,0:0:0:0:
320,192,51562,1,0,0:0:0:0:
64,192,51747,1,0,0:0:0:0:
320,192,51747,1,0,0:0:0:0:
448,192,51747,1,0,0:0:0:0:
64,192,51931,1,0,0:0:0:0:
192,192,51931,1,0,0:0:0:0:
320,192,52024,1,0,0:0:0:0:
448,192,52024,1,0,0:0:0:0:
448,192,52116,1,0,0:0:0:0:
192,192,52116,1,0,0:0:0:0:
64,192,52116,1,0,0:0:0:0:
192,192,52301,1,0,0:0:0:0:
320,192,52301,1,0,0:0:0:0:
64,192,52485,1,0,0:0:0:0:
320,192,52485,1,0,0:0:0:0:
448,192,52485,1,0,0:0:0:0:
192,192,52671,1,0,0:0:0:0:
448,192,52671,1,0,0:0:0:0:
64,192,52763,1,0,0:0:0:0:
320,192,52763,1,0,0:0:0:0:
448,192,52856,1,0,0:0:0:0:
320,192,52856,1,0,0:0:0:0:
64,192,52856,1,0,0:0:0:0:
192,192,53041,1,0,0:0:0:0:
320,192,53041,1,0,0:0:0:0:
64,192,53225,1,0,0:0:0:0:
192,192,53225,1,0,0:0:0:0:
448,192,53225,1,0,0:0:0:0:
192,192,53410,1,0,0:0:0:0:
448,192,53410,1,0,0:0:0:0:
448,192,53595,1,0,0:0:0:0:
320,192,53595,1,0,0:0:0:0:
64,192,53595,1,0,0:0:0:0:
64,192,53780,1,0,0:0:0:0:
320,192,53780,1,0,0:0:0:0:
192,192,53964,1,0,0:0:0:0:
448,192,53964,1,0,0:0:0:0:
64,192,53964,128,0,54334:0:0:0:0:
320,192,53964,1,0,0:0:0:0:
320,192,54334,1,0,0:0:0:0:
448,192,54334,1,0,0:0:0:0:
192,192,54334,128,0,54703:0:0:0:0:
64,192,54703,1,0,0:0:0:0:
320,192,54703,1,0,0:0:0:0:
448,192,54703,128,0,55072:0:0:0:0:
64,192,55072,1,0,0:0:0:0:
192,192,55072,128,0,55443:0:0:0:0:
320,192,55072,1,0,0:0:0:0:
64,192,55443,1,0,0:0:0:0:
320,192,55443,1,0,0:0:0:0:
448,192,55443,128,0,55720:0:0:0:0:
192,192,55720,1,0,0:0:0:0:
64,192,55720,128,0,55997:0:0:0:0:
320,192,55720,1,0,0:0:0:0:
192,192,55997,1,0,0:0:0:0:
448,192,55997,1,0,0:0:0:0:
320,192,55997,128,0,56367:0:0:0:0:
64,192,56367,1,0,0:0:0:0:
192,192,56367,1,0,0:0:0:0:
448,192,56367,1,0,0:0:0:0:
64,192,56551,1,0,0:0:0:0:
192,192,56551,1,0,0:0:0:0:
320,192,56551,1,0,0:0:0:0:
64,192,56736,1,0,0:0:0:0:
320,192,56736,1,0,0:0:0:0:
448,192,56736,1,0,0:0:0:0:
448,192,56921,1,0,0:0:0:0:
320,192,56921,1,0,0:0:0:0:
192,192,56921,1,0,0:0:0:0:
64,192,56921,1,0,0:0:0:0:
448,192,57105,1,0,0:0:0:0:
192,192,57105,1,0,0:0:0:0:
320,192,57198,1,0,0:0:0:0:
64,192,57198,1,0,0:0:0:0:
64,192,57290,1,0,0:0:0:0:
192,192,57290,1,0,0:0:0:0:
448,192,57290,1,0,0:0:0:0:
320,192,57475,1,0,0:0:0:0:
192,192,57475,1,0,0:0:0:0:
448,192,57660,1,0,0:0:0:0:
192,192,57660,1,0,0:0:0:0:
64,192,57660,1,0,0:0:0:0:
448,192,57844,1,0,0:0:0:0:
320,192,57844,1,0,0:0:0:0:
192,192,57937,1,0,0:0:0:0:
64,192,57937,1,0,0:0:0:0:
64,192,58030,1,0,0:0:0:0:
320,192,58030,1,0,0:0:0:0:
448,192,58030,1,0,0:0:0:0:
320,192,58215,1,0,0:0:0:0:
192,192,58215,1,0,0:0:0:0:
448,192,58400,1,0,0:0:0:0:
192,192,58400,1,0,0:0:0:0:
64,192,58400,1,0,0:0:0:0:
320,192,58584,1,0,0:0:0:0:
64,192,58584,1,0,0:0:0:0:
448,192,58676,1,0,0:0:0:0:
192,192,58676,1,0,0:0:0:0:
64,192,58769,1,0,0:0:0:0:
192,192,58769,1,0,0:0:0:0:
448,192,58769,1,0,0:0:0:0:
320,192,58954,1,0,0:0:0:0:
192,192,58954,1,0,0:0:0:0:
448,192,59138,1,0,0:0:0:0:
320,192,59138,1,0,0:0:0:0:
64,192,59138,1,0,0:0:0:0:
320,192,59323,1,0,0:0:0:0:
64,192,59323,1,0,0:0:0:0:
64,192,59508,1,0,0:0:0:0:
192,192,59508,1,0,0:0:0:0:
448,192,59508,1,0,0:0:0:0:
448,192,59692,1,0,0:0:0:0:
192,192,59692,1,0,0:0:0:0:
448,192,59877,1,0,0:0:0:0:
320,192,59877,1,0,0:0:0:0:
64,192,59877,1,0,0:0:0:0:
64,192,60155,1,0,0:0:0:0:
192,192,60155,1,0,0:0:0:0:
320,192,60155,1,0,0:0:0:0:
192,192,60431,1,0,0:0:0:0:
320,192,60431,1,0,0:0:0:0:
448,192,60431,1,0,0:0:0:0:
448,192,60616,1,0,0:0:0:0:
192,192,60616,1,0,0:0:0:0:
64,192,60616,1,0,0:0:0:0:
64,192,60802,1,0,0:0:0:0:
192,192,60802,1,0,0:0:0:0:
320,192,60802,1,0,0:0:0:0:
64,192,60987,1,0,0:0:0:0:
320,192,60987,1,0,0:0:0:0:
448,192,60987,1,0,0:0:0:0:
192,192,61171,1,0,0:0:0:0:
320,192,61171,1,0,0:0:0:0:
448,192,61171,1,0,0:0:0:0:
448,192,61356,1,0,0:0:0:0:
320,192,61356,1,0,0:0:0:0:
64,192,61356,1,0,0:0:0:0:
64,192,61541,1,0,0:0:0:0:
320,192,61541,1,0,0:0:0:0:
448,192,61541,1,0,0:0:0:0:
64,192,61725,1,0,0:0:0:0:
192,192,61725,1,0,0:0:0:0:
320,192,61725,1,0,0:0:0:0:
320,192,61910,1,0,0:0:0:0:
192,192,61910,1,0,0:0:0:0:
64,192,61910,1,0,0:0:0:0:
64,192,62095,1,0,0:0:0:0:
192,192,62095,1,0,0:0:0:0:
448,192,62095,1,0,0:0:0:0:
448,192,62280,1,0,0:0:0:0:
64,192,62280,1,0,0:0:0:0:
192,192,62280,1,0,0:0:0:0:
448,192,62464,1,0,0:0:0:0:
320,192,62464,1,0,0:0:0:0:
192,192,62464,1,0,0:0:0:0:
448,192,62649,1,0,0:0:0:0:
192,192,62649,1,0,0:0:0:0:
320,192,62649,1,0,0:0:0:0:
192,192,62834,1,0,0:0:0:0:
64,192,62834,1,0,0:0:0:0:
320,192,62881,1,0,0:0:0:0:
448,192,62881,1,0,0:0:0:0:
64,192,62927,1,0,0:0:0:0:
192,192,62927,1,0,0:0:0:0:
320,192,63018,1,0,0:0:0:0:
448,192,63018,1,0,0:0:0:0:
192,192,63065,1,0,0:0:0:0:
64,192,63065,1,0,0:0:0:0:
320,192,63111,1,0,0:0:0:0:
448,192,63111,1,0,0:0:0:0:
64,192,63203,1,0,0:0:0:0:
192,192,63203,1,0,0:0:0:0:
448,192,63296,1,0,0:0:0:0:
64,192,63388,1,0,0:0:0:0:
320,192,63388,1,0,0:0:0:0:
192,192,63481,1,0,0:0:0:0:
320,192,63574,1,0,0:0:0:0:
64,192,63574,1,0,0:0:0:0:
192,192,63620,1,0,0:0:0:0:
448,192,63620,1,0,0:0:0:0:
320,192,63665,1,0,0:0:0:0:
64,192,63665,1,0,0:0:0:0:
192,192,63758,1,0,0:0:0:0:
448,192,63758,1,0,0:0:0:0:
320,192,63804,1,0,0:0:0:0:
64,192,63804,1,0,0:0:0:0:
192,192,63850,1,0,0:0:0:0:
448,192,63850,1,0,0:0:0:0:
320,192,63943,1,0,0:0:0:0:
64,192,63943,1,0,0:0:0:0:
192,192,64035,1,0,0:0:0:0:
448,192,64128,1,0,0:0:0:0:
64,192,64128,1,0,0:0:0:0:
320,192,64220,1,0,0:0:0:0:
64,192,64312,1,0,0:0:0:0:
192,192,64312,1,0,0:0:0:0:
448,192,64312,1,0,0:0:0:0:
64,192,64404,1,0,0:0:0:0:
192,192,64404,1,0,0:0:0:0:
448,192,64404,1,0,0:0:0:0:
64,192,64497,1,0,0:0:0:0:
192,192,64497,1,0,0:0:0:0:
448,192,64497,1,0,0:0:0:0:
192,192,64682,1,0,0:0:0:0:
64,192,64682,1,0,0:0:0:0:
320,192,64682,1,0,0:0:0:0:
64,192,64774,1,0,0:0:0:0:
192,192,64774,1,0,0:0:0:0:
320,192,64774,1,0,0:0:0:0:
192,192,64867,1,0,0:0:0:0:
64,192,64867,1,0,0:0:0:0:
320,192,64867,1,0,0:0:0:0:
192,192,65051,1,0,0:0:0:0:
64,192,65051,1,0,0:0:0:0:
448,192,65051,1,0,0:0:0:0:
192,192,65144,1,0,0:0:0:0:
320,192,65144,1,0,0:0:0:0:
64,192,65144,1,0,0:0:0:0:
64,192,65236,1,0,0:0:0:0:
448,192,65236,1,0,0:0:0:0:
320,192,65236,1,0,0:0:0:0:
192,192,65329,1,0,0:0:0:0:
320,192,65329,1,0,0:0:0:0:
448,192,65329,1,0,0:0:0:0:
192,192,65421,1,0,0:0:0:0:
64,192,65421,1,0,0:0:0:0:
448,192,65421,1,0,0:0:0:0:
192,192,65514,1,0,0:0:0:0:
320,192,65514,1,0,0:0:0:0:
64,192,65514,1,0,0:0:0:0:
64,192,65605,1,0,0:0:0:0:
448,192,65605,1,0,0:0:0:0:
320,192,65605,1,0,0:0:0:0:
448,192,65698,1,0,0:0:0:0:
192,192,65698,1,0,0:0:0:0:
320,192,65698,1,0,0:0:0:0:
64,192,65790,1,0,0:0:0:0:
192,192,65790,1,0,0:0:0:0:
320,192,65790,1,0,0:0:0:0:
448,192,65790,1,0,0:0:0:0:
192,192,65975,128,0,66252:0:0:0:0:
64,192,65975,128,0,66437:0:0:0:0:
320,192,66161,128,0,66252:0:0:0:0:
448,192,66161,128,0,66437:0:0:0:0:
192,192,66345,128,0,66437:0:0:0:0:
320,192,66345,128,0,66437:0:0:0:0:
192,192,66530,1,0,0:0:0:0:
64,192,66530,1,0,0:0:0:0:
448,192,66530,1,0,0:0:0:0:
320,192,66530,1,0,0:0:0:0:
192,192,66622,1,0,0:0:0:0:
320,192,66622,1,0,0:0:0:0:
64,192,66715,1,0,0:0:0:0:
448,192,66715,1,0,0:0:0:0:
192,192,66807,1,0,0:0:0:0:
320,192,66807,1,0,0:0:0:0:
64,192,66900,1,0,0:0:0:0:
448,192,66900,1,0,0:0:0:0:
320,192,66900,1,0,0:0:0:0:
320,192,66961,1,0,0:0:0:0:
192,192,66961,1,0,0:0:0:0:
448,192,67022,1,0,0:0:0:0:
64,192,67022,1,0,0:0:0:0:
192,192,67022,1,0,0:0:0:0:
320,192,67084,1,0,0:0:0:0:
64,192,67084,1,0,0:0:0:0:
192,192,67176,1,0,0:0:0:0:
448,192,67176,1,0,0:0:0:0:
64,192,67269,1,0,0:0:0:0:
192,192,67269,1,0,0:0:0:0:
320,192,67269,1,0,0:0:0:0:
448,192,67269,1,0,0:0:0:0:
448,192,67454,128,0,67916:0:0:0:0:
320,192,67454,128,0,67731:0:0:0:0:
192,192,67638,128,0,67731:0:0:0:0:
64,192,67638,128,0,68101:0:0:0:0:
320,192,67823,128,0,67916:0:0:0:0:
192,192,67823,128,0,68101:0:0:0:0:
448,192,68008,128,0,68285:0:0:0:0:
320,192,68008,128,0,68285:0:0:0:0:
192,192,68192,128,0,68377:0:0:0:0:
64,192,68192,128,0,68377:0:0:0:0:
448,192,68377,128,0,68470:0:0:0:0:
320,192,68377,128,0,68470:0:0:0:0:
192,192,68470,128,0,68655:0:0:0:0:
64,192,68470,128,0,68655:0:0:0:0:
448,192,68562,128,0,68655:0:0:0:0:
320,192,68562,128,0,68655:0:0:0:0:
64,192,68747,5,0,0:0:0:0:
192,192,68747,1,0,0:0:0:0:
320,192,68747,1,0,0:0:0:0:
448,192,68747,1,0,0:0:0:0:
192,192,68840,1,0,0:0:0:0:
64,192,68932,1,0,0:0:0:0:
448,192,68932,1,0,0:0:0:0:
320,192,69024,1,0,0:0:0:0:
192,192,69024,1,0,0:0:0:0:
64,192,69117,1,0,0:0:0:0:
192,192,69117,1,0,0:0:0:0:
448,192,69117,1,0,0:0:0:0:
320,192,69117,1,0,0:0:0:0:
320,192,69209,1,0,0:0:0:0:
448,192,69302,1,0,0:0:0:0:
192,192,69302,1,0,0:0:0:0:
320,192,69394,1,0,0:0:0:0:
64,192,69394,1,0,0:0:0:0:
448,192,69487,1,0,0:0:0:0:
64,192,69487,1,0,0:0:0:0:
192,192,69487,1,0,0:0:0:0:
192,192,69578,1,0,0:0:0:0:
448,192,69671,1,0,0:0:0:0:
320,192,69671,1,0,0:0:0:0:
64,192,69763,1,0,0:0:0:0:
192,192,69763,1,0,0:0:0:0:
64,192,69856,1,0,0:0:0:0:
192,192,69856,1,0,0:0:0:0:
320,192,69856,1,0,0:0:0:0:
448,192,69856,1,0,0:0:0:0:
448,192,69948,1,0,0:0:0:0:
64,192,70041,1,0,0:0:0:0:
320,192,70041,1,0,0:0:0:0:
192,192,70132,1,0,0:0:0:0:
448,192,70132,1,0,0:0:0:0:
64,192,70225,1,0,0:0:0:0:
192,192,70225,1,0,0:0:0:0:
320,192,70225,1,0,0:0:0:0:
320,192,70318,1,0,0:0:0:0:
448,192,70410,1,0,0:0:0:0:
192,192,70410,1,0,0:0:0:0:
64,192,70503,1,0,0:0:0:0:
320,192,70503,1,0,0:0:0:0:
64,192,70595,1,0,0:0:0:0:
192,192,70595,1,0,0:0:0:0:
320,192,70595,1,0,0:0:0:0:
448,192,70595,1,0,0:0:0:0:
192,192,70688,1,0,0:0:0:0:
320,192,70780,1,0,0:0:0:0:
448,192,70780,1,0,0:0:0:0:
64,192,70872,1,0,0:0:0:0:
192,192,70872,1,0,0:0:0:0:
64,192,70964,1,0,0:0:0:0:
320,192,70964,1,0,0:0:0:0:
448,192,70964,1,0,0:0:0:0:
192,192,71057,1,0,0:0:0:0:
448,192,71057,1,0,0:0:0:0:
64,192,71149,1,0,0:0:0:0:
192,192,71149,1,0,0:0:0:0:
320,192,71149,1,0,0:0:0:0:
320,192,71242,1,0,0:0:0:0:
448,192,71242,1,0,0:0:0:0:
64,192,71334,1,0,0:0:0:0:
192,192,71334,1,0,0:0:0:0:
320,192,71334,1,0,0:0:0:0:
448,192,71334,1,0,0:0:0:0:
64,192,71427,1,0,0:0:0:0:
192,192,71427,1,0,0:0:0:0:
320,192,71518,1,0,0:0:0:0:
448,192,71518,1,0,0:0:0:0:
64,192,71518,1,0,0:0:0:0:
320,192,71611,1,0,0:0:0:0:
192,192,71611,1,0,0:0:0:0:
64,192,71704,1,0,0:0:0:0:
192,192,71704,1,0,0:0:0:0:
448,192,71704,1,0,0:0:0:0:
320,192,71796,1,0,0:0:0:0:
448,192,71889,1,0,0:0:0:0:
64,192,71889,1,0,0:0:0:0:
320,192,71981,1,0,0:0:0:0:
64,192,72074,1,0,0:0:0:0:
192,192,72074,1,0,0:0:0:0:
320,192,72074,1,0,0:0:0:0:
448,192,72074,1,0,0:0:0:0:
192,192,72165,1,0,0:0:0:0:
320,192,72258,1,0,0:0:0:0:
448,192,72258,1,0,0:0:0:0:
192,192,72350,1,0,0:0:0:0:
64,192,72443,1,0,0:0:0:0:
320,192,72443,1,0,0:0:0:0:
448,192,72443,1,0,0:0:0:0:
192,192,72535,1,0,0:0:0:0:
64,192,72628,1,0,0:0:0:0:
448,192,72628,1,0,0:0:0:0:
192,192,72720,1,0,0:0:0:0:
64,192,72812,1,0,0:0:0:0:
192,192,72812,1,0,0:0:0:0:
320,192,72812,1,0,0:0:0:0:
448,192,72812,1,0,0:0:0:0:
320,192,72904,1,0,0:0:0:0:
192,192,72997,1,0,0:0:0:0:
64,192,72997,1,0,0:0:0:0:
320,192,73090,1,0,0:0:0:0:
64,192,73182,1,0,0:0:0:0:
192,192,73182,1,0,0:0:0:0:
448,192,73182,1,0,0:0:0:0:
320,192,73275,1,0,0:0:0:0:
64,192,73275,1,0,0:0:0:0:
448,192,73367,1,0,0:0:0:0:
192,192,73367,1,0,0:0:0:0:
64,192,73460,1,0,0:0:0:0:
320,192,73460,1,0,0:0:0:0:
448,192,73460,1,0,0:0:0:0:
64,192,73551,1,0,0:0:0:0:
192,192,73551,1,0,0:0:0:0:
448,192,73644,1,0,0:0:0:0:
320,192,73644,1,0,0:0:0:0:
64,192,73736,1,0,0:0:0:0:
192,192,73736,1,0,0:0:0:0:
448,192,73736,1,0,0:0:0:0:
192,192,73829,1,0,0:0:0:0:
320,192,73829,1,0,0:0:0:0:
64,192,73921,1,0,0:0:0:0:
448,192,73921,1,0,0:0:0:0:
320,192,73921,1,0,0:0:0:0:
320,192,74014,1,0,0:0:0:0:
448,192,74014,1,0,0:0:0:0:
64,192,74105,1,0,0:0:0:0:
192,192,74105,1,0,0:0:0:0:
320,192,74198,1,0,0:0:0:0:
448,192,74198,1,0,0:0:0:0:
448,192,74290,1,0,0:0:0:0:
320,192,74290,1,0,0:0:0:0:
192,192,74290,1,0,0:0:0:0:
64,192,74290,1,0,0:0:0:0:
192,192,74383,1,0,0:0:0:0:
64,192,74476,1,0,0:0:0:0:
192,192,74476,1,0,0:0:0:0:
320,192,74476,1,0,0:0:0:0:
448,192,74476,1,0,0:0:0:0:
448,192,74568,1,0,0:0:0:0:
64,192,74661,5,0,0:0:0:0:
192,192,74661,1,0,0:0:0:0:
320,192,74661,1,0,0:0:0:0:
448,192,74661,1,0,0:0:0:0:
320,192,74752,1,0,0:0:0:0:
64,192,74845,1,0,0:0:0:0:
448,192,74845,1,0,0:0:0:0:
192,192,74937,1,0,0:0:0:0:
320,192,74937,1,0,0:0:0:0:
64,192,75030,1,0,0:0:0:0:
320,192,75030,1,0,0:0:0:0:
448,192,75030,1,0,0:0:0:0:
192,192,75030,1,0,0:0:0:0:
192,192,75122,1,0,0:0:0:0:
448,192,75215,1,0,0:0:0:0:
320,192,75215,1,0,0:0:0:0:
192,192,75307,1,0,0:0:0:0:
64,192,75307,1,0,0:0:0:0:
448,192,75400,1,0,0:0:0:0:
64,192,75400,1,0,0:0:0:0:
320,192,75400,1,0,0:0:0:0:
320,192,75491,1,0,0:0:0:0:
448,192,75584,1,0,0:0:0:0:
192,192,75584,1,0,0:0:0:0:
64,192,75677,1,0,0:0:0:0:
320,192,75677,1,0,0:0:0:0:
64,192,75769,1,0,0:0:0:0:
320,192,75769,1,0,0:0:0:0:
192,192,75769,1,0,0:0:0:0:
448,192,75769,1,0,0:0:0:0:
448,192,75862,1,0,0:0:0:0:
64,192,75954,1,0,0:0:0:0:
192,192,75954,1,0,0:0:0:0:
320,192,76047,1,0,0:0:0:0:
448,192,76047,1,0,0:0:0:0:
64,192,76138,1,0,0:0:0:0:
320,192,76138,1,0,0:0:0:0:
192,192,76138,1,0,0:0:0:0:
192,192,76231,1,0,0:0:0:0:
448,192,76323,1,0,0:0:0:0:
320,192,76323,1,0,0:0:0:0:
64,192,76416,1,0,0:0:0:0:
192,192,76416,1,0,0:0:0:0:
64,192,76508,1,0,0:0:0:0:
320,192,76508,1,0,0:0:0:0:
192,192,76508,1,0,0:0:0:0:
448,192,76508,1,0,0:0:0:0:
320,192,76601,1,0,0:0:0:0:
192,192,76692,1,0,0:0:0:0:
448,192,76692,1,0,0:0:0:0:
64,192,76785,1,0,0:0:0:0:
320,192,76785,1,0,0:0:0:0:
64,192,76877,1,0,0:0:0:0:
192,192,76877,1,0,0:0:0:0:
448,192,76877,1,0,0:0:0:0:
320,192,76970,1,0,0:0:0:0:
448,192,76970,1,0,0:0:0:0:
64,192,77063,1,0,0:0:0:0:
320,192,77063,1,0,0:0:0:0:
192,192,77063,1,0,0:0:0:0:
192,192,77155,1,0,0:0:0:0:
448,192,77155,1,0,0:0:0:0:
64,192,77248,1,0,0:0:0:0:
320,192,77248,1,0,0:0:0:0:
192,192,77248,1,0,0:0:0:0:
448,192,77248,1,0,0:0:0:0:
64,192,77340,1,0,0:0:0:0:
320,192,77340,1,0,0:0:0:0:
192,192,77432,1,0,0:0:0:0:
448,192,77432,1,0,0:0:0:0:
64,192,77432,1,0,0:0:0:0:
192,192,77524,1,0,0:0:0:0:
320,192,77524,1,0,0:0:0:0:
64,192,77617,1,0,0:0:0:0:
320,192,77617,1,0,0:0:0:0:
448,192,77617,1,0,0:0:0:0:
192,192,77709,5,0,0:0:0:0:
448,192,77802,1,0,0:0:0:0:
64,192,77802,1,0,0:0:0:0:
192,192,77894,1,0,0:0:0:0:
64,192,77987,1,0,0:0:0:0:
320,192,77987,1,0,0:0:0:0:
192,192,77987,1,0,0:0:0:0:
448,192,77987,1,0,0:0:0:0:
320,192,78078,1,0,0:0:0:0:
448,192,78171,1,0,0:0:0:0:
64,192,78171,1,0,0:0:0:0:
320,192,78263,1,0,0:0:0:0:
448,192,78356,1,0,0:0:0:0:
320,192,78356,1,0,0:0:0:0:
64,192,78356,1,0,0:0:0:0:
192,192,78449,1,0,0:0:0:0:
448,192,78541,1,0,0:0:0:0:
64,192,78541,1,0,0:0:0:0:
320,192,78541,1,0,0:0:0:0:
192,192,78634,1,0,0:0:0:0:
448,192,78725,1,0,0:0:0:0:
192,192,78725,1,0,0:0:0:0:
320,192,78725,1,0,0:0:0:0:
64,192,78725,1,0,0:0:0:0:
320,192,78818,1,0,0:0:0:0:
192,192,78910,1,0,0:0:0:0:
448,192,78910,1,0,0:0:0:0:
64,192,78910,1,0,0:0:0:0:
320,192,79003,1,0,0:0:0:0:
448,192,79095,5,0,0:0:0:0:
192,192,79095,1,0,0:0:0:0:
320,192,79095,1,0,0:0:0:0:
64,192,79095,1,0,0:0:0:0:
192,192,79188,1,0,0:0:0:0:
448,192,79188,1,0,0:0:0:0:
320,192,79188,1,0,0:0:0:0:
64,192,79188,1,0,0:0:0:0:
320,192,79280,1,0,0:0:0:0:
64,192,79280,1,0,0:0:0:0:
192,192,79280,1,0,0:0:0:0:
448,192,79280,1,0,0:0:0:0:
64,192,79464,1,0,0:0:0:0:
320,192,79464,1,0,0:0:0:0:
192,192,79464,1,0,0:0:0:0:
448,192,79464,1,0,0:0:0:0:
64,192,79649,1,0,0:0:0:0:
320,192,79649,1,0,0:0:0:0:
192,192,79649,1,0,0:0:0:0:
448,192,79649,1,0,0:0:0:0:
448,192,79835,1,0,0:0:0:0:
320,192,79865,1,0,0:0:0:0:
64,192,79896,1,0,0:0:0:0:
192,192,79927,1,0,0:0:0:0:
448,192,79957,1,0,0:0:0:0:
320,192,79988,1,0,0:0:0:0:
64,192,80020,1,0,0:0:0:0:
192,192,80050,1,0,0:0:0:0:
448,192,80081,1,0,0:0:0:0:
320,192,80111,1,0,0:0:0:0:
64,192,80142,1,0,0:0:0:0:
192,192,80172,1,0,0:0:0:0:
448,192,80204,1,0,0:0:0:0:
320,192,80235,1,0,0:0:0:0:
64,192,80265,1,0,0:0:0:0:
192,192,80296,1,0,0:0:0:0:
448,192,80327,1,0,0:0:0:0:
320,192,80358,1,0,0:0:0:0:
64,192,80389,1,0,0:0:0:0:
192,192,80420,1,0,0:0:0:0:
448,192,80450,1,0,0:0:0:0:
320,192,80481,1,0,0:0:0:0:
64,192,80511,1,0,0:0:0:0:
192,192,80543,1,0,0:0:0:0:
448,192,80574,5,0,0:0:0:0:
320,192,80574,1,0,0:0:0:0:
64,192,80574,1,0,0:0:0:0:
320,192,80665,1,0,0:0:0:0:
448,192,80758,1,0,0:0:0:0:
64,192,80758,1,0,0:0:0:0:
192,192,80850,1,0,0:0:0:0:
320,192,80850,1,0,0:0:0:0:
448,192,80943,1,0,0:0:0:0:
320,192,80943,1,0,0:0:0:0:
64,192,80943,1,0,0:0:0:0:
192,192,80943,1,0,0:0:0:0:
192,192,81035,1,0,0:0:0:0:
64,192,81128,1,0,0:0:0:0:
320,192,81128,1,0,0:0:0:0:
192,192,81221,1,0,0:0:0:0:
448,192,81221,1,0,0:0:0:0:
64,192,81312,1,0,0:0:0:0:
448,192,81312,1,0,0:0:0:0:
320,192,81312,1,0,0:0:0:0:
320,192,81405,1,0,0:0:0:0:
64,192,81497,1,0,0:0:0:0:
192,192,81497,1,0,0:0:0:0:
448,192,81590,1,0,0:0:0:0:
320,192,81590,1,0,0:0:0:0:
448,192,81682,1,0,0:0:0:0:
320,192,81682,1,0,0:0:0:0:
192,192,81682,1,0,0:0:0:0:
64,192,81682,1,0,0:0:0:0:
64,192,81775,1,0,0:0:0:0:
448,192,81867,1,0,0:0:0:0:
192,192,81867,1,0,0:0:0:0:
320,192,81960,1,0,0:0:0:0:
64,192,81960,1,0,0:0:0:0:
448,192,82051,1,0,0:0:0:0:
320,192,82051,1,0,0:0:0:0:
192,192,82051,1,0,0:0:0:0:
192,192,82144,1,0,0:0:0:0:
64,192,82236,1,0,0:0:0:0:
320,192,82236,1,0,0:0:0:0:
448,192,82329,1,0,0:0:0:0:
192,192,82329,1,0,0:0:0:0:
448,192,82421,1,0,0:0:0:0:
320,192,82421,1,0,0:0:0:0:
192,192,82421,1,0,0:0:0:0:
64,192,82421,1,0,0:0:0:0:
320,192,82514,1,0,0:0:0:0:
192,192,82607,1,0,0:0:0:0:
64,192,82607,1,0,0:0:0:0:
448,192,82698,1,0,0:0:0:0:
320,192,82698,1,0,0:0:0:0:
448,192,82791,1,0,0:0:0:0:
192,192,82791,1,0,0:0:0:0:
64,192,82791,1,0,0:0:0:0:
320,192,82883,1,0,0:0:0:0:
64,192,82883,1,0,0:0:0:0:
448,192,82976,1,0,0:0:0:0:
320,192,82976,1,0,0:0:0:0:
192,192,82976,1,0,0:0:0:0:
192,192,83068,1,0,0:0:0:0:
64,192,83068,1,0,0:0:0:0:
448,192,83161,1,0,0:0:0:0:
320,192,83161,1,0,0:0:0:0:
192,192,83161,1,0,0:0:0:0:
64,192,83161,1,0,0:0:0:0:
448,192,83252,1,0,0:0:0:0:
320,192,83252,1,0,0:0:0:0:
192,192,83345,1,0,0:0:0:0:
64,192,83345,1,0,0:0:0:0:
448,192,83345,1,0,0:0:0:0:
192,192,83437,1,0,0:0:0:0:
320,192,83437,1,0,0:0:0:0:
448,192,83530,1,0,0:0:0:0:
320,192,83530,1,0,0:0:0:0:
64,192,83530,1,0,0:0:0:0:
192,192,83622,1,0,0:0:0:0:
64,192,83715,1,0,0:0:0:0:
448,192,83715,1,0,0:0:0:0:
192,192,83808,1,0,0:0:0:0:
448,192,83900,1,0,0:0:0:0:
320,192,83900,1,0,0:0:0:0:
192,192,83900,1,0,0:0:0:0:
64,192,83900,1,0,0:0:0:0:
320,192,83992,1,0,0:0:0:0:
192,192,84084,1,0,0:0:0:0:
64,192,84084,1,0,0:0:0:0:
320,192,84177,1,0,0:0:0:0:
448,192,84269,1,0,0:0:0:0:
192,192,84269,1,0,0:0:0:0:
64,192,84269,1,0,0:0:0:0:
320,192,84362,1,0,0:0:0:0:
448,192,84454,1,0,0:0:0:0:
64,192,84454,1,0,0:0:0:0:
320,192,84547,1,0,0:0:0:0:
448,192,84638,1,0,0:0:0:0:
320,192,84638,1,0,0:0:0:0:
192,192,84638,1,0,0:0:0:0:
64,192,84638,1,0,0:0:0:0:
192,192,84731,1,0,0:0:0:0:
320,192,84823,1,0,0:0:0:0:
448,192,84823,1,0,0:0:0:0:
192,192,84916,1,0,0:0:0:0:
448,192,85008,1,0,0:0:0:0:
320,192,85008,1,0,0:0:0:0:
64,192,85008,1,0,0:0:0:0:
192,192,85101,1,0,0:0:0:0:
448,192,85101,1,0,0:0:0:0:
64,192,85194,1,0,0:0:0:0:
320,192,85194,1,0,0:0:0:0:
448,192,85285,1,0,0:0:0:0:
192,192,85285,1,0,0:0:0:0:
64,192,85285,1,0,0:0:0:0:
448,192,85378,1,0,0:0:0:0:
320,192,85378,1,0,0:0:0:0:
64,192,85470,1,0,0:0:0:0:
192,192,85470,1,0,0:0:0:0:
448,192,85563,1,0,0:0:0:0:
320,192,85563,1,0,0:0:0:0:
64,192,85563,1,0,0:0:0:0:
320,192,85655,1,0,0:0:0:0:
192,192,85655,1,0,0:0:0:0:
448,192,85748,1,0,0:0:0:0:
64,192,85748,1,0,0:0:0:0:
192,192,85748,1,0,0:0:0:0:
192,192,85840,1,0,0:0:0:0:
64,192,85840,1,0,0:0:0:0:
448,192,85932,1,0,0:0:0:0:
320,192,85932,1,0,0:0:0:0:
192,192,86024,1,0,0:0:0:0:
64,192,86024,1,0,0:0:0:0:
64,192,86117,1,0,0:0:0:0:
192,192,86117,1,0,0:0:0:0:
320,192,86117,1,0,0:0:0:0:
448,192,86117,1,0,0:0:0:0:
320,192,86209,1,0,0:0:0:0:
448,192,86302,1,0,0:0:0:0:
320,192,86302,1,0,0:0:0:0:
192,192,86302,1,0,0:0:0:0:
64,192,86302,1,0,0:0:0:0:
64,192,86394,1,0,0:0:0:0:
448,192,86487,5,0,0:0:0:0:
192,192,86487,1,0,0:0:0:0:
320,192,86487,1,0,0:0:0:0:
64,192,86487,1,0,0:0:0:0:
192,192,86580,1,0,0:0:0:0:
448,192,86671,1,0,0:0:0:0:
64,192,86671,1,0,0:0:0:0:
320,192,86764,1,0,0:0:0:0:
192,192,86764,1,0,0:0:0:0:
448,192,86856,1,0,0:0:0:0:
192,192,86856,1,0,0:0:0:0:
64,192,86856,1,0,0:0:0:0:
320,192,86856,1,0,0:0:0:0:
320,192,86949,1,0,0:0:0:0:
64,192,87041,1,0,0:0:0:0:
192,192,87041,1,0,0:0:0:0:
320,192,87134,1,0,0:0:0:0:
448,192,87134,1,0,0:0:0:0:
64,192,87225,1,0,0:0:0:0:
448,192,87225,1,0,0:0:0:0:
192,192,87225,1,0,0:0:0:0:
192,192,87318,1,0,0:0:0:0:
64,192,87410,1,0,0:0:0:0:
320,192,87410,1,0,0:0:0:0:
448,192,87503,1,0,0:0:0:0:
192,192,87503,1,0,0:0:0:0:
448,192,87595,1,0,0:0:0:0:
192,192,87595,1,0,0:0:0:0:
320,192,87595,1,0,0:0:0:0:
64,192,87595,1,0,0:0:0:0:
64,192,87688,1,0,0:0:0:0:
448,192,87780,1,0,0:0:0:0:
320,192,87780,1,0,0:0:0:0:
192,192,87872,1,0,0:0:0:0:
64,192,87872,1,0,0:0:0:0:
448,192,87965,1,0,0:0:0:0:
192,192,87965,1,0,0:0:0:0:
320,192,87965,1,0,0:0:0:0:
320,192,88057,1,0,0:0:0:0:
64,192,88150,1,0,0:0:0:0:
192,192,88150,1,0,0:0:0:0:
448,192,88242,1,0,0:0:0:0:
320,192,88242,1,0,0:0:0:0:
448,192,88335,1,0,0:0:0:0:
192,192,88335,1,0,0:0:0:0:
320,192,88335,1,0,0:0:0:0:
64,192,88335,1,0,0:0:0:0:
192,192,88427,1,0,0:0:0:0:
320,192,88520,1,0,0:0:0:0:
64,192,88520,1,0,0:0:0:0:
448,192,88611,1,0,0:0:0:0:
192,192,88611,1,0,0:0:0:0:
448,192,88704,1,0,0:0:0:0:
320,192,88704,1,0,0:0:0:0:
64,192,88704,1,0,0:0:0:0:
192,192,88796,1,0,0:0:0:0:
64,192,88796,1,0,0:0:0:0:
448,192,88889,1,0,0:0:0:0:
192,192,88889,1,0,0:0:0:0:
320,192,88889,1,0,0:0:0:0:
320,192,88981,1,0,0:0:0:0:
64,192,88981,1,0,0:0:0:0:
448,192,89074,1,0,0:0:0:0:
192,192,89074,1,0,0:0:0:0:
320,192,89074,1,0,0:0:0:0:
64,192,89074,1,0,0:0:0:0:
448,192,89165,1,0,0:0:0:0:
192,192,89165,1,0,0:0:0:0:
320,192,89258,1,0,0:0:0:0:
64,192,89258,1,0,0:0:0:0:
448,192,89258,1,0,0:0:0:0:
320,192,89351,1,0,0:0:0:0:
192,192,89351,1,0,0:0:0:0:
448,192,89443,1,0,0:0:0:0:
192,192,89443,1,0,0:0:0:0:
64,192,89443,1,0,0:0:0:0:
320,192,89536,5,0,0:0:0:0:
64,192,89628,1,0,0:0:0:0:
448,192,89628,1,0,0:0:0:0:
320,192,89721,1,0,0:0:0:0:
448,192,89812,1,0,0:0:0:0:
192,192,89812,1,0,0:0:0:0:
320,192,89812,1,0,0:0:0:0:
64,192,89812,1,0,0:0:0:0:
192,192,89905,1,0,0:0:0:0:
64,192,89997,1,0,0:0:0:0:
448,192,89997,1,0,0:0:0:0:
192,192,90090,1,0,0:0:0:0:
64,192,90182,1,0,0:0:0:0:
192,192,90182,1,0,0:0:0:0:
448,192,90182,1,0,0:0:0:0:
320,192,90275,1,0,0:0:0:0:
64,192,90367,1,0,0:0:0:0:
448,192,90367,1,0,0:0:0:0:
192,192,90367,1,0,0:0:0:0:
320,192,90460,1,0,0:0:0:0:
64,192,90551,1,0,0:0:0:0:
320,192,90551,1,0,0:0:0:0:
192,192,90551,1,0,0:0:0:0:
448,192,90551,1,0,0:0:0:0:
192,192,90644,1,0,0:0:0:0:
320,192,90737,1,0,0:0:0:0:
64,192,90737,1,0,0:0:0:0:
448,192,90737,1,0,0:0:0:0:
192,192,90829,1,0,0:0:0:0:
448,192,90922,5,0,0:0:0:0:
320,192,90922,1,0,0:0:0:0:
64,192,90922,1,0,0:0:0:0:
192,192,90922,1,0,0:0:0:0:
448,192,91014,1,0,0:0:0:0:
64,192,91014,1,0,0:0:0:0:
192,192,91014,1,0,0:0:0:0:
320,192,91014,1,0,0:0:0:0:
320,192,91107,1,0,0:0:0:0:
448,192,91107,1,0,0:0:0:0:
64,192,91107,1,0,0:0:0:0:
192,192,91107,1,0,0:0:0:0:
192,192,91291,1,0,0:0:0:0:
64,192,91291,1,0,0:0:0:0:
320,192,91291,1,0,0:0:0:0:
448,192,91291,1,0,0:0:0:0:
448,192,91476,1,0,0:0:0:0:
192,192,91476,1,0,0:0:0:0:
64,192,91476,1,0,0:0:0:0:
320,192,91476,1,0,0:0:0:0:
192,192,91661,1,0,0:0:0:0:
64,192,91661,1,0,0:0:0:0:
320,192,91661,1,0,0:0:0:0:
448,192,91661,1,0,0:0:0:0:
192,192,91845,1,0,0:0:0:0:
448,192,91845,1,0,0:0:0:0:
64,192,92030,1,0,0:0:0:0:
320,192,92030,1,0,0:0:0:0:
448,192,92215,1,0,0:0:0:0:
320,192,92215,1,0,0:0:0:0:
64,192,92215,1,0,0:0:0:0:
192,192,92215,1,0,0:0:0:0:
448,192,92400,1,0,0:0:0:0:
320,192,92400,1,0,0:0:0:0:
64,192,92445,1,0,0:0:0:0:
192,192,92445,1,0,0:0:0:0:
320,192,92492,1,0,0:0:0:0:
448,192,92492,1,0,0:0:0:0:
64,192,92584,1,0,0:0:0:0:
192,192,92584,1,0,0:0:0:0:
448,192,92631,1,0,0:0:0:0:
320,192,92631,1,0,0:0:0:0:
64,192,92677,1,0,0:0:0:0:
192,192,92677,1,0,0:0:0:0:
320,192,92769,1,0,0:0:0:0:
448,192,92769,1,0,0:0:0:0:
64,192,92862,1,0,0:0:0:0:
192,192,92954,1,0,0:0:0:0:
448,192,92954,1,0,0:0:0:0:
320,192,93047,1,0,0:0:0:0:
64,192,93138,1,0,0:0:0:0:
192,192,93138,1,0,0:0:0:0:
320,192,93185,1,0,0:0:0:0:
448,192,93185,1,0,0:0:0:0:
64,192,93231,1,0,0:0:0:0:
192,192,93231,1,0,0:0:0:0:
320,192,93324,1,0,0:0:0:0:
448,192,93324,1,0,0:0:0:0:
64,192,93370,1,0,0:0:0:0:
192,192,93370,1,0,0:0:0:0:
320,192,93416,1,0,0:0:0:0:
448,192,93416,1,0,0:0:0:0:
64,192,93509,1,0,0:0:0:0:
192,192,93509,1,0,0:0:0:0:
448,192,93601,1,0,0:0:0:0:
64,192,93694,1,0,0:0:0:0:
320,192,93694,1,0,0:0:0:0:
192,192,93785,1,0,0:0:0:0:
64,192,93878,1,0,0:0:0:0:
320,192,93878,1,0,0:0:0:0:
448,192,93878,1,0,0:0:0:0:
64,192,93970,1,0,0:0:0:0:
320,192,93970,1,0,0:0:0:0:
448,192,93970,1,0,0:0:0:0:
64,192,94063,1,0,0:0:0:0:
320,192,94063,1,0,0:0:0:0:
448,192,94063,1,0,0:0:0:0:
192,192,94248,1,0,0:0:0:0:
448,192,94248,1,0,0:0:0:0:
320,192,94248,1,0,0:0:0:0:
192,192,94340,1,0,0:0:0:0:
320,192,94340,1,0,0:0:0:0:
448,192,94340,1,0,0:0:0:0:
192,192,94432,1,0,0:0:0:0:
448,192,94432,1,0,0:0:0:0:
320,192,94432,1,0,0:0:0:0:
64,192,94617,1,0,0:0:0:0:
320,192,94617,1,0,0:0:0:0:
448,192,94617,1,0,0:0:0:0:
448,192,94710,1,0,0:0:0:0:
320,192,94710,1,0,0:0:0:0:
192,192,94710,1,0,0:0:0:0:
64,192,94802,1,0,0:0:0:0:
192,192,94802,1,0,0:0:0:0:
448,192,94802,1,0,0:0:0:0:
64,192,94895,1,0,0:0:0:0:
320,192,94895,1,0,0:0:0:0:
192,192,94895,1,0,0:0:0:0:
64,192,94987,1,0,0:0:0:0:
320,192,94987,1,0,0:0:0:0:
448,192,94987,1,0,0:0:0:0:
448,192,95080,1,0,0:0:0:0:
320,192,95080,1,0,0:0:0:0:
192,192,95080,1,0,0:0:0:0:
64,192,95171,1,0,0:0:0:0:
192,192,95171,1,0,0:0:0:0:
448,192,95171,1,0,0:0:0:0:
192,192,95264,1,0,0:0:0:0:
64,192,95264,1,0,0:0:0:0:
320,192,95264,1,0,0:0:0:0:
64,192,95356,1,0,0:0:0:0:
192,192,95356,1,0,0:0:0:0:
320,192,95356,1,0,0:0:0:0:
448,192,95356,1,0,0:0:0:0:
320,192,95541,128,0,95818:0:0:0:0:
448,192,95541,128,0,96003:0:0:0:0:
192,192,95725,128,0,95818:0:0:0:0:
64,192,95725,128,0,96003:0:0:0:0:
320,192,95910,128,0,96003:0:0:0:0:
192,192,95910,128,0,96003:0:0:0:0:
320,192,96096,1,0,0:0:0:0:
448,192,96096,1,0,0:0:0:0:
64,192,96096,1,0,0:0:0:0:
192,192,96096,1,0,0:0:0:0:
320,192,96188,1,0,0:0:0:0:
192,192,96188,1,0,0:0:0:0:
448,192,96281,1,0,0:0:0:0:
64,192,96281,1,0,0:0:0:0:
320,192,96372,1,0,0:0:0:0:
192,192,96372,1,0,0:0:0:0:
448,192,96465,1,0,0:0:0:0:
64,192,96465,1,0,0:0:0:0:
192,192,96465,1,0,0:0:0:0:
192,192,96527,1,0,0:0:0:0:
320,192,96527,1,0,0:0:0:0:
64,192,96588,1,0,0:0:0:0:
448,192,96588,1,0,0:0:0:0:
320,192,96588,1,0,0:0:0:0:
448,192,96650,1,0,0:0:0:0:
192,192,96650,1,0,0:0:0:0:
320,192,96742,1,0,0:0:0:0:
64,192,96742,1,0,0:0:0:0:
448,192,96835,1,0,0:0:0:0:
320,192,96835,1,0,0:0:0:0:
192,192,96835,1,0,0:0:0:0:
64,192,96835,1,0,0:0:0:0:
64,192,97020,128,0,97482:0:0:0:0:
192,192,97020,128,0,97296:0:0:0:0:
320,192,97204,128,0,97296:0:0:0:0:
448,192,97204,128,0,97667:0:0:0:0:
192,192,97389,128,0,97482:0:0:0:0:
320,192,97389,128,0,97667:0:0:0:0:
64,192,97574,128,0,97851:0:0:0:0:
192,192,97574,128,0,97851:0:0:0:0:
320,192,97758,128,0,97943:0:0:0:0:
448,192,97758,128,0,97943:0:0:0:0:
64,192,97943,128,0,98036:0:0:0:0:
192,192,97943,128,0,98036:0:0:0:0:
320,192,98036,128,0,98221:0:0:0:0:
448,192,98036,128,0,98221:0:0:0:0:
64,192,98128,128,0,98221:0:0:0:0:
192,192,98128,128,0,98221:0:0:0:0:
64,192,98312,1,0,0:0:0:0:
192,192,98312,1,0,0:0:0:0:
320,192,98312,1,0,0:0:0:0:
448,192,98312,1,0,0:0:0:0:
192,192,98497,1,0,0:0:0:0:
448,192,98497,1,0,0:0:0:0:
64,192,98682,1,0,0:0:0:0:
320,192,98682,1,0,0:0:0:0:
448,192,98682,1,0,0:0:0:0:
320,192,98868,1,0,0:0:0:0:
448,192,98868,1,0,0:0:0:0:
64,192,98960,1,0,0:0:0:0:
192,192,98960,1,0,0:0:0:0:
448,192,99052,1,0,0:0:0:0:
192,192,99052,1,0,0:0:0:0:
320,192,99052,1,0,0:0:0:0:
64,192,99144,1,0,0:0:0:0:
320,192,99144,1,0,0:0:0:0:
448,192,99237,1,0,0:0:0:0:
192,192,99237,1,0,0:0:0:0:
64,192,99422,1,0,0:0:0:0:
448,192,99422,1,0,0:0:0:0:
192,192,99422,1,0,0:0:0:0:
192,192,99607,1,0,0:0:0:0:
320,192,99607,1,0,0:0:0:0:
64,192,99791,1,0,0:0:0:0:
320,192,99791,1,0,0:0:0:0:
192,192,99791,1,0,0:0:0:0:
448,192,99791,1,0,0:0:0:0:
320,192,99976,1,0,0:0:0:0:
64,192,99976,1,0,0:0:0:0:
64,192,100161,1,0,0:0:0:0:
192,192,100161,1,0,0:0:0:0:
448,192,100161,1,0,0:0:0:0:
192,192,100345,1,0,0:0:0:0:
448,192,100345,1,0,0:0:0:0:
64,192,100438,1,0,0:0:0:0:
320,192,100438,1,0,0:0:0:0:
448,192,100530,1,0,0:0:0:0:
320,192,100530,1,0,0:0:0:0:
192,192,100530,1,0,0:0:0:0:
64,192,100623,1,0,0:0:0:0:
192,192,100623,1,0,0:0:0:0:
448,192,100715,1,0,0:0:0:0:
320,192,100715,1,0,0:0:0:0:
64,192,100900,1,0,0:0:0:0:
320,192,100900,1,0,0:0:0:0:
448,192,100900,1,0,0:0:0:0:
320,192,101084,1,0,0:0:0:0:
192,192,101084,1,0,0:0:0:0:
448,192,101269,1,0,0:0:0:0:
320,192,101269,1,0,0:0:0:0:
192,192,101269,1,0,0:0:0:0:
64,192,101269,1,0,0:0:0:0:
320,192,101455,1,0,0:0:0:0:
64,192,101455,1,0,0:0:0:0:
448,192,101640,1,0,0:0:0:0:
192,192,101640,1,0,0:0:0:0:
64,192,101640,1,0,0:0:0:0:
64,192,101824,1,0,0:0:0:0:
320,192,101824,1,0,0:0:0:0:
448,192,101916,1,0,0:0:0:0:
192,192,101916,1,0,0:0:0:0:
192,192,102009,1,0,0:0:0:0:
320,192,102009,1,0,0:0:0:0:
64,192,102009,1,0,0:0:0:0:
448,192,102101,1,0,0:0:0:0:
64,192,102101,1,0,0:0:0:0:
192,192,102194,1,0,0:0:0:0:
320,192,102194,1,0,0:0:0:0:
448,192,102378,1,0,0:0:0:0:
320,192,102378,1,0,0:0:0:0:
64,192,102378,1,0,0:0:0:0:
320,192,102563,1,0,0:0:0:0:
192,192,102563,1,0,0:0:0:0:
448,192,102748,1,0,0:0:0:0:
192,192,102748,1,0,0:0:0:0:
320,192,102748,1,0,0:0:0:0:
64,192,102748,1,0,0:0:0:0:
192,192,102932,1,0,0:0:0:0:
448,192,102932,1,0,0:0:0:0:
448,192,103117,1,0,0:0:0:0:
320,192,103117,1,0,0:0:0:0:
64,192,103117,1,0,0:0:0:0:
64,192,103302,1,0,0:0:0:0:
448,192,103302,1,0,0:0:0:0:
192,192,103395,1,0,0:0:0:0:
320,192,103395,1,0,0:0:0:0:
64,192,103487,128,0,103580:0:0:0:0:
320,192,103487,128,0,103580:0:0:0:0:
448,192,103487,128,0,103580:0:0:0:0:
64,192,103671,1,0,0:0:0:0:
320,192,103671,1,0,0:0:0:0:
448,192,103671,1,0,0:0:0:0:
64,192,103856,128,0,103949:0:0:0:0:
192,192,103856,128,0,103949:0:0:0:0:
448,192,103856,128,0,103949:0:0:0:0:
64,192,104041,1,0,0:0:0:0:
192,192,104041,1,0,0:0:0:0:
448,192,104041,1,0,0:0:0:0:
64,192,104134,1,0,0:0:0:0:
192,192,104134,1,0,0:0:0:0:
64,192,104227,1,0,0:0:0:0:
192,192,104227,1,0,0:0:0:0:
320,192,104227,1,0,0:0:0:0:
448,192,104227,1,0,0:0:0:0:
320,192,104411,1,0,0:0:0:0:
64,192,104411,1,0,0:0:0:0:
448,192,104596,1,0,0:0:0:0:
192,192,104596,1,0,0:0:0:0:
64,192,104596,1,0,0:0:0:0:
192,192,104781,1,0,0:0:0:0:
64,192,104781,1,0,0:0:0:0:
448,192,104872,1,0,0:0:0:0:
320,192,104872,1,0,0:0:0:0:
64,192,104965,1,0,0:0:0:0:
320,192,104965,1,0,0:0:0:0:
192,192,104965,1,0,0:0:0:0:
448,192,105057,1,0,0:0:0:0:
192,192,105057,1,0,0:0:0:0:
64,192,105150,1,0,0:0:0:0:
320,192,105150,1,0,0:0:0:0:
448,192,105335,1,0,0:0:0:0:
320,192,105335,1,0,0:0:0:0:
64,192,105335,1,0,0:0:0:0:
320,192,105520,1,0,0:0:0:0:
192,192,105520,1,0,0:0:0:0:
448,192,105704,1,0,0:0:0:0:
192,192,105704,1,0,0:0:0:0:
320,192,105704,1,0,0:0:0:0:
64,192,105704,1,0,0:0:0:0:
192,192,105889,1,0,0:0:0:0:
448,192,105889,1,0,0:0:0:0:
448,192,106074,1,0,0:0:0:0:
320,192,106074,1,0,0:0:0:0:
64,192,106074,1,0,0:0:0:0:
320,192,106258,1,0,0:0:0:0:
64,192,106258,1,0,0:0:0:0:
448,192,106351,1,0,0:0:0:0:
192,192,106351,1,0,0:0:0:0:
64,192,106443,1,0,0:0:0:0:
192,192,106443,1,0,0:0:0:0:
320,192,106443,1,0,0:0:0:0:
448,192,106536,1,0,0:0:0:0:
320,192,106536,1,0,0:0:0:0:
64,192,106628,1,0,0:0:0:0:
192,192,106628,1,0,0:0:0:0:
448,192,106812,1,0,0:0:0:0:
192,192,106812,1,0,0:0:0:0:
64,192,106812,1,0,0:0:0:0:
192,192,106998,1,0,0:0:0:0:
320,192,106998,1,0,0:0:0:0:
64,192,107183,1,0,0:0:0:0:
192,192,107183,1,0,0:0:0:0:
320,192,107183,1,0,0:0:0:0:
448,192,107183,1,0,0:0:0:0:
192,192,107368,1,0,0:0:0:0:
448,192,107368,1,0,0:0:0:0:
64,192,107552,1,0,0:0:0:0:
320,192,107552,1,0,0:0:0:0:
448,192,107552,1,0,0:0:0:0:
448,192,107737,1,0,0:0:0:0:
64,192,107737,1,0,0:0:0:0:
192,192,107829,1,0,0:0:0:0:
320,192,107829,1,0,0:0:0:0:
320,192,107922,1,0,0:0:0:0:
448,192,107922,1,0,0:0:0:0:
64,192,107922,1,0,0:0:0:0:
192,192,107922,1,0,0:0:0:0:
64,192,108107,1,0,0:0:0:0:
320,192,108107,1,0,0:0:0:0:
64,192,108291,1,0,0:0:0:0:
192,192,108291,1,0,0:0:0:0:
448,192,108291,1,0,0:0:0:0:
192,192,108476,1,0,0:0:0:0:
320,192,108476,1,0,0:0:0:0:
64,192,108661,1,0,0:0:0:0:
320,192,108661,1,0,0:0:0:0:
192,192,108661,1,0,0:0:0:0:
448,192,108661,1,0,0:0:0:0:
64,192,108754,1,0,0:0:0:0:
448,192,108754,1,0,0:0:0:0:
320,192,108845,1,0,0:0:0:0:
192,192,108845,1,0,0:0:0:0:
64,192,109030,1,0,0:0:0:0:
192,192,109030,1,0,0:0:0:0:
448,192,109030,1,0,0:0:0:0:
192,192,109215,1,0,0:0:0:0:
320,192,109215,1,0,0:0:0:0:
64,192,109400,1,0,0:0:0:0:
192,192,109400,1,0,0:0:0:0:
320,192,109400,1,0,0:0:0:0:
448,192,109400,1,0,0:0:0:0:
64,192,109492,1,0,0:0:0:0:
192,192,109492,1,0,0:0:0:0:
320,192,109492,1,0,0:0:0:0:
448,192,109492,1,0,0:0:0:0:
64,192,109584,1,0,0:0:0:0:
192,192,109584,1,0,0:0:0:0:
320,192,109584,1,0,0:0:0:0:
448,192,109584,1,0,0:0:0:0:
64,192,109677,1,0,0:0:0:0:
192,192,109677,1,0,0:0:0:0:
320,192,109677,1,0,0:0:0:0:
448,192,109677,1,0,0:0:0:0:
64,192,109770,1,0,0:0:0:0:
192,192,109770,1,0,0:0:0:0:
320,192,109770,1,0,0:0:0:0:
448,192,109770,1,0,0:0:0:0:
64,192,109955,1,0,0:0:0:0:
192,192,109955,1,0,0:0:0:0:
320,192,109955,1,0,0:0:0:0:
448,192,109955,1,0,0:0:0:0:
64,192,110140,1,0,0:0:0:0:
320,192,110140,1,0,0:0:0:0:
448,192,110140,1,0,0:0:0:0:
64,192,110324,1,0,0:0:0:0:
192,192,110324,1,0,0:0:0:0:
320,192,110416,1,0,0:0:0:0:
448,192,110416,1,0,0:0:0:0:
64,192,110509,1,0,0:0:0:0:
192,192,110509,1,0,0:0:0:0:
448,192,110509,1,0,0:0:0:0:
320,192,110601,1,0,0:0:0:0:
64,192,110601,1,0,0:0:0:0:
192,192,110694,1,0,0:0:0:0:
448,192,110694,1,0,0:0:0:0:
64,192,110785,1,0,0:0:0:0:
320,192,110785,1,0,0:0:0:0:
320,192,110878,1,0,0:0:0:0:
448,192,110878,1,0,0:0:0:0:
192,192,110878,1,0,0:0:0:0:
64,192,110971,1,0,0:0:0:0:
192,192,110971,1,0,0:0:0:0:
320,192,111063,1,0,0:0:0:0:
448,192,111063,1,0,0:0:0:0:
64,192,111248,1,0,0:0:0:0:
320,192,111248,1,0,0:0:0:0:
448,192,111248,1,0,0:0:0:0:
192,192,111432,1,0,0:0:0:0:
448,192,111432,1,0,0:0:0:0:
64,192,111617,1,0,0:0:0:0:
192,192,111617,1,0,0:0:0:0:
448,192,111617,1,0,0:0:0:0:
320,192,111802,1,0,0:0:0:0:
192,192,111802,1,0,0:0:0:0:
320,192,111987,1,0,0:0:0:0:
448,192,111987,1,0,0:0:0:0:
64,192,111987,1,0,0:0:0:0:
448,192,112171,1,0,0:0:0:0:
320,192,112171,1,0,0:0:0:0:
64,192,112264,1,0,0:0:0:0:
192,192,112264,1,0,0:0:0:0:
320,192,112357,1,0,0:0:0:0:
64,192,112357,1,0,0:0:0:0:
448,192,112357,1,0,0:0:0:0:
192,192,112449,1,0,0:0:0:0:
448,192,112449,1,0,0:0:0:0:
64,192,112542,1,0,0:0:0:0:
320,192,112542,1,0,0:0:0:0:
64,192,112727,1,0,0:0:0:0:
192,192,112727,1,0,0:0:0:0:
448,192,112727,1,0,0:0:0:0:
192,192,112911,1,0,0:0:0:0:
320,192,112911,1,0,0:0:0:0:
192,192,113003,1,0,0:0:0:0:
320,192,113003,1,0,0:0:0:0:
64,192,113096,1,0,0:0:0:0:
448,192,113096,1,0,0:0:0:0:
320,192,113096,1,0,0:0:0:0:
192,192,113281,1,0,0:0:0:0:
320,192,113281,1,0,0:0:0:0:
64,192,113465,1,0,0:0:0:0:
192,192,113465,1,0,0:0:0:0:
448,192,113465,1,0,0:0:0:0:
320,192,113650,1,0,0:0:0:0:
192,192,113650,1,0,0:0:0:0:
64,192,113743,1,0,0:0:0:0:
448,192,113743,1,0,0:0:0:0:
320,192,113835,1,0,0:0:0:0:
192,192,113835,1,0,0:0:0:0:
448,192,113835,1,0,0:0:0:0:
64,192,113928,1,0,0:0:0:0:
192,192,113928,1,0,0:0:0:0:
320,192,114020,1,0,0:0:0:0:
448,192,114020,1,0,0:0:0:0:
64,192,114112,1,0,0:0:0:0:
192,192,114112,1,0,0:0:0:0:
448,192,114204,1,0,0:0:0:0:
320,192,114204,1,0,0:0:0:0:
64,192,114204,1,0,0:0:0:0:
448,192,114389,1,0,0:0:0:0:
192,192,114389,1,0,0:0:0:0:
64,192,114574,1,0,0:0:0:0:
320,192,114574,1,0,0:0:0:0:
192,192,114574,1,0,0:0:0:0:
448,192,114758,1,0,0:0:0:0:
320,192,114758,1,0,0:0:0:0:
64,192,114851,1,0,0:0:0:0:
192,192,114851,1,0,0:0:0:0:
64,192,114943,1,0,0:0:0:0:
192,192,114943,1,0,0:0:0:0:
448,192,114943,1,0,0:0:0:0:
320,192,114943,1,0,0:0:0:0:
64,192,115129,1,0,0:0:0:0:
448,192,115129,1,0,0:0:0:0:
192,192,115221,1,0,0:0:0:0:
320,192,115221,1,0,0:0:0:0:
64,192,115314,1,0,0:0:0:0:
448,192,115314,1,0,0:0:0:0:
320,192,115314,1,0,0:0:0:0:
192,192,115405,1,0,0:0:0:0:
448,192,115405,1,0,0:0:0:0:
64,192,115498,1,0,0:0:0:0:
320,192,115498,1,0,0:0:0:0:
448,192,115683,1,0,0:0:0:0:
320,192,115683,1,0,0:0:0:0:
192,192,115683,1,0,0:0:0:0:
64,192,115683,1,0,0:0:0:0:
192,192,115868,1,0,0:0:0:0:
320,192,115868,1,0,0:0:0:0:
64,192,115868,1,0,0:0:0:0:
448,192,115868,1,0,0:0:0:0:
64,192,115960,1,0,0:0:0:0:
192,192,115960,1,0,0:0:0:0:
320,192,115960,1,0,0:0:0:0:
448,192,115960,1,0,0:0:0:0:
448,192,116052,1,0,0:0:0:0:
192,192,116052,1,0,0:0:0:0:
64,192,116052,1,0,0:0:0:0:
320,192,116052,1,0,0:0:0:0:
448,192,116237,1,0,0:0:0:0:
320,192,116237,1,0,0:0:0:0:
192,192,116329,1,0,0:0:0:0:
64,192,116329,1,0,0:0:0:0:
448,192,116422,1,0,0:0:0:0:
320,192,116422,1,0,0:0:0:0:
64,192,116422,1,0,0:0:0:0:
192,192,116515,1,0,0:0:0:0:
448,192,116515,1,0,0:0:0:0:
320,192,116607,1,0,0:0:0:0:
64,192,116607,1,0,0:0:0:0:
192,192,116700,1,0,0:0:0:0:
448,192,116700,1,0,0:0:0:0:
64,192,116791,1,0,0:0:0:0:
192,192,116791,1,0,0:0:0:0:
320,192,116791,1,0,0:0:0:0:
320,192,116884,1,0,0:0:0:0:
448,192,116884,1,0,0:0:0:0:
64,192,116976,1,0,0:0:0:0:
192,192,116976,1,0,0:0:0:0:
448,192,117161,1,0,0:0:0:0:
192,192,117161,1,0,0:0:0:0:
64,192,117161,1,0,0:0:0:0:
320,192,117345,1,0,0:0:0:0:
64,192,117345,1,0,0:0:0:0:
448,192,117530,1,0,0:0:0:0:
320,192,117530,1,0,0:0:0:0:
64,192,117530,1,0,0:0:0:0:
192,192,117715,1,0,0:0:0:0:
320,192,117715,1,0,0:0:0:0:
192,192,117901,1,0,0:0:0:0:
64,192,117901,1,0,0:0:0:0:
448,192,117901,1,0,0:0:0:0:
192,192,118085,1,0,0:0:0:0:
64,192,118085,1,0,0:0:0:0:
448,192,118177,1,0,0:0:0:0:
320,192,118177,1,0,0:0:0:0:
192,192,118270,1,0,0:0:0:0:
448,192,118270,1,0,0:0:0:0:
64,192,118270,1,0,0:0:0:0:
320,192,118362,1,0,0:0:0:0:
64,192,118362,1,0,0:0:0:0:
192,192,118455,1,0,0:0:0:0:
448,192,118455,1,0,0:0:0:0:
448,192,118640,1,0,0:0:0:0:
320,192,118640,1,0,0:0:0:0:
64,192,118640,1,0,0:0:0:0:
320,192,118824,1,0,0:0:0:0:
192,192,118824,1,0,0:0:0:0:
448,192,119009,1,0,0:0:0:0:
64,192,119009,1,0,0:0:0:0:
192,192,119009,1,0,0:0:0:0:
320,192,119194,1,0,0:0:0:0:
192,192,119194,1,0,0:0:0:0:
448,192,119378,1,0,0:0:0:0:
320,192,119378,1,0,0:0:0:0:
64,192,119378,1,0,0:0:0:0:
192,192,119563,1,0,0:0:0:0:
320,192,119563,1,0,0:0:0:0:
448,192,119656,1,0,0:0:0:0:
64,192,119656,1,0,0:0:0:0:
192,192,119748,1,0,0:0:0:0:
320,192,119748,1,0,0:0:0:0:
64,192,119748,1,0,0:0:0:0:
448,192,119841,1,0,0:0:0:0:
320,192,119841,1,0,0:0:0:0:
192,192,119932,1,0,0:0:0:0:
64,192,119932,1,0,0:0:0:0:
320,192,120025,1,0,0:0:0:0:
448,192,120025,1,0,0:0:0:0:
64,192,120117,1,0,0:0:0:0:
192,192,120117,1,0,0:0:0:0:
448,192,120117,1,0,0:0:0:0:
64,192,120302,1,0,0:0:0:0:
320,192,120302,1,0,0:0:0:0:
448,192,120488,1,0,0:0:0:0:
192,192,120488,1,0,0:0:0:0:
64,192,120488,1,0,0:0:0:0:
320,192,120488,1,0,0:0:0:0:
320,192,120672,5,0,0:0:0:0:
192,192,120672,1,0,0:0:0:0:
64,192,120857,1,0,0:0:0:0:
192,192,120857,1,0,0:0:0:0:
320,192,120857,1,0,0:0:0:0:
448,192,120857,1,0,0:0:0:0:
448,192,121042,1,0,0:0:0:0:
64,192,121042,1,0,0:0:0:0:
192,192,121134,1,0,0:0:0:0:
320,192,121134,1,0,0:0:0:0:
64,192,121227,5,0,0:0:0:0:
192,192,121257,1,0,0:0:0:0:
448,192,121288,1,0,0:0:0:0:
320,192,121318,1,0,0:0:0:0:
64,192,121349,1,0,0:0:0:0:
192,192,121381,1,0,0:0:0:0:
448,192,121411,1,0,0:0:0:0:
320,192,121442,1,0,0:0:0:0:
64,192,121472,1,0,0:0:0:0:
192,192,121503,1,0,0:0:0:0:
448,192,121535,1,0,0:0:0:0:
320,192,121565,1,0,0:0:0:0:
64,192,121596,1,0,0:0:0:0:
192,192,121627,1,0,0:0:0:0:
448,192,121657,1,0,0:0:0:0:
320,192,121688,1,0,0:0:0:0:
64,192,121720,1,0,0:0:0:0:
192,192,121750,1,0,0:0:0:0:
448,192,121781,1,0,0:0:0:0:
320,192,121811,1,0,0:0:0:0:
64,192,121842,1,0,0:0:0:0:
192,192,121874,1,0,0:0:0:0:
448,192,121904,1,0,0:0:0:0:
320,192,121935,1,0,0:0:0:0:
64,192,121965,1,0,0:0:0:0:
192,192,121965,1,0,0:0:0:0:
448,192,121965,1,0,0:0:0:0:
192,192,122243,5,0,0:0:0:0:
320,192,122243,1,0,0:0:0:0:
448,192,122243,1,0,0:0:0:0:
64,192,122520,1,0,0:0:0:0:
192,192,122520,1,0,0:0:0:0:
320,192,122520,1,0,0:0:0:0:
320,192,122704,128,0,122982:0:0:0:0:
448,192,122704,128,0,122982:0:0:0:0:
64,192,122704,1,0,0:0:0:0:
192,192,122704,1,0,0:0:0:0:
64,192,122889,128,0,123074:0:0:0:0:
192,192,122889,128,0,123074:0:0:0:0:
320,192,123074,128,0,123167:0:0:0:0:
448,192,123074,128,0,123167:0:0:0:0:
64,192,123167,128,0,123351:0:0:0:0:
192,192,123167,128,0,123351:0:0:0:0:
320,192,123260,128,0,123351:0:0:0:0:
448,192,123260,128,0,123351:0:0:0:0:
64,192,123444,5,0,0:0:0:0:
320,192,123444,1,0,0:0:0:0:
192,192,123444,1,0,0:0:0:0:
448,192,123444,1,0,0:0:0:0:
320,192,123536,1,0,0:0:0:0:
448,192,123629,1,0,0:0:0:0:
64,192,123629,1,0,0:0:0:0:
192,192,123721,1,0,0:0:0:0:
320,192,123721,1,0,0:0:0:0:
448,192,123721,1,0,0:0:0:0:
448,192,123814,1,0,0:0:0:0:
320,192,123814,1,0,0:0:0:0:
64,192,123814,1,0,0:0:0:0:
192,192,123814,1,0,0:0:0:0:
192,192,123905,1,0,0:0:0:0:
64,192,123998,1,0,0:0:0:0:
320,192,123998,1,0,0:0:0:0:
192,192,124090,1,0,0:0:0:0:
448,192,124090,1,0,0:0:0:0:
64,192,124183,1,0,0:0:0:0:
448,192,124183,1,0,0:0:0:0:
320,192,124183,1,0,0:0:0:0:
320,192,124275,1,0,0:0:0:0:
64,192,124368,1,0,0:0:0:0:
192,192,124368,1,0,0:0:0:0:
448,192,124460,1,0,0:0:0:0:
320,192,124460,1,0,0:0:0:0:
192,192,124460,1,0,0:0:0:0:
448,192,124552,1,0,0:0:0:0:
320,192,124552,1,0,0:0:0:0:
192,192,124552,1,0,0:0:0:0:
64,192,124552,1,0,0:0:0:0:
64,192,124645,1,0,0:0:0:0:
448,192,124737,1,0,0:0:0:0:
192,192,124737,1,0,0:0:0:0:
320,192,124830,1,0,0:0:0:0:
64,192,124830,1,0,0:0:0:0:
448,192,124922,1,0,0:0:0:0:
320,192,124922,1,0,0:0:0:0:
192,192,124922,1,0,0:0:0:0:
192,192,125015,1,0,0:0:0:0:
64,192,125107,1,0,0:0:0:0:
320,192,125107,1,0,0:0:0:0:
448,192,125200,1,0,0:0:0:0:
192,192,125200,1,0,0:0:0:0:
64,192,125200,1,0,0:0:0:0:
448,192,125291,1,0,0:0:0:0:
320,192,125291,1,0,0:0:0:0:
192,192,125291,1,0,0:0:0:0:
64,192,125291,1,0,0:0:0:0:
320,192,125384,1,0,0:0:0:0:
192,192,125476,1,0,0:0:0:0:
64,192,125476,1,0,0:0:0:0:
448,192,125569,1,0,0:0:0:0:
320,192,125569,1,0,0:0:0:0:
448,192,125661,1,0,0:0:0:0:
192,192,125661,1,0,0:0:0:0:
64,192,125661,1,0,0:0:0:0:
320,192,125754,1,0,0:0:0:0:
64,192,125754,1,0,0:0:0:0:
448,192,125845,1,0,0:0:0:0:
320,192,125845,1,0,0:0:0:0:
192,192,125845,1,0,0:0:0:0:
192,192,125938,1,0,0:0:0:0:
64,192,125938,1,0,0:0:0:0:
448,192,126031,1,0,0:0:0:0:
320,192,126031,1,0,0:0:0:0:
192,192,126031,1,0,0:0:0:0:
64,192,126031,1,0,0:0:0:0:
448,192,126123,1,0,0:0:0:0:
320,192,126123,1,0,0:0:0:0:
192,192,126216,1,0,0:0:0:0:
64,192,126216,1,0,0:0:0:0:
448,192,126216,1,0,0:0:0:0:
192,192,126308,1,0,0:0:0:0:
320,192,126308,1,0,0:0:0:0:
448,192,126401,1,0,0:0:0:0:
320,192,126401,1,0,0:0:0:0:
64,192,126401,1,0,0:0:0:0:
192,192,126492,1,0,0:0:0:0:
64,192,126585,1,0,0:0:0:0:
320,192,126585,1,0,0:0:0:0:
192,192,126677,1,0,0:0:0:0:
448,192,126677,1,0,0:0:0:0:
448,192,126770,1,0,0:0:0:0:
320,192,126770,1,0,0:0:0:0:
192,192,126770,1,0,0:0:0:0:
64,192,126770,1,0,0:0:0:0:
320,192,126862,1,0,0:0:0:0:
192,192,126955,1,0,0:0:0:0:
64,192,126955,1,0,0:0:0:0:
320,192,127047,1,0,0:0:0:0:
448,192,127047,1,0,0:0:0:0:
448,192,127140,1,0,0:0:0:0:
192,192,127140,1,0,0:0:0:0:
64,192,127140,1,0,0:0:0:0:
320,192,127231,1,0,0:0:0:0:
448,192,127324,1,0,0:0:0:0:
192,192,127324,1,0,0:0:0:0:
320,192,127417,1,0,0:0:0:0:
64,192,127417,1,0,0:0:0:0:
448,192,127509,1,0,0:0:0:0:
320,192,127509,1,0,0:0:0:0:
192,192,127509,1,0,0:0:0:0:
64,192,127509,1,0,0:0:0:0:
192,192,127602,1,0,0:0:0:0:
320,192,127694,1,0,0:0:0:0:
448,192,127694,1,0,0:0:0:0:
192,192,127787,1,0,0:0:0:0:
64,192,127787,1,0,0:0:0:0:
448,192,127878,1,0,0:0:0:0:
320,192,127878,1,0,0:0:0:0:
64,192,127878,1,0,0:0:0:0:
192,192,127971,1,0,0:0:0:0:
448,192,127971,1,0,0:0:0:0:
64,192,128063,1,0,0:0:0:0:
320,192,128063,1,0,0:0:0:0:
448,192,128156,1,0,0:0:0:0:
192,192,128156,1,0,0:0:0:0:
64,192,128156,1,0,0:0:0:0:
448,192,128248,1,0,0:0:0:0:
320,192,128248,1,0,0:0:0:0:
64,192,128341,1,0,0:0:0:0:
192,192,128341,1,0,0:0:0:0:
448,192,128432,1,0,0:0:0:0:
320,192,128432,1,0,0:0:0:0:
64,192,128432,1,0,0:0:0:0:
320,192,128525,1,0,0:0:0:0:
192,192,128525,1,0,0:0:0:0:
448,192,128618,1,0,0:0:0:0:
64,192,128618,1,0,0:0:0:0:
192,192,128618,1,0,0:0:0:0:
192,192,128710,1,0,0:0:0:0:
64,192,128710,1,0,0:0:0:0:
448,192,128803,1,0,0:0:0:0:
320,192,128803,1,0,0:0:0:0:
192,192,128895,1,0,0:0:0:0:
64,192,128895,1,0,0:0:0:0:
64,192,128988,1,0,0:0:0:0:
192,192,128988,1,0,0:0:0:0:
320,192,128988,1,0,0:0:0:0:
448,192,128988,1,0,0:0:0:0:
320,192,129080,1,0,0:0:0:0:
448,192,129172,1,0,0:0:0:0:
320,192,129172,1,0,0:0:0:0:
192,192,129172,1,0,0:0:0:0:
64,192,129172,1,0,0:0:0:0:
64,192,129264,1,0,0:0:0:0:
448,192,129357,5,0,0:0:0:0:
192,192,129357,1,0,0:0:0:0:
320,192,129357,1,0,0:0:0:0:
64,192,129357,1,0,0:0:0:0:
192,192,129449,1,0,0:0:0:0:
448,192,129542,1,0,0:0:0:0:
64,192,129542,1,0,0:0:0:0:
320,192,129634,1,0,0:0:0:0:
192,192,129634,1,0,0:0:0:0:
64,192,129634,1,0,0:0:0:0:
448,192,129727,1,0,0:0:0:0:
192,192,129727,1,0,0:0:0:0:
64,192,129727,1,0,0:0:0:0:
320,192,129727,1,0,0:0:0:0:
320,192,129818,1,0,0:0:0:0:
64,192,129911,1,0,0:0:0:0:
192,192,129911,1,0,0:0:0:0:
320,192,130004,1,0,0:0:0:0:
448,192,130004,1,0,0:0:0:0:
64,192,130096,1,0,0:0:0:0:
448,192,130096,1,0,0:0:0:0:
192,192,130096,1,0,0:0:0:0:
192,192,130189,1,0,0:0:0:0:
64,192,130281,1,0,0:0:0:0:
320,192,130281,1,0,0:0:0:0:
448,192,130374,1,0,0:0:0:0:
192,192,130374,1,0,0:0:0:0:
320,192,130374,1,0,0:0:0:0:
448,192,130465,1,0,0:0:0:0:
192,192,130465,1,0,0:0:0:0:
320,192,130465,1,0,0:0:0:0:
64,192,130465,1,0,0:0:0:0:
64,192,130558,1,0,0:0:0:0:
448,192,130650,1,0,0:0:0:0:
320,192,130650,1,0,0:0:0:0:
192,192,130743,1,0,0:0:0:0:
64,192,130743,1,0,0:0:0:0:
448,192,130835,1,0,0:0:0:0:
192,192,130835,1,0,0:0:0:0:
320,192,130835,1,0,0:0:0:0:
320,192,130928,1,0,0:0:0:0:
64,192,131020,1,0,0:0:0:0:
192,192,131020,1,0,0:0:0:0:
448,192,131112,1,0,0:0:0:0:
320,192,131112,1,0,0:0:0:0:
64,192,131112,1,0,0:0:0:0:
448,192,131204,1,0,0:0:0:0:
192,192,131204,1,0,0:0:0:0:
320,192,131204,1,0,0:0:0:0:
64,192,131204,1,0,0:0:0:0:
192,192,131297,1,0,0:0:0:0:
320,192,131390,1,0,0:0:0:0:
64,192,131390,1,0,0:0:0:0:
448,192,131482,1,0,0:0:0:0:
192,192,131482,1,0,0:0:0:0:
448,192,131575,1,0,0:0:0:0:
320,192,131575,1,0,0:0:0:0:
64,192,131575,1,0,0:0:0:0:
192,192,131667,1,0,0:0:0:0:
64,192,131667,1,0,0:0:0:0:
448,192,131760,1,0,0:0:0:0:
192,192,131760,1,0,0:0:0:0:
320,192,131760,1,0,0:0:0:0:
320,192,131851,1,0,0:0:0:0:
64,192,131851,1,0,0:0:0:0:
448,192,131944,1,0,0:0:0:0:
192,192,131944,1,0,0:0:0:0:
320,192,131944,1,0,0:0:0:0:
64,192,131944,1,0,0:0:0:0:
448,192,132036,1,0,0:0:0:0:
192,192,132036,1,0,0:0:0:0:
320,192,132129,1,0,0:0:0:0:
64,192,132129,1,0,0:0:0:0:
448,192,132129,1,0,0:0:0:0:
320,192,132221,1,0,0:0:0:0:
192,192,132221,1,0,0:0:0:0:
448,192,132314,1,0,0:0:0:0:
192,192,132314,1,0,0:0:0:0:
64,192,132314,1,0,0:0:0:0:
320,192,132405,5,0,0:0:0:0:
448,192,132498,1,0,0:0:0:0:
192,192,132498,1,0,0:0:0:0:
320,192,132590,1,0,0:0:0:0:
64,192,132590,1,0,0:0:0:0:
448,192,132683,1,0,0:0:0:0:
192,192,132683,1,0,0:0:0:0:
320,192,132683,1,0,0:0:0:0:
64,192,132683,1,0,0:0:0:0:
192,192,132776,1,0,0:0:0:0:
64,192,132868,1,0,0:0:0:0:
448,192,132868,1,0,0:0:0:0:
192,192,132961,1,0,0:0:0:0:
320,192,132961,1,0,0:0:0:0:
64,192,133052,1,0,0:0:0:0:
192,192,133052,1,0,0:0:0:0:
448,192,133052,1,0,0:0:0:0:
320,192,133145,1,0,0:0:0:0:
64,192,133237,1,0,0:0:0:0:
448,192,133237,1,0,0:0:0:0:
192,192,133237,1,0,0:0:0:0:
320,192,133330,1,0,0:0:0:0:
64,192,133422,1,0,0:0:0:0:
320,192,133422,1,0,0:0:0:0:
192,192,133422,1,0,0:0:0:0:
448,192,133422,1,0,0:0:0:0:
192,192,133515,1,0,0:0:0:0:
320,192,133607,1,0,0:0:0:0:
64,192,133607,1,0,0:0:0:0:
448,192,133607,1,0,0:0:0:0:
192,192,133700,1,0,0:0:0:0:
64,192,133791,5,0,0:0:0:0:
192,192,133791,1,0,0:0:0:0:
320,192,133791,1,0,0:0:0:0:
448,192,133791,1,0,0:0:0:0:
192,192,133884,1,0,0:0:0:0:
64,192,133884,1,0,0:0:0:0:
320,192,133884,1,0,0:0:0:0:
448,192,133884,1,0,0:0:0:0:
320,192,133976,1,0,0:0:0:0:
448,192,133976,1,0,0:0:0:0:
192,192,133976,1,0,0:0:0:0:
64,192,133976,1,0,0:0:0:0:
448,192,134162,1,0,0:0:0:0:
320,192,134162,1,0,0:0:0:0:
192,192,134162,1,0,0:0:0:0:
64,192,134162,1,0,0:0:0:0:
448,192,134347,1,0,0:0:0:0:
320,192,134347,1,0,0:0:0:0:
192,192,134347,1,0,0:0:0:0:
64,192,134347,1,0,0:0:0:0:
64,192,134531,1,0,0:0:0:0:
192,192,134562,1,0,0:0:0:0:
448,192,134592,1,0,0:0:0:0:
320,192,134623,1,0,0:0:0:0:
64,192,134654,1,0,0:0:0:0:
192,192,134685,1,0,0:0:0:0:
448,192,134716,1,0,0:0:0:0:
320,192,134747,1,0,0:0:0:0:
64,192,134777,1,0,0:0:0:0:
192,192,134808,1,0,0:0:0:0:
448,192,134838,1,0,0:0:0:0:
320,192,134870,1,0,0:0:0:0:
64,192,134901,1,0,0:0:0:0:
192,192,134931,1,0,0:0:0:0:
448,192,134962,1,0,0:0:0:0:
320,192,134992,1,0,0:0:0:0:
64,192,135024,1,0,0:0:0:0:
192,192,135055,1,0,0:0:0:0:
448,192,135085,1,0,0:0:0:0:
320,192,135116,1,0,0:0:0:0:
64,192,135147,1,0,0:0:0:0:
192,192,135177,1,0,0:0:0:0:
448,192,135209,1,0,0:0:0:0:
320,192,135240,1,0,0:0:0:0:
64,192,135270,5,0,0:0:0:0:
192,192,135270,1,0,0:0:0:0:
448,192,135270,1,0,0:0:0:0:
192,192,135362,1,0,0:0:0:0:
448,192,135455,1,0,0:0:0:0:
64,192,135455,1,0,0:0:0:0:
64,192,135548,1,0,0:0:0:0:
192,192,135548,1,0,0:0:0:0:
320,192,135548,1,0,0:0:0:0:
448,192,135640,1,0,0:0:0:0:
320,192,135640,1,0,0:0:0:0:
64,192,135640,1,0,0:0:0:0:
192,192,135640,1,0,0:0:0:0:
320,192,135732,1,0,0:0:0:0:
192,192,135824,1,0,0:0:0:0:
448,192,135824,1,0,0:0:0:0:
64,192,135917,1,0,0:0:0:0:
320,192,135917,1,0,0:0:0:0:
192,192,136009,1,0,0:0:0:0:
64,192,136009,1,0,0:0:0:0:
448,192,136009,1,0,0:0:0:0:
192,192,136102,1,0,0:0:0:0:
320,192,136194,1,0,0:0:0:0:
448,192,136194,1,0,0:0:0:0:
320,192,136287,1,0,0:0:0:0:
192,192,136287,1,0,0:0:0:0:
64,192,136287,1,0,0:0:0:0:
320,192,136378,1,0,0:0:0:0:
448,192,136378,1,0,0:0:0:0:
64,192,136378,1,0,0:0:0:0:
192,192,136378,1,0,0:0:0:0:
448,192,136471,1,0,0:0:0:0:
320,192,136563,1,0,0:0:0:0:
64,192,136563,1,0,0:0:0:0:
448,192,136656,1,0,0:0:0:0:
192,192,136656,1,0,0:0:0:0:
320,192,136749,1,0,0:0:0:0:
192,192,136749,1,0,0:0:0:0:
64,192,136749,1,0,0:0:0:0:
320,192,136841,1,0,0:0:0:0:
192,192,136934,1,0,0:0:0:0:
448,192,136934,1,0,0:0:0:0:
448,192,137025,1,0,0:0:0:0:
320,192,137025,1,0,0:0:0:0:
64,192,137025,1,0,0:0:0:0:
320,192,137118,1,0,0:0:0:0:
448,192,137118,1,0,0:0:0:0:
64,192,137118,1,0,0:0:0:0:
192,192,137118,1,0,0:0:0:0:
192,192,137210,1,0,0:0:0:0:
448,192,137303,1,0,0:0:0:0:
320,192,137303,1,0,0:0:0:0:
192,192,137395,1,0,0:0:0:0:
64,192,137395,1,0,0:0:0:0:
448,192,137488,1,0,0:0:0:0:
320,192,137488,1,0,0:0:0:0:
64,192,137488,1,0,0:0:0:0:
448,192,137580,1,0,0:0:0:0:
192,192,137580,1,0,0:0:0:0:
320,192,137672,1,0,0:0:0:0:
192,192,137672,1,0,0:0:0:0:
64,192,137672,1,0,0:0:0:0:
448,192,137764,1,0,0:0:0:0:
320,192,137764,1,0,0:0:0:0:
320,192,137857,1,0,0:0:0:0:
448,192,137857,1,0,0:0:0:0:
64,192,137857,1,0,0:0:0:0:
192,192,137857,1,0,0:0:0:0:
192,192,137949,1,0,0:0:0:0:
64,192,137949,1,0,0:0:0:0:
64,192,138042,1,0,0:0:0:0:
448,192,138042,1,0,0:0:0:0:
320,192,138042,1,0,0:0:0:0:
192,192,138135,1,0,0:0:0:0:
320,192,138135,1,0,0:0:0:0:
448,192,138227,1,0,0:0:0:0:
192,192,138227,1,0,0:0:0:0:
64,192,138227,1,0,0:0:0:0:
320,192,138320,1,0,0:0:0:0:
192,192,138411,1,0,0:0:0:0:
448,192,138411,1,0,0:0:0:0:
64,192,138504,1,0,0:0:0:0:
320,192,138504,1,0,0:0:0:0:
320,192,138596,1,0,0:0:0:0:
448,192,138596,1,0,0:0:0:0:
64,192,138596,1,0,0:0:0:0:
192,192,138596,1,0,0:0:0:0:
192,192,138689,1,0,0:0:0:0:
448,192,138781,1,0,0:0:0:0:
320,192,138781,1,0,0:0:0:0:
64,192,138874,1,0,0:0:0:0:
192,192,138874,1,0,0:0:0:0:
448,192,138965,1,0,0:0:0:0:
320,192,138965,1,0,0:0:0:0:
64,192,138965,1,0,0:0:0:0:
192,192,139058,1,0,0:0:0:0:
320,192,139150,1,0,0:0:0:0:
64,192,139150,1,0,0:0:0:0:
448,192,139243,1,0,0:0:0:0:
192,192,139243,1,0,0:0:0:0:
320,192,139335,1,0,0:0:0:0:
448,192,139335,1,0,0:0:0:0:
64,192,139335,1,0,0:0:0:0:
192,192,139335,1,0,0:0:0:0:
320,192,139428,1,0,0:0:0:0:
64,192,139521,1,0,0:0:0:0:
192,192,139521,1,0,0:0:0:0:
448,192,139612,1,0,0:0:0:0:
320,192,139612,1,0,0:0:0:0:
448,192,139705,1,0,0:0:0:0:
192,192,139705,1,0,0:0:0:0:
64,192,139705,1,0,0:0:0:0:
64,192,139797,1,0,0:0:0:0:
320,192,139797,1,0,0:0:0:0:
192,192,139890,1,0,0:0:0:0:
448,192,139890,1,0,0:0:0:0:
448,192,139982,1,0,0:0:0:0:
320,192,139982,1,0,0:0:0:0:
64,192,139982,1,0,0:0:0:0:
192,192,140075,1,0,0:0:0:0:
64,192,140075,1,0,0:0:0:0:
320,192,140167,1,0,0:0:0:0:
448,192,140167,1,0,0:0:0:0:
448,192,140260,1,0,0:0:0:0:
192,192,140260,1,0,0:0:0:0:
64,192,140260,1,0,0:0:0:0:
320,192,140351,1,0,0:0:0:0:
192,192,140351,1,0,0:0:0:0:
320,192,140444,1,0,0:0:0:0:
448,192,140444,1,0,0:0:0:0:
64,192,140444,1,0,0:0:0:0:
448,192,140536,1,0,0:0:0:0:
320,192,140536,1,0,0:0:0:0:
192,192,140629,1,0,0:0:0:0:
64,192,140629,1,0,0:0:0:0:
448,192,140721,1,0,0:0:0:0:
320,192,140721,1,0,0:0:0:0:
192,192,140814,1,0,0:0:0:0:
64,192,140814,1,0,0:0:0:0:
448,192,140814,1,0,0:0:0:0:
320,192,140814,1,0,0:0:0:0:
192,192,140907,1,0,0:0:0:0:
320,192,140998,1,0,0:0:0:0:
448,192,140998,1,0,0:0:0:0:
64,192,140998,1,0,0:0:0:0:
192,192,140998,1,0,0:0:0:0:
448,192,141091,1,0,0:0:0:0:
64,192,141183,5,0,0:0:0:0:
192,192,141183,1,0,0:0:0:0:
448,192,141183,1,0,0:0:0:0:
320,192,141183,1,0,0:0:0:0:
320,192,141276,1,0,0:0:0:0:
448,192,141368,1,0,0:0:0:0:
64,192,141368,1,0,0:0:0:0:
448,192,141461,1,0,0:0:0:0:
320,192,141461,1,0,0:0:0:0:
192,192,141461,1,0,0:0:0:0:
448,192,141552,1,0,0:0:0:0:
192,192,141552,1,0,0:0:0:0:
64,192,141552,1,0,0:0:0:0:
320,192,141552,1,0,0:0:0:0:
192,192,141645,1,0,0:0:0:0:
320,192,141737,1,0,0:0:0:0:
448,192,141737,1,0,0:0:0:0:
64,192,141830,1,0,0:0:0:0:
192,192,141830,1,0,0:0:0:0:
320,192,141922,1,0,0:0:0:0:
64,192,141922,1,0,0:0:0:0:
448,192,141922,1,0,0:0:0:0:
320,192,142015,1,0,0:0:0:0:
192,192,142107,1,0,0:0:0:0:
448,192,142107,1,0,0:0:0:0:
192,192,142200,1,0,0:0:0:0:
320,192,142200,1,0,0:0:0:0:
64,192,142200,1,0,0:0:0:0:
192,192,142292,1,0,0:0:0:0:
448,192,142292,1,0,0:0:0:0:
64,192,142292,1,0,0:0:0:0:
320,192,142292,1,0,0:0:0:0:
448,192,142384,1,0,0:0:0:0:
192,192,142477,1,0,0:0:0:0:
64,192,142477,1,0,0:0:0:0:
448,192,142569,1,0,0:0:0:0:
320,192,142569,1,0,0:0:0:0:
192,192,142662,1,0,0:0:0:0:
320,192,142662,1,0,0:0:0:0:
64,192,142662,1,0,0:0:0:0:
192,192,142754,1,0,0:0:0:0:
320,192,142847,1,0,0:0:0:0:
448,192,142847,1,0,0:0:0:0:
448,192,142938,1,0,0:0:0:0:
192,192,142938,1,0,0:0:0:0:
64,192,142938,1,0,0:0:0:0:
192,192,143031,1,0,0:0:0:0:
448,192,143031,1,0,0:0:0:0:
64,192,143031,1,0,0:0:0:0:
320,192,143031,1,0,0:0:0:0:
320,192,143123,1,0,0:0:0:0:
448,192,143216,1,0,0:0:0:0:
192,192,143216,1,0,0:0:0:0:
320,192,143308,1,0,0:0:0:0:
64,192,143308,1,0,0:0:0:0:
448,192,143401,1,0,0:0:0:0:
192,192,143401,1,0,0:0:0:0:
64,192,143401,1,0,0:0:0:0:
448,192,143492,1,0,0:0:0:0:
320,192,143492,1,0,0:0:0:0:
192,192,143585,1,0,0:0:0:0:
320,192,143585,1,0,0:0:0:0:
64,192,143585,1,0,0:0:0:0:
448,192,143678,1,0,0:0:0:0:
192,192,143678,1,0,0:0:0:0:
192,192,143770,1,0,0:0:0:0:
448,192,143770,1,0,0:0:0:0:
64,192,143770,1,0,0:0:0:0:
320,192,143770,1,0,0:0:0:0:
320,192,143863,1,0,0:0:0:0:
64,192,143863,1,0,0:0:0:0:
64,192,143955,1,0,0:0:0:0:
448,192,143955,1,0,0:0:0:0:
192,192,143955,1,0,0:0:0:0:
320,192,144048,1,0,0:0:0:0:
192,192,144048,1,0,0:0:0:0:
448,192,144140,1,0,0:0:0:0:
320,192,144140,1,0,0:0:0:0:
64,192,144140,1,0,0:0:0:0:
192,192,144232,5,0,0:0:0:0:
320,192,144324,1,0,0:0:0:0:
64,192,144324,1,0,0:0:0:0:
448,192,144417,1,0,0:0:0:0:
192,192,144417,1,0,0:0:0:0:
192,192,144509,1,0,0:0:0:0:
448,192,144509,1,0,0:0:0:0:
64,192,144509,1,0,0:0:0:0:
320,192,144509,1,0,0:0:0:0:
320,192,144602,1,0,0:0:0:0:
64,192,144694,1,0,0:0:0:0:
448,192,144694,1,0,0:0:0:0:
192,192,144787,1,0,0:0:0:0:
320,192,144787,1,0,0:0:0:0:
64,192,144878,1,0,0:0:0:0:
320,192,144878,1,0,0:0:0:0:
448,192,144878,1,0,0:0:0:0:
192,192,144971,1,0,0:0:0:0:
320,192,145064,1,0,0:0:0:0:
64,192,145064,1,0,0:0:0:0:
448,192,145064,1,0,0:0:0:0:
192,192,145156,1,0,0:0:0:0:
320,192,145249,1,0,0:0:0:0:
64,192,145249,1,0,0:0:0:0:
448,192,145249,1,0,0:0:0:0:
192,192,145249,1,0,0:0:0:0:
320,192,145341,1,0,0:0:0:0:
64,192,145434,1,0,0:0:0:0:
448,192,145434,1,0,0:0:0:0:
192,192,145434,1,0,0:0:0:0:
320,192,145525,1,0,0:0:0:0:
64,192,145618,5,0,0:0:0:0:
192,192,145618,1,0,0:0:0:0:
320,192,145618,1,0,0:0:0:0:
448,192,145618,1,0,0:0:0:0:
320,192,145710,1,0,0:0:0:0:
448,192,145710,1,0,0:0:0:0:
192,192,145710,1,0,0:0:0:0:
64,192,145710,1,0,0:0:0:0:
320,192,145803,1,0,0:0:0:0:
448,192,145803,1,0,0:0:0:0:
64,192,145803,1,0,0:0:0:0:
192,192,145803,1,0,0:0:0:0:
320,192,145988,1,0,0:0:0:0:
448,192,145988,1,0,0:0:0:0:
192,192,145988,1,0,0:0:0:0:
64,192,145988,1,0,0:0:0:0:
64,192,146172,1,0,0:0:0:0:
320,192,146172,1,0,0:0:0:0:
448,192,146172,1,0,0:0:0:0:
192,192,146172,1,0,0:0:0:0:
320,192,146357,1,0,0:0:0:0:
448,192,146357,1,0,0:0:0:0:
192,192,146357,1,0,0:0:0:0:
64,192,146357,1,0,0:0:0:0:
320,192,146542,1,0,0:0:0:0:
64,192,146542,1,0,0:0:0:0:
448,192,146727,1,0,0:0:0:0:
192,192,146727,1,0,0:0:0:0:
64,192,146911,1,0,0:0:0:0:
192,192,146911,1,0,0:0:0:0:
448,192,146911,1,0,0:0:0:0:
320,192,146911,1,0,0:0:0:0:
64,192,147096,1,0,0:0:0:0:
192,192,147096,1,0,0:0:0:0:
448,192,147143,1,0,0:0:0:0:
320,192,147143,1,0,0:0:0:0:
192,192,147189,1,0,0:0:0:0:
64,192,147189,1,0,0:0:0:0:
448,192,147281,1,0,0:0:0:0:
320,192,147281,1,0,0:0:0:0:
64,192,147328,1,0,0:0:0:0:
192,192,147328,1,0,0:0:0:0:
448,192,147374,1,0,0:0:0:0:
320,192,147374,1,0,0:0:0:0:
192,192,147465,1,0,0:0:0:0:
64,192,147465,1,0,0:0:0:0:
448,192,147558,1,0,0:0:0:0:
320,192,147651,1,0,0:0:0:0:
64,192,147651,1,0,0:0:0:0:
192,192,147743,1,0,0:0:0:0:
448,192,147836,1,0,0:0:0:0:
320,192,147836,1,0,0:0:0:0:
192,192,147882,1,0,0:0:0:0:
64,192,147882,1,0,0:0:0:0:
448,192,147928,1,0,0:0:0:0:
320,192,147928,1,0,0:0:0:0:
192,192,148021,1,0,0:0:0:0:
64,192,148021,1,0,0:0:0:0:
448,192,148067,1,0,0:0:0:0:
320,192,148067,1,0,0:0:0:0:
192,192,148112,1,0,0:0:0:0:
64,192,148112,1,0,0:0:0:0:
448,192,148205,1,0,0:0:0:0:
320,192,148205,1,0,0:0:0:0:
64,192,148297,1,0,0:0:0:0:
448,192,148390,1,0,0:0:0:0:
192,192,148390,1,0,0:0:0:0:
320,192,148482,1,0,0:0:0:0:
448,192,148575,1,0,0:0:0:0:
192,192,148575,1,0,0:0:0:0:
64,192,148575,1,0,0:0:0:0:
448,192,148667,1,0,0:0:0:0:
192,192,148667,1,0,0:0:0:0:
64,192,148667,1,0,0:0:0:0:
448,192,148760,1,0,0:0:0:0:
192,192,148760,1,0,0:0:0:0:
64,192,148760,1,0,0:0:0:0:
320,192,148944,1,0,0:0:0:0:
64,192,148944,1,0,0:0:0:0:
192,192,148944,1,0,0:0:0:0:
320,192,149037,1,0,0:0:0:0:
192,192,149037,1,0,0:0:0:0:
64,192,149037,1,0,0:0:0:0:
320,192,149129,1,0,0:0:0:0:
64,192,149129,1,0,0:0:0:0:
192,192,149129,1,0,0:0:0:0:
448,192,149314,1,0,0:0:0:0:
192,192,149314,1,0,0:0:0:0:
64,192,149314,1,0,0:0:0:0:
64,192,149407,1,0,0:0:0:0:
192,192,149407,1,0,0:0:0:0:
320,192,149407,1,0,0:0:0:0:
448,192,149498,1,0,0:0:0:0:
320,192,149498,1,0,0:0:0:0:
64,192,149498,1,0,0:0:0:0:
448,192,149591,1,0,0:0:0:0:
192,192,149591,1,0,0:0:0:0:
320,192,149591,1,0,0:0:0:0:
448,192,149683,1,0,0:0:0:0:
192,192,149683,1,0,0:0:0:0:
64,192,149683,1,0,0:0:0:0:
64,192,149776,1,0,0:0:0:0:
320,192,149776,1,0,0:0:0:0:
192,192,149776,1,0,0:0:0:0:
448,192,149868,1,0,0:0:0:0:
320,192,149868,1,0,0:0:0:0:
64,192,149868,1,0,0:0:0:0:
320,192,149961,1,0,0:0:0:0:
448,192,149961,1,0,0:0:0:0:
192,192,149961,1,0,0:0:0:0:
64,192,150052,128,0,150237:0:0:0:0:
192,192,150052,128,0,150237:0:0:0:0:
320,192,150052,128,0,150237:0:0:0:0:
448,192,150052,128,0,150237:0:0:0:0:
64,192,150423,1,0,0:0:0:0:
448,192,150423,1,0,0:0:0:0:
192,192,150608,1,0,0:0:0:0:
320,192,150608,1,0,0:0:0:0:
448,192,150792,1,0,0:0:0:0:
320,192,150792,1,0,0:0:0:0:
192,192,150792,1,0,0:0:0:0:
64,192,150792,1,0,0:0:0:0:
320,192,150884,1,0,0:0:0:0:
192,192,150884,1,0,0:0:0:0:
448,192,150977,1,0,0:0:0:0:
64,192,150977,1,0,0:0:0:0:
320,192,151069,1,0,0:0:0:0:
192,192,151069,1,0,0:0:0:0:
320,192,151162,1,0,0:0:0:0:
448,192,151162,1,0,0:0:0:0:
64,192,151162,1,0,0:0:0:0:
192,192,151223,1,0,0:0:0:0:
320,192,151223,1,0,0:0:0:0:
192,192,151285,1,0,0:0:0:0:
64,192,151285,1,0,0:0:0:0:
448,192,151285,1,0,0:0:0:0:
320,192,151347,1,0,0:0:0:0:
64,192,151347,1,0,0:0:0:0:
448,192,151438,1,0,0:0:0:0:
192,192,151438,1,0,0:0:0:0:
320,192,151531,1,0,0:0:0:0:
448,192,151531,1,0,0:0:0:0:
64,192,151531,1,0,0:0:0:0:
192,192,151531,1,0,0:0:0:0:
192,192,151716,1,0,0:0:0:0:
320,192,151716,1,0,0:0:0:0:
320,192,151901,1,0,0:0:0:0:
448,192,151901,1,0,0:0:0:0:
64,192,151901,1,0,0:0:0:0:
192,192,152085,1,0,0:0:0:0:
448,192,152085,1,0,0:0:0:0:
64,192,152178,1,0,0:0:0:0:
320,192,152178,1,0,0:0:0:0:
192,192,152270,1,0,0:0:0:0:
448,192,152270,1,0,0:0:0:0:
320,192,152270,1,0,0:0:0:0:
192,192,152363,1,0,0:0:0:0:
64,192,152363,1,0,0:0:0:0:
448,192,152455,1,0,0:0:0:0:
320,192,152455,1,0,0:0:0:0:
64,192,152640,1,0,0:0:0:0:
320,192,152640,1,0,0:0:0:0:
448,192,152640,1,0,0:0:0:0:
192,192,152824,1,0,0:0:0:0:
448,192,152824,1,0,0:0:0:0:
64,192,153009,1,0,0:0:0:0:
320,192,153009,1,0,0:0:0:0:
448,192,153009,1,0,0:0:0:0:
192,192,153195,1,0,0:0:0:0:
320,192,153195,1,0,0:0:0:0:
448,192,153380,1,0,0:0:0:0:
192,192,153380,1,0,0:0:0:0:
64,192,153380,1,0,0:0:0:0:
320,192,153471,1,0,0:0:0:0:
192,192,153471,1,0,0:0:0:0:
448,192,153564,1,0,0:0:0:0:
64,192,153564,1,0,0:0:0:0:
192,192,153749,1,0,0:0:0:0:
448,192,153749,1,0,0:0:0:0:
320,192,153749,1,0,0:0:0:0:
64,192,153841,1,0,0:0:0:0:
448,192,153841,1,0,0:0:0:0:
192,192,153934,1,0,0:0:0:0:
320,192,153934,1,0,0:0:0:0:
320,192,154118,128,0,154303:0:0:0:0:
448,192,154118,128,0,154303:0:0:0:0:
64,192,154118,128,0,154210:0:0:0:0:
64,192,154303,1,0,0:0:0:0:
192,192,154303,1,0,0:0:0:0:
320,192,154488,1,0,0:0:0:0:
192,192,154488,1,0,0:0:0:0:
64,192,154581,1,0,0:0:0:0:
448,192,154581,1,0,0:0:0:0:
192,192,154672,1,0,0:0:0:0:
320,192,154672,1,0,0:0:0:0:
320,192,154857,1,0,0:0:0:0:
448,192,154857,1,0,0:0:0:0:
64,192,154857,1,0,0:0:0:0:
192,192,155042,1,0,0:0:0:0:
448,192,155042,1,0,0:0:0:0:
64,192,155135,1,0,0:0:0:0:
320,192,155135,1,0,0:0:0:0:
192,192,155227,1,0,0:0:0:0:
448,192,155227,1,0,0:0:0:0:
64,192,155227,1,0,0:0:0:0:
320,192,155320,1,0,0:0:0:0:
448,192,155320,1,0,0:0:0:0:
192,192,155411,1,0,0:0:0:0:
64,192,155411,1,0,0:0:0:0:
64,192,155596,1,0,0:0:0:0:
320,192,155596,1,0,0:0:0:0:
448,192,155596,1,0,0:0:0:0:
192,192,155782,1,0,0:0:0:0:
448,192,155782,1,0,0:0:0:0:
64,192,155967,1,0,0:0:0:0:
320,192,155967,1,0,0:0:0:0:
448,192,155967,1,0,0:0:0:0:
192,192,156151,1,0,0:0:0:0:
320,192,156151,1,0,0:0:0:0:
64,192,156336,1,0,0:0:0:0:
448,192,156336,1,0,0:0:0:0:
320,192,156336,1,0,0:0:0:0:
192,192,156428,1,0,0:0:0:0:
448,192,156428,1,0,0:0:0:0:
64,192,156521,1,0,0:0:0:0:
320,192,156521,1,0,0:0:0:0:
448,192,156705,1,0,0:0:0:0:
64,192,156705,1,0,0:0:0:0:
192,192,156705,1,0,0:0:0:0:
64,192,156797,1,0,0:0:0:0:
320,192,156797,1,0,0:0:0:0:
192,192,156890,1,0,0:0:0:0:
448,192,156890,1,0,0:0:0:0:
64,192,157075,128,0,157168:0:0:0:0:
320,192,157075,128,0,157260:0:0:0:0:
448,192,157075,128,0,157260:0:0:0:0:
64,192,157260,1,0,0:0:0:0:
192,192,157260,1,0,0:0:0:0:
64,192,157352,1,0,0:0:0:0:
192,192,157352,1,0,0:0:0:0:
320,192,157444,1,0,0:0:0:0:
448,192,157444,1,0,0:0:0:0:
64,192,157537,1,0,0:0:0:0:
192,192,157537,1,0,0:0:0:0:
192,192,157629,1,0,0:0:0:0:
320,192,157629,1,0,0:0:0:0:
192,192,157814,1,0,0:0:0:0:
64,192,157814,1,0,0:0:0:0:
448,192,157814,1,0,0:0:0:0:
320,192,157998,1,0,0:0:0:0:
64,192,157998,1,0,0:0:0:0:
448,192,158091,1,0,0:0:0:0:
192,192,158091,1,0,0:0:0:0:
320,192,158183,1,0,0:0:0:0:
64,192,158183,1,0,0:0:0:0:
192,192,158183,1,0,0:0:0:0:
320,192,158276,1,0,0:0:0:0:
448,192,158276,1,0,0:0:0:0:
64,192,158368,1,0,0:0:0:0:
192,192,158368,1,0,0:0:0:0:
448,192,158554,1,0,0:0:0:0:
192,192,158554,1,0,0:0:0:0:
64,192,158554,1,0,0:0:0:0:
320,192,158738,1,0,0:0:0:0:
64,192,158738,1,0,0:0:0:0:
448,192,158923,1,0,0:0:0:0:
192,192,158923,1,0,0:0:0:0:
64,192,158923,1,0,0:0:0:0:
320,192,159108,1,0,0:0:0:0:
192,192,159108,1,0,0:0:0:0:
64,192,159292,1,0,0:0:0:0:
320,192,159292,1,0,0:0:0:0:
448,192,159292,1,0,0:0:0:0:
192,192,159384,1,0,0:0:0:0:
320,192,159384,1,0,0:0:0:0:
64,192,159477,1,0,0:0:0:0:
448,192,159477,1,0,0:0:0:0:
320,192,159662,1,0,0:0:0:0:
64,192,159662,1,0,0:0:0:0:
192,192,159662,1,0,0:0:0:0:
448,192,159754,1,0,0:0:0:0:
64,192,159754,1,0,0:0:0:0:
320,192,159847,1,0,0:0:0:0:
192,192,159847,1,0,0:0:0:0:
192,192,160031,128,0,160216:0:0:0:0:
64,192,160031,128,0,160216:0:0:0:0:
448,192,160031,128,0,160124:0:0:0:0:
448,192,160216,1,0,0:0:0:0:
320,192,160216,1,0,0:0:0:0:
192,192,160401,1,0,0:0:0:0:
320,192,160401,1,0,0:0:0:0:
448,192,160494,1,0,0:0:0:0:
64,192,160494,1,0,0:0:0:0:
320,192,160585,1,0,0:0:0:0:
192,192,160585,1,0,0:0:0:0:
192,192,160770,1,0,0:0:0:0:
64,192,160770,1,0,0:0:0:0:
448,192,160770,1,0,0:0:0:0:
320,192,160955,1,0,0:0:0:0:
64,192,160955,1,0,0:0:0:0:
448,192,161048,1,0,0:0:0:0:
192,192,161048,1,0,0:0:0:0:
320,192,161140,1,0,0:0:0:0:
64,192,161140,1,0,0:0:0:0:
448,192,161140,1,0,0:0:0:0:
192,192,161232,1,0,0:0:0:0:
64,192,161232,1,0,0:0:0:0:
320,192,161325,1,0,0:0:0:0:
448,192,161325,1,0,0:0:0:0:
448,192,161510,1,0,0:0:0:0:
192,192,161510,1,0,0:0:0:0:
64,192,161510,1,0,0:0:0:0:
320,192,161695,1,0,0:0:0:0:
64,192,161695,1,0,0:0:0:0:
448,192,161880,1,0,0:0:0:0:
192,192,161880,1,0,0:0:0:0:
64,192,161880,1,0,0:0:0:0:
192,192,161971,1,0,0:0:0:0:
448,192,161971,1,0,0:0:0:0:
64,192,161971,1,0,0:0:0:0:
320,192,162064,1,0,0:0:0:0:
64,192,162064,1,0,0:0:0:0:
448,192,162249,1,0,0:0:0:0:
64,192,162249,1,0,0:0:0:0:
192,192,162249,1,0,0:0:0:0:
320,192,162341,1,0,0:0:0:0:
64,192,162341,1,0,0:0:0:0:
448,192,162434,1,0,0:0:0:0:
192,192,162434,1,0,0:0:0:0:
64,192,162618,1,0,0:0:0:0:
448,192,162618,1,0,0:0:0:0:
320,192,162618,1,0,0:0:0:0:
448,192,162711,1,0,0:0:0:0:
192,192,162711,1,0,0:0:0:0:
320,192,162803,1,0,0:0:0:0:
64,192,162803,1,0,0:0:0:0:
448,192,162988,128,0,163081:0:0:0:0:
192,192,162988,128,0,163172:0:0:0:0:
64,192,162988,128,0,163172:0:0:0:0:
448,192,163172,1,0,0:0:0:0:
320,192,163172,1,0,0:0:0:0:
320,192,163357,1,0,0:0:0:0:
448,192,163357,1,0,0:0:0:0:
64,192,163357,1,0,0:0:0:0:
192,192,163357,1,0,0:0:0:0:
192,192,163542,1,0,0:0:0:0:
320,192,163542,1,0,0:0:0:0:
320,192,163727,1,0,0:0:0:0:
448,192,163727,1,0,0:0:0:0:
64,192,163727,1,0,0:0:0:0:
192,192,163912,1,0,0:0:0:0:
448,192,163912,1,0,0:0:0:0:
64,192,164004,1,0,0:0:0:0:
320,192,164004,1,0,0:0:0:0:
192,192,164097,1,0,0:0:0:0:
448,192,164097,1,0,0:0:0:0:
320,192,164097,1,0,0:0:0:0:
192,192,164189,1,0,0:0:0:0:
64,192,164189,1,0,0:0:0:0:
448,192,164282,1,0,0:0:0:0:
320,192,164282,1,0,0:0:0:0:
64,192,164467,1,0,0:0:0:0:
320,192,164467,1,0,0:0:0:0:
448,192,164467,1,0,0:0:0:0:
192,192,164651,1,0,0:0:0:0:
448,192,164651,1,0,0:0:0:0:
64,192,164836,1,0,0:0:0:0:
320,192,164836,1,0,0:0:0:0:
448,192,164836,1,0,0:0:0:0:
192,192,165021,1,0,0:0:0:0:
320,192,165021,1,0,0:0:0:0:
448,192,165205,1,0,0:0:0:0:
192,192,165205,1,0,0:0:0:0:
64,192,165205,1,0,0:0:0:0:
320,192,165298,1,0,0:0:0:0:
192,192,165298,1,0,0:0:0:0:
448,192,165390,1,0,0:0:0:0:
64,192,165390,1,0,0:0:0:0:
192,192,165575,1,0,0:0:0:0:
448,192,165575,1,0,0:0:0:0:
320,192,165575,1,0,0:0:0:0:
64,192,165668,1,0,0:0:0:0:
448,192,165668,1,0,0:0:0:0:
192,192,165760,1,0,0:0:0:0:
320,192,165760,1,0,0:0:0:0:
320,192,165944,128,0,166129:0:0:0:0:
448,192,165944,128,0,166129:0:0:0:0:
64,192,165944,128,0,166037:0:0:0:0:
64,192,166129,1,0,0:0:0:0:
192,192,166129,1,0,0:0:0:0:
320,192,166314,1,0,0:0:0:0:
192,192,166314,1,0,0:0:0:0:
64,192,166407,1,0,0:0:0:0:
448,192,166407,1,0,0:0:0:0:
192,192,166498,1,0,0:0:0:0:
320,192,166498,1,0,0:0:0:0:
320,192,166684,1,0,0:0:0:0:
448,192,166684,1,0,0:0:0:0:
64,192,166684,1,0,0:0:0:0:
192,192,166869,1,0,0:0:0:0:
448,192,166869,1,0,0:0:0:0:
64,192,166961,1,0,0:0:0:0:
320,192,166961,1,0,0:0:0:0:
192,192,167054,1,0,0:0:0:0:
448,192,167054,1,0,0:0:0:0:
64,192,167054,1,0,0:0:0:0:
320,192,167145,1,0,0:0:0:0:
448,192,167145,1,0,0:0:0:0:
192,192,167238,1,0,0:0:0:0:
64,192,167238,1,0,0:0:0:0:
64,192,167423,1,0,0:0:0:0:
320,192,167423,1,0,0:0:0:0:
448,192,167423,1,0,0:0:0:0:
192,192,167608,1,0,0:0:0:0:
448,192,167608,1,0,0:0:0:0:
64,192,167792,1,0,0:0:0:0:
320,192,167792,1,0,0:0:0:0:
448,192,167792,1,0,0:0:0:0:
192,192,167977,1,0,0:0:0:0:
320,192,167977,1,0,0:0:0:0:
64,192,168162,1,0,0:0:0:0:
448,192,168162,1,0,0:0:0:0:
320,192,168162,1,0,0:0:0:0:
192,192,168255,1,0,0:0:0:0:
448,192,168255,1,0,0:0:0:0:
64,192,168347,1,0,0:0:0:0:
320,192,168347,1,0,0:0:0:0:
448,192,168531,1,0,0:0:0:0:
64,192,168531,1,0,0:0:0:0:
192,192,168531,1,0,0:0:0:0:
64,192,168624,1,0,0:0:0:0:
320,192,168624,1,0,0:0:0:0:
192,192,168716,1,0,0:0:0:0:
448,192,168716,1,0,0:0:0:0:
64,192,168901,128,0,168994:0:0:0:0:
320,192,168901,128,0,169085:0:0:0:0:
448,192,168901,128,0,169085:0:0:0:0:
64,192,169085,1,0,0:0:0:0:
192,192,169085,1,0,0:0:0:0:
64,192,169178,1,0,0:0:0:0:
192,192,169178,1,0,0:0:0:0:
320,192,169270,1,0,0:0:0:0:
448,192,169270,1,0,0:0:0:0:
64,192,169363,1,0,0:0:0:0:
192,192,169363,1,0,0:0:0:0:
192,192,169456,1,0,0:0:0:0:
320,192,169456,1,0,0:0:0:0:
192,192,169641,1,0,0:0:0:0:
64,192,169641,1,0,0:0:0:0:
448,192,169641,1,0,0:0:0:0:
320,192,169825,1,0,0:0:0:0:
64,192,169825,1,0,0:0:0:0:
448,192,169917,1,0,0:0:0:0:
192,192,169917,1,0,0:0:0:0:
320,192,170010,1,0,0:0:0:0:
64,192,170010,1,0,0:0:0:0:
192,192,170010,1,0,0:0:0:0:
320,192,170102,1,0,0:0:0:0:
448,192,170102,1,0,0:0:0:0:
64,192,170195,1,0,0:0:0:0:
192,192,170195,1,0,0:0:0:0:
448,192,170380,1,0,0:0:0:0:
192,192,170380,1,0,0:0:0:0:
64,192,170380,1,0,0:0:0:0:
320,192,170564,1,0,0:0:0:0:
64,192,170564,1,0,0:0:0:0:
448,192,170749,1,0,0:0:0:0:
192,192,170749,1,0,0:0:0:0:
64,192,170749,1,0,0:0:0:0:
320,192,170934,1,0,0:0:0:0:
192,192,170934,1,0,0:0:0:0:
64,192,171118,1,0,0:0:0:0:
320,192,171118,1,0,0:0:0:0:
448,192,171118,1,0,0:0:0:0:
192,192,171211,1,0,0:0:0:0:
320,192,171211,1,0,0:0:0:0:
64,192,171303,1,0,0:0:0:0:
448,192,171303,1,0,0:0:0:0:
320,192,171488,1,0,0:0:0:0:
64,192,171488,1,0,0:0:0:0:
192,192,171488,1,0,0:0:0:0:
448,192,171581,1,0,0:0:0:0:
64,192,171581,1,0,0:0:0:0:
320,192,171672,1,0,0:0:0:0:
192,192,171672,1,0,0:0:0:0:
192,192,171857,128,0,172043:0:0:0:0:
64,192,171857,128,0,172043:0:0:0:0:
448,192,171857,128,0,171950:0:0:0:0:
448,192,172043,1,0,0:0:0:0:
320,192,172043,1,0,0:0:0:0:
192,192,172228,1,0,0:0:0:0:
320,192,172228,1,0,0:0:0:0:
448,192,172320,1,0,0:0:0:0:
64,192,172320,1,0,0:0:0:0:
320,192,172412,1,0,0:0:0:0:
192,192,172412,1,0,0:0:0:0:
192,192,172597,1,0,0:0:0:0:
64,192,172597,1,0,0:0:0:0:
448,192,172597,1,0,0:0:0:0:
320,192,172782,1,0,0:0:0:0:
64,192,172782,1,0,0:0:0:0:
448,192,172874,1,0,0:0:0:0:
192,192,172874,1,0,0:0:0:0:
320,192,172967,1,0,0:0:0:0:
64,192,172967,1,0,0:0:0:0:
448,192,172967,1,0,0:0:0:0:
192,192,173058,1,0,0:0:0:0:
64,192,173058,1,0,0:0:0:0:
320,192,173151,1,0,0:0:0:0:
448,192,173151,1,0,0:0:0:0:
448,192,173336,1,0,0:0:0:0:
192,192,173336,1,0,0:0:0:0:
64,192,173336,1,0,0:0:0:0:
320,192,173521,1,0,0:0:0:0:
64,192,173521,1,0,0:0:0:0:
448,192,173705,1,0,0:0:0:0:
192,192,173705,1,0,0:0:0:0:
64,192,173705,1,0,0:0:0:0:
320,192,173890,1,0,0:0:0:0:
192,192,173890,1,0,0:0:0:0:
448,192,174075,1,0,0:0:0:0:
64,192,174075,1,0,0:0:0:0:
192,192,174075,1,0,0:0:0:0:
320,192,174168,1,0,0:0:0:0:
64,192,174168,1,0,0:0:0:0:
448,192,174260,1,0,0:0:0:0:
192,192,174260,1,0,0:0:0:0:
64,192,174444,1,0,0:0:0:0:
448,192,174444,1,0,0:0:0:0:
320,192,174444,1,0,0:0:0:0:
448,192,174537,1,0,0:0:0:0:
192,192,174537,1,0,0:0:0:0:
320,192,174629,1,0,0:0:0:0:
64,192,174629,1,0,0:0:0:0:
448,192,174815,128,0,174907:0:0:0:0:
192,192,174815,128,0,175000:0:0:0:0:
64,192,174815,128,0,175000:0:0:0:0:
448,192,175000,1,0,0:0:0:0:
320,192,175000,1,0,0:0:0:0:
64,192,175184,1,0,0:0:0:0:
192,192,175184,1,0,0:0:0:0:
320,192,175184,1,0,0:0:0:0:
448,192,175184,1,0,0:0:0:0:
192,192,175554,1,0,0:0:0:0:
320,192,175554,1,0,0:0:0:0:
448,192,175554,1,0,0:0:0:0:
192,192,176108,1,0,0:0:0:0:
320,192,176108,1,0,0:0:0:0:
448,192,176108,1,0,0:0:0:0:
192,192,177031,1,0,0:0:0:0:
320,192,177031,1,0,0:0:0:0:
448,192,177031,1,0,0:0:0:0:
192,192,177401,1,0,0:0:0:0:
320,192,177401,1,0,0:0:0:0:
448,192,177401,1,0,0:0:0:0:
320,192,177678,1,0,0:0:0:0:
448,192,177678,1,0,0:0:0:0:
64,192,177678,1,0,0:0:0:0:
192,192,177956,1,0,0:0:0:0:
320,192,177956,1,0,0:0:0:0:
448,192,177956,1,0,0:0:0:0:
64,192,178510,1,0,0:0:0:0:
192,192,178510,1,0,0:0:0:0:
320,192,178510,1,0,0:0:0:0:
64,192,179064,1,0,0:0:0:0:
192,192,179064,1,0,0:0:0:0:
320,192,179064,1,0,0:0:0:0:
64,192,179988,1,0,0:0:0:0:
192,192,179988,1,0,0:0:0:0:
320,192,179988,1,0,0:0:0:0:
64,192,180358,1,0,0:0:0:0:
192,192,180358,1,0,0:0:0:0:
320,192,180358,1,0,0:0:0:0:
64,192,180635,1,0,0:0:0:0:
192,192,180635,1,0,0:0:0:0:
320,192,180635,1,0,0:0:0:0:
64,192,180912,1,0,0:0:0:0:
192,192,180912,1,0,0:0:0:0:
448,192,180912,1,0,0:0:0:0:
64,192,181467,1,0,0:0:0:0:
320,192,181467,1,0,0:0:0:0:
448,192,181467,1,0,0:0:0:0:
64,192,182021,1,0,0:0:0:0:
320,192,182021,1,0,0:0:0:0:
448,192,182021,1,0,0:0:0:0:
64,192,182945,1,0,0:0:0:0:
320,192,182945,1,0,0:0:0:0:
448,192,182945,1,0,0:0:0:0:
64,192,183315,1,0,0:0:0:0:
320,192,183315,1,0,0:0:0:0:
448,192,183315,1,0,0:0:0:0:
320,192,183591,1,0,0:0:0:0:
448,192,183591,1,0,0:0:0:0:
192,192,183591,1,0,0:0:0:0:
64,192,183869,1,0,0:0:0:0:
320,192,183869,1,0,0:0:0:0:
448,192,183869,1,0,0:0:0:0:
448,192,184423,1,0,0:0:0:0:
192,192,184423,1,0,0:0:0:0:
64,192,184423,1,0,0:0:0:0:
448,192,184977,1,0,0:0:0:0:
192,192,184977,1,0,0:0:0:0:
64,192,184977,1,0,0:0:0:0:
448,192,185902,1,0,0:0:0:0:
192,192,185902,1,0,0:0:0:0:
64,192,185902,1,0,0:0:0:0:
448,192,186271,1,0,0:0:0:0:
192,192,186271,1,0,0:0:0:0:
64,192,186271,1,0,0:0:0:0:
192,192,186548,1,0,0:0:0:0:
64,192,186548,1,0,0:0:0:0:
448,192,186548,1,0,0:0:0:0:
448,192,186825,1,0,0:0:0:0:
192,192,186825,1,0,0:0:0:0:
64,192,186825,1,0,0:0:0:0:
448,192,187380,1,0,0:0:0:0:
320,192,187380,1,0,0:0:0:0:
192,192,187380,1,0,0:0:0:0:
448,192,187934,1,0,0:0:0:0:
320,192,187934,1,0,0:0:0:0:
192,192,187934,1,0,0:0:0:0:
448,192,188858,1,0,0:0:0:0:
320,192,188858,1,0,0:0:0:0:
192,192,188858,1,0,0:0:0:0:
448,192,189228,1,0,0:0:0:0:
320,192,189228,1,0,0:0:0:0:
192,192,189228,1,0,0:0:0:0:
64,192,189504,1,0,0:0:0:0:
448,192,189504,1,0,0:0:0:0:
320,192,189504,1,0,0:0:0:0:
448,192,189782,1,0,0:0:0:0:
320,192,189782,1,0,0:0:0:0:
192,192,189782,1,0,0:0:0:0:
320,192,190336,1,0,0:0:0:0:
192,192,190336,1,0,0:0:0:0:
64,192,190336,1,0,0:0:0:0:
320,192,190890,1,0,0:0:0:0:
192,192,190890,1,0,0:0:0:0:
64,192,190890,1,0,0:0:0:0:
320,192,191815,1,0,0:0:0:0:
192,192,191815,1,0,0:0:0:0:
64,192,191815,1,0,0:0:0:0:
320,192,192184,1,0,0:0:0:0:
192,192,192184,1,0,0:0:0:0:
64,192,192184,1,0,0:0:0:0:
192,192,192462,1,0,0:0:0:0:
64,192,192462,1,0,0:0:0:0:
320,192,192462,1,0,0:0:0:0:
192,192,192738,1,0,0:0:0:0:
64,192,192738,1,0,0:0:0:0:
448,192,192738,1,0,0:0:0:0:
448,192,193292,1,0,0:0:0:0:
320,192,193292,1,0,0:0:0:0:
64,192,193292,1,0,0:0:0:0:
448,192,193848,1,0,0:0:0:0:
320,192,193848,1,0,0:0:0:0:
64,192,193848,1,0,0:0:0:0:
448,192,194771,1,0,0:0:0:0:
320,192,194771,1,0,0:0:0:0:
64,192,194771,1,0,0:0:0:0:
448,192,195141,1,0,0:0:0:0:
320,192,195141,1,0,0:0:0:0:
64,192,195141,1,0,0:0:0:0:
192,192,195418,1,0,0:0:0:0:
448,192,195418,1,0,0:0:0:0:
320,192,195418,1,0,0:0:0:0:
448,192,195695,1,0,0:0:0:0:
320,192,195695,1,0,0:0:0:0:
64,192,195695,1,0,0:0:0:0:
64,192,196249,1,0,0:0:0:0:
192,192,196249,1,0,0:0:0:0:
448,192,196249,1,0,0:0:0:0:
64,192,196804,1,0,0:0:0:0:
192,192,196804,1,0,0:0:0:0:
448,192,196804,1,0,0:0:0:0:
64,192,197728,5,0,0:0:0:0:
192,192,197728,1,0,0:0:0:0:
448,192,197728,1,0,0:0:0:0:
64,192,198097,1,0,0:0:0:0:
192,192,198097,1,0,0:0:0:0:
448,192,198097,1,0,0:0:0:0:
64,192,198375,1,0,0:0:0:0:
192,192,198375,1,0,0:0:0:0:
448,192,198375,1,0,0:0:0:0:
64,192,198651,1,0,0:0:0:0:
192,192,198651,1,0,0:0:0:0:
448,192,198651,1,0,0:0:0:0:
64,192,198836,5,0,0:0:0:0:
320,192,198836,1,0,0:0:0:0:
448,192,198836,1,0,0:0:0:0:
320,192,198929,1,0,0:0:0:0:
64,192,198929,1,0,0:0:0:0:
448,192,198929,1,0,0:0:0:0:
192,192,199021,1,0,0:0:0:0:
320,192,199114,1,0,0:0:0:0:
448,192,199114,1,0,0:0:0:0:
64,192,199114,1,0,0:0:0:0:
448,192,199207,1,0,0:0:0:0:
320,192,199207,1,0,0:0:0:0:
64,192,199207,1,0,0:0:0:0:
192,192,199298,1,0,0:0:0:0:
64,192,199391,1,0,0:0:0:0:
320,192,199391,1,0,0:0:0:0:
448,192,199391,1,0,0:0:0:0:
448,192,199483,1,0,0:0:0:0:
320,192,199483,1,0,0:0:0:0:
64,192,199483,1,0,0:0:0:0:
192,192,199576,1,0,0:0:0:0:
320,192,199668,1,0,0:0:0:0:
448,192,199668,1,0,0:0:0:0:
64,192,199668,1,0,0:0:0:0:
448,192,199761,1,0,0:0:0:0:
320,192,199761,1,0,0:0:0:0:
64,192,199761,1,0,0:0:0:0:
192,192,199852,1,0,0:0:0:0:
320,192,199945,1,0,0:0:0:0:
448,192,199945,1,0,0:0:0:0:
64,192,200037,1,0,0:0:0:0:
192,192,200037,1,0,0:0:0:0:
320,192,200130,1,0,0:0:0:0:
448,192,200130,1,0,0:0:0:0:
64,192,200222,1,0,0:0:0:0:
192,192,200222,1,0,0:0:0:0:
448,192,200315,5,0,0:0:0:0:
320,192,200315,1,0,0:0:0:0:
192,192,200315,1,0,0:0:0:0:
192,192,200407,1,0,0:0:0:0:
320,192,200407,1,0,0:0:0:0:
448,192,200407,1,0,0:0:0:0:
64,192,200500,1,0,0:0:0:0:
320,192,200592,1,0,0:0:0:0:
192,192,200592,1,0,0:0:0:0:
448,192,200592,1,0,0:0:0:0:
192,192,200684,1,0,0:0:0:0:
320,192,200684,1,0,0:0:0:0:
448,192,200684,1,0,0:0:0:0:
64,192,200777,1,0,0:0:0:0:
448,192,200869,1,0,0:0:0:0:
192,192,200869,1,0,0:0:0:0:
320,192,200869,1,0,0:0:0:0:
192,192,200962,1,0,0:0:0:0:
448,192,200962,1,0,0:0:0:0:
320,192,200962,1,0,0:0:0:0:
64,192,201054,1,0,0:0:0:0:
320,192,201147,1,0,0:0:0:0:
192,192,201147,1,0,0:0:0:0:
448,192,201147,1,0,0:0:0:0:
192,192,201238,1,0,0:0:0:0:
320,192,201238,1,0,0:0:0:0:
448,192,201238,1,0,0:0:0:0:
64,192,201331,1,0,0:0:0:0:
192,192,201423,1,0,0:0:0:0:
448,192,201423,1,0,0:0:0:0:
320,192,201516,1,0,0:0:0:0:
64,192,201516,1,0,0:0:0:0:
192,192,201608,1,0,0:0:0:0:
448,192,201608,1,0,0:0:0:0:
320,192,201701,1,0,0:0:0:0:
64,192,201701,1,0,0:0:0:0:
64,192,201792,1,0,0:0:0:0:
192,192,201792,1,0,0:0:0:0:
448,192,201792,1,0,0:0:0:0:
64,192,201885,1,0,0:0:0:0:
192,192,201885,1,0,0:0:0:0:
448,192,201885,1,0,0:0:0:0:
192,192,201978,1,0,0:0:0:0:
64,192,202070,1,0,0:0:0:0:
320,192,202070,1,0,0:0:0:0:
448,192,202070,1,0,0:0:0:0:
64,192,202163,1,0,0:0:0:0:
320,192,202163,1,0,0:0:0:0:
448,192,202163,1,0,0:0:0:0:
448,192,202255,1,0,0:0:0:0:
192,192,202348,1,0,0:0:0:0:
64,192,202348,1,0,0:0:0:0:
320,192,202348,1,0,0:0:0:0:
192,192,202440,1,0,0:0:0:0:
64,192,202440,1,0,0:0:0:0:
320,192,202440,1,0,0:0:0:0:
192,192,202532,1,0,0:0:0:0:
64,192,202624,1,0,0:0:0:0:
320,192,202624,1,0,0:0:0:0:
448,192,202624,1,0,0:0:0:0:
448,192,202717,1,0,0:0:0:0:
320,192,202717,1,0,0:0:0:0:
64,192,202717,1,0,0:0:0:0:
320,192,202809,1,0,0:0:0:0:
64,192,202902,1,0,0:0:0:0:
192,192,202902,1,0,0:0:0:0:
448,192,202994,1,0,0:0:0:0:
320,192,202994,1,0,0:0:0:0:
64,192,203087,1,0,0:0:0:0:
192,192,203087,1,0,0:0:0:0:
448,192,203178,1,0,0:0:0:0:
320,192,203178,1,0,0:0:0:0:
64,192,203271,1,0,0:0:0:0:
448,192,203271,1,0,0:0:0:0:
192,192,203271,1,0,0:0:0:0:
64,192,203364,1,0,0:0:0:0:
448,192,203364,1,0,0:0:0:0:
192,192,203364,1,0,0:0:0:0:
64,192,203456,1,0,0:0:0:0:
192,192,203549,1,0,0:0:0:0:
448,192,203549,1,0,0:0:0:0:
320,192,203549,1,0,0:0:0:0:
192,192,203641,1,0,0:0:0:0:
448,192,203641,1,0,0:0:0:0:
320,192,203641,1,0,0:0:0:0:
320,192,203734,1,0,0:0:0:0:
64,192,203825,1,0,0:0:0:0:
192,192,203825,1,0,0:0:0:0:
448,192,203825,1,0,0:0:0:0:
192,192,203918,1,0,0:0:0:0:
64,192,203918,1,0,0:0:0:0:
448,192,203918,1,0,0:0:0:0:
192,192,204010,1,0,0:0:0:0:
448,192,204103,1,0,0:0:0:0:
320,192,204103,1,0,0:0:0:0:
64,192,204103,1,0,0:0:0:0:
448,192,204195,1,0,0:0:0:0:
320,192,204195,1,0,0:0:0:0:
64,192,204195,1,0,0:0:0:0:
320,192,204288,1,0,0:0:0:0:
448,192,204380,1,0,0:0:0:0:
192,192,204380,1,0,0:0:0:0:
64,192,204472,1,0,0:0:0:0:
320,192,204472,1,0,0:0:0:0:
448,192,204564,1,0,0:0:0:0:
192,192,204564,1,0,0:0:0:0:
64,192,204657,1,0,0:0:0:0:
320,192,204657,1,0,0:0:0:0:
448,192,204750,5,0,0:0:0:0:
192,192,204750,1,0,0:0:0:0:
64,192,204750,1,0,0:0:0:0:
192,192,204842,1,0,0:0:0:0:
448,192,204842,1,0,0:0:0:0:
64,192,204842,1,0,0:0:0:0:
320,192,204935,1,0,0:0:0:0:
192,192,205027,1,0,0:0:0:0:
64,192,205027,1,0,0:0:0:0:
448,192,205027,1,0,0:0:0:0:
64,192,205120,1,0,0:0:0:0:
192,192,205120,1,0,0:0:0:0:
448,192,205120,1,0,0:0:0:0:
320,192,205211,1,0,0:0:0:0:
448,192,205304,1,0,0:0:0:0:
192,192,205304,1,0,0:0:0:0:
64,192,205304,1,0,0:0:0:0:
64,192,205396,1,0,0:0:0:0:
192,192,205396,1,0,0:0:0:0:
448,192,205396,1,0,0:0:0:0:
320,192,205489,1,0,0:0:0:0:
192,192,205581,1,0,0:0:0:0:
64,192,205581,1,0,0:0:0:0:
448,192,205581,1,0,0:0:0:0:
64,192,205674,1,0,0:0:0:0:
192,192,205674,1,0,0:0:0:0:
448,192,205674,1,0,0:0:0:0:
320,192,205765,1,0,0:0:0:0:
192,192,205858,1,0,0:0:0:0:
64,192,205858,1,0,0:0:0:0:
448,192,205950,1,0,0:0:0:0:
320,192,205950,1,0,0:0:0:0:
192,192,206043,1,0,0:0:0:0:
64,192,206043,1,0,0:0:0:0:
448,192,206136,1,0,0:0:0:0:
320,192,206136,1,0,0:0:0:0:
64,192,206228,5,0,0:0:0:0:
192,192,206228,1,0,0:0:0:0:
320,192,206228,1,0,0:0:0:0:
320,192,206321,1,0,0:0:0:0:
192,192,206321,1,0,0:0:0:0:
64,192,206321,1,0,0:0:0:0:
448,192,206412,1,0,0:0:0:0:
192,192,206505,1,0,0:0:0:0:
320,192,206505,1,0,0:0:0:0:
64,192,206505,1,0,0:0:0:0:
320,192,206597,1,0,0:0:0:0:
192,192,206597,1,0,0:0:0:0:
64,192,206597,1,0,0:0:0:0:
448,192,206690,1,0,0:0:0:0:
64,192,206782,1,0,0:0:0:0:
320,192,206782,1,0,0:0:0:0:
192,192,206782,1,0,0:0:0:0:
320,192,206875,1,0,0:0:0:0:
64,192,206875,1,0,0:0:0:0:
192,192,206875,1,0,0:0:0:0:
448,192,206967,1,0,0:0:0:0:
192,192,207060,1,0,0:0:0:0:
320,192,207060,1,0,0:0:0:0:
64,192,207060,1,0,0:0:0:0:
320,192,207151,1,0,0:0:0:0:
192,192,207151,1,0,0:0:0:0:
64,192,207151,1,0,0:0:0:0:
448,192,207244,1,0,0:0:0:0:
320,192,207337,1,0,0:0:0:0:
64,192,207337,1,0,0:0:0:0:
192,192,207429,1,0,0:0:0:0:
448,192,207429,1,0,0:0:0:0:
320,192,207522,1,0,0:0:0:0:
64,192,207522,1,0,0:0:0:0:
192,192,207614,1,0,0:0:0:0:
448,192,207614,1,0,0:0:0:0:
448,192,207707,1,0,0:0:0:0:
320,192,207707,1,0,0:0:0:0:
64,192,207707,1,0,0:0:0:0:
448,192,207798,1,0,0:0:0:0:
320,192,207798,1,0,0:0:0:0:
64,192,207798,1,0,0:0:0:0:
320,192,207891,1,0,0:0:0:0:
448,192,207983,1,0,0:0:0:0:
192,192,207983,1,0,0:0:0:0:
64,192,207983,1,0,0:0:0:0:
448,192,208076,1,0,0:0:0:0:
192,192,208076,1,0,0:0:0:0:
64,192,208076,1,0,0:0:0:0:
64,192,208168,1,0,0:0:0:0:
320,192,208261,1,0,0:0:0:0:
448,192,208261,1,0,0:0:0:0:
192,192,208261,1,0,0:0:0:0:
320,192,208352,1,0,0:0:0:0:
448,192,208352,1,0,0:0:0:0:
192,192,208352,1,0,0:0:0:0:
320,192,208445,1,0,0:0:0:0:
448,192,208537,1,0,0:0:0:0:
192,192,208537,1,0,0:0:0:0:
64,192,208537,1,0,0:0:0:0:
64,192,208630,1,0,0:0:0:0:
192,192,208630,1,0,0:0:0:0:
448,192,208630,1,0,0:0:0:0:
192,192,208723,1,0,0:0:0:0:
448,192,208815,1,0,0:0:0:0:
320,192,208815,1,0,0:0:0:0:
64,192,208908,1,0,0:0:0:0:
192,192,208908,1,0,0:0:0:0:
448,192,209000,1,0,0:0:0:0:
320,192,209000,1,0,0:0:0:0:
64,192,209092,1,0,0:0:0:0:
192,192,209092,1,0,0:0:0:0:
448,192,209184,1,0,0:0:0:0:
64,192,209184,1,0,0:0:0:0:
320,192,209184,1,0,0:0:0:0:
448,192,209277,1,0,0:0:0:0:
320,192,209277,1,0,0:0:0:0:
192,192,209277,1,0,0:0:0:0:
320,192,209369,1,0,0:0:0:0:
64,192,209462,1,0,0:0:0:0:
192,192,209462,1,0,0:0:0:0:
448,192,209462,1,0,0:0:0:0:
320,192,209554,1,0,0:0:0:0:
64,192,209554,1,0,0:0:0:0:
192,192,209554,1,0,0:0:0:0:
192,192,209647,1,0,0:0:0:0:
448,192,209738,1,0,0:0:0:0:
320,192,209738,1,0,0:0:0:0:
64,192,209738,1,0,0:0:0:0:
320,192,209831,1,0,0:0:0:0:
448,192,209831,1,0,0:0:0:0:
192,192,209831,1,0,0:0:0:0:
64,192,209923,1,0,0:0:0:0:
448,192,209923,1,0,0:0:0:0:
192,192,210016,1,0,0:0:0:0:
320,192,210016,1,0,0:0:0:0:
64,192,210109,1,0,0:0:0:0:
320,192,210109,1,0,0:0:0:0:
448,192,210201,1,0,0:0:0:0:
192,192,210201,1,0,0:0:0:0:
64,192,210294,1,0,0:0:0:0:
448,192,210294,1,0,0:0:0:0:
192,192,210385,1,0,0:0:0:0:
320,192,210385,1,0,0:0:0:0:
192,192,210478,1,0,0:0:0:0:
448,192,210478,1,0,0:0:0:0:
320,192,210570,1,0,0:0:0:0:
64,192,210570,1,0,0:0:0:0:
64,192,210663,5,0,0:0:0:0:
448,192,210663,1,0,0:0:0:0:
192,192,210663,1,0,0:0:0:0:
192,192,210755,1,0,0:0:0:0:
448,192,210755,1,0,0:0:0:0:
64,192,210755,1,0,0:0:0:0:
320,192,210848,1,0,0:0:0:0:
192,192,210940,1,0,0:0:0:0:
64,192,210940,1,0,0:0:0:0:
448,192,210940,1,0,0:0:0:0:
64,192,211032,1,0,0:0:0:0:
192,192,211032,1,0,0:0:0:0:
448,192,211032,1,0,0:0:0:0:
320,192,211124,1,0,0:0:0:0:
448,192,211217,1,0,0:0:0:0:
192,192,211217,1,0,0:0:0:0:
64,192,211217,1,0,0:0:0:0:
64,192,211309,1,0,0:0:0:0:
192,192,211309,1,0,0:0:0:0:
448,192,211309,1,0,0:0:0:0:
320,192,211402,1,0,0:0:0:0:
192,192,211495,1,0,0:0:0:0:
64,192,211495,1,0,0:0:0:0:
448,192,211495,1,0,0:0:0:0:
64,192,211587,1,0,0:0:0:0:
192,192,211587,1,0,0:0:0:0:
448,192,211587,1,0,0:0:0:0:
320,192,211680,1,0,0:0:0:0:
192,192,211771,1,0,0:0:0:0:
64,192,211771,1,0,0:0:0:0:
448,192,211864,1,0,0:0:0:0:
320,192,211864,1,0,0:0:0:0:
192,192,211956,1,0,0:0:0:0:
64,192,211956,1,0,0:0:0:0:
448,192,212049,1,0,0:0:0:0:
320,192,212049,1,0,0:0:0:0:
64,192,212141,5,0,0:0:0:0:
192,192,212141,1,0,0:0:0:0:
320,192,212141,1,0,0:0:0:0:
320,192,212234,1,0,0:0:0:0:
192,192,212234,1,0,0:0:0:0:
64,192,212234,1,0,0:0:0:0:
448,192,212325,1,0,0:0:0:0:
192,192,212418,1,0,0:0:0:0:
320,192,212418,1,0,0:0:0:0:
64,192,212418,1,0,0:0:0:0:
320,192,212510,1,0,0:0:0:0:
192,192,212510,1,0,0:0:0:0:
64,192,212510,1,0,0:0:0:0:
448,192,212603,1,0,0:0:0:0:
64,192,212695,1,0,0:0:0:0:
320,192,212695,1,0,0:0:0:0:
192,192,212695,1,0,0:0:0:0:
320,192,212788,1,0,0:0:0:0:
64,192,212788,1,0,0:0:0:0:
192,192,212788,1,0,0:0:0:0:
448,192,212881,1,0,0:0:0:0:
192,192,212972,1,0,0:0:0:0:
320,192,212972,1,0,0:0:0:0:
64,192,212972,1,0,0:0:0:0:
320,192,213065,1,0,0:0:0:0:
192,192,213065,1,0,0:0:0:0:
64,192,213065,1,0,0:0:0:0:
448,192,213157,1,0,0:0:0:0:
320,192,213250,1,0,0:0:0:0:
64,192,213250,1,0,0:0:0:0:
192,192,213342,1,0,0:0:0:0:
448,192,213342,1,0,0:0:0:0:
320,192,213435,1,0,0:0:0:0:
64,192,213435,1,0,0:0:0:0:
192,192,213527,1,0,0:0:0:0:
448,192,213527,1,0,0:0:0:0:
448,192,213620,1,0,0:0:0:0:
320,192,213620,1,0,0:0:0:0:
64,192,213620,1,0,0:0:0:0:
448,192,213711,1,0,0:0:0:0:
320,192,213711,1,0,0:0:0:0:
64,192,213711,1,0,0:0:0:0:
320,192,213804,1,0,0:0:0:0:
448,192,213896,1,0,0:0:0:0:
192,192,213896,1,0,0:0:0:0:
64,192,213896,1,0,0:0:0:0:
448,192,213989,1,0,0:0:0:0:
192,192,213989,1,0,0:0:0:0:
64,192,213989,1,0,0:0:0:0:
64,192,214081,1,0,0:0:0:0:
320,192,214174,1,0,0:0:0:0:
448,192,214174,1,0,0:0:0:0:
192,192,214174,1,0,0:0:0:0:
320,192,214267,1,0,0:0:0:0:
448,192,214267,1,0,0:0:0:0:
192,192,214267,1,0,0:0:0:0:
320,192,214358,1,0,0:0:0:0:
448,192,214451,1,0,0:0:0:0:
192,192,214451,1,0,0:0:0:0:
64,192,214451,1,0,0:0:0:0:
64,192,214543,1,0,0:0:0:0:
192,192,214543,1,0,0:0:0:0:
448,192,214543,1,0,0:0:0:0:
192,192,214636,1,0,0:0:0:0:
448,192,214728,1,0,0:0:0:0:
320,192,214728,1,0,0:0:0:0:
64,192,214821,1,0,0:0:0:0:
192,192,214821,1,0,0:0:0:0:
448,192,214912,1,0,0:0:0:0:
320,192,214912,1,0,0:0:0:0:
64,192,215005,1,0,0:0:0:0:
192,192,215005,1,0,0:0:0:0:
448,192,215097,1,0,0:0:0:0:
64,192,215097,1,0,0:0:0:0:
320,192,215097,1,0,0:0:0:0:
448,192,215190,1,0,0:0:0:0:
64,192,215190,1,0,0:0:0:0:
320,192,215190,1,0,0:0:0:0:
448,192,215282,1,0,0:0:0:0:
320,192,215375,1,0,0:0:0:0:
64,192,215375,1,0,0:0:0:0:
192,192,215375,1,0,0:0:0:0:
320,192,215467,1,0,0:0:0:0:
64,192,215467,1,0,0:0:0:0:
192,192,215467,1,0,0:0:0:0:
192,192,215560,1,0,0:0:0:0:
448,192,215652,1,0,0:0:0:0:
320,192,215652,1,0,0:0:0:0:
64,192,215652,1,0,0:0:0:0:
320,192,215744,1,0,0:0:0:0:
448,192,215744,1,0,0:0:0:0:
64,192,215744,1,0,0:0:0:0:
320,192,215837,1,0,0:0:0:0:
64,192,215929,1,0,0:0:0:0:
192,192,215929,1,0,0:0:0:0:
448,192,215929,1,0,0:0:0:0:
64,192,216022,1,0,0:0:0:0:
192,192,216022,1,0,0:0:0:0:
448,192,216022,1,0,0:0:0:0:
192,192,216114,1,0,0:0:0:0:
64,192,216207,1,0,0:0:0:0:
320,192,216207,1,0,0:0:0:0:
448,192,216298,1,0,0:0:0:0:
192,192,216298,1,0,0:0:0:0:
64,192,216391,1,0,0:0:0:0:
320,192,216391,1,0,0:0:0:0:
448,192,216483,1,0,0:0:0:0:
192,192,216483,1,0,0:0:0:0:
64,192,216576,5,0,0:0:0:0:
320,192,216576,1,0,0:0:0:0:
448,192,216576,1,0,0:0:0:0:
320,192,216668,1,0,0:0:0:0:
64,192,216668,1,0,0:0:0:0:
448,192,216668,1,0,0:0:0:0:
192,192,216761,1,0,0:0:0:0:
320,192,216854,1,0,0:0:0:0:
448,192,216854,1,0,0:0:0:0:
64,192,216854,1,0,0:0:0:0:
448,192,216945,1,0,0:0:0:0:
320,192,216945,1,0,0:0:0:0:
64,192,216945,1,0,0:0:0:0:
192,192,217038,1,0,0:0:0:0:
64,192,217130,1,0,0:0:0:0:
320,192,217130,1,0,0:0:0:0:
448,192,217130,1,0,0:0:0:0:
448,192,217223,1,0,0:0:0:0:
320,192,217223,1,0,0:0:0:0:
64,192,217223,1,0,0:0:0:0:
192,192,217315,1,0,0:0:0:0:
320,192,217408,1,0,0:0:0:0:
448,192,217408,1,0,0:0:0:0:
64,192,217408,1,0,0:0:0:0:
448,192,217500,1,0,0:0:0:0:
320,192,217500,1,0,0:0:0:0:
64,192,217500,1,0,0:0:0:0:
192,192,217592,1,0,0:0:0:0:
320,192,217684,1,0,0:0:0:0:
448,192,217684,1,0,0:0:0:0:
64,192,217777,1,0,0:0:0:0:
192,192,217777,1,0,0:0:0:0:
320,192,217869,1,0,0:0:0:0:
448,192,217869,1,0,0:0:0:0:
64,192,217962,1,0,0:0:0:0:
192,192,217962,1,0,0:0:0:0:
448,192,218054,5,0,0:0:0:0:
320,192,218054,1,0,0:0:0:0:
192,192,218054,1,0,0:0:0:0:
192,192,218147,1,0,0:0:0:0:
320,192,218147,1,0,0:0:0:0:
448,192,218147,1,0,0:0:0:0:
64,192,218240,1,0,0:0:0:0:
320,192,218331,1,0,0:0:0:0:
192,192,218331,1,0,0:0:0:0:
448,192,218331,1,0,0:0:0:0:
192,192,218424,1,0,0:0:0:0:
320,192,218424,1,0,0:0:0:0:
448,192,218424,1,0,0:0:0:0:
64,192,218516,1,0,0:0:0:0:
448,192,218609,1,0,0:0:0:0:
192,192,218609,1,0,0:0:0:0:
320,192,218609,1,0,0:0:0:0:
192,192,218701,1,0,0:0:0:0:
448,192,218701,1,0,0:0:0:0:
320,192,218701,1,0,0:0:0:0:
64,192,218794,1,0,0:0:0:0:
320,192,218885,1,0,0:0:0:0:
192,192,218885,1,0,0:0:0:0:
448,192,218885,1,0,0:0:0:0:
192,192,218978,1,0,0:0:0:0:
320,192,218978,1,0,0:0:0:0:
448,192,218978,1,0,0:0:0:0:
64,192,219070,1,0,0:0:0:0:
192,192,219163,1,0,0:0:0:0:
448,192,219163,1,0,0:0:0:0:
320,192,219255,1,0,0:0:0:0:
64,192,219255,1,0,0:0:0:0:
192,192,219348,1,0,0:0:0:0:
448,192,219348,1,0,0:0:0:0:
64,192,219440,1,0,0:0:0:0:
320,192,219440,1,0,0:0:0:0:
448,192,219532,1,0,0:0:0:0:
320,192,219563,1,0,0:0:0:0:
192,192,219594,1,0,0:0:0:0:
64,192,219625,1,0,0:0:0:0:
448,192,219656,1,0,0:0:0:0:
320,192,219687,1,0,0:0:0:0:
192,192,219717,1,0,0:0:0:0:
64,192,219748,1,0,0:0:0:0:
448,192,219778,1,0,0:0:0:0:
320,192,219810,1,0,0:0:0:0:
192,192,219841,1,0,0:0:0:0:
64,192,219871,1,0,0:0:0:0:
448,192,219902,1,0,0:0:0:0:
320,192,219932,1,0,0:0:0:0:
192,192,219963,1,0,0:0:0:0:
64,192,219995,1,0,0:0:0:0:
448,192,220025,1,0,0:0:0:0:
320,192,220056,1,0,0:0:0:0:
192,192,220087,1,0,0:0:0:0:
64,192,220117,1,0,0:0:0:0:
448,192,220149,1,0,0:0:0:0:
320,192,220180,1,0,0:0:0:0:
192,192,220210,1,0,0:0:0:0:
64,192,220241,1,0,0:0:0:0:
448,192,220271,1,0,0:0:0:0:
320,192,220302,1,0,0:0:0:0:
192,192,220334,1,0,0:0:0:0:
64,192,220364,1,0,0:0:0:0:
448,192,220395,1,0,0:0:0:0:
320,192,220425,1,0,0:0:0:0:
192,192,220456,1,0,0:0:0:0:
64,192,220488,1,0,0:0:0:0:
448,192,220518,1,0,0:0:0:0:
320,192,220549,1,0,0:0:0:0:
192,192,220580,1,0,0:0:0:0:
64,192,220610,1,0,0:0:0:0:
448,192,220641,1,0,0:0:0:0:
320,192,220672,1,0,0:0:0:0:
192,192,220703,1,0,0:0:0:0:
64,192,220734,1,0,0:0:0:0:
448,192,220764,1,0,0:0:0:0:
320,192,220795,1,0,0:0:0:0:
192,192,220825,1,0,0:0:0:0:
64,192,220857,1,0,0:0:0:0:
448,192,220888,1,0,0:0:0:0:
320,192,220918,1,0,0:0:0:0:
192,192,220949,1,0,0:0:0:0:
64,192,220980,1,0,0:0:0:0:
448,192,221011,1,0,0:0:0:0:
320,192,221042,1,0,0:0:0:0:
64,192,221072,1,0,0:0:0:0:
192,192,221103,1,0,0:0:0:0:
448,192,221134,1,0,0:0:0:0:
320,192,221164,1,0,0:0:0:0:
64,192,221196,1,0,0:0:0:0:
192,192,221227,1,0,0:0:0:0:
448,192,221257,1,0,0:0:0:0:
320,192,221288,1,0,0:0:0:0:
64,192,221318,1,0,0:0:0:0:
192,192,221349,1,0,0:0:0:0:
448,192,221381,1,0,0:0:0:0:
320,192,221411,1,0,0:0:0:0:
64,192,221442,1,0,0:0:0:0:
192,192,221472,1,0,0:0:0:0:
448,192,221503,1,0,0:0:0:0:
320,192,221535,1,0,0:0:0:0:
64,192,221565,1,0,0:0:0:0:
192,192,221596,1,0,0:0:0:0:
448,192,221627,1,0,0:0:0:0:
320,192,221657,1,0,0:0:0:0:
64,192,221688,1,0,0:0:0:0:
192,192,221720,1,0,0:0:0:0:
448,192,221750,1,0,0:0:0:0:
320,192,221781,1,0,0:0:0:0:
64,192,221811,1,0,0:0:0:0:
192,192,221842,1,0,0:0:0:0:
448,192,221874,1,0,0:0:0:0:
320,192,221904,1,0,0:0:0:0:
64,192,221935,1,0,0:0:0:0:
192,192,221965,1,0,0:0:0:0:
448,192,221996,1,0,0:0:0:0:
320,192,222027,1,0,0:0:0:0:
64,192,222058,1,0,0:0:0:0:
192,192,222089,1,0,0:0:0:0:
448,192,222120,1,0,0:0:0:0:
320,192,222150,1,0,0:0:0:0:
64,192,222181,1,0,0:0:0:0:
192,192,222211,1,0,0:0:0:0:
448,192,222243,1,0,0:0:0:0:
320,192,222274,1,0,0:0:0:0:
64,192,222304,1,0,0:0:0:0:
192,192,222335,1,0,0:0:0:0:
448,192,222365,1,0,0:0:0:0:
320,192,222397,1,0,0:0:0:0:
64,192,222428,1,0,0:0:0:0:
192,192,222458,1,0,0:0:0:0:
320,192,222489,1,0,0:0:0:0:
448,192,222489,1,0,0:0:0:0:
64,192,222489,1,0,0:0:0:0:
192,192,222674,1,0,0:0:0:0:
448,192,222674,1,0,0:0:0:0:
64,192,222767,1,0,0:0:0:0:
320,192,222767,1,0,0:0:0:0:
192,192,222858,1,0,0:0:0:0:
64,192,222858,1,0,0:0:0:0:
448,192,222858,1,0,0:0:0:0:
192,192,223043,1,0,0:0:0:0:
320,192,223043,1,0,0:0:0:0:
64,192,223228,1,0,0:0:0:0:
192,192,223228,1,0,0:0:0:0:
448,192,223228,1,0,0:0:0:0:
320,192,223412,1,0,0:0:0:0:
448,192,223412,1,0,0:0:0:0:
192,192,223505,1,0,0:0:0:0:
64,192,223505,1,0,0:0:0:0:
64,192,223597,1,0,0:0:0:0:
320,192,223597,1,0,0:0:0:0:
448,192,223597,1,0,0:0:0:0:
192,192,223783,1,0,0:0:0:0:
320,192,223783,1,0,0:0:0:0:
448,192,223968,1,0,0:0:0:0:
192,192,223968,1,0,0:0:0:0:
64,192,223968,1,0,0:0:0:0:
320,192,224152,1,0,0:0:0:0:
64,192,224152,1,0,0:0:0:0:
448,192,224244,1,0,0:0:0:0:
192,192,224244,1,0,0:0:0:0:
64,192,224337,1,0,0:0:0:0:
192,192,224337,1,0,0:0:0:0:
448,192,224337,1,0,0:0:0:0:
320,192,224522,1,0,0:0:0:0:
192,192,224522,1,0,0:0:0:0:
448,192,224707,1,0,0:0:0:0:
320,192,224707,1,0,0:0:0:0:
64,192,224707,1,0,0:0:0:0:
320,192,224891,1,0,0:0:0:0:
64,192,224891,1,0,0:0:0:0:
64,192,225076,1,0,0:0:0:0:
192,192,225076,1,0,0:0:0:0:
448,192,225076,1,0,0:0:0:0:
448,192,225261,1,0,0:0:0:0:
192,192,225261,1,0,0:0:0:0:
320,192,225445,1,0,0:0:0:0:
64,192,225445,1,0,0:0:0:0:
448,192,225445,128,0,225815:0:0:0:0:
192,192,225445,1,0,0:0:0:0:
192,192,225815,1,0,0:0:0:0:
64,192,225815,1,0,0:0:0:0:
320,192,225815,128,0,226184:0:0:0:0:
448,192,226184,1,0,0:0:0:0:
192,192,226184,1,0,0:0:0:0:
64,192,226184,128,0,226555:0:0:0:0:
192,192,226555,1,0,0:0:0:0:
448,192,226555,1,0,0:0:0:0:
320,192,226555,128,0,226924:0:0:0:0:
448,192,226924,1,0,0:0:0:0:
64,192,226924,128,0,227201:0:0:0:0:
192,192,226924,1,0,0:0:0:0:
320,192,227201,1,0,0:0:0:0:
448,192,227201,128,0,227478:0:0:0:0:
192,192,227201,1,0,0:0:0:0:
320,192,227478,1,0,0:0:0:0:
64,192,227478,1,0,0:0:0:0:
192,192,227478,128,0,227848:0:0:0:0:
448,192,227848,1,0,0:0:0:0:
320,192,227848,1,0,0:0:0:0:
64,192,227848,1,0,0:0:0:0:
448,192,228032,1,0,0:0:0:0:
320,192,228032,1,0,0:0:0:0:
192,192,228032,1,0,0:0:0:0:
448,192,228217,1,0,0:0:0:0:
192,192,228217,1,0,0:0:0:0:
64,192,228217,1,0,0:0:0:0:
64,192,228402,1,0,0:0:0:0:
192,192,228402,1,0,0:0:0:0:
320,192,228402,1,0,0:0:0:0:
448,192,228402,1,0,0:0:0:0:
64,192,228587,1,0,0:0:0:0:
320,192,228587,1,0,0:0:0:0:
192,192,228680,1,0,0:0:0:0:
448,192,228680,1,0,0:0:0:0:
448,192,228771,1,0,0:0:0:0:
320,192,228771,1,0,0:0:0:0:
64,192,228771,1,0,0:0:0:0:
192,192,228956,1,0,0:0:0:0:
320,192,228956,1,0,0:0:0:0:
64,192,229142,1,0,0:0:0:0:
320,192,229142,1,0,0:0:0:0:
448,192,229142,1,0,0:0:0:0:
64,192,229327,1,0,0:0:0:0:
192,192,229327,1,0,0:0:0:0:
320,192,229418,1,0,0:0:0:0:
448,192,229418,1,0,0:0:0:0:
448,192,229511,1,0,0:0:0:0:
192,192,229511,1,0,0:0:0:0:
64,192,229511,1,0,0:0:0:0:
192,192,229696,1,0,0:0:0:0:
320,192,229696,1,0,0:0:0:0:
64,192,229881,1,0,0:0:0:0:
320,192,229881,1,0,0:0:0:0:
448,192,229881,1,0,0:0:0:0:
192,192,230065,1,0,0:0:0:0:
448,192,230065,1,0,0:0:0:0:
64,192,230157,1,0,0:0:0:0:
320,192,230157,1,0,0:0:0:0:
448,192,230250,1,0,0:0:0:0:
320,192,230250,1,0,0:0:0:0:
64,192,230250,1,0,0:0:0:0:
192,192,230435,1,0,0:0:0:0:
320,192,230435,1,0,0:0:0:0:
64,192,230620,1,0,0:0:0:0:
192,192,230620,1,0,0:0:0:0:
448,192,230620,1,0,0:0:0:0:
192,192,230804,1,0,0:0:0:0:
448,192,230804,1,0,0:0:0:0:
448,192,230989,1,0,0:0:0:0:
320,192,230989,1,0,0:0:0:0:
64,192,230989,1,0,0:0:0:0:
64,192,231174,1,0,0:0:0:0:
320,192,231174,1,0,0:0:0:0:
64,192,231358,1,0,0:0:0:0:
192,192,231358,1,0,0:0:0:0:
448,192,231358,1,0,0:0:0:0:
448,192,231636,1,0,0:0:0:0:
320,192,231636,1,0,0:0:0:0:
192,192,231636,1,0,0:0:0:0:
320,192,231914,1,0,0:0:0:0:
192,192,231914,1,0,0:0:0:0:
64,192,231914,1,0,0:0:0:0:
64,192,232098,1,0,0:0:0:0:
320,192,232098,1,0,0:0:0:0:
448,192,232098,1,0,0:0:0:0:
448,192,232283,1,0,0:0:0:0:
320,192,232283,1,0,0:0:0:0:
192,192,232283,1,0,0:0:0:0:
448,192,232468,1,0,0:0:0:0:
192,192,232468,1,0,0:0:0:0:
64,192,232468,1,0,0:0:0:0:
320,192,232652,1,0,0:0:0:0:
192,192,232652,1,0,0:0:0:0:
64,192,232652,1,0,0:0:0:0:
64,192,232837,1,0,0:0:0:0:
192,192,232837,1,0,0:0:0:0:
448,192,232837,1,0,0:0:0:0:
448,192,233022,1,0,0:0:0:0:
192,192,233022,1,0,0:0:0:0:
64,192,233022,1,0,0:0:0:0:
448,192,233207,1,0,0:0:0:0:
320,192,233207,1,0,0:0:0:0:
192,192,233207,1,0,0:0:0:0:
192,192,233391,1,0,0:0:0:0:
320,192,233391,1,0,0:0:0:0:
448,192,233391,1,0,0:0:0:0:
448,192,233576,1,0,0:0:0:0:
320,192,233576,1,0,0:0:0:0:
64,192,233576,1,0,0:0:0:0:
64,192,233761,1,0,0:0:0:0:
448,192,233761,1,0,0:0:0:0:
320,192,233761,1,0,0:0:0:0:
64,192,233945,1,0,0:0:0:0:
192,192,233945,1,0,0:0:0:0:
320,192,233945,1,0,0:0:0:0:
64,192,234130,1,0,0:0:0:0:
320,192,234130,1,0,0:0:0:0:
192,192,234130,1,0,0:0:0:0:
320,192,234315,1,0,0:0:0:0:
448,192,234315,1,0,0:0:0:0:
192,192,234362,1,0,0:0:0:0:
64,192,234362,1,0,0:0:0:0:
448,192,234408,1,0,0:0:0:0:
320,192,234408,1,0,0:0:0:0:
192,192,234501,1,0,0:0:0:0:
64,192,234501,1,0,0:0:0:0:
320,192,234547,1,0,0:0:0:0:
448,192,234547,1,0,0:0:0:0:
192,192,234592,1,0,0:0:0:0:
64,192,234592,1,0,0:0:0:0:
448,192,234685,1,0,0:0:0:0:
320,192,234685,1,0,0:0:0:0:
64,192,234777,1,0,0:0:0:0:
448,192,234870,1,0,0:0:0:0:
192,192,234870,1,0,0:0:0:0:
320,192,234962,1,0,0:0:0:0:
192,192,235055,1,0,0:0:0:0:
448,192,235055,1,0,0:0:0:0:
320,192,235101,1,0,0:0:0:0:
64,192,235101,1,0,0:0:0:0:
192,192,235147,1,0,0:0:0:0:
448,192,235147,1,0,0:0:0:0:
320,192,235240,1,0,0:0:0:0:
64,192,235240,1,0,0:0:0:0:
192,192,235285,1,0,0:0:0:0:
448,192,235285,1,0,0:0:0:0:
320,192,235331,1,0,0:0:0:0:
64,192,235331,1,0,0:0:0:0:
192,192,235424,1,0,0:0:0:0:
448,192,235424,1,0,0:0:0:0:
320,192,235516,1,0,0:0:0:0:
64,192,235609,1,0,0:0:0:0:
448,192,235609,1,0,0:0:0:0:
192,192,235701,1,0,0:0:0:0:
448,192,235794,1,0,0:0:0:0:
320,192,235794,1,0,0:0:0:0:
64,192,235794,1,0,0:0:0:0:
448,192,235887,1,0,0:0:0:0:
320,192,235887,1,0,0:0:0:0:
64,192,235887,1,0,0:0:0:0:
448,192,235978,1,0,0:0:0:0:
320,192,235978,1,0,0:0:0:0:
64,192,235978,1,0,0:0:0:0:
320,192,236163,1,0,0:0:0:0:
448,192,236163,1,0,0:0:0:0:
192,192,236163,1,0,0:0:0:0:
448,192,236256,1,0,0:0:0:0:
320,192,236256,1,0,0:0:0:0:
192,192,236256,1,0,0:0:0:0:
320,192,236348,1,0,0:0:0:0:
448,192,236348,1,0,0:0:0:0:
192,192,236348,1,0,0:0:0:0:
320,192,236532,1,0,0:0:0:0:
448,192,236532,1,0,0:0:0:0:
64,192,236532,1,0,0:0:0:0:
320,192,236625,1,0,0:0:0:0:
192,192,236625,1,0,0:0:0:0:
448,192,236625,1,0,0:0:0:0:
448,192,236717,1,0,0:0:0:0:
64,192,236717,1,0,0:0:0:0:
192,192,236717,1,0,0:0:0:0:
320,192,236810,1,0,0:0:0:0:
192,192,236810,1,0,0:0:0:0:
64,192,236810,1,0,0:0:0:0:
320,192,236902,1,0,0:0:0:0:
448,192,236902,1,0,0:0:0:0:
64,192,236902,1,0,0:0:0:0:
320,192,236995,1,0,0:0:0:0:
192,192,236995,1,0,0:0:0:0:
448,192,236995,1,0,0:0:0:0:
448,192,237087,1,0,0:0:0:0:
64,192,237087,1,0,0:0:0:0:
192,192,237087,1,0,0:0:0:0:
64,192,237180,1,0,0:0:0:0:
320,192,237180,1,0,0:0:0:0:
192,192,237180,1,0,0:0:0:0:
448,192,237272,1,0,0:0:0:0:
320,192,237272,1,0,0:0:0:0:
192,192,237272,1,0,0:0:0:0:
64,192,237272,1,0,0:0:0:0:
64,192,237457,128,0,237918:0:0:0:0:
192,192,237457,128,0,237734:0:0:0:0:
320,192,237642,128,0,237734:0:0:0:0:
448,192,237642,128,0,238103:0:0:0:0:
192,192,237827,128,0,237918:0:0:0:0:
320,192,237827,128,0,238103:0:0:0:0:
64,192,238011,128,0,238288:0:0:0:0:
192,192,238011,128,0,238288:0:0:0:0:
320,192,238196,128,0,238381:0:0:0:0:
448,192,238196,128,0,238381:0:0:0:0:
64,192,238381,128,0,238472:0:0:0:0:
192,192,238381,128,0,238472:0:0:0:0:
320,192,238472,128,0,238658:0:0:0:0:
448,192,238472,128,0,238658:0:0:0:0:
64,192,238565,128,0,238658:0:0:0:0:
192,192,238565,128,0,238658:0:0:0:0:
64,192,238750,5,0,0:0:0:0:
320,192,238750,1,0,0:0:0:0:
192,192,238750,1,0,0:0:0:0:
448,192,238750,1,0,0:0:0:0:
320,192,238843,1,0,0:0:0:0:
448,192,238935,1,0,0:0:0:0:
64,192,238935,1,0,0:0:0:0:
192,192,239028,1,0,0:0:0:0:
320,192,239028,1,0,0:0:0:0:
448,192,239120,1,0,0:0:0:0:
320,192,239120,1,0,0:0:0:0:
64,192,239120,1,0,0:0:0:0:
192,192,239120,1,0,0:0:0:0:
192,192,239212,1,0,0:0:0:0:
64,192,239304,1,0,0:0:0:0:
320,192,239304,1,0,0:0:0:0:
192,192,239397,1,0,0:0:0:0:
448,192,239397,1,0,0:0:0:0:
64,192,239489,1,0,0:0:0:0:
448,192,239489,1,0,0:0:0:0:
320,192,239489,1,0,0:0:0:0:
320,192,239582,1,0,0:0:0:0:
64,192,239674,1,0,0:0:0:0:
192,192,239674,1,0,0:0:0:0:
448,192,239767,1,0,0:0:0:0:
320,192,239767,1,0,0:0:0:0:
448,192,239858,1,0,0:0:0:0:
320,192,239858,1,0,0:0:0:0:
192,192,239858,1,0,0:0:0:0:
64,192,239858,1,0,0:0:0:0:
64,192,239951,1,0,0:0:0:0:
448,192,240044,1,0,0:0:0:0:
192,192,240044,1,0,0:0:0:0:
320,192,240136,1,0,0:0:0:0:
64,192,240136,1,0,0:0:0:0:
448,192,240229,1,0,0:0:0:0:
320,192,240229,1,0,0:0:0:0:
192,192,240229,1,0,0:0:0:0:
192,192,240321,1,0,0:0:0:0:
64,192,240414,1,0,0:0:0:0:
320,192,240414,1,0,0:0:0:0:
448,192,240505,1,0,0:0:0:0:
192,192,240505,1,0,0:0:0:0:
448,192,240598,1,0,0:0:0:0:
320,192,240598,1,0,0:0:0:0:
192,192,240598,1,0,0:0:0:0:
64,192,240598,1,0,0:0:0:0:
320,192,240690,1,0,0:0:0:0:
192,192,240783,1,0,0:0:0:0:
64,192,240783,1,0,0:0:0:0:
448,192,240875,1,0,0:0:0:0:
320,192,240875,1,0,0:0:0:0:
448,192,240968,1,0,0:0:0:0:
192,192,240968,1,0,0:0:0:0:
64,192,240968,1,0,0:0:0:0:
320,192,241060,1,0,0:0:0:0:
64,192,241060,1,0,0:0:0:0:
448,192,241152,1,0,0:0:0:0:
320,192,241152,1,0,0:0:0:0:
192,192,241152,1,0,0:0:0:0:
192,192,241244,1,0,0:0:0:0:
64,192,241244,1,0,0:0:0:0:
448,192,241337,1,0,0:0:0:0:
320,192,241337,1,0,0:0:0:0:
192,192,241337,1,0,0:0:0:0:
64,192,241337,1,0,0:0:0:0:
448,192,241430,1,0,0:0:0:0:
320,192,241430,1,0,0:0:0:0:
192,192,241522,1,0,0:0:0:0:
64,192,241522,1,0,0:0:0:0:
448,192,241522,1,0,0:0:0:0:
192,192,241615,1,0,0:0:0:0:
320,192,241615,1,0,0:0:0:0:
448,192,241707,1,0,0:0:0:0:
320,192,241707,1,0,0:0:0:0:
64,192,241707,1,0,0:0:0:0:
192,192,241800,1,0,0:0:0:0:
64,192,241891,1,0,0:0:0:0:
448,192,241891,1,0,0:0:0:0:
192,192,241984,1,0,0:0:0:0:
448,192,242076,1,0,0:0:0:0:
320,192,242076,1,0,0:0:0:0:
192,192,242076,1,0,0:0:0:0:
64,192,242076,1,0,0:0:0:0:
320,192,242169,1,0,0:0:0:0:
192,192,242261,1,0,0:0:0:0:
64,192,242261,1,0,0:0:0:0:
320,192,242354,1,0,0:0:0:0:
448,192,242445,1,0,0:0:0:0:
192,192,242445,1,0,0:0:0:0:
64,192,242445,1,0,0:0:0:0:
320,192,242538,1,0,0:0:0:0:
448,192,242631,1,0,0:0:0:0:
64,192,242631,1,0,0:0:0:0:
320,192,242723,1,0,0:0:0:0:
448,192,242816,1,0,0:0:0:0:
320,192,242816,1,0,0:0:0:0:
192,192,242816,1,0,0:0:0:0:
64,192,242816,1,0,0:0:0:0:
192,192,242908,1,0,0:0:0:0:
320,192,243001,1,0,0:0:0:0:
448,192,243001,1,0,0:0:0:0:
192,192,243092,1,0,0:0:0:0:
448,192,243185,1,0,0:0:0:0:
320,192,243185,1,0,0:0:0:0:
64,192,243185,1,0,0:0:0:0:
192,192,243277,1,0,0:0:0:0:
448,192,243277,1,0,0:0:0:0:
64,192,243370,1,0,0:0:0:0:
320,192,243370,1,0,0:0:0:0:
448,192,243462,1,0,0:0:0:0:
192,192,243462,1,0,0:0:0:0:
64,192,243462,1,0,0:0:0:0:
448,192,243555,1,0,0:0:0:0:
320,192,243555,1,0,0:0:0:0:
64,192,243647,1,0,0:0:0:0:
192,192,243647,1,0,0:0:0:0:
448,192,243740,1,0,0:0:0:0:
320,192,243740,1,0,0:0:0:0:
64,192,243740,1,0,0:0:0:0:
320,192,243831,1,0,0:0:0:0:
192,192,243831,1,0,0:0:0:0:
448,192,243924,1,0,0:0:0:0:
64,192,243924,1,0,0:0:0:0:
192,192,243924,1,0,0:0:0:0:
192,192,244017,1,0,0:0:0:0:
64,192,244017,1,0,0:0:0:0:
448,192,244109,1,0,0:0:0:0:
320,192,244109,1,0,0:0:0:0:
192,192,244202,1,0,0:0:0:0:
64,192,244202,1,0,0:0:0:0:
64,192,244294,1,0,0:0:0:0:
192,192,244294,1,0,0:0:0:0:
320,192,244294,1,0,0:0:0:0:
448,192,244294,1,0,0:0:0:0:
320,192,244387,1,0,0:0:0:0:
448,192,244478,1,0,0:0:0:0:
320,192,244478,1,0,0:0:0:0:
192,192,244478,1,0,0:0:0:0:
64,192,244478,1,0,0:0:0:0:
64,192,244571,1,0,0:0:0:0:
448,192,244663,5,0,0:0:0:0:
192,192,244663,1,0,0:0:0:0:
320,192,244663,1,0,0:0:0:0:
64,192,244663,1,0,0:0:0:0:
192,192,244756,1,0,0:0:0:0:
448,192,244848,1,0,0:0:0:0:
64,192,244848,1,0,0:0:0:0:
320,192,244941,1,0,0:0:0:0:
192,192,244941,1,0,0:0:0:0:
448,192,245032,1,0,0:0:0:0:
192,192,245032,1,0,0:0:0:0:
64,192,245032,1,0,0:0:0:0:
320,192,245032,1,0,0:0:0:0:
320,192,245125,1,0,0:0:0:0:
64,192,245217,1,0,0:0:0:0:
192,192,245217,1,0,0:0:0:0:
320,192,245310,1,0,0:0:0:0:
448,192,245310,1,0,0:0:0:0:
64,192,245403,1,0,0:0:0:0:
448,192,245403,1,0,0:0:0:0:
192,192,245403,1,0,0:0:0:0:
192,192,245495,1,0,0:0:0:0:
64,192,245588,1,0,0:0:0:0:
320,192,245588,1,0,0:0:0:0:
448,192,245680,1,0,0:0:0:0:
192,192,245680,1,0,0:0:0:0:
448,192,245772,1,0,0:0:0:0:
192,192,245772,1,0,0:0:0:0:
320,192,245772,1,0,0:0:0:0:
64,192,245772,1,0,0:0:0:0:
64,192,245864,1,0,0:0:0:0:
448,192,245957,1,0,0:0:0:0:
320,192,245957,1,0,0:0:0:0:
192,192,246049,1,0,0:0:0:0:
64,192,246049,1,0,0:0:0:0:
448,192,246142,1,0,0:0:0:0:
192,192,246142,1,0,0:0:0:0:
320,192,246142,1,0,0:0:0:0:
320,192,246234,1,0,0:0:0:0:
64,192,246327,1,0,0:0:0:0:
192,192,246327,1,0,0:0:0:0:
448,192,246418,1,0,0:0:0:0:
320,192,246418,1,0,0:0:0:0:
448,192,246511,1,0,0:0:0:0:
192,192,246511,1,0,0:0:0:0:
320,192,246511,1,0,0:0:0:0:
64,192,246511,1,0,0:0:0:0:
192,192,246603,1,0,0:0:0:0:
320,192,246696,1,0,0:0:0:0:
64,192,246696,1,0,0:0:0:0:
448,192,246789,1,0,0:0:0:0:
192,192,246789,1,0,0:0:0:0:
448,192,246881,1,0,0:0:0:0:
320,192,246881,1,0,0:0:0:0:
64,192,246881,1,0,0:0:0:0:
192,192,246974,1,0,0:0:0:0:
64,192,246974,1,0,0:0:0:0:
448,192,247065,1,0,0:0:0:0:
192,192,247065,1,0,0:0:0:0:
320,192,247065,1,0,0:0:0:0:
320,192,247158,1,0,0:0:0:0:
64,192,247158,1,0,0:0:0:0:
448,192,247250,1,0,0:0:0:0:
192,192,247250,1,0,0:0:0:0:
320,192,247250,1,0,0:0:0:0:
64,192,247250,1,0,0:0:0:0:
448,192,247343,1,0,0:0:0:0:
192,192,247343,1,0,0:0:0:0:
320,192,247435,1,0,0:0:0:0:
64,192,247435,1,0,0:0:0:0:
448,192,247435,1,0,0:0:0:0:
320,192,247528,1,0,0:0:0:0:
192,192,247528,1,0,0:0:0:0:
448,192,247620,1,0,0:0:0:0:
192,192,247620,1,0,0:0:0:0:
64,192,247620,1,0,0:0:0:0:
320,192,247712,5,0,0:0:0:0:
64,192,247804,1,0,0:0:0:0:
448,192,247804,1,0,0:0:0:0:
320,192,247897,1,0,0:0:0:0:
448,192,247989,1,0,0:0:0:0:
192,192,247989,1,0,0:0:0:0:
320,192,247989,1,0,0:0:0:0:
64,192,247989,1,0,0:0:0:0:
192,192,248082,1,0,0:0:0:0:
64,192,248175,1,0,0:0:0:0:
448,192,248175,1,0,0:0:0:0:
192,192,248267,1,0,0:0:0:0:
64,192,248360,1,0,0:0:0:0:
192,192,248360,1,0,0:0:0:0:
448,192,248360,1,0,0:0:0:0:
320,192,248451,1,0,0:0:0:0:
64,192,248544,1,0,0:0:0:0:
448,192,248544,1,0,0:0:0:0:
192,192,248544,1,0,0:0:0:0:
320,192,248636,1,0,0:0:0:0:
64,192,248729,1,0,0:0:0:0:
320,192,248729,1,0,0:0:0:0:
192,192,248729,1,0,0:0:0:0:
448,192,248729,1,0,0:0:0:0:
192,192,248821,1,0,0:0:0:0:
320,192,248914,1,0,0:0:0:0:
64,192,248914,1,0,0:0:0:0:
448,192,248914,1,0,0:0:0:0:
192,192,249005,1,0,0:0:0:0:
64,192,249098,5,0,0:0:0:0:
192,192,249098,1,0,0:0:0:0:
320,192,249098,1,0,0:0:0:0:
448,192,249098,1,0,0:0:0:0:
320,192,249190,1,0,0:0:0:0:
64,192,249190,1,0,0:0:0:0:
192,192,249190,1,0,0:0:0:0:
448,192,249190,1,0,0:0:0:0:
192,192,249283,1,0,0:0:0:0:
448,192,249283,1,0,0:0:0:0:
320,192,249283,1,0,0:0:0:0:
64,192,249283,1,0,0:0:0:0:
448,192,249468,1,0,0:0:0:0:
192,192,249468,1,0,0:0:0:0:
320,192,249468,1,0,0:0:0:0:
64,192,249468,1,0,0:0:0:0:
448,192,249652,1,0,0:0:0:0:
192,192,249652,1,0,0:0:0:0:
320,192,249652,1,0,0:0:0:0:
64,192,249652,1,0,0:0:0:0:
64,192,249837,1,0,0:0:0:0:
192,192,249868,1,0,0:0:0:0:
448,192,249900,1,0,0:0:0:0:
320,192,249930,1,0,0:0:0:0:
64,192,249961,1,0,0:0:0:0:
192,192,249991,1,0,0:0:0:0:
448,192,250022,1,0,0:0:0:0:
320,192,250052,1,0,0:0:0:0:
64,192,250084,1,0,0:0:0:0:
192,192,250115,1,0,0:0:0:0:
448,192,250145,1,0,0:0:0:0:
320,192,250176,1,0,0:0:0:0:
64,192,250207,1,0,0:0:0:0:
192,192,250237,1,0,0:0:0:0:
448,192,250269,1,0,0:0:0:0:
320,192,250300,1,0,0:0:0:0:
64,192,250330,1,0,0:0:0:0:
192,192,250361,1,0,0:0:0:0:
448,192,250391,1,0,0:0:0:0:
320,192,250423,1,0,0:0:0:0:
64,192,250454,1,0,0:0:0:0:
192,192,250484,1,0,0:0:0:0:
448,192,250515,1,0,0:0:0:0:
320,192,250545,1,0,0:0:0:0:
64,192,250576,5,0,0:0:0:0:
192,192,250576,1,0,0:0:0:0:
448,192,250576,1,0,0:0:0:0:
192,192,250669,1,0,0:0:0:0:
64,192,250761,1,0,0:0:0:0:
448,192,250761,1,0,0:0:0:0:
320,192,250854,1,0,0:0:0:0:
192,192,250854,1,0,0:0:0:0:
64,192,250947,1,0,0:0:0:0:
192,192,250947,1,0,0:0:0:0:
448,192,250947,1,0,0:0:0:0:
320,192,250947,1,0,0:0:0:0:
320,192,251038,1,0,0:0:0:0:
448,192,251131,1,0,0:0:0:0:
192,192,251131,1,0,0:0:0:0:
320,192,251223,1,0,0:0:0:0:
64,192,251223,1,0,0:0:0:0:
448,192,251316,1,0,0:0:0:0:
64,192,251316,1,0,0:0:0:0:
192,192,251316,1,0,0:0:0:0:
192,192,251408,1,0,0:0:0:0:
448,192,251501,1,0,0:0:0:0:
320,192,251501,1,0,0:0:0:0:
64,192,251592,1,0,0:0:0:0:
192,192,251592,1,0,0:0:0:0:
64,192,251685,1,0,0:0:0:0:
192,192,251685,1,0,0:0:0:0:
320,192,251685,1,0,0:0:0:0:
448,192,251685,1,0,0:0:0:0:
448,192,251777,1,0,0:0:0:0:
64,192,251870,1,0,0:0:0:0:
320,192,251870,1,0,0:0:0:0:
192,192,251962,1,0,0:0:0:0:
448,192,251962,1,0,0:0:0:0:
64,192,252055,1,0,0:0:0:0:
192,192,252055,1,0,0:0:0:0:
320,192,252055,1,0,0:0:0:0:
320,192,252148,1,0,0:0:0:0:
448,192,252240,1,0,0:0:0:0:
192,192,252240,1,0,0:0:0:0:
64,192,252332,1,0,0:0:0:0:
320,192,252332,1,0,0:0:0:0:
64,192,252424,1,0,0:0:0:0:
192,192,252424,1,0,0:0:0:0:
320,192,252424,1,0,0:0:0:0:
448,192,252424,1,0,0:0:0:0:
192,192,252517,1,0,0:0:0:0:
320,192,252609,1,0,0:0:0:0:
448,192,252609,1,0,0:0:0:0:
64,192,252702,1,0,0:0:0:0:
192,192,252702,1,0,0:0:0:0:
64,192,252794,1,0,0:0:0:0:
320,192,252794,1,0,0:0:0:0:
448,192,252794,1,0,0:0:0:0:
192,192,252887,1,0,0:0:0:0:
448,192,252887,1,0,0:0:0:0:
64,192,252978,1,0,0:0:0:0:
192,192,252978,1,0,0:0:0:0:
320,192,252978,1,0,0:0:0:0:
320,192,253071,1,0,0:0:0:0:
448,192,253071,1,0,0:0:0:0:
64,192,253163,1,0,0:0:0:0:
192,192,253163,1,0,0:0:0:0:
320,192,253163,1,0,0:0:0:0:
448,192,253163,1,0,0:0:0:0:
64,192,253256,1,0,0:0:0:0:
192,192,253256,1,0,0:0:0:0:
320,192,253348,1,0,0:0:0:0:
448,192,253348,1,0,0:0:0:0:
64,192,253348,1,0,0:0:0:0:
320,192,253441,1,0,0:0:0:0:
192,192,253441,1,0,0:0:0:0:
64,192,253534,1,0,0:0:0:0:
192,192,253534,1,0,0:0:0:0:
448,192,253534,1,0,0:0:0:0:
320,192,253625,1,0,0:0:0:0:
448,192,253718,1,0,0:0:0:0:
64,192,253718,1,0,0:0:0:0:
320,192,253810,1,0,0:0:0:0:
64,192,253903,1,0,0:0:0:0:
192,192,253903,1,0,0:0:0:0:
320,192,253903,1,0,0:0:0:0:
448,192,253903,1,0,0:0:0:0:
192,192,253995,1,0,0:0:0:0:
320,192,254088,1,0,0:0:0:0:
448,192,254088,1,0,0:0:0:0:
192,192,254180,1,0,0:0:0:0:
64,192,254272,1,0,0:0:0:0:
320,192,254272,1,0,0:0:0:0:
448,192,254272,1,0,0:0:0:0:
192,192,254364,1,0,0:0:0:0:
64,192,254457,1,0,0:0:0:0:
448,192,254457,1,0,0:0:0:0:
192,192,254549,1,0,0:0:0:0:
64,192,254642,1,0,0:0:0:0:
192,192,254642,1,0,0:0:0:0:
320,192,254642,1,0,0:0:0:0:
448,192,254642,1,0,0:0:0:0:
320,192,254734,1,0,0:0:0:0:
192,192,254827,1,0,0:0:0:0:
64,192,254827,1,0,0:0:0:0:
320,192,254920,1,0,0:0:0:0:
64,192,255011,1,0,0:0:0:0:
192,192,255011,1,0,0:0:0:0:
448,192,255011,1,0,0:0:0:0:
320,192,255104,1,0,0:0:0:0:
64,192,255104,1,0,0:0:0:0:
448,192,255196,1,0,0:0:0:0:
192,192,255196,1,0,0:0:0:0:
64,192,255289,1,0,0:0:0:0:
320,192,255289,1,0,0:0:0:0:
448,192,255289,1,0,0:0:0:0:
64,192,255381,1,0,0:0:0:0:
192,192,255381,1,0,0:0:0:0:
448,192,255474,1,0,0:0:0:0:
320,192,255474,1,0,0:0:0:0:
64,192,255565,1,0,0:0:0:0:
192,192,255565,1,0,0:0:0:0:
448,192,255565,1,0,0:0:0:0:
192,192,255658,1,0,0:0:0:0:
320,192,255658,1,0,0:0:0:0:
64,192,255750,1,0,0:0:0:0:
448,192,255750,1,0,0:0:0:0:
320,192,255750,1,0,0:0:0:0:
320,192,255843,1,0,0:0:0:0:
448,192,255843,1,0,0:0:0:0:
64,192,255935,1,0,0:0:0:0:
192,192,255935,1,0,0:0:0:0:
320,192,256028,1,0,0:0:0:0:
448,192,256028,1,0,0:0:0:0:
448,192,256120,1,0,0:0:0:0:
320,192,256120,1,0,0:0:0:0:
192,192,256120,1,0,0:0:0:0:
64,192,256120,1,0,0:0:0:0:
192,192,256212,1,0,0:0:0:0:
64,192,256305,1,0,0:0:0:0:
192,192,256305,1,0,0:0:0:0:
320,192,256305,1,0,0:0:0:0:
448,192,256305,1,0,0:0:0:0:
448,192,256397,1,0,0:0:0:0:
64,192,256490,5,0,0:0:0:0:
192,192,256490,1,0,0:0:0:0:
320,192,256490,1,0,0:0:0:0:
448,192,256490,1,0,0:0:0:0:
320,192,256582,1,0,0:0:0:0:
64,192,256675,1,0,0:0:0:0:
448,192,256675,1,0,0:0:0:0:
192,192,256767,1,0,0:0:0:0:
320,192,256767,1,0,0:0:0:0:
64,192,256860,1,0,0:0:0:0:
320,192,256860,1,0,0:0:0:0:
448,192,256860,1,0,0:0:0:0:
192,192,256860,1,0,0:0:0:0:
192,192,256951,1,0,0:0:0:0:
448,192,257044,1,0,0:0:0:0:
320,192,257044,1,0,0:0:0:0:
192,192,257136,1,0,0:0:0:0:
64,192,257136,1,0,0:0:0:0:
448,192,257229,1,0,0:0:0:0:
64,192,257229,1,0,0:0:0:0:
320,192,257229,1,0,0:0:0:0:
320,192,257321,1,0,0:0:0:0:
448,192,257414,1,0,0:0:0:0:
192,192,257414,1,0,0:0:0:0:
64,192,257505,1,0,0:0:0:0:
320,192,257505,1,0,0:0:0:0:
64,192,257598,1,0,0:0:0:0:
320,192,257598,1,0,0:0:0:0:
192,192,257598,1,0,0:0:0:0:
448,192,257598,1,0,0:0:0:0:
448,192,257691,1,0,0:0:0:0:
64,192,257783,1,0,0:0:0:0:
192,192,257783,1,0,0:0:0:0:
320,192,257876,1,0,0:0:0:0:
448,192,257876,1,0,0:0:0:0:
64,192,257968,1,0,0:0:0:0:
320,192,257968,1,0,0:0:0:0:
192,192,257968,1,0,0:0:0:0:
192,192,258061,1,0,0:0:0:0:
448,192,258152,1,0,0:0:0:0:
320,192,258152,1,0,0:0:0:0:
64,192,258245,1,0,0:0:0:0:
192,192,258245,1,0,0:0:0:0:
64,192,258337,1,0,0:0:0:0:
320,192,258337,1,0,0:0:0:0:
192,192,258337,1,0,0:0:0:0:
448,192,258337,1,0,0:0:0:0:
320,192,258430,1,0,0:0:0:0:
192,192,258522,1,0,0:0:0:0:
448,192,258522,1,0,0:0:0:0:
64,192,258615,1,0,0:0:0:0:
320,192,258615,1,0,0:0:0:0:
64,192,258707,1,0,0:0:0:0:
192,192,258707,1,0,0:0:0:0:
448,192,258707,1,0,0:0:0:0:
320,192,258800,1,0,0:0:0:0:
448,192,258800,1,0,0:0:0:0:
64,192,258891,1,0,0:0:0:0:
320,192,258891,1,0,0:0:0:0:
192,192,258891,1,0,0:0:0:0:
192,192,258984,1,0,0:0:0:0:
448,192,258984,1,0,0:0:0:0:
64,192,259077,1,0,0:0:0:0:
320,192,259077,1,0,0:0:0:0:
192,192,259077,1,0,0:0:0:0:
448,192,259077,1,0,0:0:0:0:
64,192,259169,1,0,0:0:0:0:
320,192,259169,1,0,0:0:0:0:
192,192,259262,1,0,0:0:0:0:
448,192,259262,1,0,0:0:0:0:
64,192,259262,1,0,0:0:0:0:
192,192,259354,1,0,0:0:0:0:
320,192,259354,1,0,0:0:0:0:
64,192,259447,1,0,0:0:0:0:
320,192,259447,1,0,0:0:0:0:
448,192,259447,1,0,0:0:0:0:
192,192,259538,5,0,0:0:0:0:
448,192,259631,1,0,0:0:0:0:
64,192,259631,1,0,0:0:0:0:
192,192,259723,1,0,0:0:0:0:
64,192,259816,1,0,0:0:0:0:
320,192,259816,1,0,0:0:0:0:
192,192,259816,1,0,0:0:0:0:
448,192,259816,1,0,0:0:0:0:
320,192,259908,1,0,0:0:0:0:
448,192,260001,1,0,0:0:0:0:
64,192,260001,1,0,0:0:0:0:
320,192,260092,1,0,0:0:0:0:
448,192,260185,1,0,0:0:0:0:
320,192,260185,1,0,0:0:0:0:
64,192,260185,1,0,0:0:0:0:
192,192,260278,1,0,0:0:0:0:
448,192,260370,1,0,0:0:0:0:
64,192,260370,1,0,0:0:0:0:
320,192,260370,1,0,0:0:0:0:
192,192,260463,1,0,0:0:0:0:
448,192,260555,1,0,0:0:0:0:
192,192,260555,1,0,0:0:0:0:
320,192,260555,1,0,0:0:0:0:
64,192,260555,1,0,0:0:0:0:
320,192,260648,1,0,0:0:0:0:
192,192,260740,1,0,0:0:0:0:
448,192,260740,1,0,0:0:0:0:
64,192,260740,1,0,0:0:0:0:
320,192,260832,1,0,0:0:0:0:
64,192,260924,5,0,0:0:0:0:
448,192,260924,1,0,0:0:0:0:
192,192,260924,1,0,0:0:0:0:
320,192,260924,1,0,0:0:0:0:
64,192,261017,1,0,0:0:0:0:
448,192,261017,1,0,0:0:0:0:
320,192,261017,1,0,0:0:0:0:
192,192,261017,1,0,0:0:0:0:
192,192,261109,1,0,0:0:0:0:
64,192,261109,1,0,0:0:0:0:
448,192,261109,1,0,0:0:0:0:
320,192,261109,1,0,0:0:0:0:
320,192,261294,1,0,0:0:0:0:
448,192,261294,1,0,0:0:0:0:
192,192,261294,1,0,0:0:0:0:
64,192,261294,1,0,0:0:0:0:
64,192,261478,1,0,0:0:0:0:
320,192,261478,1,0,0:0:0:0:
448,192,261478,1,0,0:0:0:0:
192,192,261478,1,0,0:0:0:0:
320,192,261664,1,0,0:0:0:0:
448,192,261664,1,0,0:0:0:0:
192,192,261664,1,0,0:0:0:0:
64,192,261664,1,0,0:0:0:0:
320,192,261849,1,0,0:0:0:0:
64,192,261849,1,0,0:0:0:0:
448,192,262034,1,0,0:0:0:0:
192,192,262034,1,0,0:0:0:0:
64,192,262218,1,0,0:0:0:0:
192,192,262218,1,0,0:0:0:0:
448,192,262218,1,0,0:0:0:0:
320,192,262218,1,0,0:0:0:0:
448,192,262403,5,0,0:0:0:0:
320,192,262403,1,0,0:0:0:0:
192,192,262403,1,0,0:0:0:0:
64,192,262403,1,0,0:0:0:0:
192,192,262495,1,0,0:0:0:0:
64,192,262588,1,0,0:0:0:0:
448,192,262588,1,0,0:0:0:0:
320,192,262680,1,0,0:0:0:0:
192,192,262680,1,0,0:0:0:0:
64,192,262680,1,0,0:0:0:0:
64,192,262772,1,0,0:0:0:0:
192,192,262772,1,0,0:0:0:0:
448,192,262772,1,0,0:0:0:0:
320,192,262772,1,0,0:0:0:0:
320,192,262864,1,0,0:0:0:0:
448,192,262957,1,0,0:0:0:0:
192,192,262957,1,0,0:0:0:0:
320,192,263050,1,0,0:0:0:0:
64,192,263050,1,0,0:0:0:0:
448,192,263142,1,0,0:0:0:0:
64,192,263142,1,0,0:0:0:0:
192,192,263142,1,0,0:0:0:0:
192,192,263235,1,0,0:0:0:0:
448,192,263327,1,0,0:0:0:0:
320,192,263327,1,0,0:0:0:0:
64,192,263420,1,0,0:0:0:0:
192,192,263420,1,0,0:0:0:0:
320,192,263420,1,0,0:0:0:0:
64,192,263511,1,0,0:0:0:0:
192,192,263511,1,0,0:0:0:0:
320,192,263511,1,0,0:0:0:0:
448,192,263511,1,0,0:0:0:0:
448,192,263604,1,0,0:0:0:0:
64,192,263696,1,0,0:0:0:0:
320,192,263696,1,0,0:0:0:0:
192,192,263789,1,0,0:0:0:0:
448,192,263789,1,0,0:0:0:0:
64,192,263881,1,0,0:0:0:0:
192,192,263881,1,0,0:0:0:0:
320,192,263881,1,0,0:0:0:0:
320,192,263974,1,0,0:0:0:0:
448,192,264065,1,0,0:0:0:0:
192,192,264065,1,0,0:0:0:0:
64,192,264158,1,0,0:0:0:0:
320,192,264158,1,0,0:0:0:0:
448,192,264158,1,0,0:0:0:0:
64,192,264250,1,0,0:0:0:0:
192,192,264250,1,0,0:0:0:0:
320,192,264250,1,0,0:0:0:0:
448,192,264250,1,0,0:0:0:0:
192,192,264343,1,0,0:0:0:0:
320,192,264436,1,0,0:0:0:0:
448,192,264436,1,0,0:0:0:0:
64,192,264528,1,0,0:0:0:0:
192,192,264528,1,0,0:0:0:0:
64,192,264621,1,0,0:0:0:0:
320,192,264621,1,0,0:0:0:0:
448,192,264621,1,0,0:0:0:0:
192,192,264712,1,0,0:0:0:0:
448,192,264712,1,0,0:0:0:0:
64,192,264805,1,0,0:0:0:0:
192,192,264805,1,0,0:0:0:0:
320,192,264805,1,0,0:0:0:0:
320,192,264897,1,0,0:0:0:0:
448,192,264897,1,0,0:0:0:0:
64,192,264990,1,0,0:0:0:0:
192,192,264990,1,0,0:0:0:0:
320,192,264990,1,0,0:0:0:0:
448,192,264990,1,0,0:0:0:0:
64,192,265082,1,0,0:0:0:0:
192,192,265082,1,0,0:0:0:0:
320,192,265175,1,0,0:0:0:0:
448,192,265175,1,0,0:0:0:0:
64,192,265175,1,0,0:0:0:0:
320,192,265267,1,0,0:0:0:0:
192,192,265267,1,0,0:0:0:0:
64,192,265360,1,0,0:0:0:0:
192,192,265360,1,0,0:0:0:0:
448,192,265360,1,0,0:0:0:0:
320,192,265451,1,0,0:0:0:0:
448,192,265544,1,0,0:0:0:0:
192,192,265544,1,0,0:0:0:0:
320,192,265636,1,0,0:0:0:0:
64,192,265636,1,0,0:0:0:0:
64,192,265729,1,0,0:0:0:0:
192,192,265729,1,0,0:0:0:0:
320,192,265729,1,0,0:0:0:0:
448,192,265729,1,0,0:0:0:0:
192,192,265822,1,0,0:0:0:0:
320,192,265914,1,0,0:0:0:0:
448,192,265914,1,0,0:0:0:0:
192,192,266007,1,0,0:0:0:0:
64,192,266007,1,0,0:0:0:0:
64,192,266098,1,0,0:0:0:0:
320,192,266098,1,0,0:0:0:0:
448,192,266098,1,0,0:0:0:0:
192,192,266191,1,0,0:0:0:0:
64,192,266283,1,0,0:0:0:0:
320,192,266283,1,0,0:0:0:0:
192,192,266376,1,0,0:0:0:0:
448,192,266376,1,0,0:0:0:0:
64,192,266468,1,0,0:0:0:0:
192,192,266468,1,0,0:0:0:0:
320,192,266468,1,0,0:0:0:0:
448,192,266468,1,0,0:0:0:0:
320,192,266561,1,0,0:0:0:0:
192,192,266652,1,0,0:0:0:0:
64,192,266652,1,0,0:0:0:0:
320,192,266745,1,0,0:0:0:0:
448,192,266745,1,0,0:0:0:0:
64,192,266837,1,0,0:0:0:0:
192,192,266837,1,0,0:0:0:0:
448,192,266837,1,0,0:0:0:0:
320,192,266930,1,0,0:0:0:0:
64,192,266930,1,0,0:0:0:0:
448,192,267022,1,0,0:0:0:0:
192,192,267022,1,0,0:0:0:0:
64,192,267115,1,0,0:0:0:0:
320,192,267115,1,0,0:0:0:0:
448,192,267115,1,0,0:0:0:0:
64,192,267208,1,0,0:0:0:0:
192,192,267208,1,0,0:0:0:0:
448,192,267300,1,0,0:0:0:0:
320,192,267300,1,0,0:0:0:0:
64,192,267392,1,0,0:0:0:0:
192,192,267392,1,0,0:0:0:0:
448,192,267392,1,0,0:0:0:0:
192,192,267484,1,0,0:0:0:0:
320,192,267484,1,0,0:0:0:0:
64,192,267577,1,0,0:0:0:0:
448,192,267577,1,0,0:0:0:0:
320,192,267577,1,0,0:0:0:0:
320,192,267669,1,0,0:0:0:0:
448,192,267669,1,0,0:0:0:0:
64,192,267762,1,0,0:0:0:0:
192,192,267762,1,0,0:0:0:0:
320,192,267854,1,0,0:0:0:0:
448,192,267854,1,0,0:0:0:0:
448,192,267947,1,0,0:0:0:0:
320,192,267947,1,0,0:0:0:0:
192,192,267947,1,0,0:0:0:0:
64,192,267947,1,0,0:0:0:0:
192,192,268038,1,0,0:0:0:0:
64,192,268131,1,0,0:0:0:0:
192,192,268131,1,0,0:0:0:0:
320,192,268131,1,0,0:0:0:0:
448,192,268131,1,0,0:0:0:0:
448,192,268223,1,0,0:0:0:0:
64,192,268316,5,0,0:0:0:0:
192,192,268316,1,0,0:0:0:0:
320,192,268316,1,0,0:0:0:0:
448,192,268316,1,0,0:0:0:0:
320,192,268408,1,0,0:0:0:0:
64,192,268501,1,0,0:0:0:0:
448,192,268501,1,0,0:0:0:0:
192,192,268594,1,0,0:0:0:0:
320,192,268594,1,0,0:0:0:0:
448,192,268594,1,0,0:0:0:0:
64,192,268685,1,0,0:0:0:0:
320,192,268685,1,0,0:0:0:0:
448,192,268685,1,0,0:0:0:0:
192,192,268685,1,0,0:0:0:0:
192,192,268778,1,0,0:0:0:0:
448,192,268870,1,0,0:0:0:0:
320,192,268870,1,0,0:0:0:0:
192,192,268963,1,0,0:0:0:0:
64,192,268963,1,0,0:0:0:0:
448,192,269055,1,0,0:0:0:0:
64,192,269055,1,0,0:0:0:0:
320,192,269055,1,0,0:0:0:0:
320,192,269148,1,0,0:0:0:0:
448,192,269240,1,0,0:0:0:0:
192,192,269240,1,0,0:0:0:0:
64,192,269332,1,0,0:0:0:0:
320,192,269332,1,0,0:0:0:0:
192,192,269332,1,0,0:0:0:0:
64,192,269424,1,0,0:0:0:0:
320,192,269424,1,0,0:0:0:0:
192,192,269424,1,0,0:0:0:0:
448,192,269424,1,0,0:0:0:0:
448,192,269517,1,0,0:0:0:0:
64,192,269609,1,0,0:0:0:0:
192,192,269609,1,0,0:0:0:0:
320,192,269702,1,0,0:0:0:0:
448,192,269702,1,0,0:0:0:0:
64,192,269795,1,0,0:0:0:0:
320,192,269795,1,0,0:0:0:0:
192,192,269795,1,0,0:0:0:0:
192,192,269887,1,0,0:0:0:0:
448,192,269980,1,0,0:0:0:0:
320,192,269980,1,0,0:0:0:0:
64,192,270071,1,0,0:0:0:0:
192,192,270071,1,0,0:0:0:0:
448,192,270071,1,0,0:0:0:0:
64,192,270164,1,0,0:0:0:0:
320,192,270164,1,0,0:0:0:0:
192,192,270164,1,0,0:0:0:0:
448,192,270164,1,0,0:0:0:0:
320,192,270256,1,0,0:0:0:0:
192,192,270349,1,0,0:0:0:0:
448,192,270349,1,0,0:0:0:0:
64,192,270441,1,0,0:0:0:0:
320,192,270441,1,0,0:0:0:0:
64,192,270534,1,0,0:0:0:0:
192,192,270534,1,0,0:0:0:0:
448,192,270534,1,0,0:0:0:0:
320,192,270625,1,0,0:0:0:0:
448,192,270625,1,0,0:0:0:0:
64,192,270718,1,0,0:0:0:0:
320,192,270718,1,0,0:0:0:0:
192,192,270718,1,0,0:0:0:0:
192,192,270810,1,0,0:0:0:0:
448,192,270810,1,0,0:0:0:0:
64,192,270903,1,0,0:0:0:0:
320,192,270903,1,0,0:0:0:0:
192,192,270903,1,0,0:0:0:0:
448,192,270903,1,0,0:0:0:0:
64,192,270995,1,0,0:0:0:0:
320,192,270995,1,0,0:0:0:0:
192,192,271088,1,0,0:0:0:0:
448,192,271088,1,0,0:0:0:0:
64,192,271088,1,0,0:0:0:0:
192,192,271181,1,0,0:0:0:0:
320,192,271181,1,0,0:0:0:0:
64,192,271272,1,0,0:0:0:0:
320,192,271272,1,0,0:0:0:0:
448,192,271272,1,0,0:0:0:0:
192,192,271365,5,0,0:0:0:0:
64,192,271457,1,0,0:0:0:0:
320,192,271457,1,0,0:0:0:0:
192,192,271550,1,0,0:0:0:0:
448,192,271550,1,0,0:0:0:0:
64,192,271642,1,0,0:0:0:0:
320,192,271642,1,0,0:0:0:0:
192,192,271642,1,0,0:0:0:0:
448,192,271642,1,0,0:0:0:0:
320,192,271735,1,0,0:0:0:0:
448,192,271827,1,0,0:0:0:0:
64,192,271827,1,0,0:0:0:0:
320,192,271920,1,0,0:0:0:0:
192,192,271920,1,0,0:0:0:0:
448,192,272011,1,0,0:0:0:0:
320,192,272011,1,0,0:0:0:0:
64,192,272011,1,0,0:0:0:0:
192,192,272104,1,0,0:0:0:0:
448,192,272196,1,0,0:0:0:0:
64,192,272196,1,0,0:0:0:0:
320,192,272196,1,0,0:0:0:0:
192,192,272289,1,0,0:0:0:0:
448,192,272381,1,0,0:0:0:0:
192,192,272381,1,0,0:0:0:0:
320,192,272381,1,0,0:0:0:0:
64,192,272381,1,0,0:0:0:0:
320,192,272474,1,0,0:0:0:0:
192,192,272567,1,0,0:0:0:0:
448,192,272567,1,0,0:0:0:0:
64,192,272567,1,0,0:0:0:0:
320,192,272658,1,0,0:0:0:0:
448,192,272751,5,0,0:0:0:0:
192,192,272751,1,0,0:0:0:0:
320,192,272751,1,0,0:0:0:0:
64,192,272751,1,0,0:0:0:0:
320,192,272843,1,0,0:0:0:0:
448,192,272843,1,0,0:0:0:0:
192,192,272843,1,0,0:0:0:0:
64,192,272843,1,0,0:0:0:0:
192,192,272936,1,0,0:0:0:0:
64,192,272936,1,0,0:0:0:0:
320,192,272936,1,0,0:0:0:0:
448,192,272936,1,0,0:0:0:0:
64,192,273121,1,0,0:0:0:0:
192,192,273121,1,0,0:0:0:0:
320,192,273121,1,0,0:0:0:0:
448,192,273121,1,0,0:0:0:0:
64,192,273305,1,0,0:0:0:0:
192,192,273305,1,0,0:0:0:0:
320,192,273305,1,0,0:0:0:0:
448,192,273305,1,0,0:0:0:0:
448,192,273490,1,0,0:0:0:0:
320,192,273521,1,0,0:0:0:0:
64,192,273551,1,0,0:0:0:0:
192,192,273582,1,0,0:0:0:0:
448,192,273614,1,0,0:0:0:0:
320,192,273644,1,0,0:0:0:0:
64,192,273675,1,0,0:0:0:0:
192,192,273705,1,0,0:0:0:0:
448,192,273736,1,0,0:0:0:0:
320,192,273767,1,0,0:0:0:0:
64,192,273798,1,0,0:0:0:0:
192,192,273829,1,0,0:0:0:0:
448,192,273860,1,0,0:0:0:0:
320,192,273890,1,0,0:0:0:0:
64,192,273921,1,0,0:0:0:0:
192,192,273952,1,0,0:0:0:0:
448,192,273983,1,0,0:0:0:0:
320,192,274014,1,0,0:0:0:0:
64,192,274044,1,0,0:0:0:0:
192,192,274075,1,0,0:0:0:0:
448,192,274105,1,0,0:0:0:0:
320,192,274137,1,0,0:0:0:0:
64,192,274168,1,0,0:0:0:0:
192,192,274198,1,0,0:0:0:0:
448,192,274229,5,0,0:0:0:0:
320,192,274229,1,0,0:0:0:0:
64,192,274229,1,0,0:0:0:0:
320,192,274322,1,0,0:0:0:0:
64,192,274414,1,0,0:0:0:0:
448,192,274414,1,0,0:0:0:0:
448,192,274507,1,0,0:0:0:0:
320,192,274507,1,0,0:0:0:0:
192,192,274507,1,0,0:0:0:0:
64,192,274598,1,0,0:0:0:0:
192,192,274598,1,0,0:0:0:0:
448,192,274598,1,0,0:0:0:0:
320,192,274598,1,0,0:0:0:0:
192,192,274691,1,0,0:0:0:0:
320,192,274783,1,0,0:0:0:0:
64,192,274783,1,0,0:0:0:0:
448,192,274876,1,0,0:0:0:0:
192,192,274876,1,0,0:0:0:0:
320,192,274968,1,0,0:0:0:0:
448,192,274968,1,0,0:0:0:0:
64,192,274968,1,0,0:0:0:0:
320,192,275061,1,0,0:0:0:0:
192,192,275152,1,0,0:0:0:0:
64,192,275152,1,0,0:0:0:0:
192,192,275245,1,0,0:0:0:0:
320,192,275245,1,0,0:0:0:0:
448,192,275245,1,0,0:0:0:0:
192,192,275338,1,0,0:0:0:0:
64,192,275338,1,0,0:0:0:0:
448,192,275338,1,0,0:0:0:0:
320,192,275338,1,0,0:0:0:0:
64,192,275430,1,0,0:0:0:0:
192,192,275523,1,0,0:0:0:0:
448,192,275523,1,0,0:0:0:0:
64,192,275615,1,0,0:0:0:0:
320,192,275615,1,0,0:0:0:0:
192,192,275708,1,0,0:0:0:0:
320,192,275708,1,0,0:0:0:0:
448,192,275708,1,0,0:0:0:0:
192,192,275800,1,0,0:0:0:0:
320,192,275892,1,0,0:0:0:0:
64,192,275892,1,0,0:0:0:0:
64,192,275984,1,0,0:0:0:0:
192,192,275984,1,0,0:0:0:0:
448,192,275984,1,0,0:0:0:0:
192,192,276077,1,0,0:0:0:0:
64,192,276077,1,0,0:0:0:0:
448,192,276077,1,0,0:0:0:0:
320,192,276077,1,0,0:0:0:0:
320,192,276169,1,0,0:0:0:0:
64,192,276262,1,0,0:0:0:0:
192,192,276262,1,0,0:0:0:0:
320,192,276354,1,0,0:0:0:0:
448,192,276354,1,0,0:0:0:0:
64,192,276447,1,0,0:0:0:0:
192,192,276447,1,0,0:0:0:0:
448,192,276447,1,0,0:0:0:0:
64,192,276538,1,0,0:0:0:0:
320,192,276538,1,0,0:0:0:0:
192,192,276631,1,0,0:0:0:0:
320,192,276631,1,0,0:0:0:0:
448,192,276631,1,0,0:0:0:0:
64,192,276724,1,0,0:0:0:0:
192,192,276724,1,0,0:0:0:0:
192,192,276816,1,0,0:0:0:0:
64,192,276816,1,0,0:0:0:0:
448,192,276816,1,0,0:0:0:0:
320,192,276816,1,0,0:0:0:0:
320,192,276909,1,0,0:0:0:0:
448,192,276909,1,0,0:0:0:0:
448,192,277001,1,0,0:0:0:0:
64,192,277001,1,0,0:0:0:0:
192,192,277001,1,0,0:0:0:0:
320,192,277094,1,0,0:0:0:0:
192,192,277094,1,0,0:0:0:0:
64,192,277185,1,0,0:0:0:0:
320,192,277185,1,0,0:0:0:0:
448,192,277185,1,0,0:0:0:0:
192,192,277278,1,0,0:0:0:0:
320,192,277370,1,0,0:0:0:0:
64,192,277370,1,0,0:0:0:0:
448,192,277463,1,0,0:0:0:0:
192,192,277463,1,0,0:0:0:0:
192,192,277555,1,0,0:0:0:0:
64,192,277555,1,0,0:0:0:0:
448,192,277555,1,0,0:0:0:0:
320,192,277555,1,0,0:0:0:0:
320,192,277648,1,0,0:0:0:0:
64,192,277740,1,0,0:0:0:0:
192,192,277740,1,0,0:0:0:0:
448,192,277832,1,0,0:0:0:0:
320,192,277832,1,0,0:0:0:0:
64,192,277925,1,0,0:0:0:0:
192,192,277925,1,0,0:0:0:0:
448,192,277925,1,0,0:0:0:0:
320,192,278017,1,0,0:0:0:0:
192,192,278110,1,0,0:0:0:0:
448,192,278110,1,0,0:0:0:0:
64,192,278202,1,0,0:0:0:0:
320,192,278202,1,0,0:0:0:0:
192,192,278295,1,0,0:0:0:0:
64,192,278295,1,0,0:0:0:0:
448,192,278295,1,0,0:0:0:0:
320,192,278295,1,0,0:0:0:0:
192,192,278387,1,0,0:0:0:0:
448,192,278480,1,0,0:0:0:0:
320,192,278480,1,0,0:0:0:0:
64,192,278571,1,0,0:0:0:0:
192,192,278571,1,0,0:0:0:0:
64,192,278664,1,0,0:0:0:0:
320,192,278664,1,0,0:0:0:0:
448,192,278664,1,0,0:0:0:0:
448,192,278756,1,0,0:0:0:0:
192,192,278756,1,0,0:0:0:0:
320,192,278849,1,0,0:0:0:0:
64,192,278849,1,0,0:0:0:0:
64,192,278941,1,0,0:0:0:0:
192,192,278941,1,0,0:0:0:0:
448,192,278941,1,0,0:0:0:0:
320,192,279034,1,0,0:0:0:0:
448,192,279034,1,0,0:0:0:0:
192,192,279125,1,0,0:0:0:0:
64,192,279125,1,0,0:0:0:0:
64,192,279218,1,0,0:0:0:0:
320,192,279218,1,0,0:0:0:0:
448,192,279218,1,0,0:0:0:0:
192,192,279311,1,0,0:0:0:0:
320,192,279311,1,0,0:0:0:0:
192,192,279403,1,0,0:0:0:0:
64,192,279403,1,0,0:0:0:0:
448,192,279403,1,0,0:0:0:0:
64,192,279496,1,0,0:0:0:0:
192,192,279496,1,0,0:0:0:0:
320,192,279588,1,0,0:0:0:0:
448,192,279588,1,0,0:0:0:0:
64,192,279681,1,0,0:0:0:0:
192,192,279681,1,0,0:0:0:0:
320,192,279772,1,0,0:0:0:0:
448,192,279772,1,0,0:0:0:0:
64,192,279772,1,0,0:0:0:0:
192,192,279772,1,0,0:0:0:0:
320,192,279865,1,0,0:0:0:0:
192,192,279957,1,0,0:0:0:0:
64,192,279957,1,0,0:0:0:0:
448,192,279957,1,0,0:0:0:0:
320,192,279957,1,0,0:0:0:0:
64,192,280050,1,0,0:0:0:0:
448,192,280142,5,0,0:0:0:0:
64,192,280142,1,0,0:0:0:0:
320,192,280142,1,0,0:0:0:0:
192,192,280142,1,0,0:0:0:0:
192,192,280235,1,0,0:0:0:0:
64,192,280327,1,0,0:0:0:0:
448,192,280327,1,0,0:0:0:0:
64,192,280420,1,0,0:0:0:0:
192,192,280420,1,0,0:0:0:0:
320,192,280420,1,0,0:0:0:0:
64,192,280511,1,0,0:0:0:0:
320,192,280511,1,0,0:0:0:0:
448,192,280511,1,0,0:0:0:0:
192,192,280511,1,0,0:0:0:0:
320,192,280604,1,0,0:0:0:0:
192,192,280697,1,0,0:0:0:0:
64,192,280697,1,0,0:0:0:0:
448,192,280789,1,0,0:0:0:0:
320,192,280789,1,0,0:0:0:0:
192,192,280882,1,0,0:0:0:0:
448,192,280882,1,0,0:0:0:0:
64,192,280882,1,0,0:0:0:0:
192,192,280974,1,0,0:0:0:0:
320,192,281067,1,0,0:0:0:0:
64,192,281067,1,0,0:0:0:0:
320,192,281158,1,0,0:0:0:0:
192,192,281158,1,0,0:0:0:0:
448,192,281158,1,0,0:0:0:0:
320,192,281251,1,0,0:0:0:0:
64,192,281251,1,0,0:0:0:0:
448,192,281251,1,0,0:0:0:0:
192,192,281251,1,0,0:0:0:0:
64,192,281343,1,0,0:0:0:0:
320,192,281436,1,0,0:0:0:0:
448,192,281436,1,0,0:0:0:0:
64,192,281528,1,0,0:0:0:0:
192,192,281528,1,0,0:0:0:0:
320,192,281621,1,0,0:0:0:0:
192,192,281621,1,0,0:0:0:0:
448,192,281621,1,0,0:0:0:0:
320,192,281712,1,0,0:0:0:0:
192,192,281805,1,0,0:0:0:0:
64,192,281805,1,0,0:0:0:0:
64,192,281897,1,0,0:0:0:0:
320,192,281897,1,0,0:0:0:0:
448,192,281897,1,0,0:0:0:0:
320,192,281990,1,0,0:0:0:0:
64,192,281990,1,0,0:0:0:0:
448,192,281990,1,0,0:0:0:0:
192,192,281990,1,0,0:0:0:0:
192,192,282083,1,0,0:0:0:0:
64,192,282175,1,0,0:0:0:0:
320,192,282175,1,0,0:0:0:0:
192,192,282268,1,0,0:0:0:0:
448,192,282268,1,0,0:0:0:0:
64,192,282360,1,0,0:0:0:0:
320,192,282360,1,0,0:0:0:0:
448,192,282360,1,0,0:0:0:0:
64,192,282452,1,0,0:0:0:0:
192,192,282452,1,0,0:0:0:0:
320,192,282544,1,0,0:0:0:0:
192,192,282544,1,0,0:0:0:0:
448,192,282544,1,0,0:0:0:0:
64,192,282637,1,0,0:0:0:0:
320,192,282637,1,0,0:0:0:0:
320,192,282729,1,0,0:0:0:0:
64,192,282729,1,0,0:0:0:0:
448,192,282729,1,0,0:0:0:0:
192,192,282729,1,0,0:0:0:0:
192,192,282822,1,0,0:0:0:0:
448,192,282822,1,0,0:0:0:0:
448,192,282914,1,0,0:0:0:0:
64,192,282914,1,0,0:0:0:0:
320,192,282914,1,0,0:0:0:0:
192,192,283007,1,0,0:0:0:0:
320,192,283007,1,0,0:0:0:0:
64,192,283098,1,0,0:0:0:0:
192,192,283098,1,0,0:0:0:0:
448,192,283098,1,0,0:0:0:0:
320,192,283191,5,0,0:0:0:0:
192,192,283283,1,0,0:0:0:0:
448,192,283283,1,0,0:0:0:0:
64,192,283376,1,0,0:0:0:0:
320,192,283376,1,0,0:0:0:0:
320,192,283469,1,0,0:0:0:0:
64,192,283469,1,0,0:0:0:0:
448,192,283469,1,0,0:0:0:0:
192,192,283469,1,0,0:0:0:0:
192,192,283561,1,0,0:0:0:0:
448,192,283654,1,0,0:0:0:0:
64,192,283654,1,0,0:0:0:0:
320,192,283745,1,0,0:0:0:0:
192,192,283745,1,0,0:0:0:0:
448,192,283838,1,0,0:0:0:0:
192,192,283838,1,0,0:0:0:0:
64,192,283838,1,0,0:0:0:0:
320,192,283930,1,0,0:0:0:0:
192,192,284023,1,0,0:0:0:0:
448,192,284023,1,0,0:0:0:0:
64,192,284023,1,0,0:0:0:0:
320,192,284115,1,0,0:0:0:0:
192,192,284208,1,0,0:0:0:0:
448,192,284208,1,0,0:0:0:0:
64,192,284208,1,0,0:0:0:0:
320,192,284208,1,0,0:0:0:0:
192,192,284300,1,0,0:0:0:0:
448,192,284392,1,0,0:0:0:0:
64,192,284392,1,0,0:0:0:0:
320,192,284392,1,0,0:0:0:0:
192,192,284484,1,0,0:0:0:0:
448,192,284577,5,0,0:0:0:0:
192,192,284577,1,0,0:0:0:0:
320,192,284577,1,0,0:0:0:0:
64,192,284577,1,0,0:0:0:0:
192,192,284669,5,0,0:0:0:0:
64,192,284669,1,0,0:0:0:0:
320,192,284669,1,0,0:0:0:0:
448,192,284669,1,0,0:0:0:0:
192,192,284762,1,0,0:0:0:0:
64,192,284762,1,0,0:0:0:0:
448,192,284762,1,0,0:0:0:0:
320,192,284762,1,0,0:0:0:0:
192,192,284947,1,0,0:0:0:0:
64,192,284947,1,0,0:0:0:0:
320,192,284947,1,0,0:0:0:0:
448,192,284947,1,0,0:0:0:0:
448,192,285131,1,0,0:0:0:0:
192,192,285131,1,0,0:0:0:0:
64,192,285131,1,0,0:0:0:0:
320,192,285131,1,0,0:0:0:0:
192,192,285316,1,0,0:0:0:0:
64,192,285316,1,0,0:0:0:0:
320,192,285316,1,0,0:0:0:0:
448,192,285316,1,0,0:0:0:0:
192,192,285501,1,0,0:0:0:0:
448,192,285501,1,0,0:0:0:0:
64,192,285685,1,0,0:0:0:0:
320,192,285685,1,0,0:0:0:0:
448,192,285870,1,0,0:0:0:0:
320,192,285870,1,0,0:0:0:0:
64,192,285870,1,0,0:0:0:0:
192,192,285870,1,0,0:0:0:0:
448,192,286055,5,0,0:0:0:0:
320,192,286055,1,0,0:0:0:0:
192,192,286102,1,0,0:0:0:0:
64,192,286102,1,0,0:0:0:0:
448,192,286148,1,0,0:0:0:0:
320,192,286148,1,0,0:0:0:0:
192,192,286194,1,0,0:0:0:0:
64,192,286194,1,0,0:0:0:0:
448,192,286241,1,0,0:0:0:0:
320,192,286241,1,0,0:0:0:0:
192,192,286287,1,0,0:0:0:0:
64,192,286287,1,0,0:0:0:0:
448,192,286332,1,0,0:0:0:0:
320,192,286332,1,0,0:0:0:0:
192,192,286378,1,0,0:0:0:0:
64,192,286378,1,0,0:0:0:0:
64,192,286425,1,0,0:0:0:0:
192,192,286425,1,0,0:0:0:0:
320,192,286425,1,0,0:0:0:0:
448,192,286425,1,0,0:0:0:0:
320,192,286610,1,0,0:0:0:0:
64,192,286610,1,0,0:0:0:0:
448,192,286610,1,0,0:0:0:0:
64,192,286795,1,0,0:0:0:0:
192,192,286795,1,0,0:0:0:0:
320,192,286841,1,0,0:0:0:0:
448,192,286841,1,0,0:0:0:0:
64,192,286887,1,0,0:0:0:0:
192,192,286887,1,0,0:0:0:0:
320,192,286934,1,0,0:0:0:0:
448,192,286934,1,0,0:0:0:0:
64,192,286980,1,0,0:0:0:0:
192,192,286980,1,0,0:0:0:0:
320,192,287025,1,0,0:0:0:0:
448,192,287025,1,0,0:0:0:0:
64,192,287071,1,0,0:0:0:0:
192,192,287071,1,0,0:0:0:0:
320,192,287118,1,0,0:0:0:0:
448,192,287118,1,0,0:0:0:0:
320,192,287164,1,0,0:0:0:0:
448,192,287164,1,0,0:0:0:0:
64,192,287164,1,0,0:0:0:0:
192,192,287164,1,0,0:0:0:0:
64,192,287349,1,0,0:0:0:0:
192,192,287349,1,0,0:0:0:0:
448,192,287349,1,0,0:0:0:0:
64,192,287534,1,0,0:0:0:0:
192,192,287534,1,0,0:0:0:0:
320,192,287534,1,0,0:0:0:0:
448,192,287534,1,0,0:0:0:0:
64,192,287627,1,0,0:0:0:0:
320,192,287627,1,0,0:0:0:0:
192,192,287627,1,0,0:0:0:0:
448,192,287627,1,0,0:0:0:0:
64,192,287718,1,0,0:0:0:0:
192,192,287718,1,0,0:0:0:0:
320,192,287718,1,0,0:0:0:0:
448,192,287718,1,0,0:0:0:0:
64,192,287903,1,0,0:0:0:0:
320,192,287903,1,0,0:0:0:0:
448,192,287903,1,0,0:0:0:0:
64,192,287996,1,0,0:0:0:0:
320,192,287996,1,0,0:0:0:0:
448,192,287996,1,0,0:0:0:0:
64,192,288088,1,0,0:0:0:0:
320,192,288088,1,0,0:0:0:0:
448,192,288088,1,0,0:0:0:0:
64,192,288272,1,0,0:0:0:0:
448,192,288272,1,0,0:0:0:0:
192,192,288272,1,0,0:0:0:0:
64,192,288365,1,0,0:0:0:0:
320,192,288365,1,0,0:0:0:0:
192,192,288365,1,0,0:0:0:0:
320,192,288457,1,0,0:0:0:0:
448,192,288457,1,0,0:0:0:0:
64,192,288457,1,0,0:0:0:0:
448,192,288550,1,0,0:0:0:0:
320,192,288550,1,0,0:0:0:0:
192,192,288550,1,0,0:0:0:0:
192,192,288642,1,0,0:0:0:0:
64,192,288642,1,0,0:0:0:0:
448,192,288642,1,0,0:0:0:0:
320,192,288735,1,0,0:0:0:0:
64,192,288735,1,0,0:0:0:0:
192,192,288735,1,0,0:0:0:0:
64,192,288828,1,0,0:0:0:0:
320,192,288828,1,0,0:0:0:0:
448,192,288828,1,0,0:0:0:0:
192,192,288920,1,0,0:0:0:0:
320,192,288920,1,0,0:0:0:0:
448,192,288920,1,0,0:0:0:0:
192,192,289012,1,0,0:0:0:0:
448,192,289012,1,0,0:0:0:0:
64,192,289012,1,0,0:0:0:0:
320,192,289012,1,0,0:0:0:0:
320,192,289104,1,0,0:0:0:0:
192,192,289104,1,0,0:0:0:0:
64,192,289104,1,0,0:0:0:0:
448,192,289104,1,0,0:0:0:0:
192,192,289197,1,0,0:0:0:0:
320,192,289197,1,0,0:0:0:0:
448,192,289197,1,0,0:0:0:0:
64,192,289197,1,0,0:0:0:0:
64,192,289382,1,0,0:0:0:0:
192,192,289382,1,0,0:0:0:0:
448,192,289382,1,0,0:0:0:0:
64,192,289474,1,0,0:0:0:0:
448,192,289474,1,0,0:0:0:0:
192,192,289474,1,0,0:0:0:0:
64,192,289567,1,0,0:0:0:0:
192,192,289567,1,0,0:0:0:0:
448,192,289567,1,0,0:0:0:0:
64,192,289751,1,0,0:0:0:0:
320,192,289751,1,0,0:0:0:0:
448,192,289751,1,0,0:0:0:0:
448,192,289843,1,0,0:0:0:0:
192,192,289843,1,0,0:0:0:0:
320,192,289843,1,0,0:0:0:0:
64,192,289936,1,0,0:0:0:0:
192,192,289936,1,0,0:0:0:0:
448,192,289936,1,0,0:0:0:0:
64,192,290028,1,0,0:0:0:0:
320,192,290028,1,0,0:0:0:0:
192,192,290028,1,0,0:0:0:0:
448,192,290121,1,0,0:0:0:0:
320,192,290121,1,0,0:0:0:0:
64,192,290121,1,0,0:0:0:0:
192,192,290214,1,0,0:0:0:0:
320,192,290214,1,0,0:0:0:0:
448,192,290214,1,0,0:0:0:0:
64,192,290305,1,0,0:0:0:0:
448,192,290305,1,0,0:0:0:0:
192,192,290305,1,0,0:0:0:0:
192,192,290398,1,0,0:0:0:0:
320,192,290398,1,0,0:0:0:0:
64,192,290398,1,0,0:0:0:0:
64,192,290490,128,0,296403:0:0:0:0:
192,192,290490,128,0,296403:0:0:0:0:
320,192,290490,128,0,296403:0:0:0:0:
448,192,290490,128,0,296403:0:0:0:0:
