osu file format v14

[General]
AudioFilename: audio.mp3
AudioLeadIn: 0
PreviewTime: 62557
Countdown: 1
SampleSet: Normal
StackLeniency: 0
Mode: 0
LetterboxInBreaks: 0
WidescreenStoryboard: 1

[Editor]
Bookmarks: 27987,81094,98188,131113,133939,143826
DistanceSpacing: 0.8
BeatDivisor: 8
GridSize: 32
TimelineZoom: 2.400483

[Metadata]
Title:Stem (L.P)
TitleUnicode:Stem (L.P)
Artist:DJ Shadow
ArtistUnicode:DJ Shadow
Creator:YuriMF
Version:Transmission
Source:
Tags:Endtroducing..... hip trip hop instrumental ambient illbient breakbeat mo' wax plunderphonics sampledelia 1996
BeatmapID:1992700
BeatmapSetID:953260

[Difficulty]
HPDrainRate:6.5
CircleSize:4.5
OverallDifficulty:8.5
ApproachRate:9
SliderMultiplier:2.00000000596047
SliderTickRate:1

[Events]
//Background and Video events
0,0,"YXjDuGz.jpg",0,0
//Break Periods
2,134977,143222
2,161539,197471
//Storyboard Layer 0 (Background)
//Storyboard Layer 1 (Fail)
//Storyboard Layer 2 (Pass)
//Storyboard Layer 3 (Foreground)
//Storyboard Layer 4 (Overlay)
//Storyboard Sound Samples

[TimingPoints]
864,565.078169146732,4,2,0,10,1,0
7644,-200,4,2,0,10,0,0
9905,-50,4,2,0,30,0,0
11600,-50,4,2,0,10,0,0
14425,-50,4,2,0,30,0,0
16121,-50,4,2,0,10,0,0
18946,-50,4,2,0,30,0,0
19511,-100,4,2,0,30,0,0
19794,-80,4,2,0,30,0,0
20641,-133.333333333333,4,2,0,10,0,0
21771,-80,4,2,0,10,0,0
22054,-66.6666666666667,4,2,0,10,0,0
22902,-100,4,2,0,10,0,0
23467,-50,4,2,0,30,0,0
24032,-66.6666666666667,4,2,0,30,0,0
24314,-57.1428571428571,4,2,0,30,0,0
25162,-80,4,2,0,10,0,0
26009,-100,4,2,0,10,0,0
26575,-133.333333333333,4,2,0,10,0,0
27140,-200,4,2,0,10,0,0
27987,-50,4,2,0,35,0,0
28552,-100,4,2,0,35,0,0
28835,-80,4,2,0,35,0,0
29682,-133.333333333333,4,2,0,15,0,0
30812,-80,4,2,0,15,0,0
31095,-66.6666666666667,4,2,0,15,0,0
31943,-100,4,2,0,15,0,0
32508,-50,4,2,0,35,0,0
33073,-66.6666666666667,4,2,0,35,0,0
33355,-57.1428571428571,4,2,0,35,0,0
34203,-80,4,2,0,15,0,0
34768,-80,4,2,0,18,0,0
35050,-100,4,2,0,21,0,0
35333,-100,4,2,0,24,0,0
35616,-133.333333333333,4,2,0,27,0,0
35898,-133.333333333333,4,2,0,30,0,0
36181,-200,4,2,0,33,0,0
36463,-200,4,2,0,36,0,0
36746,-200,4,2,0,40,0,0
37029,-100,4,2,0,15,0,0
41549,-100,4,2,0,15,0,0
43809,-200,4,2,0,10,0,0
44375,-100,4,2,0,10,0,0
44940,-133.333333333333,4,2,0,10,0,0
45505,565.078169146732,4,2,0,10,1,0
46070,-66.6666666666667,4,2,0,15,0,0
46352,-57.1428571428571,4,2,0,15,0,0
47200,-80,4,2,0,15,0,0
48047,-100,4,2,0,15,0,0
48612,-133.333333333333,4,2,0,15,0,0
49178,-200,4,2,0,15,0,0
50025,-100,4,2,0,15,0,0
56806,-200,4,2,0,10,0,0
57371,-100,4,2,0,10,0,0
57936,-133.333333333333,4,2,0,10,0,0
58501,563.90977443609,4,2,0,10,1,0
59064,-100,4,2,0,15,0,0
59346,-57.1428571428571,4,2,0,15,0,0
61038,-100,4,2,0,10,0,0
61602,-133.333333333333,4,2,0,10,0,0
62166,-200,4,2,0,10,0,0
63012,565.078169146732,4,2,0,35,1,0
63012,-55.5555555555556,4,2,0,50,0,0
64142,-55.5555555555556,4,2,0,35,0,0
65272,-55.5555555555556,4,2,0,50,0,0
65837,-55.5555555555556,4,2,0,35,0,0
66402,-55.5555555555556,4,2,0,40,0,0
67532,-55.5555555555556,4,2,0,50,0,0
68662,-55.5555555555556,4,2,0,35,0,0
69792,-55.5555555555556,4,2,0,50,0,0
70358,-55.5555555555556,4,2,0,35,0,0
72053,-55.5555555555556,4,2,0,50,0,0
73183,-55.5555555555556,4,2,0,35,0,0
74313,-55.5555555555556,4,2,0,50,0,0
74878,-55.5555555555556,4,2,0,40,0,0
76573,-55.5555555555556,4,2,0,50,0,0
76785,-55.5555555555556,4,2,0,5,0,0
76856,-55.5555555555556,4,2,0,50,0,0
77421,-55.5555555555556,4,2,0,35,0,0
78834,-55.5555555555556,4,2,0,50,0,0
79399,-55.5555555555556,4,2,0,35,0,0
81094,282.552389922298,4,1,0,60,1,0
82224,-100,4,1,0,50,0,0
90135,-100,4,1,0,60,0,0
90418,-80,4,1,0,50,0,0
92890,-100,4,1,0,5,0,0
92960,-80,4,1,0,50,0,0
93172,-100,4,1,0,5,0,0
93243,-80,4,1,0,50,0,0
93455,-100,4,1,0,5,0,0
93525,-100,4,1,0,50,0,0
94655,-80,4,1,0,45,0,0
96351,-89.2857142857143,4,1,0,45,0,0
99177,705.882352941176,4,2,0,35,1,0
99177,-51.0204081632653,4,2,0,50,0,0
99529,731.707317073171,4,2,0,35,1,0
99529,-66.6666666666667,4,2,0,35,0,0
99894,652.173913043478,4,2,0,35,1,0
99894,-50,4,2,0,35,0,0
100220,750,4,2,0,35,1,0
100220,-25,4,2,0,45,0,0
100595,731.707317073171,4,2,0,35,1,0
100960,337.078651685393,4,2,0,35,1,0
100960,-66.6666666666667,4,2,0,35,0,0
101128,458.015267175573,4,2,0,35,1,0
101242,433.996383363472,4,2,0,35,1,0
101242,-40,4,2,0,45,0,0
101567,416.666666666667,4,2,0,25,1,0
101879,487.80487804878,4,2,0,30,1,0
101879,-25,4,2,0,35,0,0
102122,571.428571428571,4,2,0,15,1,0
102693,465.116279069767,4,2,0,10,1,0
102809,-50,4,2,0,10,0,0
102983,-50,4,2,0,10,0,0
103041,582.52427184466,4,2,0,5,1,0
103623,337.078651685393,4,2,0,5,1,0
103707,565.078169146732,4,2,0,30,1,0
104836,-50,4,2,0,25,0,0
105683,-66.6666666666667,4,2,0,20,0,0
105966,-100,4,2,0,20,0,0
108227,-100,4,2,0,30,0,0
109357,-50,4,2,0,25,0,0
110204,-57.1428571428571,4,2,0,20,0,0
111618,-57.1428571428571,4,2,0,10,0,0
112748,-57.1428571428571,4,2,0,30,0,0
113595,-100,4,2,0,25,0,0
113877,-50,4,2,0,20,0,0
114726,-66.6666666666667,4,2,0,20,0,0
115008,-100,4,2,0,20,0,0
117269,-100,4,2,0,30,0,0
118117,-66.6666666666667,4,2,0,20,0,0
118399,-50,4,2,0,20,0,0
119246,-66.6666666666667,4,2,0,20,0,0
121789,-100,4,2,0,15,0,0
122354,-80,4,2,0,5,0,0
122639,-80,4,2,0,15,0,0
123133,-80,4,2,0,5,0,0
123204,-80,4,2,0,15,0,0
123698,-80,4,2,0,5,0,0
123769,-80,4,2,0,15,0,0
124614,-57.1428571428571,4,2,0,15,0,0
124828,-57.1428571428571,4,2,0,5,0,0
124897,-57.1428571428571,4,2,0,15,0,0
125391,-57.1428571428571,4,2,0,5,0,0
125464,-57.1428571428571,4,2,0,15,0,0
125958,-57.1428571428571,4,2,0,5,0,0
126029,-57.1428571428571,4,2,0,15,0,0
126310,-80,4,2,0,20,0,0
127089,-80,4,2,0,5,0,0
127159,-80,4,2,0,15,0,0
127654,-80,4,2,0,5,0,0
127724,-80,4,2,0,15,0,0
128219,-80,4,2,0,5,0,0
128289,-80,4,2,0,15,0,0
128570,-133.333333333333,4,2,0,15,0,0
129349,-133.333333333333,4,2,0,5,0,0
129420,-133.333333333333,4,2,0,15,0,0
129914,-133.333333333333,4,2,0,5,0,0
129985,-133.333333333333,4,2,0,15,0,0
130265,564.042303172738,4,2,0,20,1,0
130265,-80,4,2,0,25,0,0
131110,-57.1428571428571,4,2,0,30,0,0
131956,-80,4,2,0,20,0,0
132168,-80,4,2,0,5,0,0
132238,-80,4,2,0,20,0,0
132802,-100,4,2,0,10,0,0
133014,-100,4,2,0,5,0,0
133084,-100,4,2,0,10,0,0
133366,-133.333333333333,4,2,0,15,0,0
133577,-133.333333333333,4,2,0,5,0,0
133648,-133.333333333333,4,2,0,15,0,0
133930,-200,4,2,0,15,0,0
134141,-200,4,2,0,5,0,0
134212,-200,4,2,0,15,0,0
134777,-100,4,2,0,10,0,0
135905,468.75,4,2,0,35,1,0
136139,491.803278688525,4,2,0,35,1,0
136630,428.571428571429,4,2,0,35,1,0
136951,521.739130434783,4,2,0,25,1,0
137472,461.538461538462,4,2,0,25,1,0
137933,444.444444444444,4,2,0,25,1,0
138377,904.977375565611,4,2,0,25,1,0
139281,545.454545454546,4,2,0,15,1,0
139826,571.428571428571,4,2,0,15,1,0
140111,750,4,2,0,15,1,0
140298,705.882352941176,4,2,0,15,1,0
140474,526.315789473684,4,2,0,25,1,0
141000,562.060889929742,4,2,0,15,1,0
141562,565.078169146732,4,2,0,5,1,0
142129,-100,4,2,0,15,0,0
142694,-100,4,2,0,10,0,0
143259,-100,4,2,0,20,0,0
143824,-100,4,2,0,40,0,0
145802,-100,4,2,0,30,0,0
146084,-100,4,2,0,40,0,0
147214,-100,4,2,0,20,0,0
147779,-100,4,2,0,40,0,0
148344,-100,4,2,0,45,0,0
148768,-100,4,2,0,35,0,0
149192,-100,4,2,0,25,0,0
149757,-100,4,2,0,20,0,0
150605,-100,4,2,0,45,0,0
151170,-100,4,2,0,20,0,0
151735,-100,4,2,0,30,0,0
152017,-100,4,2,0,45,0,0
153148,-100,4,2,0,40,0,0
153713,-100,4,2,0,20,0,0
154278,-100,4,2,0,40,0,0
154843,-100,4,2,0,30,0,0
154984,-100,4,2,0,40,0,0
155125,-100,4,2,0,45,0,0
155408,-100,4,2,0,20,0,0
155690,-100,4,2,0,30,0,0
155973,-100,4,2,0,45,0,0
156538,-100,4,2,0,35,0,0
156679,-100,4,2,0,45,0,0
157103,-100,4,2,0,35,0,0
157386,-100,4,2,0,45,0,0
157668,-100,4,2,0,40,0,0
158516,-100,4,2,0,30,0,0
159646,-100,4,2,0,50,0,0
161904,282.552389922298,4,1,0,50,1,1
161904,-90.9090909090909,4,1,0,50,0,1
198071,555.555555555556,3,1,0,20,1,1
198487,-100,3,1,0,5,0,1
198626,-100,3,1,0,20,0,1
198904,-100,3,1,0,5,0,1
199089,-100,3,1,0,20,0,1
199182,-80,3,1,0,20,0,1
199552,-80,3,1,0,5,0,1
199645,-80,3,1,0,20,0,1
199737,576.923076923077,3,1,0,30,1,1
199737,-66.6666666666667,3,1,0,30,0,1
199953,-66.6666666666667,3,1,0,5,0,1
200025,-66.6666666666667,3,1,0,30,0,1
200241,-66.6666666666667,3,1,0,5,0,1
200313,821.917808219178,3,1,0,30,1,1
200313,-69.9300699300699,3,1,0,30,0,1
201032,-69.9300699300699,3,1,0,5,0,1
201134,857.142857142857,3,1,0,10,1,1
201134,-100,3,1,0,10,0,1
201991,705.882352941176,2,1,0,10,1,1
202343,-50,2,1,0,10,0,1
202520,-50,2,1,0,5,0,1
202638,-50,2,1,0,10,0,1
203226,-100,2,1,0,10,0,1
203402,749.999999999999,2,1,0,10,1,1
203651,-142.857142857143,5,1,0,20,0,1
203902,-142.857142857143,5,1,0,5,0,1
204902,-142.857142857143,5,1,0,5,0,0

[Colours]
Combo1 : 131,92,54
Combo2 : 36,72,72
Combo3 : 214,214,214
Combo4 : 210,105,0

[HitObjects]
251,316,864,6,0,P|309:314|363:317,1,100.000000298023,0|0,2:0|2:0,2:0:0:0:
90,194,1429,5,0,2:0:0:0:
21,366,1711,1,0,2:0:0:0:
300,229,1994,5,0,2:0:0:0:
177,163,2276,1,0,2:0:0:0:
165,16,2559,5,0,2:0:0:0:
107,104,2841,1,0,2:0:0:0:
333,191,3124,6,0,P|391:189|445:192,1,100.000000298023,0|0,2:0|2:0,2:0:0:0:
213,111,3689,5,0,2:0:0:0:
1,203,3971,1,0,2:0:0:0:
370,329,4254,5,0,2:0:0:0:
319,162,4537,1,0,2:0:0:0:
438,21,4819,5,0,2:0:0:0:
309,47,5102,1,0,2:0:0:0:
179,191,5384,6,0,P|121:189|67:192,1,100.190800298592,0|0,2:0|2:0,2:0:0:0:
162,20,5949,5,0,2:0:0:0:
231,192,6232,1,0,2:0:0:0:
441,157,6514,5,0,2:0:0:0:
318,223,6797,1,0,2:0:0:0:
306,370,7079,5,0,2:0:0:0:
248,282,7362,1,0,2:0:0:0:
485,333,7644,6,0,L|490:382,1,50.095400149296,0|0,2:0|2:0,2:0:0:0:
306,0,8210,5,0,2:0:0:0:
234,150,8492,1,0,2:0:0:0:
400,350,8775,5,0,2:0:0:0:
330,248,9057,1,0,2:0:0:0:
32,270,9340,5,0,2:0:0:0:
197,282,9622,1,0,2:0:0:0:
442,55,9905,6,0,B|450:135|450:135|482:153|482:153|490:235,1,200.000000596047,0|0,1:0|2:0,2:0:0:0:
484,339,10470,5,0,2:0:0:0:
387,376,10752,1,0,2:0:0:0:
470,353,11035,1,0,2:0:0:0:
387,376,11317,1,0,2:0:0:0:
484,364,11600,1,0,2:0:0:0:
387,376,11883,1,0,2:0:0:0:
256,22,12165,5,0,2:0:0:0:
362,128,12448,1,0,2:0:0:0:
151,128,12730,1,0,2:0:0:0:
362,128,13013,1,0,2:0:0:0:
256,233,13295,1,0,2:0:0:0:
362,128,13578,1,0,2:0:0:0:
256,128,13860,1,0,2:0:0:0:
362,128,14143,1,0,2:0:0:0:
70,55,14425,6,0,B|62:135|62:135|30:153|30:153|21:235,1,200.381600597184,0|0,1:0|2:0,1:0:0:0:
28,339,14990,1,0,2:0:0:0:
125,376,15273,1,0,2:0:0:0:
42,353,15556,1,0,2:0:0:0:
125,376,15838,1,0,2:0:0:0:
28,364,16121,1,0,2:0:0:0:
125,376,16403,1,0,2:0:0:0:
256,362,16686,5,0,2:0:0:0:
256,277,16968,1,0,2:0:0:0:
358,145,17251,1,0,2:0:0:0:
435,222,17533,1,0,2:0:0:0:
154,145,17816,1,0,2:0:0:0:
77,222,18098,1,0,2:0:0:0:
256,38,18381,1,0,2:0:0:0:
256,192,18663,1,0,2:0:0:0:
20,324,18946,6,0,B|100:332|100:332|118:364|118:364|220:374,1,200.381600597184,0|0,1:0|2:0,2:0:0:0:
187,277,19511,1,0,2:0:0:0:
98,2,19794,6,0,B|147:38|175:98|175:98|206:161|255:191,1,250.034584078495,0|0,2:0|2:0,2:0:0:0:
27,248,20641,2,0,B|24:287|55:315|55:315|82:281|76:241,1,150.020756169143,0|0,2:0|2:0,2:0:0:0:
166,218,21489,1,0,2:0:0:0:
235,31,21771,5,0,2:0:0:0:
408,1,22054,2,0,B|341:-58|243:49|360:87|302:168|254:192,1,300.041512338287,0|0,2:0|2:0,2:0:0:0:
349,135,22902,2,0,B|317:101|283:97|283:97|317:101|358:80,1,150.000000447035,0|0,2:0|2:0,2:0:0:0:
9,38,23467,6,0,B|89:46|89:46|107:78|107:78|190:87,1,200.000000596047,0|0,1:0|2:0,2:0:0:0:
189,86,24032,5,0,2:0:0:0:
360,70,24314,2,0,B|298:71|317:-7|372:-28|478:51|353:69|375:107|400:164|448:196|520:208,1,350.000004380942,0|0,2:0|2:0,2:0:0:0:
249,345,25162,2,0,P|337:373|430:364,1,187.500000558794,0|0,2:0|2:0,2:0:0:0:
448,272,25727,1,0,2:0:0:0:
448,272,26009,6,0,P|399:268|349:269,1,100.190800298592,0|0,2:0|2:0,2:0:0:0:
135,193,26575,2,0,P|172:199|208:210,1,75.0000030845407,0|0,2:0|2:0,2:0:0:0:
46,368,27140,6,0,P|67:353|89:342,1,50.0000001490117,0|0,2:0|2:0,2:0:0:0:
472,32,27987,6,0,B|392:40|392:40|374:72|374:72|272:82,1,200.381600597184,0|0,1:0|2:0,2:0:0:0:
47,53,28552,5,0,2:0:0:0:
236,165,28835,2,0,B|177:183|150:249|150:249|124:315|65:334,1,250.034584078495,0|0,2:0|2:0,2:0:0:0:
8,0,29682,2,0,L|80:99,1,112.714654627451,0|0,2:0|2:0,2:0:0:0:
256,152,30248,5,0,2:0:0:0:
74,90,30530,1,0,2:0:0:0:
1,297,30813,1,0,2:0:0:0:
1,297,31095,2,0,B|71:274|103:195|103:195|135:116|206:92,1,300.041512338287,0|0,2:0|2:0,2:0:0:0:
96,333,31943,2,0,B|190:301|190:301|155:262,1,150.000000447035,0|0,2:0|2:0,2:0:0:0:
471,381,32508,6,0,B|391:373|391:373|373:341|373:341|290:332,1,200.000000596047,0|0,1:0|2:0,2:0:0:0:
280,225,33073,5,0,2:0:0:0:
493,206,33355,2,0,B|480:114|370:93|370:93|267:140|281:249,1,350.048421047753,0|0,2:0|2:0,2:0:0:0:
0,368,34203,2,0,P|62:363|123:376,1,125.23850037324,0|0,2:0|2:0,2:0:0:0:
190,67,35051,6,0,B|238:85|238:85|227:109|201:112,1,100.000000298023,0|0,2:0|2:0,2:0:0:0:
65,184,35616,2,0,B|112:186|112:186|91:205,1,75.0000030845407,0|0,2:0|2:0,2:0:0:0:
3,343,36181,1,0,0:0:0:0:
256,192,36322,12,0,36887,0:0:0:0:
307,190,37029,6,0,P|259:206|210:212,1,100.000000298023,0|0,2:0|2:0,2:0:0:0:
379,84,37594,1,0,2:0:0:0:
427,222,37876,1,0,2:0:0:0:
244,169,38159,1,0,2:0:0:0:
230,290,38441,1,0,2:0:0:0:
85,188,38724,1,0,2:0:0:0:
47,249,39006,1,0,2:0:0:0:
384,7,39289,6,0,P|421:42|464:67,1,100.000000298023,0|0,2:0|2:0,2:0:0:0:
313,290,39854,1,0,2:0:0:0:
443,137,40136,1,0,2:0:0:0:
224,264,40419,1,0,2:0:0:0:
269,105,40702,1,0,2:0:0:0:
132,278,40984,1,0,2:0:0:0:
111,138,41267,1,0,2:0:0:0:
17,304,41549,6,0,P|54:343|88:409,1,100.190800298592,0|0,2:0|2:0,2:0:0:0:
364,311,42114,1,0,2:0:0:0:
150,178,42397,1,0,2:0:0:0:
377,92,42679,1,0,2:0:0:0:
242,186,42962,1,0,2:0:0:0:
417,1,43244,1,0,2:0:0:0:
483,73,43527,1,0,2:0:0:0:
315,147,43809,6,0,P|315:172|310:197,1,50.095400149296,0|0,2:0|2:0,2:0:0:0:
46,87,44375,2,0,P|75:129|93:175,1,100.000000298023,0|0,2:0|2:0,2:0:0:0:
33,363,44940,2,0,P|71:361|108:367,1,75.0000030845407,0|0,2:0|2:0,2:0:0:0:
175,131,45505,5,0,2:0:0:0:
106,247,45787,1,0,2:0:0:0:
282,138,46070,5,0,2:0:0:0:
69,120,46352,2,0,B|82:28|192:7|192:7|295:54|281:163,1,350.048421047753,0|0,2:0|2:0,2:0:0:0:
483,320,47200,1,0,2:0:0:0:
323,67,48047,6,0,B|274:85|274:85|284:113|325:114,1,100.190800298592,0|0,2:0|2:0,2:0:0:0:
447,184,48612,2,0,B|400:186|400:186|426:211,1,75.1431030849672,0|0,2:0|2:0,2:0:0:0:
509,343,49178,2,0,B|482:334|482:334|483:355,1,50.0000001490117,0|0,2:0|2:0,2:0:0:0:
499,337,50025,6,0,P|447:320|373:317,1,100.190800298592,0|0,2:0|2:0,2:0:0:0:
177,38,50590,1,0,2:0:0:0:
124,178,50873,1,0,2:0:0:0:
286,261,51155,1,0,2:0:0:0:
184,190,51438,1,0,2:0:0:0:
82,312,51720,1,0,2:0:0:0:
141,235,52003,1,0,2:0:0:0:
472,8,52285,6,0,P|433:45|367:79,1,100.190800298592,0|0,2:0|2:0,2:0:0:0:
146,0,52851,1,0,2:0:0:0:
229,182,53133,1,0,2:0:0:0:
460,107,53416,1,0,2:0:0:0:
297,136,53698,1,0,2:0:0:0:
316,348,53981,1,0,2:0:0:0:
299,219,54263,1,0,2:0:0:0:
7,376,54546,6,0,P|54:357|95:329,1,100.000000298023,0|0,2:0|2:0,2:0:0:0:
40,96,55111,1,0,2:0:0:0:
178,307,55393,1,0,2:0:0:0:
261,5,55676,1,0,2:0:0:0:
98,33,55958,1,0,2:0:0:0:
345,36,56241,1,0,2:0:0:0:
372,129,56524,1,0,2:0:0:0:
199,354,56806,6,0,P|221:364|246:369,1,50.095400149296,0|0,2:0|2:0,2:0:0:0:
180,153,57371,2,0,P|208:199|261:249,1,100.190800298592,0|0,2:0|2:0,2:0:0:0:
69,272,57936,2,0,P|65:309|68:346,1,75.1431030849672,0|0,2:0|2:0,2:0:0:0:
68,346,58501,5,0,2:0:0:0:
176,248,58782,1,0,2:0:0:0:
16,40,59064,5,0,2:0:0:0:
290,213,59346,2,0,B|277:305|167:326|167:326|64:279|78:170,1,350.564671049291,0|0,2:0|2:0,2:0:0:0:
350,367,60192,1,0,2:0:0:0:
319,14,61038,6,0,B|368:32|368:32|358:60|317:61,1,100.338666965699,0|0,2:0|2:0,2:0:0:0:
195,131,61602,2,0,B|242:133|242:133|216:158,1,75.2540030852976,0|0,2:0|2:0,2:0:0:0:
133,290,62166,2,0,B|160:281|160:281|159:325,1,50.1693334828497,0|0,2:0|2:0,2:0:0:0:
379,195,63012,6,0,L|278:198,1,90.171717522151,0|0,1:0|2:0,2:0:0:0:
387,203,63294,2,0,L|389:292,1,90.171717522151,0|0,2:0|2:0,2:0:0:0:
281,189,63577,2,0,L|330:99,1,90.171717522151,0|0,2:0|2:0,2:0:0:0:
397,301,63859,2,0,L|348:391,1,90.171717522151,0|0,2:0|2:0,2:0:0:0:
10,87,64142,6,0,L|133:69,1,90.171717522151,0|0,2:0|2:0,2:0:0:0:
99,74,64424,2,0,L|112:163,1,90.171717522151,0|0,2:0|2:0,2:0:0:0:
198,306,64707,2,0,L|97:231,1,90.171717522151,0|0,2:0|2:0,2:0:0:0:
126,253,64989,2,0,L|71:325,1,90.171717522151,0|0,2:0|1:0,2:0:0:0:
429,85,65272,5,0,1:0:0:0:
368,18,65413,1,0,2:0:0:0:
370,165,65554,2,0,L|345:252,1,90.171717522151,0|0,2:0|2:0,2:0:0:0:
84,252,65837,5,0,2:0:0:0:
92,260,66119,1,0,2:0:0:0:
31,327,66261,1,0,2:0:0:0:
97,170,66402,6,0,P|130:142|180:126,1,90.171717522151,0|0,2:0|2:0,2:0:0:0:
281,207,66685,2,0,P|248:235|198:251,1,90.171717522151,0|0,2:0|2:0,2:0:0:0:
222,30,66967,2,0,P|204:69|204:122,1,90.171717522151,0|0,2:0|2:0,2:0:0:0:
202,115,67250,1,0,2:0:0:0:
139,57,67391,1,0,2:0:0:0:
397,35,67532,5,0,1:0:0:0:
389,43,67673,1,0,2:0:0:0:
322,152,67815,1,0,1:0:0:0:
330,160,67956,5,0,2:0:0:0:
413,67,68097,1,0,2:0:0:0:
421,59,68238,1,0,2:0:0:0:
298,253,68380,2,0,P|295:307|310:355,1,90.171717522151,0|0,2:0|2:0,2:0:0:0:
66,151,68662,2,0,P|80:100|111:61,1,90.171717522151,0|0,2:0|2:0,2:0:0:0:
218,150,68945,2,0,P|183:191|138:214,1,90.171717522151,0|0,2:0|2:0,2:0:0:0:
109,63,69227,2,0,P|191:26|281:23,1,180.343435044302,0|0,2:0|2:0,2:0:0:0:
281,23,69651,1,0,1:0:0:0:
220,153,69792,5,0,1:0:0:0:
216,167,70358,5,0,2:0:0:0:
48,289,70499,2,0,P|16:291|-25:287,1,44.9999987608196,0|0,2:0|2:0,2:0:0:0:
40,307,70640,2,0,P|11:322|-27:336,1,45.4043987620248,0|0,2:0|2:0,2:0:0:0:
41,317,70781,2,0,P|21:342|-7:371,1,45.4043987620248,0|0,2:0|2:0,2:0:0:0:
68,207,70923,6,0,L|70:112,1,90.171717522151,0|0,2:0|2:0,2:0:0:0:
156,238,71205,2,0,L|157:328,1,90.171717522151,0|0,2:0|2:0,2:0:0:0:
78,126,71488,2,0,L|119:40,1,90.171717522151,0|0,2:0|2:0,2:0:0:0:
294,158,71770,2,0,L|252:243,1,90.171717522151,0|0,2:0|2:0,2:0:0:0:
451,32,72053,5,0,1:0:0:0:
459,40,72335,2,0,P|452:119|442:155,1,90.171717522151,0|0,2:0|2:0,2:0:0:0:
176,376,72618,6,0,P|255:369|291:359,1,90.171717522151,0|0,2:0|2:0,2:0:0:0:
415,294,72900,2,0,P|336:301|300:311,1,90.171717522151,0|0,2:0|2:0,2:0:0:0:
196,148,73183,2,0,P|203:227|213:263,1,90.171717522151,0|0,2:0|2:0,2:0:0:0:
385,36,73465,5,0,2:0:0:0:
457,96,73607,1,0,2:0:0:0:
409,178,73748,1,0,2:0:0:0:
417,186,74172,1,0,1:0:0:0:
208,288,74313,5,0,1:0:0:0:
295,252,74454,1,0,2:0:0:0:
340,336,74596,1,0,2:0:0:0:
121,324,74878,2,0,P|128:275|114:214,1,90.171717522151,0|0,2:0|2:0,2:0:0:0:
75,160,75161,1,0,2:0:0:0:
34,239,75302,1,0,2:0:0:0:
409,178,75443,6,0,L|383:92,1,90.171717522151,0|0,2:0|2:0,2:0:0:0:
255,47,75726,2,0,L|228:133,1,90.171717522151,0|0,2:0|2:0,2:0:0:0:
263,39,76008,2,0,L|350:9,1,90.171717522151,0|0,2:0|2:0,2:0:0:0:
401,186,76291,2,0,L|314:216,1,90.171717522151,0|0,2:0|2:0,2:0:0:0:
454,11,76573,5,0,1:0:0:0:
446,19,76715,2,0,P|468:18|490:18,1,44.9999987608196,0|0,2:2|2:2,2:0:0:0:
452,76,76856,2,0,P|471:65|491:56,1,45.4043987620248,0|0,1:0|1:0,2:0:0:0:
482,121,76997,2,0,P|495:103|509:86,1,45.4043987620248,0|0,1:0|1:0,1:0:0:0:
326,126,77138,6,0,L|332:35,1,90.171717522151,0|0,2:0|2:0,2:0:0:0:
316,216,77421,2,0,L|234:253,1,90.171717522151,0|0,2:0|2:0,2:0:0:0:
399,180,77704,2,0,L|472:230,1,90.171717522151,0|0,2:0|2:0,2:0:0:0:
233,253,77986,5,0,2:0:0:0:
306,306,78127,1,0,2:0:0:0:
346,173,78269,1,0,2:0:0:0:
476,48,78692,1,0,1:1:0:0:
259,29,78834,5,0,1:1:0:0:
259,29,79399,1,0,2:0:0:0:
463,288,79540,2,0,P|486:290|508:290,1,45.4043987620248,0|0,2:0|2:0,2:0:0:0:
471,306,79681,2,0,P|491:317|512:326,1,45.4043987620248,0|0,2:0|2:0,2:0:0:0:
470,316,79823,2,0,P|484:334|499:351,1,44.9999987608196,0|0,2:0|2:0,2:0:0:0:
382,171,79964,6,0,L|380:76,1,90.171717522151,0|0,2:0|2:0,2:0:0:0:
389,178,80246,2,0,L|484:180,1,90.171717522151,0|0,2:0|2:0,2:0:0:0:
325,238,80529,6,0,L|262:303,1,89.9999975216392,0|0,2:0|2:0,2:0:0:0:
266,378,80811,1,0,0:0:0:0:
96,339,80953,1,0,0:0:0:0:
96,339,81094,5,0,1:0:0:0:
85,338,81235,1,0,1:0:0:0:
168,203,81376,1,0,1:0:0:0:
168,214,81517,1,0,1:0:0:0:
7,205,81659,1,0,1:0:0:0:
19,205,81800,1,0,1:0:0:0:
108,2,81941,1,0,1:0:0:0:
446,335,82224,5,0,1:0:0:0:
455,328,82365,1,0,1:0:0:0:
413,191,82506,1,0,1:0:0:0:
421,199,82648,1,0,1:0:0:0:
326,294,82789,1,0,1:0:0:0:
318,303,82930,1,0,1:0:0:0:
228,92,83071,1,0,1:0:0:0:
401,274,83354,5,0,1:0:0:0:
329,224,83495,1,0,1:0:0:0:
432,192,83636,1,0,1:0:0:0:
440,200,83778,2,0,L|494:184,1,50.0000001490117,0|0,1:0|1:0,1:0:0:0:
421,105,83919,2,0,L|469:113,1,50.4516668170244,0|0,1:0|1:0,1:0:0:0:
445,11,84060,2,0,L|491:43,1,50.4516668170244,0|0,1:0|1:0,1:0:0:0:
351,37,84202,1,0,1:0:0:0:
57,289,84484,5,0,1:0:0:0:
156,304,84625,1,0,1:0:0:0:
26,83,84767,1,0,1:0:0:0:
34,91,84908,2,0,L|9:47,1,50.4516668170244,0|0,1:0|1:0,1:0:0:0:
101,61,85049,2,0,L|97:11,1,50.4516668170244,0|0,1:0|1:0,1:0:0:0:
175,64,85191,2,0,L|193:17,1,50.0000001490117,0|0,1:0|1:0,1:0:0:0:
120,210,85332,1,0,1:0:0:0:
227,116,85473,1,0,1:0:0:0:
235,124,85614,5,0,1:0:0:0:
259,17,85756,2,0,P|254:68|237:115,1,100.000000298023,0|0,1:0|1:0,1:0:0:0:
193,189,86038,1,0,1:0:0:0:
381,93,86179,1,0,1:0:0:0:
389,101,86391,5,0,1:0:0:0:
473,42,86462,5,0,1:0:0:0:
251,137,86745,5,0,1:0:0:0:
259,145,86886,1,0,1:0:0:0:
97,15,87027,1,0,1:0:0:0:
166,68,87168,1,0,1:0:0:0:
174,76,87310,5,0,1:0:0:0:
110,137,87451,1,0,1:0:0:0:
238,15,87592,1,0,1:0:0:0:
181,137,87733,1,0,1:0:0:0:
30,129,87875,5,0,1:0:0:0:
107,302,88016,1,0,1:0:0:0:
159,302,88157,1,0,1:0:0:0:
38,137,88299,5,0,1:0:0:0:
115,310,88440,1,0,1:0:0:0:
63,310,88581,1,0,1:0:0:0:
256,192,88722,5,0,1:0:0:0:
269,295,88864,1,0,1:0:0:0:
311,318,89005,1,0,1:0:0:0:
264,200,89146,5,0,1:0:0:0:
20,119,89288,1,0,1:0:0:0:
20,67,89429,1,0,1:0:0:0:
271,200,89570,5,0,1:0:0:0:
279,208,89711,2,0,L|330:204,1,50.4516668170244,0|0,1:0|1:0,1:0:0:0:
186,295,89853,5,0,1:0:0:0:
169,308,89923,1,0,1:0:0:0:
152,321,89994,1,0,1:0:0:0:
137,283,90065,1,0,1:0:0:0:
120,243,90135,1,0,1:0:0:0:
341,31,90418,5,0,1:0:0:0:
311,120,90559,1,0,1:0:0:0:
472,24,90700,2,0,P|411:16|349:23,1,125.244375373257,0|0,1:0|1:0,1:0:0:0:
224,201,90983,1,0,1:0:0:0:
319,128,91124,1,0,1:0:0:0:
398,260,91265,2,0,P|386:198|390:136,1,125.244375373257,0|0,1:0|1:0,1:0:0:0:
406,268,91548,5,0,1:0:0:0:
332,244,91689,1,0,1:0:0:0:
375,362,91830,1,0,1:0:0:0:
430,194,91972,1,0,1:0:0:0:
480,292,92113,1,0,1:0:0:0:
419,81,92254,1,0,1:0:0:0:
411,88,92396,2,0,P|372:136|319:168,1,125.244375373257,0|0,1:0|1:0,1:0:0:0:
25,157,92678,6,0,P|112:124|204:112,1,188.308958894538,0|0,1:0|1:0,1:0:0:0:
220,295,92961,2,0,P|147:235|90:160,1,188.308958894538,0|0,1:0|1:0,1:0:0:0:
244,56,93243,2,0,P|228:148|192:235,1,188.308958894538,0|0,1:0|1:0,1:0:0:0:
19,286,93526,5,0,1:0:0:0:
114,295,93667,1,0,1:0:0:0:
58,372,93808,1,0,1:0:0:0:
106,377,93950,1,0,1:0:0:0:
163,169,94091,5,0,2:0:0:0:
165,145,94162,1,0,0:0:0:0:
167,121,94232,1,0,0:0:0:0:
169,97,94303,1,0,0:0:0:0:
193,99,94373,1,0,0:0:0:0:
217,101,94444,1,0,0:0:0:0:
219,77,94515,1,0,0:0:0:0:
25,102,94656,6,0,B|88:61|88:61|108:33|108:33|174:-8,1,188.308958894538,0|0,1:0|1:0,1:0:0:0:
183,0,94939,1,0,1:0:0:0:
354,212,95080,1,0,1:0:0:0:
362,220,95221,2,0,B|394:161|377:102|377:102|339:156,1,188.308958894538,0|0,1:0|1:0,1:0:0:0:
380,308,95504,2,0,B|413:365|473:380|473:380|445:320,1,188.308958894538,0|0,1:0|1:0,1:0:0:0:
294,279,95786,2,0,B|227:279|184:323|184:323|250:329,1,188.308958894538,0|0,1:0|1:0,1:0:0:0:
345,269,96069,1,0,1:0:0:0:
329,317,96210,1,0,1:0:0:0:
352,101,96351,6,0,B|399:129|429:181|429:181|462:235|508:258,1,224.437923403253,0|0,1:0|1:0,1:0:0:0:
418,287,96775,1,0,1:0:0:0:
426,295,96916,5,0,1:0:0:0:
323,190,97058,1,0,1:0:0:0:
331,198,97199,5,0,1:0:0:0:
288,32,97340,1,0,1:0:0:0:
128,193,97482,5,0,1:0:0:0:
136,201,97623,1,0,1:0:0:0:
296,40,97764,5,0,1:0:0:0:
131,108,97905,1,0,1:0:0:0:
60,92,98047,1,0,1:0:0:0:
288,48,98188,5,0,1:0:0:0:
128,23,98329,1,0,1:0:0:0:
60,66,98470,1,0,1:0:0:0:
256,192,98612,1,0,1:0:0:0:
264,200,98753,5,0,1:0:0:0:
266,227,98824,1,0,1:0:0:0:
268,253,98894,1,0,1:0:0:0:
313,241,98965,1,0,1:0:0:0:
362,249,99036,1,0,1:0:0:0:
411,241,99106,1,0,1:0:0:0:
403,282,99177,6,0,P|329:282|256:289,1,147.034299092371,0|0,2:0|2:0,2:0:0:0:
419,200,99529,2,0,P|456:196|499:198,1,75.0000030845407,0|0,2:0|2:0,2:0:0:0:
117,249,99894,2,0,P|163:264|189:306,1,100.026666964769,0|0,3:0|2:0,2:0:0:0:
480,61,100220,2,0,B|399:51|399:51|374:29|374:29|289:21,1,200.000000596047,0|0,2:0|2:0,2:0:0:0:
22,374,100595,2,0,L|71:370,1,50.0000001490117,0|0,3:0|2:0,2:0:0:0:
71,18,100960,6,0,P|33:48|-1:145,1,150.000006169081,0|0,2:0|2:0,3:0:0:0:
201,232,101242,1,0,2:0:0:0:
209,224,101296,2,0,B|238:169|238:169|273:217|265:270|244:251|237:305|262:350,1,250.000000745059,0|0,3:0|2:0,2:0:0:0:
269,356,101567,1,0,2:0:0:0:
320,172,101775,1,0,2:0:0:0:
353,234,101879,6,0,B|411:268|499:235|445:174|562:254|508:341|450:350|406:347,1,300.00000089407,0|0,3:0|2:0,2:0:0:0:
422,355,102122,1,0,3:0:0:0:
346,225,102693,1,0,2:0:0:0:
370,264,102809,6,0,B|399:281|443:264|416:234|474:274|447:317|418:322|396:320,1,150.360000448108,0|0,3:0|2:0,2:0:0:0:
407,328,103041,1,0,3:0:0:0:
108,60,103707,5,0,1:0:0:0:
256,192,103848,12,0,104554,2:0:0:0:
251,176,104695,5,0,2:0:0:0:
132,159,104837,2,0,B|219:92|333:146|258:232|407:240|499:219,1,400.074167858982,0|0,2:0|2:0,2:0:0:0:
91,371,105684,2,0,P|54:373|17:368,1,75.1466280849777,0|0,2:0|2:0,2:0:0:0:
99,379,105967,2,0,B|182:386|182:386|195:379|195:379|245:383,1,150.293250447909,0|0,2:0|2:0,2:0:0:0:
158,206,106532,6,0,L|168:271,1,66.7970001990707,0|0,2:0|2:0,2:0:0:0:
293,315,106909,1,0,2:0:0:0:
299,321,107097,5,0,2:0:0:0:
253,243,107285,1,0,2:0:0:0:
316,181,107474,1,0,2:0:0:0:
362,259,107662,5,0,2:0:0:0:
138,348,107945,1,0,2:0:0:0:
404,60,108227,5,0,1:0:0:0:
256,192,108368,12,0,109075,2:0:0:0:
257,205,109216,5,0,2:0:0:0:
148,255,109357,2,0,B|251:284|375:210|247:178|403:121|512:158,1,400.074167858982,0|0,2:0|2:0,2:0:0:0:
110,35,110205,2,0,P|66:30|23:35,1,87.6710635957454,0|0,2:0|2:0,2:0:0:0:
322,31,110487,5,0,2:0:0:0:
166,130,110676,1,0,2:0:0:0:
243,265,110864,1,0,2:0:0:0:
249,271,111053,5,0,2:0:0:0:
135,384,111241,1,0,2:0:0:0:
52,242,111429,1,0,2:0:0:0:
446,300,111618,5,0,2:0:0:0:
157,199,111900,1,0,2:0:0:0:
80,36,112183,1,0,2:0:0:0:
93,313,112465,1,0,2:0:0:0:
101,321,112748,5,0,1:0:0:0:
256,192,112889,12,0,113595,2:0:0:0:
352,148,113737,5,0,2:0:0:0:
473,196,113878,2,0,B|385:145|243:182|347:253|224:292|106:267,1,400.000001192094,0|0,2:0|2:0,2:0:0:0:
420,370,114726,2,0,P|457:374|494:374,1,75.0000030845407,0|0,2:0|2:0,2:0:0:0:
413,379,115008,2,0,B|329:386|329:386|316:379|316:379|266:383,1,150.000006169081,0|0,2:0|2:0,2:0:0:0:
354,206,115573,6,0,L|343:271,1,66.7970001990707,0|0,2:0|2:0,2:0:0:0:
211,311,115950,1,0,2:0:0:0:
217,317,116138,1,0,2:0:0:0:
263,239,116327,1,0,2:0:0:0:
200,177,116515,1,0,2:0:0:0:
154,255,116703,5,0,2:0:0:0:
374,348,116986,1,0,2:0:0:0:
108,60,117268,5,0,1:0:0:0:
256,192,117410,12,0,118116,2:0:0:0:
249,234,118257,5,0,2:0:0:0:
375,270,118399,2,0,B|274:302|148:251|225:191|104:142|9:173,1,400.251126192842,0|0,2:0|2:0,2:0:0:0:
361,127,119246,2,0,P|398:125|435:130,1,75.0000030845407,0|0,2:0|2:0,2:0:0:0:
190,353,119529,5,0,2:0:0:0:
346,254,119717,1,0,2:0:0:0:
263,113,119905,1,0,2:0:0:0:
377,0,120094,5,0,2:0:0:0:
460,142,120282,1,0,2:0:0:0:
460,366,120470,1,0,2:0:0:0:
0,306,120659,5,0,2:0:0:0:
70,342,120800,1,0,2:0:0:0:
34,175,120941,5,0,3:0:0:0:
50,253,121083,1,0,2:0:0:0:
178,112,121224,5,0,2:0:0:0:
126,134,121365,1,0,2:0:0:0:
2,0,121506,1,0,3:0:0:0:
10,8,121789,6,0,P|60:2|110:4,1,100.000000298023,0|0,2:0|2:0,2:0:0:0:
256,192,122354,6,0,P|210:188|164:196,1,94.1544794472691,0|0,2:0|2:0,2:0:0:0:
163,196,122637,1,0,2:0:0:0:
256,192,122919,2,0,P|275:234|305:270,1,94.1544794472691,0|0,2:0|2:0,2:0:0:0:
305,270,123202,1,0,2:0:0:0:
256,192,123484,2,0,P|283:154|298:110,1,94.1544794472691,0|0,2:0|2:0,2:0:0:0:
298,110,123767,1,0,2:0:0:0:
87,271,124049,6,0,P|149:267|211:272,1,125.244375373257,0|0,2:0|2:0,2:0:0:0:
370,132,124614,6,0,P|364:67|375:2,1,131.816272477874,0|0,2:0|2:0,2:0:0:0:
375,2,124897,1,0,2:0:0:0:
370,132,125179,2,0,P|428:158|479:200,1,131.816272477874,0|0,2:0|2:0,2:0:0:0:
479,201,125462,1,0,2:0:0:0:
370,132,125745,2,0,P|316:169|255:190,1,131.250001642853,0|0,2:0|2:0,2:0:0:0:
254,190,126027,1,0,2:0:0:0:
9,376,126310,6,0,P|71:372|133:377,1,125.000000372529,0|0,2:0|2:0,2:0:0:0:
113,116,126875,6,0,P|159:120|205:112,1,94.1544794472691,0|0,2:0|2:0,2:0:0:0:
205,111,127157,1,0,2:0:0:0:
113,116,127440,2,0,P|94:74|64:38,1,94.1544794472691,0|0,2:0|2:0,2:0:0:0:
63,37,127722,1,0,2:0:0:0:
113,116,128005,2,0,P|86:154|71:198,1,94.1544794472691,0|0,2:0|2:0,2:0:0:0:
70,198,128287,1,0,2:0:0:0:
8,376,128570,6,0,P|46:373|83:375,1,75.0000030845407,0|0,2:0|2:0,2:0:0:0:
373,277,129135,6,0,P|377:314|370:350,1,56.4926898141287,0|0,2:0|2:0,2:0:0:0:
374,333,129418,1,0,2:0:0:0:
373,277,129700,2,0,P|339:262|311:238,1,56.4926898141287,0|0,2:0|2:0,2:0:0:0:
323,250,129983,1,0,2:0:0:0:
8,376,130265,6,0,P|70:368|131:371,1,125.000000372529,0|0,2:0|2:0,2:0:0:0:
1,121,130829,1,0,2:0:0:0:
58,33,131111,2,0,B|114:112|68:197|68:197|9:117|58:33,1,350.000004380942
229,272,131957,6,0,L|328:281,1,93.750000279397,0|0,2:0|2:0,2:0:0:0:
237,280,132239,1,0,0:0:0:0:
203,66,132521,5,0,0:0:0:0:
211,74,132803,2,0,B|212:-1,1,75.0000002235176,0|0,2:0|2:0,2:0:0:0:
280,132,133085,1,0,0:0:0:0:
288,140,133367,6,0,B|318:152|318:152|341:152,1,56.2500023134055,0|0,2:0|2:0,2:0:0:0:
184,165,133649,1,0,0:0:0:0:
192,173,133931,6,0,B|171:188|171:188|165:199,1,37.5000001117588,0|0,2:0|2:0,2:0:0:0:
184,165,134213,1,0,0:0:0:0:
70,313,134495,1,0,0:0:0:0:
488,201,134777,5,0,0:0:0:0:
224,368,143822,5,0,1:0:0:0:
224,368,144104,1,0,1:0:0:0:
64,288,144669,1,0,1:0:0:0:
36,192,145800,5,0,1:0:0:0:
36,192,145941,1,0,1:0:0:0:
256,296,146082,1,0,1:0:0:0:
24,88,146365,1,0,1:0:0:0:
256,192,147212,5,0,0:0:0:0:
250,200,147283,1,0,0:0:0:0:
245,209,147354,1,0,0:0:0:0:
239,217,147424,1,0,0:0:0:0:
234,226,147495,1,0,0:0:0:0:
488,88,147777,1,0,1:0:0:0:
56,356,148342,5,0,1:0:0:0:
234,302,148766,1,0,1:0:0:0:
432,88,149190,1,0,0:0:0:0:
432,88,149755,5,0,0:0:0:0:
426,96,149826,1,0,0:0:0:0:
421,105,149896,1,0,0:0:0:0:
415,113,149967,1,0,0:0:0:0:
410,122,150038,1,0,0:0:0:0:
63,47,150603,5,0,1:0:0:0:
424,80,151168,1,0,0:0:0:0:
418,88,151238,1,0,0:0:0:0:
413,97,151309,1,0,0:0:0:0:
407,105,151380,1,0,0:0:0:0:
402,114,151450,1,0,0:0:0:0:
55,39,151733,5,0,1:0:0:0:
440,96,152015,1,0,1:0:0:0:
429,113,152086,1,0,1:0:0:0:
418,130,152157,1,0,1:0:0:0:
407,147,152227,1,0,1:0:0:0:
396,164,152298,1,0,1:0:0:0:
1,180,152863,5,0,1:0:0:0:
338,4,153146,1,0,1:0:0:0:
338,4,153711,1,0,0:0:0:0:
459,336,154276,1,0,1:0:0:0:
78,323,154841,1,0,1:0:0:0:
78,323,154982,1,0,1:0:0:0:
268,313,155123,5,0,1:0:0:0:
432,88,155406,1,0,0:0:0:0:
421,105,155477,1,0,0:0:0:0:
410,122,155547,1,0,0:0:0:0:
399,139,155618,1,0,0:0:0:0:
388,156,155688,1,0,0:0:0:0:
53,82,155971,5,0,1:0:0:0:
53,82,156536,1,0,1:0:0:0:
254,19,156677,1,0,1:0:0:0:
254,19,157101,1,0,1:0:0:0:
459,82,157384,1,0,1:0:0:0:
256,276,157666,1,0,0:0:0:0:
136,43,157949,5,0,0:0:0:0:
452,40,158231,1,0,0:0:0:0:
347,160,158514,1,0,0:0:0:0:
423,176,158796,1,0,0:0:0:0:
208,128,159079,1,0,0:0:0:0:
192,204,159361,1,0,0:0:0:0:
46,342,159644,5,0,1:0:0:0:
62,333,159715,1,0,1:0:0:0:
78,342,159785,1,0,1:0:0:0:
94,333,159856,1,0,1:0:0:0:
110,342,159927,1,0,1:0:0:0:
126,333,159997,1,0,1:0:0:0:
142,342,160068,1,0,1:0:0:0:
158,333,160138,1,0,1:0:0:0:
174,342,160209,1,0,1:0:0:0:
190,333,160280,1,0,1:0:0:0:
206,342,160350,1,0,1:0:0:0:
222,333,160421,1,0,1:0:0:0:
238,342,160492,5,0,1:0:0:0:
244,315,160562,1,0,1:3:0:0:
271,307,160633,1,0,1:3:0:0:
278,280,160704,1,0,1:3:0:0:
305,273,160774,1,0,1:3:0:0:
313,247,160845,1,0,1:3:0:0:
338,240,160915,1,0,1:3:0:0:
346,213,160986,1,0,1:3:0:0:
373,205,161057,1,0,1:3:0:0:
380,178,161127,1,0,1:3:0:0:
407,170,161198,1,0,1:3:0:0:
415,145,161269,1,0,1:3:0:0:
496,120,161339,1,0,1:3:0:0:
25,158,198071,6,0,L|179:152,1,150.000000447035
174,152,198626,2,0,L|145:258,1,100.000000298023
438,22,199089,1,0,0:0:0:0:
444,43,199182,2,0,L|292:120,1,166.666667163372
245,185,199645,1,0,0:0:0:0:
296,119,199737,6,0,L|276:8,1,112.500004626811
366,163,200025,2,0,L|384:274,1,112.500004626811
295,292,200313,6,0,P|369:203|473:256,1,250.250004182465
402,384,201134,6,0,L|418:370,7,16.6666667163373
468,327,201705,1,0,0:0:0:0:
256,359,201991,6,0,L|281:380,2,33.3333334326745
48,192,202343,2,0,P|43:241|56:289,1,100.000000298023
238,25,202638,1,0,0:0:0:0:
256,40,202696,6,0,L|223:68,5,33.3333334326745
274,25,203049,1,0,0:0:0:0:
256,299,203226,2,0,L|256:254,1,33.3333334326745
229,192,203402,5,0,0:0:0:0:
237,200,203464,1,0,0:0:0:0:
283,192,203527,1,0,0:0:0:0:
275,200,203589,1,0,0:0:0:0:
256,192,203652,6,0,P|274:190|310:190,1,46.6666653815907
