osu file format v14

[General]
AudioFilename: Nightcore - Castles in the Sky.mp3
AudioLeadIn: 0
PreviewTime: 50292
Countdown: 0
SampleSet: Soft
StackLeniency: 0.7
Mode: 0
LetterboxInBreaks: 0
WidescreenStoryboard: 1

[Editor]
DistanceSpacing: 1.5
BeatDivisor: 4
GridSize: 4
TimelineZoom: 2.899999

[Metadata]
Title:Castle in the Sky
TitleUnicode:Castle in the Sky
Artist:DJ Satomi
ArtistUnicode:DJ Satomi
Creator:K1ll3rbyt3
Version:Insane
Source:
Tags:nightcore castle in the sky
BeatmapID:855064
BeatmapSetID:381934

[Difficulty]
HPDrainRate:6
CircleSize:3.4
OverallDifficulty:7
ApproachRate:9
SliderMultiplier:1.3
SliderTickRate:1

[Events]
//Background and Video events
0,0,"maxresdefault.jpg",0,0
//Break Periods
2,38557,49078
2,74028,86058
2,111008,120728
//Storyboard Layer 0 (Background)
//Storyboard Layer 1 (Fail)
//Storyboard Layer 2 (Pass)
//Storyboard Layer 3 (Foreground)
//Storyboard Sound Samples

[TimingPoints]
0,-100,4,2,0,100,0,0
576,377.351030059112,4,2,0,100,1,0
14056,-76.9230769230769,4,2,0,100,0,0
26131,-100,4,2,0,100,0,0
26980,-76.9230769230769,4,2,0,100,0,0
27688,-100,4,2,0,100,0,0
28410,-76.9230769230769,4,2,0,100,0,0
85969,-80,4,2,0,100,0,0
92479,-80,4,2,0,100,0,0
98552,-76.9230769230769,4,2,0,100,0,0
101488,-100,4,2,0,100,0,0

[Colours]
Combo1 : 0,240,255
Combo2 : 204,0,0
Combo3 : 0,240,255
Combo4 : 204,0,0

[HitObjects]
144,148,622,5,0,0:0:0:0:
232,148,810,1,0,0:0:0:0:
320,140,999,2,0,L|380:88,2,65
288,192,1754,5,0,0:0:0:0:
208,212,1942,1,0,0:0:0:0:
124,212,2131,2,0,P|80:176|96:140,1,97.5
216,96,2651,1,0,0:0:0:0:
352,96,2886,6,0,L|416:52,2,65
276,180,3452,1,0,0:0:0:0:
196,228,3641,1,0,0:0:0:0:
196,228,3735,1,0,0:0:0:0:
196,228,3829,1,0,0:0:0:0:
116,204,4019,2,0,P|96:160|108:128,1,65
196,92,4395,1,0,0:0:0:0:
296,104,4584,5,0,0:0:0:0:
296,188,4773,2,0,P|300:244|332:292,1,113.75
412,264,5339,1,0,0:0:0:0:
424,152,5527,1,0,0:0:0:0:
332,72,5716,2,0,P|256:80|232:96,1,97.5
152,108,6188,5,0,0:0:0:0:
120,244,6376,1,0,0:0:0:0:
264,208,6565,1,0,0:0:0:0:
156,112,6754,1,0,0:0:0:0:
264,208,6942,1,0,0:0:0:0:
156,112,7131,1,0,0:0:0:0:
236,105,7414,6,0,P|280:124|296:188,1,97.5
400,220,7980,1,0,0:0:0:0:
348,324,8169,1,0,0:0:0:0:
268,232,8357,1,0,0:0:0:0:
400,220,8546,1,0,0:0:0:0:
348,324,8735,1,0,0:0:0:0:
348,324,8924,6,0,L|328:248,1,65
316,152,9301,1,0,0:0:0:0:
268,72,9490,2,0,P|180:100|168:120,1,113.75
140,184,9961,1,0,0:0:0:0:
192,276,10150,1,0,0:0:0:0:
304,248,10339,1,0,0:0:0:0:
336,152,10527,1,0,0:0:0:0:
392,140,10717,6,0,P|432:180|436:212,1,81.25
416,276,11093,1,0,0:0:0:0:
416,276,11188,1,0,0:0:0:0:
416,276,11282,1,0,0:0:0:0:
316,292,11471,1,0,0:0:0:0:
220,292,11659,1,0,0:0:0:0:
128,272,11848,2,0,P|104:192|120:172,1,97.5
208,120,12320,1,0,0:0:0:0:
336,88,12508,5,0,0:0:0:0:
368,208,12697,1,0,0:0:0:0:
228,236,12886,1,0,0:0:0:0:
296,336,13074,1,0,0:0:0:0:
296,336,13264,2,0,L|220:336,1,65
144,96,13640,5,0,0:0:0:0:
252,112,13829,1,0,0:0:0:0:
264,216,14018,1,0,0:0:0:0:
372,216,14207,2,0,P|412:196|388:112,2,147.87499323082
176,240,15338,5,0,0:0:0:0:
136,108,15527,1,0,0:0:0:0:
268,72,15716,1,0,0:0:0:0:
296,188,15904,1,0,0:0:0:0:
136,108,16093,1,0,0:0:0:0:
212,152,16283,6,0,L|320:220,1,126.749994197846
380,260,16802,1,0,0:0:0:0:
356,272,16896,1,0,0:0:0:0:
332,284,16990,1,0,0:0:0:0:
232,272,17179,1,0,0:0:0:0:
196,184,17320,2,0,P|200:128|216:108,1,75
320,80,17697,5,0,0:0:0:0:
372,156,17886,6,0,P|412:212|408:228,1,84.4999961318971
376,284,18311,2,0,P|324:260|308:212,1,105.624995164871
360,168,18736,2,0,P|400:184|424:224,1,84.4999961318971
384,288,19207,1,0,0:0:0:0:
360,296,19301,1,0,0:0:0:0:
336,304,19396,5,0,0:0:0:0:
312,312,19490,1,0,0:0:0:0:
288,320,19585,1,0,0:0:0:0:
208,304,19868,2,0,P|148:264|148:220,1,105.624995164871
176,152,20292,1,0,0:0:0:0:
276,112,20527,1,0,0:0:0:0:
360,128,20716,2,0,P|368:172|368:204,1,75
336,280,21093,1,0,0:0:0:0:
224,280,21282,6,0,P|176:256|164:236,1,75
144,148,21659,1,0,0:0:0:0:
260,96,21848,1,0,0:0:0:0:
252,208,22036,1,0,0:0:0:0:
144,148,22225,1,0,0:0:0:0:
260,96,22414,1,0,0:0:0:0:
108,60,22698,6,0,P|112:120|144:164,1,105.624995164871
192,220,23217,1,0,0:0:0:0:
256,272,23358,2,0,P|312:232|288:176,1,137.5
180,104,24018,6,0,P|132:140|120:200,1,105.624995164871
168,256,24489,1,0,0:0:0:0:
260,244,24773,1,0,0:0:0:0:
260,244,24867,1,0,0:0:0:0:
260,244,24961,2,0,L|308:180,1,75
368,116,25338,1,0,0:0:0:0:
256,192,25433,12,0,26093,0:0:0:0:
472,308,26282,6,0,L|336:308,1,130
284,308,26943,1,0,0:0:0:0:
208,312,27131,6,0,L|164:244,1,75
128,176,27462,2,0,L|88:84,1,84.4999961318971
76,76,27791,6,0,L|204:76,1,113.75
256,72,28357,1,0,0:0:0:0:
308,88,28546,2,0,L|384:116,1,75
432,144,28877,2,0,P|424:196|372:204,1,105.624995164871
400,68,29301,6,0,L|308:148,1,105.624995164871
112,296,29773,2,0,L|192:224,1,105.624995164871
244,192,30244,1,0,0:0:0:0:
244,192,30338,1,0,0:0:0:0:
244,192,30432,1,0,0:0:0:0:
244,192,30527,6,0,P|284:144|352:108,1,137.5
420,152,30999,1,0,0:0:0:0:
400,232,31187,2,0,P|364:290|295:334,1,147.87499323082
128,316,32319,6,0,P|84:212|84:184,1,126.749994197846
112,96,32839,1,0,0:0:0:0:
192,160,33028,1,0,0:0:0:0:
292,128,33217,1,0,0:0:0:0:
312,40,33405,1,0,0:0:0:0:
188,84,33546,1,0,0:0:0:0:
188,84,33641,1,0,0:0:0:0:
188,84,33735,1,0,0:0:0:0:
188,84,33829,6,0,L|244:136,1,75
324,196,34207,1,0,0:0:0:0:
144,72,35338,5,0,0:0:0:0:
368,72,35621,1,0,0:0:0:0:
368,296,35904,1,0,0:0:0:0:
144,296,36093,1,0,0:0:0:0:
144,72,36376,1,0,0:0:0:0:
368,72,36659,1,0,0:0:0:0:
256,192,36753,12,0,38357,0:0:0:0:
124,96,49678,6,0,L|176:88,1,42.2499980659486
260,84,50055,1,0,0:0:0:0:
344,144,50196,1,0,0:0:0:0:
320,232,50432,1,0,0:0:0:0:
232,256,50762,1,0,0:0:0:0:
184,200,50998,2,0,L|164:116,1,75
216,72,51517,5,0,0:0:0:0:
244,152,51753,1,0,0:0:0:0:
296,216,51989,1,0,0:0:0:0:
288,296,52272,1,0,0:0:0:0:
224,240,52508,2,0,L|172:176,1,75
148,124,53074,5,0,0:0:0:0:
296,88,53262,1,0,0:0:0:0:
264,212,53451,1,0,0:0:0:0:
148,124,53781,1,0,0:0:0:0:
128,136,53970,2,0,L|168:204,1,75
224,280,54583,5,0,0:0:0:0:
328,232,54724,1,0,0:0:0:0:
248,172,54960,1,0,0:0:0:0:
224,280,55290,1,0,0:0:0:0:
224,280,55526,2,0,L|144:224,1,75
136,124,56092,6,0,L|228:124,1,75
296,124,56470,2,0,L|392:124,1,75
452,148,56800,1,0,0:0:0:0:
364,212,57037,2,0,P|284:244|252:240,1,105.624995164871
192,232,57603,2,0,L|112:232,2,63.3749970989229
236,232,58309,1,0,0:0:0:0:
280,216,58545,2,0,L|356:172,1,75
416,128,59112,6,0,L|484:76,2,84.4999961318971
356,176,59819,1,0,0:0:0:0:
312,204,60102,2,0,L|224:248,1,84.4999961318971
176,264,60621,2,0,L|96:296,2,84.4999961318971
256,220,61187,2,0,L|328:180,1,75
384,144,61565,2,0,P|416:96|356:76,1,126.749994197846
264,72,62036,2,0,L|200:72,2,37.5
368,104,62507,1,0,0:0:0:0:
320,184,62790,2,0,L|236:236,1,75
184,240,63168,2,0,L|84:228,1,75
80,168,63639,5,0,0:0:0:0:
184,128,63828,1,0,0:0:0:0:
276,124,64017,2,0,L|276:204,1,75
380,132,64394,2,0,L|340:216,1,75
476,232,64771,2,0,L|388:244,1,75
308,264,65149,5,0,0:0:0:0:
204,256,65337,1,0,0:0:0:0:
112,192,65526,1,0,0:0:0:0:
184,124,65715,2,0,L|276:124,1,75
344,120,66092,2,0,P|384:172|380:208,1,75
336,256,66470,1,0,0:0:0:0:
236,292,66658,5,0,0:0:0:0:
144,264,66847,2,0,L|196:200,1,75
64,204,67224,2,0,L|152:152,1,75
48,92,67602,2,0,L|152:88,1,75
268,56,68168,5,0,0:0:0:0:
344,156,68356,1,0,0:0:0:0:
216,216,68545,1,0,0:0:0:0:
152,108,68734,1,0,0:0:0:0:
268,56,68922,1,0,0:0:0:0:
344,156,69111,1,0,0:0:0:0:
216,220,69300,1,0,0:0:0:0:
100,216,69488,6,0,L|184:160,1,75
228,88,69866,2,0,L|288:152,1,75
340,52,70243,2,0,L|360:144,1,75
448,44,70620,2,0,L|440:144,1,75
316,304,71186,5,0,0:0:0:0:
208,192,71422,1,0,0:0:0:0:
312,48,71611,1,0,0:0:0:0:
428,192,71894,1,0,0:0:0:0:
316,304,72177,1,0,0:0:0:0:
232,272,72696,6,0,L|192:308,2,37.5
188,200,73073,2,0,L|124:216,2,37.5
192,108,73451,2,0,L|132:104,2,37.5
304,104,73828,1,0,0:0:0:0:
168,76,86658,6,0,L|216:160,1,75
256,200,87035,2,0,P|320:228|380:204,1,112.500004291535
416,152,87461,1,0,0:0:0:0:
320,76,87696,1,0,0:0:0:0:
224,160,87885,1,0,0:0:0:0:
224,160,88074,1,0,0:0:0:0:
160,212,88262,1,0,0:0:0:0:
160,212,88451,1,0,0:0:0:0:
224,264,88640,2,0,P|264:288|360:264,1,121.875
332,296,89677,6,0,L|344:224,1,60.9375
352,144,90054,1,0,0:0:0:0:
272,68,90243,1,0,0:0:0:0:
168,84,90431,1,0,0:0:0:0:
108,176,91092,5,0,0:0:0:0:
108,176,91187,2,0,L|168:220,1,60.9375
248,244,91563,1,0,0:0:0:0:
352,248,91752,1,0,0:0:0:0:
456,240,91941,1,0,0:0:0:0:
80,144,92648,6,0,P|148:108|192:104,1,112.5
272,92,93073,1,0,0:0:0:0:
356,108,93309,1,0,0:0:0:0:
388,184,93498,2,0,L|336:252,1,81.25
268,284,93876,5,0,0:0:0:0:
180,288,94017,2,0,L|132:256,1,40.625
108,204,94253,2,0,L|120:164,1,40.625
180,108,94536,2,0,P|232:100|240:128,1,75
272,188,94819,1,0,0:0:0:0:
272,188,94913,1,0,0:0:0:0:
272,188,95008,1,0,0:0:0:0:
328,236,95291,6,0,L|388:208,1,60.9375
424,164,95573,2,0,L|452:116,2,56.25
344,188,96092,1,0,0:0:0:0:
256,200,96328,1,0,0:0:0:0:
256,200,96423,1,0,0:0:0:0:
256,200,96517,1,0,0:0:0:0:
144,196,96847,6,0,P|108:232|136:272,1,101.5625
220,288,97224,1,0,0:0:0:0:
308,268,97412,1,0,0:0:0:0:
392,200,97601,1,0,0:0:0:0:
276,156,97742,1,0,0:0:0:0:
308,268,97931,1,0,0:0:0:0:
392,200,98167,6,0,L|380:148,1,40.625
108,184,98734,6,0,P|232:88|376:188,1,337.999984527589
244,204,99865,1,0,0:0:0:0:
368,244,100290,2,0,P|240:320|116:232,1,316.874985494614
248,200,101327,1,0,0:0:0:0:
208,152,101753,6,0,L|128:152,1,65
288,152,102083,2,0,L|368:152,1,65
208,212,102507,1,0,0:0:0:0:
296,264,102695,1,0,0:0:0:0:
184,332,102884,1,0,0:0:0:0:
304,336,103073,6,0,P|380:256|392:128,1,243.75
312,120,103923,6,0,P|183:139|131:211,1,211.25
92,64,104772,6,0,L|280:140,1,195
348,160,105526,1,0,0:0:0:0:
411,208,105715,1,0,0:0:0:0:
364,283,105904,1,0,0:0:0:0:
276,296,106092,1,0,0:0:0:0:
196,284,106470,2,0,L|128:240,1,81.25
140,160,106893,1,0,0:0:0:0:
280,96,107035,1,0,0:0:0:0:
372,200,107412,1,0,0:0:0:0:
232,136,107790,6,0,L|160:136,1,65
312,136,108168,2,0,L|384:136,1,65
192,212,108591,1,0,0:0:0:0:
304,252,108780,1,0,0:0:0:0:
192,312,108969,1,0,0:0:0:0:
304,352,109157,1,0,0:0:0:0:
256,192,109252,12,0,110808,0:0:0:0:
256,164,121328,5,0,0:0:0:0:
256,184,122083,6,0,L|256:232,1,32.5
256,192,122460,6,0,L|176:192,1,65
256,192,122837,2,0,L|348:192,1,65
256,192,123309,2,0,L|256:128,1,65
256,96,123969,5,0,0:0:0:0:
172,192,124158,1,0,0:0:0:0:
256,96,124347,1,0,0:0:0:0:
172,192,124913,2,0,L|256:192,1,65
380,192,125479,5,0,0:0:0:0:
332,292,125667,1,0,0:0:0:0:
456,272,125856,1,0,0:0:0:0:
380,192,126045,1,0,0:0:0:0:
380,192,126516,6,0,L|316:136,1,65
252,68,126988,5,0,0:0:0:0:
172,120,127177,1,0,0:0:0:0:
216,208,127365,1,0,0:0:0:0:
124,244,127554,1,0,0:0:0:0:
316,220,127931,5,0,0:0:0:0:
316,220,128026,1,0,0:0:0:0:
316,220,128120,1,0,0:0:0:0:
316,220,128214,1,0,0:0:0:0:
224,88,128592,5,0,0:0:0:0:
356,80,128781,1,0,0:0:0:0:
288,196,128969,1,0,0:0:0:0:
224,88,129158,1,0,0:0:0:0:
136,188,129441,5,0,0:0:0:0:
136,188,129535,1,0,0:0:0:0:
136,188,129630,1,0,0:0:0:0:
136,188,129724,1,0,0:0:0:0:
120,184,130007,5,0,0:0:0:0:
320,184,130196,1,0,0:0:0:0:
216,68,130384,1,0,0:0:0:0:
216,236,130856,1,0,0:0:0:0:
216,236,130950,2,0,L|216:144,1,65
352,80,131516,5,0,0:0:0:0:
352,80,131611,2,0,L|336:180,1,97.5
268,320,132460,1,0,0:0:0:0:
268,320,132554,2,0,L|320:212,1,97.5
188,104,133120,5,0,0:0:0:0:
336,108,133309,1,0,0:0:0:0:
232,244,133497,1,0,0:0:0:0:
384,224,133686,1,0,0:0:0:0:
272,176,133969,1,0,0:0:0:0:
272,176,134158,1,0,0:0:0:0:
360,144,134818,6,0,L|304:104,1,65
168,120,135290,1,0,0:0:0:0:
168,120,135573,1,0,0:0:0:0:
128,260,136045,6,0,L|196:272,1,65
224,272,136328,2,0,P|292:260|312:248,1,65
364,220,136799,1,0,0:0:0:0:
396,124,137082,1,0,0:0:0:0:
124,72,137554,6,0,L|180:124,1,65
192,132,137837,2,0,L|244:172,1,65
320,220,138309,1,0,0:0:0:0:
388,168,138497,1,0,0:0:0:0:
320,220,138686,1,0,0:0:0:0:
388,311,139063,6,0,L|332:260,1,65
320,252,139346,2,0,L|268:211,1,65
192,164,139818,1,0,0:0:0:0:
124,216,140006,1,0,0:0:0:0:
192,164,140195,1,0,0:0:0:0:
256,92,140573,5,0,0:0:0:0:
352,188,140761,1,0,0:0:0:0:
156,188,140950,1,0,0:0:0:0:
256,280,141139,1,0,0:0:0:0:
352,188,141327,1,0,0:0:0:0:
256,92,141516,1,0,0:0:0:0:
256,192,141705,1,0,0:0:0:0:
176,96,142082,5,0,0:0:0:0:
248,204,142271,1,0,0:0:0:0:
304,88,142459,1,0,0:0:0:0:
176,96,142648,1,0,0:0:0:0:
180,200,142837,1,0,0:0:0:0:
324,152,143026,1,0,0:0:0:0:
232,72,143214,1,0,0:0:0:0:
256,64,143592,5,0,0:0:0:0:
256,164,143780,1,0,0:0:0:0:
224,192,143969,2,0,L|152:192,1,65
296,192,144346,2,0,L|368:192,1,65
256,224,144724,2,0,L|256:292,1,65
256,320,145101,5,0,0:0:0:0:
256,219,145289,1,0,0:0:0:0:
288,192,145478,2,0,L|360:192,1,65
216,191,145855,2,0,L|144:192,1,65
256,160,146233,2,0,L|256:92,1,65
344,72,146610,6,0,L|396:100,1,32.5
376,188,146893,1,0,0:0:0:0:
376,188,146988,2,0,L|344:260,1,65
300,304,147365,2,0,L|208:308,1,65
164,312,147742,2,0,L|112:240,1,65
160,88,148120,6,0,L|124:160,1,65
124,248,148497,2,0,L|176:308,1,65
256,308,148874,2,0,L|352:308,1,65
396,256,149252,2,0,L|432:176,1,65
256,84,149629,5,0,0:0:0:0:
168,192,149818,1,0,0:0:0:0:
328,192,150007,1,0,0:0:0:0:
256,288,150195,1,0,0:0:0:0:
256,84,150384,1,0,0:0:0:0:
168,192,150573,1,0,0:0:0:0:
328,192,150761,1,0,0:0:0:0:
256,192,151139,5,0,0:0:0:0:
200,192,151327,2,0,L|124:192,1,65
312,192,151705,2,0,L|388:192,1,65
256,192,152082,1,0,0:0:0:0:
80,60,152648,5,0,0:0:0:0:
440,320,153025,1,0,0:0:0:0:
440,48,153403,1,0,0:0:0:0:
84,336,153780,1,0,0:0:0:0:
84,336,154157,5,0,0:0:0:0:
436,64,154535,1,0,0:0:0:0:
88,60,154912,1,0,0:0:0:0:
440,320,155289,1,0,0:0:0:0:
112,60,155667,6,0,L|112:128,1,65
196,56,156044,2,0,L|196:144,1,65
284,56,156421,2,0,L|284:136,1,65
364,56,156799,2,0,L|364:144,1,65
364,192,157176,6,0,L|272:192,1,65
152,192,157554,2,0,L|232:192,1,65
256,300,157931,2,0,L|256:232,1,65
256,88,158308,2,0,L|256:176,1,65
