osu file format v14

[General]
AudioFilename: pls.mp3
AudioLeadIn: 0
PreviewTime: -1
Countdown: 1
SampleSet: Soft
StackLeniency: 0.7
Mode: 0
LetterboxInBreaks: 1
WidescreenStoryboard: 0

[Editor]
DistanceSpacing: 1.9
BeatDivisor: 4
GridSize: 4
TimelineZoom: 2.5

[Metadata]
Title:Ai Kotoba (8#Prince Bitter Remix)
TitleUnicode:Ai Kotoba (8#Prince Bitter Remix)
Artist:DJ Saolilith
ArtistUnicode:DJ Saolilith
Creator:vipto
Version:eyy lmao
Source:
Tags:
BeatmapID:1744491
BeatmapSetID:832739

[Difficulty]
HPDrainRate:7
CircleSize:4
OverallDifficulty:8
ApproachRate:9
SliderMultiplier:1.8
SliderTickRate:1

[Events]
//Background and Video events
0,0,"hatsune-miku-3840x2160-good-smile-racing-4k-8437.jpg",0,0
//Break Periods
//Storyboard Layer 0 (Background)
//Storyboard Layer 1 (Fail)
//Storyboard Layer 2 (Pass)
//Storyboard Layer 3 (Foreground)
//Storyboard Sound Samples

[TimingPoints]
2328,437.956204379562,4,2,0,40,1,0
14590,-33.3333333333333,4,2,0,40,0,0
15028,-100,4,2,0,40,0,0
28605,-500,4,2,0,40,0,0
29481,-100,4,2,0,40,0,0

[Colours]
Combo1 : 250,232,5
Combo2 : 255,128,64
Combo3 : 253,68,68
Combo4 : 128,128,255

[HitObjects]
70,176,2328,6,0,L|266:165,1,180
249,165,3422,1,0,0:0:0:0:
262,253,3641,1,0,0:0:0:0:
277,341,3860,1,0,0:0:0:0:
277,341,4736,5,0,0:0:0:0:
262,253,4955,1,0,0:0:0:0:
249,165,5174,1,0,0:0:0:0:
235,76,5393,2,0,L|244:51,8,22.5
235,76,6050,1,0,0:0:0:0:
235,76,6926,5,0,0:0:0:0:
166,134,7145,1,0,0:0:0:0:
97,192,7364,1,0,0:0:0:0:
97,192,8240,1,0,0:0:0:0:
182,219,8459,1,0,0:0:0:0:
267,247,8678,1,0,0:0:0:0:
351,278,8897,2,0,L|386:270,6,22.5
351,278,9335,5,0,0:0:0:0:
267,247,9554,1,0,0:0:0:0:
250,158,9773,2,0,L|236:94,1,45
182,219,9992,1,0,0:0:0:0:
182,219,10101,1,0,0:0:0:0:
311,50,10430,5,0,0:0:0:0:
182,219,10649,2,0,P|127:194|102:193,1,67.5
98,193,10868,2,0,P|39:209|20:224,1,67.5
20,230,11087,1,0,0:0:0:0:
107,339,11306,1,0,0:0:0:0:
182,219,11525,1,0,0:0:0:0:
110,107,11744,6,0,L|76:56,1,45
199,127,11963,2,0,L|282:140,1,67.5
284,125,12182,1,0,0:0:0:0:
318,52,12291,1,0,0:0:0:0:
365,119,12400,2,0,L|388:279,1,157.5
391,297,12838,5,0,0:0:0:0:
483,194,13057,1,0,0:0:0:0:
401,47,13276,1,0,0:0:0:0:
391,297,13495,1,0,0:0:0:0:
256,80,13714,1,0,0:0:0:0:
256,80,13824,1,0,0:0:0:0:
203,152,13933,1,0,0:0:0:0:
203,152,14043,1,0,0:0:0:0:
286,163,14152,1,0,0:0:0:0:
286,163,14262,1,0,0:0:0:0:
235,235,14371,1,0,0:0:0:0:
235,235,14481,1,0,0:0:0:0:
235,235,14590,6,0,B|204:151|204:151|256:77|256:77|286:163|286:163|315:239|315:239|385:213|385:213|341:102|341:102,1,540.000020599366
343,108,15247,1,0,0:0:0:0:
414,283,15466,1,0,0:0:0:0:
235,235,15685,1,0,0:0:0:0:
343,108,15904,2,0,L|351:74,6,22.5
343,108,16342,5,0,0:0:0:0:
235,235,16561,2,0,L|187:239,1,45
286,299,16780,2,0,P|304:277|302:188,1,90
260,149,17109,1,0,0:0:0:0:
260,149,17218,1,0,0:0:0:0:
203,321,17437,1,0,0:0:0:0:
124,134,17656,2,0,L|106:67,1,45
176,32,17875,1,0,0:0:0:0:
176,32,17984,1,0,0:0:0:0:
124,134,18094,6,0,L|151:243,1,90
176,32,18532,1,0,0:0:0:0:
89,259,18751,2,0,P|116:237|145:220,1,67.5
166,214,18970,2,0,P|206:212|250:221,1,67.5
253,225,19189,2,0,P|299:211|322:190,1,67.5
326,180,19408,1,0,0:0:0:0:
349,21,19627,1,0,0:0:0:0:
349,21,19736,1,0,0:0:0:0:
412,83,19846,6,0,L|423:184,1,90
481,246,20174,1,0,0:0:0:0:
481,246,20284,1,0,0:0:0:0:
341,306,20503,2,0,L|286:283,1,45
226,333,20722,1,0,0:0:0:0:
113,192,20941,2,0,L|136:141,1,45
251,121,21160,2,0,L|232:162,1,45
174,53,21379,1,0,0:0:0:0:
190,260,21598,5,0,0:0:0:0:
375,159,21817,1,0,0:0:0:0:
375,159,21926,1,0,0:0:0:0:
390,249,22036,2,0,L|371:290,1,45
417,360,22255,1,0,0:0:0:0:
251,121,22473,1,0,0:0:0:0:
251,121,22911,2,0,L|207:105,1,30
229,140,23057,2,0,L|185:124,1,30
198,160,23203,2,0,L|154:144,1,30
168,180,23349,5,0,0:0:0:0:
338,49,23568,1,0,0:0:0:0:
361,248,23787,1,0,0:0:0:0:
168,180,24006,2,0,L|113:201,1,45
95,277,24225,1,0,0:0:0:0:
95,277,24335,1,0,0:0:0:0:
43,209,24444,2,0,L|31:152,1,45
125,53,24663,2,0,L|112:100,1,45
234,168,24882,2,0,L|219:119,1,45
273,45,25101,5,0,0:0:0:0:
441,172,25320,1,0,0:0:0:0:
441,172,25430,1,0,0:0:0:0:
484,94,25539,1,0,0:0:0:0:
289,253,25758,1,0,0:0:0:0:
289,253,25868,1,0,0:0:0:0:
356,307,25977,2,0,P|372:267|371:231,1,67.5
367,220,26196,2,0,P|347:191|311:171,1,67.5
297,170,26415,2,0,P|257:176|226:204,1,67.5
221,209,26634,1,0,0:0:0:0:
438,327,26853,5,0,0:0:0:0:
438,327,27072,1,0,0:0:0:0:
480,127,27291,1,0,0:0:0:0:
480,127,27510,1,0,0:0:0:0:
299,192,27729,5,0,0:0:0:0:
266,127,27875,1,0,0:0:0:0:
227,187,28021,1,0,0:0:0:0:
337,131,28167,1,0,0:0:0:0:
194,123,28313,1,0,0:0:0:0:
258,251,28459,1,0,0:0:0:0:
337,131,28605,6,0,L|376:71,1,72
376,70,29919,1,0,0:0:0:0:
107,298,30357,6,0,P|65:241|102:121,1,180
167,208,31014,2,0,L|264:190,1,90
405,298,31671,2,0,P|447:241|410:121,1,180
345,208,32328,2,0,L|248:190,1,90
180,115,32765,5,0,0:0:0:0:
256,40,32984,1,0,0:0:0:0:
332,115,33203,1,0,0:0:0:0:
256,191,33422,2,0,L|256:284,1,90
416,336,33860,6,0,L|416:136,1,180
341,76,34517,2,0,P|298:64|255:75,1,90
96,336,35174,2,0,L|96:136,1,180
170,76,35831,2,0,P|213:64|256:75,1,90
300,174,36269,1,0,0:0:0:0:
220,247,36488,1,0,0:0:0:0:
256,348,36707,1,0,0:0:0:0:
256,75,36926,1,0,0:0:0:0:
380,220,37145,1,0,0:0:0:0:
380,220,37255,1,0,0:0:0:0:
299,171,37364,6,0,P|251:169|193:211,1,90
176,288,37802,1,0,0:0:0:0:
115,198,38021,1,0,0:0:0:0:
274,267,38240,1,0,0:0:0:0:
154,114,38459,2,0,L|145:65,1,45
115,198,38678,1,0,0:0:0:0:
269,99,38897,2,0,P|304:86|334:82,1,45
336,189,39116,6,0,P|380:207|427:217,1,90
501,143,39554,1,0,0:0:0:0:
445,50,39773,1,0,0:0:0:0:
341,82,39992,1,0,0:0:0:0:
336,189,40211,2,0,P|342:210|357:241,1,45
388,340,40430,2,0,P|345:325|317:322,1,67.5
296,325,40649,2,0,P|259:329|212:328,1,67.5
201,325,40868,6,0,P|160:302|164:178,1,180
242,113,41525,1,0,0:0:0:0:
242,113,41744,1,0,0:0:0:0:
242,113,41963,2,0,P|268:122|301:127,1,45
176,62,42182,1,0,0:0:0:0:
368,127,42400,1,0,0:0:0:0:
234,211,42619,6,0,P|224:258|220:308,1,90
366,185,43057,2,0,P|380:230|391:283,1,90
162,147,43495,2,0,P|128:182|101:227,1,90
402,56,43933,2,0,P|433:99|456:147,1,90
209,53,44371,5,0,0:0:0:0:
282,132,44590,1,0,0:0:0:0:
282,132,44700,1,0,0:0:0:0:
250,215,44809,2,0,P|210:184|194:137,1,90
282,132,45138,1,0,0:0:0:0:
282,132,45247,1,0,0:0:0:0:
359,296,45466,2,0,L|336:352,1,45
318,218,45685,1,0,0:0:0:0:
421,113,45904,1,0,0:0:0:0:
282,132,46123,6,0,P|239:122|192:102,1,90
68,243,46561,2,0,P|139:219|180:215,1,90
246,231,46890,1,0,0:0:0:0:
246,231,46999,2,0,L|315:249,1,67.5
336,257,47218,2,0,L|414:279,1,67.5
426,283,47437,2,0,P|471:270|491:244,1,67.5
488,228,47656,1,0,0:0:0:0:
462,122,47875,6,0,L|443:24,1,90
303,116,48313,2,0,L|320:204,1,90
279,281,48641,1,0,0:0:0:0:
279,281,48751,1,0,0:0:0:0:
374,75,48970,2,0,L|390:159,1,67.5
391,167,49189,2,0,L|403:233,1,67.5
409,259,49408,2,0,P|431:287|471:300,1,67.5
486,300,49627,5,0,0:0:0:0:
279,281,49846,1,0,0:0:0:0:
90,333,50065,1,0,0:0:0:0:
279,281,50284,1,0,0:0:0:0:
279,281,50393,1,0,0:0:0:0:
219,223,50503,2,0,P|258:201|317:210,1,90
357,259,50831,1,0,0:0:0:0:
374,181,50941,2,0,L|381:86,1,90
290,31,51379,5,0,0:0:0:0:
380,91,51598,1,0,0:0:0:0:
280,134,51817,2,0,L|164:138,1,90
137,77,52145,1,0,0:0:0:0:
137,77,52255,1,0,0:0:0:0:
287,231,52473,2,0,P|296:259|300:286,1,45
214,273,52692,1,0,0:0:0:0:
399,227,52911,1,0,0:0:0:0:
213,189,53130,6,0,L|116:162,1,90
322,130,53568,2,0,L|413:95,1,90
475,143,53897,1,0,0:0:0:0:
475,143,54006,2,0,P|494:187|494:219,1,67.5
490,232,54225,2,0,P|475:263|442:289,1,67.5
425,294,54444,2,0,L|349:306,1,67.5
332,311,54663,1,0,0:0:0:0:
172,92,54882,6,0,P|256:64|340:92,1,180
256,196,55539,1,0,0:0:0:0:
172,292,55758,2,0,P|255:319|339:292,1,180
256,56,56415,1,0,0:0:0:0:
216,124,56525,1,0,0:0:0:0:
292,124,56634,1,0,0:0:0:0:
256,56,57291,5,0,0:0:0:0:
256,56,57510,1,0,0:0:0:0:
156,243,57948,2,0,P|185:211|282:206,1,135
236,277,58386,5,0,0:0:0:0:
70,213,58605,1,0,0:0:0:0:
236,277,58824,1,0,0:0:0:0:
366,183,59043,2,0,P|374:159|390:134,1,45
318,86,59262,1,0,0:0:0:0:
346,281,59481,2,0,P|322:317|284:320,1,67.5
274,314,59700,2,0,P|245:297|204:302,1,67.5
188,311,59919,2,0,P|160:328|113:314,1,67.5
105,306,60138,5,0,0:0:0:0:
71,203,60357,2,0,L|60:155,1,45
144,111,60576,2,0,L|164:198,1,90
192,303,61014,1,0,0:0:0:0:
266,224,61233,1,0,0:0:0:0:
342,300,61452,1,0,0:0:0:0:
342,300,61561,2,0,P|371:243|362:186,1,90
313,142,61890,6,0,P|372:121|463:186,1,180
266,224,62546,2,0,L|207:204,1,45
312,290,62765,1,0,0:0:0:0:
280,108,62984,1,0,0:0:0:0:
173,287,63203,2,0,P|134:217|142:174,1,90
223,209,63641,6,0,P|263:164|384:167,1,180
319,254,64298,2,0,L|289:309,1,45
397,298,64517,1,0,0:0:0:0:
200,283,64736,2,0,P|164:276|118:277,1,67.5
106,278,64955,1,0,0:0:0:0:
35,97,65174,1,0,0:0:0:0:
75,172,65284,1,0,0:0:0:0:
120,100,65393,6,0,P|166:67|251:73,1,135
317,108,65831,1,0,0:0:0:0:
234,251,66050,2,0,L|267:309,1,45
174,312,66269,1,0,0:0:0:0:
345,220,66488,2,0,P|382:208|421:206,1,67.5
437,201,66707,2,0,L|458:131,1,67.5
465,110,66926,2,0,P|453:71|427:52,1,67.5
406,49,67145,6,0,L|314:47,1,90
252,105,67473,1,0,0:0:0:0:
252,105,67583,1,0,0:0:0:0:
320,261,67802,2,0,L|307:316,1,45
340,181,68021,1,0,0:0:0:0:
164,260,68240,2,0,P|134:277|86:292,1,67.5
118,310,68459,2,0,P|151:319|191:334,1,67.5
209,332,68678,1,0,0:0:0:0:
263,266,68787,1,0,0:0:0:0:
328,320,68897,5,0,0:0:0:0:
358,82,69554,1,0,0:0:0:0:
263,134,69773,2,0,P|214:108|133:127,1,135
84,189,70211,1,0,0:0:0:0:
79,273,70320,1,0,0:0:0:0:
147,325,70430,1,0,0:0:0:0:
219,280,70539,1,0,0:0:0:0:
303,293,70649,1,0,0:0:0:0:
