osu file format v14

[General]
AudioFilename: audio.mp3
AudioLeadIn: 0
PreviewTime: 32829
Countdown: 0
SampleSet: Normal
StackLeniency: 0
Mode: 1
LetterboxInBreaks: 0
WidescreenStoryboard: 1

[Editor]
Bookmarks: 85690
DistanceSpacing: 0.5
BeatDivisor: 4
GridSize: 32
TimelineZoom: 3.159999

[Metadata]
Title:Malo Tebya
TitleUnicode:Мало Тебя
Artist:DJ SPIZDIL
ArtistUnicode:DJ SPIZDIL
Creator:Genjuro
Version:Genju & radar's Oni
Source:
Tags:electronic russian radar collab serebro Серебро hardstyle mix nightcore
BeatmapID:2949883
BeatmapSetID:1433215

[Difficulty]
HPDrainRate:5.5
CircleSize:2
OverallDifficulty:5.5
ApproachRate:10
SliderMultiplier:1.4
SliderTickRate:1

[Events]
//Background and Video events
0,0,"bg.jpg",0,50
//Break Periods
//Storyboard Layer 0 (Background)
//Storyboard Layer 1 (Fail)
//Storyboard Layer 2 (Pass)
//Storyboard Layer 3 (Foreground)
//Storyboard Layer 4 (Overlay)
//Storyboard Sound Samples

[TimingPoints]
1111,330.396475770925,4,1,0,75,1,0
1111,-114.285714285714,4,1,0,75,0,0
22173,-100,4,1,0,88,0,0
32746,-80,4,1,0,100,0,0
32829,-80,4,1,0,100,0,1
64547,-80,4,1,0,100,0,0
64712,-114.285714285714,4,1,0,75,0,0
75037,-100,4,1,0,88,0,0
85775,-80,4,1,0,100,0,0
85857,-80,4,1,0,100,0,1
96265,-80,4,1,0,100,0,0
96595,-80,4,1,0,100,0,1
101221,-80,4,1,0,100,0,0
101551,-80,4,1,0,100,0,1
117410,-80,4,1,0,100,0,0
117575,-113.636363636364,4,1,0,75,0,0
122614,-100,4,1,0,88,0,0
130543,-80,4,1,0,100,0,0
130626,-80,4,1,0,100,0,1
151771,-80,4,1,0,100,0,0
151936,-80,4,1,0,100,0,1
162344,-80,4,1,0,88,0,0
162509,-83.3333333333333,4,1,0,66,0,0
162840,-86.9565217391304,4,1,0,55,0,0
163170,-90.9090909090909,4,1,0,44,0,0
163500,-95.2380952380952,4,1,0,33,0,0
163666,-100,4,1,0,33,0,0
163831,-105.263157894737,4,1,0,22,0,0
164161,-117.647058823529,4,1,0,22,0,0
164492,-125,4,1,0,22,0,0
164822,-133.333333333333,4,1,0,22,0,0
164987,-136.054421768707,4,1,0,22,0,0
165152,-142.857142857143,4,1,0,22,0,0

[HitObjects]
256,192,1111,5,8,0:0:0:0:
256,192,1441,1,8,0:0:0:0:
256,192,1771,1,8,0:0:0:0:
256,192,1936,1,0,0:0:0:0:
256,192,2102,1,8,0:0:0:0:
256,192,2432,1,8,0:0:0:0:
256,192,2762,1,8,0:0:0:0:
256,192,3093,1,8,0:0:0:0:
256,192,3258,1,8,0:0:0:0:
256,192,3423,1,0,0:0:0:0:
256,192,3754,1,8,0:0:0:0:
256,192,4084,1,8,0:0:0:0:
256,192,4414,1,8,0:0:0:0:
256,192,4580,1,0,0:0:0:0:
256,192,4745,1,8,0:0:0:0:
256,192,5075,1,8,0:0:0:0:
256,192,5406,1,8,0:0:0:0:
256,192,5736,1,8,0:0:0:0:
256,192,5901,1,8,0:0:0:0:
256,192,6066,1,0,0:0:0:0:
256,192,6232,1,0,0:0:0:0:
256,192,6397,1,8,0:0:0:0:
256,192,6727,1,8,0:0:0:0:
256,192,7058,1,8,0:0:0:0:
256,192,7223,1,0,0:0:0:0:
256,192,7388,1,8,0:0:0:0:
256,192,7718,1,8,0:0:0:0:
256,192,8049,1,8,0:0:0:0:
256,192,8379,1,8,0:0:0:0:
256,192,8544,1,8,0:0:0:0:
256,192,8710,1,0,0:0:0:0:
256,192,9040,1,8,0:0:0:0:
256,192,9370,1,8,0:0:0:0:
256,192,9701,1,8,0:0:0:0:
256,192,9866,1,0,0:0:0:0:
256,192,10031,1,8,0:0:0:0:
256,192,10362,1,8,0:0:0:0:
256,192,10692,1,8,0:0:0:0:
256,192,11022,1,8,0:0:0:0:
256,192,11188,1,8,0:0:0:0:
256,192,11353,1,0,0:0:0:0:
256,192,11518,1,0,0:0:0:0:
256,192,11683,1,8,0:0:0:0:
256,192,12014,1,8,0:0:0:0:
256,192,12179,1,8,0:0:0:0:
256,192,12344,1,0,0:0:0:0:
256,192,12674,1,0,0:0:0:0:
256,192,12840,1,8,0:0:0:0:
256,192,13170,1,8,0:0:0:0:
256,192,13335,1,0,0:0:0:0:
256,192,13500,1,0,0:0:0:0:
256,192,13666,1,8,0:0:0:0:
256,192,13831,1,0,0:0:0:0:
256,192,13996,1,8,0:0:0:0:
256,192,14326,1,0,0:0:0:0:
256,192,14657,1,8,0:0:0:0:
256,192,14822,1,8,0:0:0:0:
256,192,14987,1,0,0:0:0:0:
256,192,15152,1,0,0:0:0:0:
256,192,15318,1,8,0:0:0:0:
256,192,15483,1,8,0:0:0:0:
256,192,15813,1,0,0:0:0:0:
256,192,15978,1,8,0:0:0:0:
256,192,16144,1,0,0:0:0:0:
256,192,16309,1,8,0:0:0:0:
256,192,16474,1,8,0:0:0:0:
256,192,16639,1,0,0:0:0:0:
256,192,16804,1,8,0:0:0:0:
256,192,16970,1,0,0:0:0:0:
256,192,17300,1,0,0:0:0:0:
256,192,17465,1,0,0:0:0:0:
256,192,17630,1,8,0:0:0:0:
256,192,17961,1,8,0:0:0:0:
256,192,18126,1,0,0:0:0:0:
256,192,18456,1,0,0:0:0:0:
256,192,18622,1,8,0:0:0:0:
256,192,18952,1,8,0:0:0:0:
256,192,19117,1,8,0:0:0:0:
256,192,19282,1,0,0:0:0:0:
256,192,19613,1,8,0:0:0:0:
256,192,19943,1,0,0:0:0:0:
256,192,20108,1,0,0:0:0:0:
256,192,20273,1,8,0:0:0:0:
256,192,20439,1,8,0:0:0:0:
256,192,20604,1,8,0:0:0:0:
256,192,20769,1,0,0:0:0:0:
256,192,21099,1,0,0:0:0:0:
256,192,21265,1,8,0:0:0:0:
256,192,21430,1,0,0:0:0:0:
256,192,21595,1,8,0:0:0:0:
256,192,21760,1,8,0:0:0:0:
256,192,22091,1,8,0:0:0:0:
256,192,22256,1,0,0:0:0:0:
256,192,22586,1,0,0:0:0:0:
256,192,22917,1,0,0:0:0:0:
256,192,23247,1,0,0:0:0:0:
256,192,23577,1,8,0:0:0:0:
256,192,23908,1,8,0:0:0:0:
256,192,24238,1,0,0:0:0:0:
256,192,24569,1,0,0:0:0:0:
256,192,24899,1,8,0:0:0:0:
256,192,25229,1,8,0:0:0:0:
256,192,25560,1,8,0:0:0:0:
256,192,25890,1,8,0:0:0:0:
256,192,26221,1,0,0:0:0:0:
256,192,26551,1,0,0:0:0:0:
256,192,26881,1,8,0:0:0:0:
256,192,27212,1,8,0:0:0:0:
256,192,27542,1,0,0:0:0:0:
256,192,27707,1,0,0:0:0:0:
256,192,27873,1,0,0:0:0:0:
256,192,28038,1,0,0:0:0:0:
256,192,28203,1,8,0:0:0:0:
256,192,28368,1,8,0:0:0:0:
256,192,28533,1,0,0:0:0:0:
256,192,28699,1,0,0:0:0:0:
256,192,28864,1,8,0:0:0:0:
256,192,29029,1,8,0:0:0:0:
256,192,29194,1,8,0:0:0:0:
256,192,29359,1,8,0:0:0:0:
256,192,29525,1,0,0:0:0:0:
256,192,29690,1,0,0:0:0:0:
256,192,29855,1,8,0:0:0:0:
256,192,30020,1,8,0:0:0:0:
256,192,30185,1,0,0:0:0:0:
256,192,30268,1,0,0:0:0:0:
256,192,30351,1,0,0:0:0:0:
256,192,30516,1,8,0:0:0:0:
256,192,30598,1,8,0:0:0:0:
256,192,30681,1,0,0:0:0:0:
256,192,30846,1,8,0:0:0:0:
256,192,30929,1,8,0:0:0:0:
256,192,31011,1,8,0:0:0:0:
256,192,31177,1,0,0:0:0:0:
256,192,31259,1,0,0:0:0:0:
256,192,31342,1,8,0:0:0:0:
256,192,31507,1,0,0:0:0:0:
256,192,32168,1,0,0:0:0:0:
256,192,32498,1,8,0:0:0:0:
256,192,32663,1,8,0:0:0:0:
256,192,32829,1,4,0:0:0:0:
256,192,32994,1,8,0:0:0:0:
256,192,33076,1,8,0:0:0:0:
256,192,33159,1,0,0:0:0:0:
256,192,33324,1,0,0:0:0:0:
256,192,33489,1,8,0:0:0:0:
256,192,33655,1,0,0:0:0:0:
256,192,33737,1,0,0:0:0:0:
256,192,33820,1,0,0:0:0:0:
256,192,33985,1,8,0:0:0:0:
256,192,34150,1,0,0:0:0:0:
256,192,34315,1,8,0:0:0:0:
256,192,34398,1,8,0:0:0:0:
256,192,34481,1,8,0:0:0:0:
256,192,34646,1,8,0:0:0:0:
256,192,34811,1,0,0:0:0:0:
256,192,34976,1,8,0:0:0:0:
256,192,35141,1,0,0:0:0:0:
256,192,35307,1,8,0:0:0:0:
256,192,35389,1,8,0:0:0:0:
256,192,35472,1,0,0:0:0:0:
256,192,35637,1,0,0:0:0:0:
256,192,35802,1,8,0:0:0:0:
256,192,35885,1,0,0:0:0:0:
256,192,35967,1,0,0:0:0:0:
256,192,36133,1,8,0:0:0:0:
256,192,36215,1,0,0:0:0:0:
256,192,36298,1,8,0:0:0:0:
256,192,36463,1,0,0:0:0:0:
256,192,36628,1,8,0:0:0:0:
256,192,36711,1,8,0:0:0:0:
256,192,36793,1,0,0:0:0:0:
256,192,36959,1,0,0:0:0:0:
256,192,37124,1,8,0:0:0:0:
256,192,37206,1,0,0:0:0:0:
256,192,37289,1,0,0:0:0:0:
256,192,37454,1,8,0:0:0:0:
256,192,37537,1,0,0:0:0:0:
256,192,37619,1,8,0:0:0:0:
256,192,37702,1,8,0:0:0:0:
256,192,37785,1,0,0:0:0:0:
256,192,38115,1,4,0:0:0:0:
256,192,38280,1,8,0:0:0:0:
256,192,38363,1,8,0:0:0:0:
256,192,38445,1,0,0:0:0:0:
256,192,38610,1,0,0:0:0:0:
256,192,38776,1,8,0:0:0:0:
256,192,38941,1,0,0:0:0:0:
256,192,39023,1,8,0:0:0:0:
256,192,39106,1,0,0:0:0:0:
256,192,39271,1,8,0:0:0:0:
256,192,39436,1,0,0:0:0:0:
256,192,39602,1,8,0:0:0:0:
256,192,39684,1,8,0:0:0:0:
256,192,39767,1,8,0:0:0:0:
256,192,39932,1,8,0:0:0:0:
256,192,40097,1,0,0:0:0:0:
256,192,40262,1,8,0:0:0:0:
256,192,40428,1,0,0:0:0:0:
256,192,40510,1,0,0:0:0:0:
256,192,40593,1,8,0:0:0:0:
256,192,40675,1,8,0:0:0:0:
256,192,40758,1,0,0:0:0:0:
256,192,40923,1,0,0:0:0:0:
256,192,41088,1,8,0:0:0:0:
256,192,41171,1,0,0:0:0:0:
256,192,41254,1,0,0:0:0:0:
256,192,41419,1,8,0:0:0:0:
256,192,41501,1,0,0:0:0:0:
256,192,41584,1,8,0:0:0:0:
256,192,41749,1,0,0:0:0:0:
256,192,41832,1,0,0:0:0:0:
256,192,41914,1,8,0:0:0:0:
256,192,41997,1,8,0:0:0:0:
256,192,42080,1,0,0:0:0:0:
256,192,42245,1,0,0:0:0:0:
256,192,42410,1,8,0:0:0:0:
256,192,42493,1,0,0:0:0:0:
256,192,42575,1,0,0:0:0:0:
256,192,42740,1,8,0:0:0:0:
256,192,42823,1,8,0:0:0:0:
256,192,42906,1,8,0:0:0:0:
256,192,42988,1,8,0:0:0:0:
256,192,43071,1,0,0:0:0:0:
256,192,43401,1,4,0:0:0:0:
256,192,43566,1,8,0:0:0:0:
256,192,43649,1,8,0:0:0:0:
256,192,43732,1,0,0:0:0:0:
256,192,43897,1,0,0:0:0:0:
256,192,44062,1,8,0:0:0:0:
256,192,44227,1,0,0:0:0:0:
256,192,44310,1,0,0:0:0:0:
256,192,44392,1,0,0:0:0:0:
256,192,44558,1,8,0:0:0:0:
256,192,44723,1,0,0:0:0:0:
256,192,44888,1,8,0:0:0:0:
256,192,44971,1,8,0:0:0:0:
256,192,45053,1,8,0:0:0:0:
256,192,45218,1,8,0:0:0:0:
256,192,45384,1,0,0:0:0:0:
256,192,45549,1,8,0:0:0:0:
256,192,45714,1,0,0:0:0:0:
256,192,45879,1,8,0:0:0:0:
256,192,45962,1,8,0:0:0:0:
256,192,46044,1,0,0:0:0:0:
256,192,46210,1,0,0:0:0:0:
256,192,46375,1,8,0:0:0:0:
256,192,46457,1,0,0:0:0:0:
256,192,46540,1,0,0:0:0:0:
256,192,46705,1,8,0:0:0:0:
256,192,46788,1,0,0:0:0:0:
256,192,46870,1,8,0:0:0:0:
256,192,47036,1,0,0:0:0:0:
256,192,47201,1,8,0:0:0:0:
256,192,47283,1,8,0:0:0:0:
256,192,47366,1,0,0:0:0:0:
256,192,47531,1,0,0:0:0:0:
256,192,47696,1,8,0:0:0:0:
256,192,47779,1,0,0:0:0:0:
256,192,47862,1,0,0:0:0:0:
256,192,48027,1,8,0:0:0:0:
256,192,48109,1,0,0:0:0:0:
256,192,48192,1,8,0:0:0:0:
256,192,48275,1,8,0:0:0:0:
256,192,48357,1,0,0:0:0:0:
256,192,48688,1,4,0:0:0:0:
256,192,48853,1,8,0:0:0:0:
256,192,48935,1,8,0:0:0:0:
256,192,49018,1,0,0:0:0:0:
256,192,49183,1,0,0:0:0:0:
256,192,49348,1,8,0:0:0:0:
256,192,49514,1,0,0:0:0:0:
256,192,49596,1,8,0:0:0:0:
256,192,49679,1,0,0:0:0:0:
256,192,49844,1,8,0:0:0:0:
256,192,50009,1,0,0:0:0:0:
256,192,50174,1,8,0:0:0:0:
256,192,50257,1,8,0:0:0:0:
256,192,50340,1,8,0:0:0:0:
256,192,50505,1,8,0:0:0:0:
256,192,50670,1,0,0:0:0:0:
256,192,50835,1,8,0:0:0:0:
256,192,51000,1,0,0:0:0:0:
256,192,51083,1,0,0:0:0:0:
256,192,51166,1,8,0:0:0:0:
256,192,51248,1,8,0:0:0:0:
256,192,51331,1,0,0:0:0:0:
256,192,51496,1,0,0:0:0:0:
256,192,51661,1,8,0:0:0:0:
256,192,51744,1,0,0:0:0:0:
256,192,51826,1,0,0:0:0:0:
256,192,51992,1,8,0:0:0:0:
256,192,52074,1,0,0:0:0:0:
256,192,52157,1,8,0:0:0:0:
256,192,52322,1,0,0:0:0:0:
256,192,52405,1,0,0:0:0:0:
256,192,52487,1,8,0:0:0:0:
256,192,52570,1,8,0:0:0:0:
256,192,52652,1,0,0:0:0:0:
256,192,52818,1,0,0:0:0:0:
256,192,52983,1,8,0:0:0:0:
256,192,53065,1,0,0:0:0:0:
256,192,53148,1,0,0:0:0:0:
256,192,53313,1,8,0:0:0:0:
256,192,53396,1,8,0:0:0:0:
256,192,53478,1,8,0:0:0:0:
256,192,53561,1,8,0:0:0:0:
256,192,53644,1,0,0:0:0:0:
256,192,53974,1,4,0:0:0:0:
256,192,54139,1,8,0:0:0:0:
256,192,54304,1,4,0:0:0:0:
256,192,54470,1,8,0:0:0:0:
256,192,54635,1,4,0:0:0:0:
256,192,54800,1,8,0:0:0:0:
256,192,54965,1,4,0:0:0:0:
256,192,55130,1,0,0:0:0:0:
256,192,55296,1,12,0:0:0:0:
256,192,55626,1,12,0:0:0:0:
256,192,55956,1,12,0:0:0:0:
256,192,56287,1,12,0:0:0:0:
256,192,56617,1,4,0:0:0:0:
256,192,56782,1,8,0:0:0:0:
256,192,56948,1,4,0:0:0:0:
256,192,57113,1,0,0:0:0:0:
256,192,57278,1,12,0:0:0:0:
256,192,57443,1,8,0:0:0:0:
256,192,57608,1,4,0:0:0:0:
256,192,57773,1,0,0:0:0:0:
256,192,57939,1,12,0:0:0:0:
256,192,58269,1,12,0:0:0:0:
256,192,58599,1,4,0:0:0:0:
256,192,58930,1,12,0:0:0:0:
256,192,59260,1,4,0:0:0:0:
256,192,59425,1,8,0:0:0:0:
256,192,59591,1,4,0:0:0:0:
256,192,59756,1,8,0:0:0:0:
256,192,59921,1,4,0:0:0:0:
256,192,60086,1,8,0:0:0:0:
256,192,60251,1,4,0:0:0:0:
256,192,60417,1,0,0:0:0:0:
256,192,60582,1,12,0:0:0:0:
256,192,60912,1,12,0:0:0:0:
256,192,61243,1,12,0:0:0:0:
256,192,61573,1,12,0:0:0:0:
256,192,61903,1,4,0:0:0:0:
256,192,62069,1,8,0:0:0:0:
256,192,62234,1,4,0:0:0:0:
256,192,62399,1,0,0:0:0:0:
256,192,62564,1,12,0:0:0:0:
256,192,62729,1,8,0:0:0:0:
256,192,62895,1,4,0:0:0:0:
256,192,63060,1,0,0:0:0:0:
256,192,63225,1,12,0:0:0:0:
256,192,63555,1,12,0:0:0:0:
256,192,63886,1,4,0:0:0:0:
256,192,64216,1,12,0:0:0:0:
256,192,64547,1,4,0:0:0:0:
256,192,64877,1,8,0:0:0:0:
256,192,65042,1,8,0:0:0:0:
256,192,65207,1,0,0:0:0:0:
256,192,65538,1,0,0:0:0:0:
256,192,65703,1,8,0:0:0:0:
256,192,66033,1,8,0:0:0:0:
256,192,66199,1,0,0:0:0:0:
256,192,66364,1,0,0:0:0:0:
256,192,66529,1,8,0:0:0:0:
256,192,66694,1,0,0:0:0:0:
256,192,66859,1,8,0:0:0:0:
256,192,67190,1,0,0:0:0:0:
256,192,67520,1,8,0:0:0:0:
256,192,67685,1,8,0:0:0:0:
256,192,67851,1,0,0:0:0:0:
256,192,68016,1,0,0:0:0:0:
256,192,68181,1,8,0:0:0:0:
256,192,68346,1,8,0:0:0:0:
256,192,68677,1,0,0:0:0:0:
256,192,68842,1,8,0:0:0:0:
256,192,69007,1,0,0:0:0:0:
256,192,69172,1,8,0:0:0:0:
256,192,69337,1,8,0:0:0:0:
256,192,69503,1,0,0:0:0:0:
256,192,69668,1,8,0:0:0:0:
256,192,69833,1,0,0:0:0:0:
256,192,70163,1,0,0:0:0:0:
256,192,70329,1,0,0:0:0:0:
256,192,70494,1,8,0:0:0:0:
256,192,70824,1,8,0:0:0:0:
256,192,70989,1,0,0:0:0:0:
256,192,71320,1,0,0:0:0:0:
256,192,71485,1,8,0:0:0:0:
256,192,71815,1,8,0:0:0:0:
256,192,71981,1,8,0:0:0:0:
256,192,72146,1,0,0:0:0:0:
256,192,72476,1,8,0:0:0:0:
256,192,72807,1,0,0:0:0:0:
256,192,72972,1,0,0:0:0:0:
256,192,73137,1,8,0:0:0:0:
256,192,73302,1,8,0:0:0:0:
256,192,73467,1,8,0:0:0:0:
256,192,73633,1,0,0:0:0:0:
256,192,73963,1,0,0:0:0:0:
256,192,74128,1,8,0:0:0:0:
256,192,74293,1,0,0:0:0:0:
256,192,74459,1,8,0:0:0:0:
256,192,74624,1,8,0:0:0:0:
256,192,74954,1,8,0:0:0:0:
256,192,75119,1,0,0:0:0:0:
256,192,75450,1,0,0:0:0:0:
256,192,75780,1,8,0:0:0:0:
256,192,76110,1,8,0:0:0:0:
256,192,76441,1,0,0:0:0:0:
256,192,76771,1,0,0:0:0:0:
256,192,77102,1,0,0:0:0:0:
256,192,77432,1,0,0:0:0:0:
256,192,77762,1,8,0:0:0:0:
256,192,78093,1,8,0:0:0:0:
256,192,78423,1,0,0:0:0:0:
256,192,78754,1,0,0:0:0:0:
256,192,79084,1,8,0:0:0:0:
256,192,79414,1,8,0:0:0:0:
256,192,79745,1,8,0:0:0:0:
256,192,80075,1,8,0:0:0:0:
256,192,80406,1,0,0:0:0:0:
256,192,80571,1,0,0:0:0:0:
256,192,80736,1,8,0:0:0:0:
256,192,80901,1,8,0:0:0:0:
256,192,81066,1,0,0:0:0:0:
256,192,81232,1,0,0:0:0:0:
256,192,81397,1,0,0:0:0:0:
256,192,81562,1,0,0:0:0:0:
256,192,81727,1,8,0:0:0:0:
256,192,81892,1,8,0:0:0:0:
256,192,82058,1,0,0:0:0:0:
256,192,82223,1,0,0:0:0:0:
256,192,82388,1,8,0:0:0:0:
256,192,82553,1,8,0:0:0:0:
256,192,82718,1,8,0:0:0:0:
256,192,82884,1,8,0:0:0:0:
256,192,83049,1,0,0:0:0:0:
256,192,83131,1,0,0:0:0:0:
256,192,83214,1,8,0:0:0:0:
256,192,83379,1,0,0:0:0:0:
256,192,83462,1,0,0:0:0:0:
256,192,83544,1,0,0:0:0:0:
256,192,83710,1,8,0:0:0:0:
256,192,83792,1,8,0:0:0:0:
256,192,83875,1,0,0:0:0:0:
256,192,84040,1,8,0:0:0:0:
256,192,84123,1,8,0:0:0:0:
256,192,84205,1,8,0:0:0:0:
256,192,84370,1,0,0:0:0:0:
256,192,85031,1,0,0:0:0:0:
256,192,85362,1,8,0:0:0:0:
256,192,85527,1,8,0:0:0:0:
81,253,85857,1,0,0:0:0:0:
81,253,86022,1,12,0:0:0:0:
81,253,86188,1,0,0:0:0:0:
81,253,86353,1,8,0:0:0:0:
81,253,86518,1,0,0:0:0:0:
81,253,86601,1,0,0:0:0:0:
81,253,86683,1,8,0:0:0:0:
96,250,86848,1,8,0:0:0:0:
111,268,87014,1,0,0:0:0:0:
104,292,87179,1,8,0:0:0:0:
104,292,87261,1,0,0:0:0:0:
80,318,87344,1,8,0:0:0:0:
64,265,87509,1,8,0:0:0:0:
64,265,87674,1,0,0:0:0:0:
80,318,87840,1,8,0:0:0:0:
101,276,87922,1,0,0:0:0:0:
91,282,88005,1,8,0:0:0:0:
116,292,88170,1,8,0:0:0:0:
80,318,88335,1,0,0:0:0:0:
80,318,88500,1,0,0:0:0:0:
131,336,88666,1,8,0:0:0:0:
80,318,88748,1,8,0:0:0:0:
1,348,88831,1,0,0:0:0:0:
80,318,88996,1,8,0:0:0:0:
80,318,89079,1,8,0:0:0:0:
80,318,89161,1,0,0:0:0:0:
81,282,89326,1,0,0:0:0:0:
96,278,89492,1,8,0:0:0:0:
80,318,89657,1,0,0:0:0:0:
140,332,89822,1,0,0:0:0:0:
80,318,89987,1,8,0:0:0:0:
115,344,90070,1,8,0:0:0:0:
35,344,90152,1,0,0:0:0:0:
80,318,90318,1,8,0:0:0:0:
80,318,90483,1,8,0:0:0:0:
68,274,90813,1,8,0:0:0:0:
106,264,90978,1,4,0:0:0:0:
125,289,91144,1,8,0:0:0:0:
80,318,91226,1,0,0:0:0:0:
151,314,91309,1,8,0:0:0:0:
157,341,91474,1,0,0:0:0:0:
102,367,91639,1,8,0:0:0:0:
62,373,91804,1,0,0:0:0:0:
80,318,91887,1,0,0:0:0:0:
80,318,91970,1,8,0:0:0:0:
109,270,92135,1,8,0:0:0:0:
80,318,92300,1,0,0:0:0:0:
80,318,92465,1,8,0:0:0:0:
80,318,92548,1,0,0:0:0:0:
68,277,92630,1,8,0:0:0:0:
80,318,92796,1,8,0:0:0:0:
80,318,92961,1,0,0:0:0:0:
157,312,93126,1,8,0:0:0:0:
99,292,93209,1,8,0:0:0:0:
138,329,93291,1,0,0:0:0:0:
104,312,93374,1,0,0:0:0:0:
80,318,93456,1,8,0:0:0:0:
80,318,93622,1,0,0:0:0:0:
29,333,93787,1,0,0:0:0:0:
80,318,93952,1,8,0:0:0:0:
61,369,94035,1,8,0:0:0:0:
80,318,94117,1,0,0:0:0:0:
80,318,94282,1,8,0:0:0:0:
80,318,94365,1,8,0:0:0:0:
101,362,94448,1,0,0:0:0:0:
80,318,94613,1,0,0:0:0:0:
104,371,94695,1,0,0:0:0:0:
80,318,94778,1,8,0:0:0:0:
151,305,94943,1,0,0:0:0:0:
90,275,95108,1,0,0:0:0:0:
80,318,95273,1,8,0:0:0:0:
98,256,95356,1,8,0:0:0:0:
80,318,95439,1,0,0:0:0:0:
68,288,95604,1,8,0:0:0:0:
80,318,95686,1,8,0:0:0:0:
80,318,95769,1,0,0:0:0:0:
80,318,95934,1,8,0:0:0:0:
80,318,96099,1,8,0:0:0:0:
80,318,96595,1,12,0:0:0:0:
80,318,96760,1,0,0:0:0:0:
57,352,96925,1,8,0:0:0:0:
39,333,97091,1,0,0:0:0:0:
80,318,97173,1,8,0:0:0:0:
80,318,97256,1,0,0:0:0:0:
82,258,97421,1,8,0:0:0:0:
107,265,97586,1,0,0:0:0:0:
80,318,97751,1,8,0:0:0:0:
152,284,97834,1,0,0:0:0:0:
151,384,97917,1,8,0:0:0:0:
229,382,98082,1,0,0:0:0:0:
232,351,98247,1,8,0:0:0:0:
128,307,98412,1,0,0:0:0:0:
138,308,98495,1,8,0:0:0:0:
61,234,98577,1,0,0:0:0:0:
121,352,98743,1,8,0:0:0:0:
13,316,98908,1,0,0:0:0:0:
80,318,99073,1,0,0:0:0:0:
91,364,99238,1,8,0:0:0:0:
80,318,99321,1,8,0:0:0:0:
155,347,99403,1,0,0:0:0:0:
80,318,99569,1,8,0:0:0:0:
80,318,99651,1,8,0:0:0:0:
164,316,99734,1,0,0:0:0:0:
80,318,99899,1,0,0:0:0:0:
137,294,100064,1,8,0:0:0:0:
67,280,100229,1,0,0:0:0:0:
77,278,100395,1,0,0:0:0:0:
80,318,100560,1,8,0:0:0:0:
80,318,100642,1,8,0:0:0:0:
80,318,100725,1,0,0:0:0:0:
94,273,100890,1,8,0:0:0:0:
80,318,101055,1,0,0:0:0:0:
167,263,101551,1,4,0:0:0:0:
80,318,101716,1,8,0:0:0:0:
80,318,101799,1,0,0:0:0:0:
137,285,101881,1,8,0:0:0:0:
34,335,102047,1,0,0:0:0:0:
80,318,102212,1,8,0:0:0:0:
40,259,102377,1,0,0:0:0:0:
80,318,102460,1,8,0:0:0:0:
80,318,102542,1,0,0:0:0:0:
166,346,102707,1,8,0:0:0:0:
80,318,102873,1,0,0:0:0:0:
55,358,103038,1,8,0:0:0:0:
80,318,103120,1,0,0:0:0:0:
80,318,103203,1,8,0:0:0:0:
80,318,103368,1,0,0:0:0:0:
80,318,103533,1,8,0:0:0:0:
80,318,103699,1,0,0:0:0:0:
74,312,103781,1,0,0:0:0:0:
156,345,103864,1,8,0:0:0:0:
80,318,103946,1,8,0:0:0:0:
80,318,104029,1,0,0:0:0:0:
46,362,104194,1,8,0:0:0:0:
80,318,104359,1,0,0:0:0:0:
46,381,104525,1,8,0:0:0:0:
80,318,104607,1,8,0:0:0:0:
127,384,104690,1,0,0:0:0:0:
80,318,104855,1,8,0:0:0:0:
80,318,104938,1,8,0:0:0:0:
137,378,105020,1,0,0:0:0:0:
80,318,105185,1,8,0:0:0:0:
161,363,105351,1,0,0:0:0:0:
80,318,105433,1,0,0:0:0:0:
154,323,105516,1,8,0:0:0:0:
80,318,105681,1,0,0:0:0:0:
150,297,105846,1,8,0:0:0:0:
80,318,105929,1,8,0:0:0:0:
109,268,106011,1,0,0:0:0:0:
80,318,106177,1,8,0:0:0:0:
34,297,106507,1,8,0:0:0:0:
41,253,106672,1,8,0:0:0:0:
127,251,106837,1,4,0:0:0:0:
127,261,107003,1,0,0:0:0:0:
127,251,107168,1,12,0:0:0:0:
125,264,107333,1,8,0:0:0:0:
133,253,107498,1,4,0:0:0:0:
127,261,107663,1,0,0:0:0:0:
133,253,107829,1,12,0:0:0:0:
131,258,107994,1,8,0:0:0:0:
133,253,108159,1,4,0:0:0:0:
133,253,108489,1,4,0:0:0:0:
133,253,108820,1,12,0:0:0:0:
133,253,109150,1,12,0:0:0:0:
133,253,109481,1,4,0:0:0:0:
127,261,109646,1,0,0:0:0:0:
133,253,109811,1,12,0:0:0:0:
131,258,109976,1,8,0:0:0:0:
131,286,110141,1,4,0:0:0:0:
127,261,110307,1,0,0:0:0:0:
131,286,110472,1,12,0:0:0:0:
131,258,110637,1,8,0:0:0:0:
131,286,110802,1,4,0:0:0:0:
131,286,111133,1,12,0:0:0:0:
131,286,111463,1,12,0:0:0:0:
131,286,111793,1,12,0:0:0:0:
131,286,112124,1,4,0:0:0:0:
138,263,112289,1,0,0:0:0:0:
131,286,112454,1,12,0:0:0:0:
138,263,112619,1,8,0:0:0:0:
131,286,112785,1,4,0:0:0:0:
138,263,112950,1,0,0:0:0:0:
131,286,113115,1,12,0:0:0:0:
138,263,113280,1,8,0:0:0:0:
131,286,113445,1,4,0:0:0:0:
131,286,113776,1,4,0:0:0:0:
131,286,114106,1,12,0:0:0:0:
131,286,114436,1,12,0:0:0:0:
131,286,114767,1,4,0:0:0:0:
138,263,114932,1,0,0:0:0:0:
131,286,115097,1,12,0:0:0:0:
138,263,115262,1,8,0:0:0:0:
131,286,115428,1,4,0:0:0:0:
138,263,115593,1,0,0:0:0:0:
131,286,115758,1,12,0:0:0:0:
138,263,115923,1,8,0:0:0:0:
131,286,116088,1,4,0:0:0:0:
131,286,116419,1,12,0:0:0:0:
131,286,116749,1,12,0:0:0:0:
131,286,117080,1,12,0:0:0:0:
131,286,117410,1,4,0:0:0:0:
160,281,117740,1,8,0:0:0:0:
160,281,118071,1,8,0:0:0:0:
160,281,118401,1,8,0:0:0:0:
160,281,118732,1,8,0:0:0:0:
160,281,119062,1,8,0:0:0:0:
160,281,119392,1,8,0:0:0:0:
160,281,119723,1,8,0:0:0:0:
160,281,120053,1,8,0:0:0:0:
160,281,120384,1,8,0:0:0:0:
160,281,120714,1,8,0:0:0:0:
160,281,121044,1,8,0:0:0:0:
160,281,121375,1,8,0:0:0:0:
160,281,121705,1,8,0:0:0:0:
160,281,122036,1,8,0:0:0:0:
160,281,122366,1,8,0:0:0:0:
160,281,122696,1,8,0:0:0:0:
160,281,123027,1,8,0:0:0:0:
160,281,123357,1,8,0:0:0:0:
160,281,123688,1,8,0:0:0:0:
160,281,124018,1,8,0:0:0:0:
160,281,124348,1,8,0:0:0:0:
160,281,124679,1,8,0:0:0:0:
160,281,125009,1,8,0:0:0:0:
160,281,125340,1,8,0:0:0:0:
160,281,125670,1,8,0:0:0:0:
160,281,125835,1,0,0:0:0:0:
160,281,126000,1,8,0:0:0:0:
160,281,126331,1,8,0:0:0:0:
160,281,126661,1,8,0:0:0:0:
160,281,126992,1,8,0:0:0:0:
160,281,127157,1,0,0:0:0:0:
160,281,127322,1,8,0:0:0:0:
160,281,127652,1,8,0:0:0:0:
160,281,127983,1,8,0:0:0:0:
160,281,128148,1,0,0:0:0:0:
160,281,128313,1,8,0:0:0:0:
160,281,128478,1,8,0:0:0:0:
160,281,128644,1,0,0:0:0:0:
167,282,128809,1,0,0:0:0:0:
160,281,128974,1,8,0:0:0:0:
160,281,129139,1,0,0:0:0:0:
160,281,129304,1,8,0:0:0:0:
162,272,129387,1,8,0:0:0:0:
162,272,129470,1,8,0:0:0:0:
154,256,129635,1,8,0:0:0:0:
154,256,129717,1,8,0:0:0:0:
154,256,129800,1,8,0:0:0:0:
146,272,129965,1,8,0:0:0:0:
146,272,130048,1,8,0:0:0:0:
146,272,130130,1,8,0:0:0:0:
146,272,130213,1,8,0:0:0:0:
146,272,130296,1,0,0:0:0:0:
103,18,130626,1,4,0:0:0:0:
161,291,130791,1,8,0:0:0:0:
165,295,130874,1,8,0:0:0:0:
161,290,130956,1,0,0:0:0:0:
161,290,131039,1,0,0:0:0:0:
161,291,131122,1,8,0:0:0:0:
165,296,131287,1,8,0:0:0:0:
165,296,131452,1,0,0:0:0:0:
165,295,131617,1,8,0:0:0:0:
165,295,131700,1,8,0:0:0:0:
165,295,131782,1,0,0:0:0:0:
161,291,131948,1,8,0:0:0:0:
167,304,132278,1,0,0:0:0:0:
167,304,132443,1,0,0:0:0:0:
156,309,132608,1,8,0:0:0:0:
156,309,132773,1,8,0:0:0:0:
156,309,132939,1,0,0:0:0:0:
165,286,133104,1,0,0:0:0:0:
142,309,133269,1,8,0:0:0:0:
142,309,133352,1,8,0:0:0:0:
142,309,133434,1,0,0:0:0:0:
142,309,133517,1,0,0:0:0:0:
142,308,133599,1,8,0:0:0:0:
140,300,133765,1,0,0:0:0:0:
143,296,133930,1,8,0:0:0:0:
143,296,134012,1,0,0:0:0:0:
143,296,134178,1,0,0:0:0:0:
143,284,134260,1,8,0:0:0:0:
145,281,134425,1,8,0:0:0:0:
145,281,134591,1,0,0:0:0:0:
143,296,134921,1,8,0:0:0:0:
138,290,135086,1,8,0:0:0:0:
139,291,135251,1,0,0:0:0:0:
143,296,135417,1,0,0:0:0:0:
143,296,135582,1,8,0:0:0:0:
143,296,135747,1,8,0:0:0:0:
150,288,135912,1,0,0:0:0:0:
157,284,135995,1,0,0:0:0:0:
150,288,136077,1,8,0:0:0:0:
168,292,136160,1,8,0:0:0:0:
168,292,136243,1,0,0:0:0:0:
157,281,136408,1,0,0:0:0:0:
157,281,136573,1,8,0:0:0:0:
157,281,136656,1,8,0:0:0:0:
157,281,136821,1,0,0:0:0:0:
157,281,136903,1,8,0:0:0:0:
157,281,137069,1,0,0:0:0:0:
157,281,137234,1,8,0:0:0:0:
157,281,137564,1,0,0:0:0:0:
157,281,137729,1,0,0:0:0:0:
157,281,137895,1,8,0:0:0:0:
157,281,138060,1,8,0:0:0:0:
157,281,138225,1,0,0:0:0:0:
157,281,138390,1,0,0:0:0:0:
157,281,138555,1,8,0:0:0:0:
157,281,138638,1,8,0:0:0:0:
157,281,138721,1,0,0:0:0:0:
157,281,138803,1,0,0:0:0:0:
157,281,138886,1,8,0:0:0:0:
157,281,139051,1,0,0:0:0:0:
157,281,139216,1,8,0:0:0:0:
157,281,139299,1,8,0:0:0:0:
157,281,139381,1,0,0:0:0:0:
157,281,139547,1,8,0:0:0:0:
157,281,139712,1,8,0:0:0:0:
157,281,139877,1,0,0:0:0:0:
170,262,140125,1,8,0:0:0:0:
157,281,140207,1,0,0:0:0:0:
172,262,140373,1,0,0:0:0:0:
151,269,140538,1,8,0:0:0:0:
151,269,140868,1,8,0:0:0:0:
155,261,141033,1,8,0:0:0:0:
177,108,141199,1,4,0:0:0:0:
80,318,141364,1,8,0:0:0:0:
80,318,141446,1,8,0:0:0:0:
80,318,141529,1,0,0:0:0:0:
80,318,141694,1,0,0:0:0:0:
80,318,141859,1,8,0:0:0:0:
80,318,142025,1,0,0:0:0:0:
80,318,142107,1,8,0:0:0:0:
80,318,142190,1,0,0:0:0:0:
80,318,142355,1,8,0:0:0:0:
80,318,142520,1,0,0:0:0:0:
80,318,142685,1,8,0:0:0:0:
80,318,142768,1,0,0:0:0:0:
80,318,142851,1,8,0:0:0:0:
80,318,143016,1,8,0:0:0:0:
80,318,143181,1,0,0:0:0:0:
80,318,143346,1,8,0:0:0:0:
96,328,143429,1,0,0:0:0:0:
80,318,143511,1,8,0:0:0:0:
80,318,143677,1,8,0:0:0:0:
80,318,143842,1,0,0:0:0:0:
80,318,144007,1,0,0:0:0:0:
80,318,144172,1,8,0:0:0:0:
53,350,144255,1,8,0:0:0:0:
80,318,144337,1,0,0:0:0:0:
121,384,144503,1,8,0:0:0:0:
80,318,144585,1,8,0:0:0:0:
80,318,144668,1,0,0:0:0:0:
132,344,144833,1,0,0:0:0:0:
125,314,144998,1,8,0:0:0:0:
160,320,145163,1,0,0:0:0:0:
145,322,145329,1,0,0:0:0:0:
80,318,145494,1,8,0:0:0:0:
80,318,145576,1,8,0:0:0:0:
208,346,145659,1,0,0:0:0:0:
80,318,145824,1,8,0:0:0:0:
145,352,145907,1,8,0:0:0:0:
80,318,145989,1,0,0:0:0:0:
80,318,146072,1,0,0:0:0:0:
57,355,146155,1,8,0:0:0:0:
80,318,146485,1,4,0:0:0:0:
207,305,146650,1,8,0:0:0:0:
80,318,146733,1,8,0:0:0:0:
222,270,146815,1,0,0:0:0:0:
173,311,146981,1,0,0:0:0:0:
237,306,147146,1,8,0:0:0:0:
173,311,147311,1,0,0:0:0:0:
173,311,147394,1,8,0:0:0:0:
166,349,147476,1,0,0:0:0:0:
173,311,147641,1,8,0:0:0:0:
173,311,147807,1,0,0:0:0:0:
173,311,147972,1,8,0:0:0:0:
173,311,148054,1,0,0:0:0:0:
173,311,148137,1,8,0:0:0:0:
173,311,148302,1,8,0:0:0:0:
80,318,148467,1,0,0:0:0:0:
80,318,148633,1,8,0:0:0:0:
80,318,148715,1,0,0:0:0:0:
165,358,148798,1,8,0:0:0:0:
104,312,148880,1,0,0:0:0:0:
80,318,148963,1,8,0:0:0:0:
80,318,149128,1,0,0:0:0:0:
80,318,149293,1,0,0:0:0:0:
80,318,149459,1,8,0:0:0:0:
80,318,149541,1,8,0:0:0:0:
61,364,149624,1,0,0:0:0:0:
80,318,149789,1,8,0:0:0:0:
80,318,149872,1,8,0:0:0:0:
166,319,149954,1,0,0:0:0:0:
80,318,150119,1,8,0:0:0:0:
80,318,150202,1,0,0:0:0:0:
70,274,150285,1,8,0:0:0:0:
149,318,150450,1,0,0:0:0:0:
80,318,150615,1,0,0:0:0:0:
120,365,150780,1,8,0:0:0:0:
80,318,150863,1,8,0:0:0:0:
80,318,150945,1,0,0:0:0:0:
4,336,151110,1,8,0:0:0:0:
80,318,151193,1,8,0:0:0:0:
80,318,151276,1,0,0:0:0:0:
153,301,151358,1,0,0:0:0:0:
80,318,151441,1,0,0:0:0:0:
142,330,151936,1,0,0:0:0:0:
80,318,152102,1,12,0:0:0:0:
80,318,152267,1,0,0:0:0:0:
155,352,152432,1,8,0:0:0:0:
80,318,152597,1,0,0:0:0:0:
119,344,152680,1,0,0:0:0:0:
80,318,152762,1,8,0:0:0:0:
103,358,152928,1,8,0:0:0:0:
53,350,153093,1,0,0:0:0:0:
80,318,153258,1,8,0:0:0:0:
57,356,153341,1,0,0:0:0:0:
55,343,153423,1,8,0:0:0:0:
48,366,153588,1,0,0:0:0:0:
232,351,153754,1,8,0:0:0:0:
276,331,153919,1,0,0:0:0:0:
138,308,154001,1,8,0:0:0:0:
61,234,154084,1,0,0:0:0:0:
214,308,154249,1,8,0:0:0:0:
80,318,154414,1,0,0:0:0:0:
80,318,154580,1,0,0:0:0:0:
80,318,154745,1,8,0:0:0:0:
80,318,154827,1,8,0:0:0:0:
141,364,154910,1,0,0:0:0:0:
80,318,155075,1,8,0:0:0:0:
80,318,155158,1,8,0:0:0:0:
41,366,155240,1,0,0:0:0:0:
161,278,155406,1,0,0:0:0:0:
80,318,155571,1,8,0:0:0:0:
161,278,155736,1,0,0:0:0:0:
80,318,155901,1,0,0:0:0:0:
171,285,156066,1,8,0:0:0:0:
80,318,156149,1,8,0:0:0:0:
190,317,156232,1,0,0:0:0:0:
80,318,156397,1,8,0:0:0:0:
169,359,156562,1,8,0:0:0:0:
169,359,156892,1,8,0:0:0:0:
140,224,157058,1,4,0:0:0:0:
80,318,157223,1,8,0:0:0:0:
80,318,157305,1,8,0:0:0:0:
91,267,157388,1,0,0:0:0:0:
80,318,157553,1,0,0:0:0:0:
52,238,157718,1,8,0:0:0:0:
80,318,157884,1,0,0:0:0:0:
80,318,157966,1,0,0:0:0:0:
96,258,158049,1,8,0:0:0:0:
111,296,158214,1,8,0:0:0:0:
80,318,158379,1,0,0:0:0:0:
163,285,158544,1,8,0:0:0:0:
80,318,158627,1,0,0:0:0:0:
148,286,158710,1,8,0:0:0:0:
80,318,158875,1,0,0:0:0:0:
125,282,159040,1,8,0:0:0:0:
80,318,159205,1,0,0:0:0:0:
64,262,159288,1,0,0:0:0:0:
80,318,159370,1,8,0:0:0:0:
80,318,159453,1,8,0:0:0:0:
96,257,159536,1,0,0:0:0:0:
80,318,159701,1,8,0:0:0:0:
189,291,159866,1,0,0:0:0:0:
80,318,160031,1,8,0:0:0:0:
80,318,160114,1,8,0:0:0:0:
182,355,160196,1,0,0:0:0:0:
80,318,160362,1,8,0:0:0:0:
80,318,160444,1,8,0:0:0:0:
36,356,160527,1,0,0:0:0:0:
67,372,160692,1,8,0:0:0:0:
80,318,160857,1,0,0:0:0:0:
80,318,160940,1,0,0:0:0:0:
162,384,161022,1,8,0:0:0:0:
80,318,161188,1,0,0:0:0:0:
162,369,161353,1,8,0:0:0:0:
80,318,161435,1,8,0:0:0:0:
198,283,161518,1,0,0:0:0:0:
80,318,161683,1,8,0:0:0:0:
80,318,161766,1,8,0:0:0:0:
3,345,161848,1,0,0:0:0:0:
80,318,161931,1,0,0:0:0:0:
80,318,162014,1,0,0:0:0:0:
131,299,162179,1,8,0:0:0:0:
127,251,162344,1,0,0:0:0:0:
137,247,162509,1,0,0:0:0:0:
137,247,162840,1,0,0:0:0:0:
137,247,163170,1,0,0:0:0:0:
137,247,163500,1,0,0:0:0:0:
137,247,163831,1,0,0:0:0:0:
144,234,164161,1,0,0:0:0:0:
144,234,164492,1,0,0:0:0:0:
144,234,164822,1,0,0:0:0:0:
144,234,165152,1,0,0:0:0:0:
