osu file format v14

[General]
AudioFilename: audio.mp3
AudioLeadIn: 0
PreviewTime: 32829
Countdown: 0
SampleSet: Normal
StackLeniency: 0
Mode: 1
LetterboxInBreaks: 0
WidescreenStoryboard: 1

[Editor]
Bookmarks: 85690
DistanceSpacing: 0.5
BeatDivisor: 4
GridSize: 32
TimelineZoom: 2.360001

[Metadata]
Title:Malo Tebya
TitleUnicode:Мало Тебя
Artist:DJ SPIZDIL
ArtistUnicode:DJ SPIZDIL
Creator:Genjuro
Version:Genju & radar's Muzukashii
Source:
Tags:electronic russian radar collab serebro Серебро hardstyle mix nightcore
BeatmapID:2949882
BeatmapSetID:1433215

[Difficulty]
HPDrainRate:5
CircleSize:2
OverallDifficulty:5
ApproachRate:10
SliderMultiplier:1.4
SliderTickRate:1

[Events]
//Background and Video events
0,0,"bg.jpg",0,50
//Break Periods
//Storyboard Layer 0 (Background)
//Storyboard Layer 1 (Fail)
//Storyboard Layer 2 (Pass)
//Storyboard Layer 3 (Foreground)
//Storyboard Layer 4 (Overlay)
//Storyboard Sound Samples

[TimingPoints]
1111,330.396475770925,4,1,0,75,1,0
1111,-100,4,1,0,75,0,0
22173,-100,4,1,0,88,0,0
32746,-100,4,1,0,100,0,0
32829,-100,4,1,0,100,0,1
64547,-100,4,1,0,100,0,0
64712,-100,4,1,0,75,0,0
75037,-100,4,1,0,88,0,0
85775,-100,4,1,0,100,0,0
85857,-100,4,1,0,100,0,1
96265,-100,4,1,0,100,0,0
96595,-100,4,1,0,100,0,1
101221,-100,4,1,0,100,0,0
101551,-100,4,1,0,100,0,1
117410,-100,4,1,0,100,0,0
117575,-100,4,1,0,75,0,0
122614,-100,4,1,0,88,0,0
130543,-100,4,1,0,100,0,0
130626,-100,4,1,0,100,0,1
151771,-100,4,1,0,100,0,0
151936,-100,4,1,0,100,0,1
162344,-100,4,1,0,88,0,0
162509,-100,4,1,0,66,0,0
162840,-100,4,1,0,55,0,0
163170,-100,4,1,0,44,0,0
163500,-100,4,1,0,33,0,0
163666,-100,4,1,0,33,0,0
163831,-100,4,1,0,22,0,0
164161,-100,4,1,0,22,0,0
164492,-100,4,1,0,22,0,0
164822,-100,4,1,0,22,0,0
164987,-100,4,1,0,22,0,0
165152,-100,4,1,0,22,0,0

[HitObjects]
256,192,1111,5,0,0:0:0:0:
256,192,1276,1,0,0:0:0:0:
256,192,1441,1,8,0:0:0:0:
256,192,1771,1,0,0:0:0:0:
256,192,1936,1,8,0:0:0:0:
256,192,2267,1,8,0:0:0:0:
256,192,2762,1,8,0:0:0:0:
256,192,3093,1,0,0:0:0:0:
256,192,3258,1,8,0:0:0:0:
256,192,3588,1,8,0:0:0:0:
256,192,3754,1,0,0:0:0:0:
256,192,3919,1,0,0:0:0:0:
256,192,4084,1,8,0:0:0:0:
256,192,4414,1,0,0:0:0:0:
256,192,4580,1,8,0:0:0:0:
256,192,4910,1,8,0:0:0:0:
256,192,5406,1,8,0:0:0:0:
256,192,5736,1,8,0:0:0:0:
256,192,5901,1,8,0:0:0:0:
256,192,6232,1,8,0:0:0:0:
256,192,6397,1,0,0:0:0:0:
256,192,6562,1,0,0:0:0:0:
256,192,6727,1,8,0:0:0:0:
256,192,7058,1,0,0:0:0:0:
256,192,7223,1,8,0:0:0:0:
256,192,7553,1,8,0:0:0:0:
256,192,8049,1,8,0:0:0:0:
256,192,8379,1,0,0:0:0:0:
256,192,8544,1,8,0:0:0:0:
256,192,8875,1,8,0:0:0:0:
256,192,9040,1,0,0:0:0:0:
256,192,9205,1,0,0:0:0:0:
256,192,9370,1,8,0:0:0:0:
256,192,9701,1,0,0:0:0:0:
256,192,9866,1,8,0:0:0:0:
256,192,10196,1,8,0:0:0:0:
256,192,10692,1,8,0:0:0:0:
256,192,11022,1,8,0:0:0:0:
256,192,11188,1,8,0:0:0:0:
256,192,11518,1,8,0:0:0:0:
256,192,11683,1,0,0:0:0:0:
256,192,12014,1,0,0:0:0:0:
256,192,12179,1,0,0:0:0:0:
256,192,12344,1,8,0:0:0:0:
256,192,12674,1,8,0:0:0:0:
256,192,12840,1,0,0:0:0:0:
256,192,13170,1,0,0:0:0:0:
256,192,13335,1,8,0:0:0:0:
256,192,13666,1,8,0:0:0:0:
256,192,13831,1,8,0:0:0:0:
256,192,13996,1,0,0:0:0:0:
256,192,14657,1,0,0:0:0:0:
256,192,14822,1,8,0:0:0:0:
256,192,14987,1,0,0:0:0:0:
256,192,15318,1,0,0:0:0:0:
256,192,15483,1,8,0:0:0:0:
256,192,15813,1,8,0:0:0:0:
256,192,15978,1,0,0:0:0:0:
256,192,16309,1,8,0:0:0:0:
256,192,16474,1,0,0:0:0:0:
256,192,16639,1,8,0:0:0:0:
256,192,16804,1,8,0:0:0:0:
256,192,16970,1,0,0:0:0:0:
256,192,17300,1,0,0:0:0:0:
256,192,17465,1,0,0:0:0:0:
256,192,17630,1,8,0:0:0:0:
256,192,17961,1,8,0:0:0:0:
256,192,18126,1,0,0:0:0:0:
256,192,18456,1,0,0:0:0:0:
256,192,18622,1,8,0:0:0:0:
256,192,18952,1,8,0:0:0:0:
256,192,19117,1,8,0:0:0:0:
256,192,19282,1,0,0:0:0:0:
256,192,19943,1,0,0:0:0:0:
256,192,20108,1,8,0:0:0:0:
256,192,20273,1,0,0:0:0:0:
256,192,20604,1,8,0:0:0:0:
256,192,20769,1,0,0:0:0:0:
256,192,21099,1,0,0:0:0:0:
256,192,21265,1,8,0:0:0:0:
256,192,21595,1,8,0:0:0:0:
256,192,21760,1,8,0:0:0:0:
256,192,21925,1,0,0:0:0:0:
256,192,22091,1,8,0:0:0:0:
256,192,22256,1,0,0:0:0:0:
256,192,22586,1,0,0:0:0:0:
256,192,22917,1,0,0:0:0:0:
256,192,23247,1,0,0:0:0:0:
256,192,23577,1,8,0:0:0:0:
256,192,23908,1,8,0:0:0:0:
256,192,24238,1,0,0:0:0:0:
256,192,24569,1,0,0:0:0:0:
256,192,24899,1,8,0:0:0:0:
256,192,25229,1,8,0:0:0:0:
256,192,25560,1,8,0:0:0:0:
256,192,25890,1,8,0:0:0:0:
256,192,26221,1,0,0:0:0:0:
256,192,26551,1,0,0:0:0:0:
256,192,26881,1,8,0:0:0:0:
256,192,27212,1,8,0:0:0:0:
256,192,27542,1,0,0:0:0:0:
256,192,27707,1,0,0:0:0:0:
256,192,27873,1,0,0:0:0:0:
256,192,28038,1,0,0:0:0:0:
256,192,28203,1,8,0:0:0:0:
256,192,28368,1,8,0:0:0:0:
256,192,28533,1,0,0:0:0:0:
256,192,28864,1,8,0:0:0:0:
256,192,29029,1,8,0:0:0:0:
256,192,29194,1,8,0:0:0:0:
256,192,29359,1,8,0:0:0:0:
256,192,29525,1,0,0:0:0:0:
256,192,29690,1,0,0:0:0:0:
256,192,29855,1,8,0:0:0:0:
256,192,30185,2,0,L|256:128,16,35
256,192,32168,1,0,0:0:0:0:
256,192,32498,1,8,0:0:0:0:
256,192,32663,1,8,0:0:0:0:
256,192,32829,1,4,0:0:0:0:
256,192,33159,1,8,0:0:0:0:
256,192,33324,1,0,0:0:0:0:
256,192,33489,1,8,0:0:0:0:
256,192,33655,1,8,0:0:0:0:
256,192,33820,1,0,0:0:0:0:
256,192,33985,1,8,0:0:0:0:
256,192,34150,1,0,0:0:0:0:
256,192,34481,1,0,0:0:0:0:
256,192,34646,1,0,0:0:0:0:
256,192,34811,1,8,0:0:0:0:
256,192,35141,1,0,0:0:0:0:
256,192,35307,1,8,0:0:0:0:
256,192,35472,1,0,0:0:0:0:
256,192,35554,1,0,0:0:0:0:
256,192,35637,1,0,0:0:0:0:
256,192,35802,1,8,0:0:0:0:
256,192,35967,1,0,0:0:0:0:
256,192,36133,1,8,0:0:0:0:
256,192,36298,1,8,0:0:0:0:
256,192,36628,1,8,0:0:0:0:
256,192,36793,1,0,0:0:0:0:
256,192,36876,1,0,0:0:0:0:
256,192,36959,1,0,0:0:0:0:
256,192,37124,1,8,0:0:0:0:
256,192,37289,1,0,0:0:0:0:
256,192,37454,1,8,0:0:0:0:
256,192,37619,1,8,0:0:0:0:
256,192,38115,1,4,0:0:0:0:
256,192,38445,1,8,0:0:0:0:
256,192,38611,1,0,0:0:0:0:
256,192,38776,1,8,0:0:0:0:
256,192,38858,1,8,0:0:0:0:
256,192,38941,1,8,0:0:0:0:
256,192,39106,1,0,0:0:0:0:
256,192,39271,1,8,0:0:0:0:
256,192,39436,1,0,0:0:0:0:
256,192,39767,1,0,0:0:0:0:
256,192,39932,1,0,0:0:0:0:
256,192,40097,1,8,0:0:0:0:
256,192,40428,1,0,0:0:0:0:
256,192,40593,1,8,0:0:0:0:
256,192,40758,1,0,0:0:0:0:
256,192,40841,1,0,0:0:0:0:
256,192,40923,1,0,0:0:0:0:
256,192,41088,1,8,0:0:0:0:
256,192,41254,1,0,0:0:0:0:
256,192,41419,1,8,0:0:0:0:
256,192,41584,1,8,0:0:0:0:
256,192,41749,1,0,0:0:0:0:
256,192,41914,1,8,0:0:0:0:
256,192,42080,1,0,0:0:0:0:
256,192,42162,1,0,0:0:0:0:
256,192,42245,1,0,0:0:0:0:
256,192,42410,1,8,0:0:0:0:
256,192,42575,1,0,0:0:0:0:
256,192,42740,1,8,0:0:0:0:
256,192,42906,1,8,0:0:0:0:
256,192,43401,1,4,0:0:0:0:
256,192,43732,1,8,0:0:0:0:
256,192,43897,1,0,0:0:0:0:
256,192,44062,1,8,0:0:0:0:
256,192,44227,1,8,0:0:0:0:
256,192,44392,1,0,0:0:0:0:
256,192,44558,1,8,0:0:0:0:
256,192,44723,1,0,0:0:0:0:
256,192,45053,1,0,0:0:0:0:
256,192,45218,1,0,0:0:0:0:
256,192,45384,1,8,0:0:0:0:
256,192,45714,1,0,0:0:0:0:
256,192,45879,1,8,0:0:0:0:
256,192,46044,1,0,0:0:0:0:
256,192,46127,1,0,0:0:0:0:
256,192,46210,1,0,0:0:0:0:
256,192,46375,1,8,0:0:0:0:
256,192,46540,1,0,0:0:0:0:
256,192,46705,1,8,0:0:0:0:
256,192,46870,1,8,0:0:0:0:
256,192,47201,1,8,0:0:0:0:
256,192,47366,1,0,0:0:0:0:
256,192,47449,1,0,0:0:0:0:
256,192,47531,1,0,0:0:0:0:
256,192,47696,1,8,0:0:0:0:
256,192,47862,1,0,0:0:0:0:
256,192,48027,1,8,0:0:0:0:
256,192,48192,1,8,0:0:0:0:
256,192,48688,1,4,0:0:0:0:
256,192,49018,1,8,0:0:0:0:
256,192,49183,1,0,0:0:0:0:
256,192,49348,1,8,0:0:0:0:
256,192,49431,1,8,0:0:0:0:
256,192,49514,1,8,0:0:0:0:
256,192,49679,1,0,0:0:0:0:
256,192,49844,1,8,0:0:0:0:
256,192,50009,1,0,0:0:0:0:
256,192,50340,1,0,0:0:0:0:
256,192,50505,1,0,0:0:0:0:
256,192,50670,1,8,0:0:0:0:
256,192,51000,1,0,0:0:0:0:
256,192,51166,1,8,0:0:0:0:
256,192,51331,1,0,0:0:0:0:
256,192,51413,1,0,0:0:0:0:
256,192,51496,1,0,0:0:0:0:
256,192,51661,1,8,0:0:0:0:
256,192,51826,1,0,0:0:0:0:
256,192,51992,1,8,0:0:0:0:
256,192,52157,1,8,0:0:0:0:
256,192,52322,1,0,0:0:0:0:
256,192,52487,1,8,0:0:0:0:
256,192,52652,1,0,0:0:0:0:
256,192,52735,1,0,0:0:0:0:
256,192,52818,1,0,0:0:0:0:
256,192,52983,1,8,0:0:0:0:
256,192,53148,1,0,0:0:0:0:
256,192,53313,1,8,0:0:0:0:
256,192,53478,1,8,0:0:0:0:
256,192,53974,1,4,0:0:0:0:
256,192,54139,1,8,0:0:0:0:
256,192,54304,1,4,0:0:0:0:
256,192,54635,1,4,0:0:0:0:
256,192,54800,1,8,0:0:0:0:
256,192,54965,1,4,0:0:0:0:
256,192,55296,1,12,0:0:0:0:
256,192,55626,1,12,0:0:0:0:
256,192,55956,1,12,0:0:0:0:
256,192,56617,1,4,0:0:0:0:
256,192,56782,1,0,0:0:0:0:
256,192,56948,1,12,0:0:0:0:
256,192,57278,1,12,0:0:0:0:
256,192,57443,1,8,0:0:0:0:
256,192,57608,1,4,0:0:0:0:
256,192,57939,1,12,0:0:0:0:
256,192,58269,1,4,0:0:0:0:
256,192,58599,1,12,0:0:0:0:
256,192,59260,1,4,0:0:0:0:
256,192,59425,1,8,0:0:0:0:
256,192,59591,1,4,0:0:0:0:
256,192,59921,1,4,0:0:0:0:
256,192,60086,1,8,0:0:0:0:
256,192,60251,1,4,0:0:0:0:
256,192,60582,1,12,0:0:0:0:
256,192,60912,1,12,0:0:0:0:
256,192,61243,1,12,0:0:0:0:
256,192,61903,1,4,0:0:0:0:
256,192,62069,1,0,0:0:0:0:
256,192,62234,1,12,0:0:0:0:
256,192,62564,1,12,0:0:0:0:
256,192,62729,1,8,0:0:0:0:
256,192,62895,1,4,0:0:0:0:
256,192,63225,1,12,0:0:0:0:
256,192,63555,1,4,0:0:0:0:
256,192,63886,1,12,0:0:0:0:
256,192,64547,1,0,0:0:0:0:
256,192,64877,1,0,0:0:0:0:
256,192,65042,1,0,0:0:0:0:
256,192,65207,1,8,0:0:0:0:
256,192,65538,1,8,0:0:0:0:
256,192,65703,1,0,0:0:0:0:
256,192,66033,1,0,0:0:0:0:
256,192,66199,1,8,0:0:0:0:
256,192,66529,1,8,0:0:0:0:
256,192,66694,1,8,0:0:0:0:
256,192,66859,1,0,0:0:0:0:
256,192,67520,1,0,0:0:0:0:
256,192,67685,1,8,0:0:0:0:
256,192,67851,1,0,0:0:0:0:
256,192,68181,1,0,0:0:0:0:
256,192,68346,1,8,0:0:0:0:
256,192,68677,1,8,0:0:0:0:
256,192,68842,1,0,0:0:0:0:
256,192,69172,1,8,0:0:0:0:
256,192,69337,1,0,0:0:0:0:
256,192,69503,1,8,0:0:0:0:
256,192,69668,1,8,0:0:0:0:
256,192,69833,1,0,0:0:0:0:
256,192,70163,1,0,0:0:0:0:
256,192,70329,1,0,0:0:0:0:
256,192,70494,1,8,0:0:0:0:
256,192,70824,1,8,0:0:0:0:
256,192,70989,1,0,0:0:0:0:
256,192,71320,1,0,0:0:0:0:
256,192,71485,1,8,0:0:0:0:
256,192,71815,1,8,0:0:0:0:
256,192,71981,1,8,0:0:0:0:
256,192,72146,1,0,0:0:0:0:
256,192,72807,1,0,0:0:0:0:
256,192,72972,1,8,0:0:0:0:
256,192,73137,1,0,0:0:0:0:
256,192,73467,1,8,0:0:0:0:
256,192,73633,1,0,0:0:0:0:
256,192,73963,1,0,0:0:0:0:
256,192,74128,1,8,0:0:0:0:
256,192,74459,1,8,0:0:0:0:
256,192,74624,1,8,0:0:0:0:
256,192,74789,1,0,0:0:0:0:
256,192,74954,1,8,0:0:0:0:
256,192,75119,1,0,0:0:0:0:
256,192,75450,1,0,0:0:0:0:
256,192,75780,1,8,0:0:0:0:
256,192,76111,1,8,0:0:0:0:
256,192,76441,1,0,0:0:0:0:
256,192,76771,1,0,0:0:0:0:
256,192,77102,1,0,0:0:0:0:
256,192,77432,1,0,0:0:0:0:
256,192,77762,1,8,0:0:0:0:
256,192,78093,1,8,0:0:0:0:
256,192,78423,1,0,0:0:0:0:
256,192,78754,1,0,0:0:0:0:
256,192,79084,1,8,0:0:0:0:
256,192,79414,1,8,0:0:0:0:
256,192,79745,1,8,0:0:0:0:
256,192,80075,1,8,0:0:0:0:
256,192,80406,1,0,0:0:0:0:
256,192,80571,1,0,0:0:0:0:
256,192,80736,1,8,0:0:0:0:
256,192,80901,1,8,0:0:0:0:
256,192,81066,1,0,0:0:0:0:
256,192,81232,1,0,0:0:0:0:
256,192,81397,1,0,0:0:0:0:
256,192,81562,1,0,0:0:0:0:
256,192,81727,1,8,0:0:0:0:
256,192,81892,1,8,0:0:0:0:
256,192,82058,1,0,0:0:0:0:
256,192,82223,1,0,0:0:0:0:
256,192,82388,1,8,0:0:0:0:
256,192,82553,1,8,0:0:0:0:
256,192,82718,1,8,0:0:0:0:
256,192,82884,1,8,0:0:0:0:
256,192,83049,2,0,L|256:128,16,35
256,192,85031,1,0,0:0:0:0:
256,192,85362,1,8,0:0:0:0:
256,192,85527,1,8,0:0:0:0:
103,315,85857,1,0,0:0:0:0:
103,315,86022,1,12,0:0:0:0:
111,319,86353,1,8,0:0:0:0:
111,319,86518,1,8,0:0:0:0:
111,319,86683,1,0,0:0:0:0:
111,319,86848,1,0,0:0:0:0:
117,303,87014,1,8,0:0:0:0:
115,302,87344,1,0,0:0:0:0:
115,302,87509,1,0,0:0:0:0:
116,301,87674,1,8,0:0:0:0:
115,302,88005,1,0,0:0:0:0:
115,302,88170,1,8,0:0:0:0:
115,302,88335,1,0,0:0:0:0:
115,302,88418,1,0,0:0:0:0:
116,301,88500,1,0,0:0:0:0:
115,302,88666,1,8,0:0:0:0:
115,302,88831,1,8,0:0:0:0:
115,302,88996,1,0,0:0:0:0:
115,302,89161,1,8,0:0:0:0:
105,309,89492,1,0,0:0:0:0:
106,309,89657,1,8,0:0:0:0:
114,288,89739,1,8,0:0:0:0:
115,302,89822,1,8,0:0:0:0:
114,297,89987,1,0,0:0:0:0:
114,297,90152,1,8,0:0:0:0:
129,298,90318,1,0,0:0:0:0:
115,302,90483,1,0,0:0:0:0:
126,28,90978,1,4,0:0:0:0:
137,270,91309,1,8,0:0:0:0:
137,270,91474,1,8,0:0:0:0:
137,270,91639,1,0,0:0:0:0:
137,270,91804,1,8,0:0:0:0:
137,270,91970,1,0,0:0:0:0:
137,270,92135,1,0,0:0:0:0:
137,270,92300,1,8,0:0:0:0:
137,270,92630,1,8,0:0:0:0:
137,270,92796,1,8,0:0:0:0:
137,270,92961,1,0,0:0:0:0:
145,268,93291,1,0,0:0:0:0:
145,268,93456,1,8,0:0:0:0:
145,268,93622,1,0,0:0:0:0:
145,268,93704,1,0,0:0:0:0:
145,268,93787,1,0,0:0:0:0:
145,268,93952,1,0,0:0:0:0:
145,268,94117,1,8,0:0:0:0:
145,268,94282,1,8,0:0:0:0:
145,268,94448,1,0,0:0:0:0:
145,268,94778,1,8,0:0:0:0:
145,268,94943,1,8,0:0:0:0:
158,247,95026,1,8,0:0:0:0:
158,247,95108,1,8,0:0:0:0:
141,258,95273,1,0,0:0:0:0:
141,258,95439,1,0,0:0:0:0:
141,258,95604,1,8,0:0:0:0:
141,258,95934,1,0,0:0:0:0:
152,278,96099,1,0,0:0:0:0:
100,40,96595,1,4,0:0:0:0:
144,284,96925,1,8,0:0:0:0:
144,284,97091,1,0,0:0:0:0:
144,284,97256,1,8,0:0:0:0:
141,268,97421,1,8,0:0:0:0:
141,268,97586,1,0,0:0:0:0:
141,268,97917,1,0,0:0:0:0:
141,268,98082,1,0,0:0:0:0:
141,268,98247,1,8,0:0:0:0:
141,268,98577,1,8,0:0:0:0:
141,268,98743,1,0,0:0:0:0:
152,257,98908,1,8,0:0:0:0:
152,257,98990,1,8,0:0:0:0:
152,257,99073,1,8,0:0:0:0:
156,279,99238,1,0,0:0:0:0:
156,279,99403,1,0,0:0:0:0:
156,279,99569,1,8,0:0:0:0:
156,279,99734,1,0,0:0:0:0:
156,279,100064,1,8,0:0:0:0:
156,279,100229,1,0,0:0:0:0:
156,279,100312,1,0,0:0:0:0:
156,279,100395,1,0,0:0:0:0:
150,286,100560,1,8,0:0:0:0:
151,286,100725,1,0,0:0:0:0:
151,286,100890,1,8,0:0:0:0:
151,286,101055,1,8,0:0:0:0:
102,73,101551,1,4,0:0:0:0:
159,297,101881,1,8,0:0:0:0:
159,297,102047,1,0,0:0:0:0:
159,297,102212,1,8,0:0:0:0:
159,297,102377,1,8,0:0:0:0:
159,297,102542,1,0,0:0:0:0:
159,297,102707,1,8,0:0:0:0:
159,297,102873,1,0,0:0:0:0:
152,283,103203,1,8,0:0:0:0:
152,283,103368,1,8,0:0:0:0:
152,283,103533,1,0,0:0:0:0:
152,283,103864,1,8,0:0:0:0:
142,266,104029,1,8,0:0:0:0:
142,266,104194,1,0,0:0:0:0:
142,266,104277,1,0,0:0:0:0:
142,266,104359,1,0,0:0:0:0:
191,298,104525,1,8,0:0:0:0:
191,298,104690,1,0,0:0:0:0:
191,298,104855,1,8,0:0:0:0:
191,298,105020,1,8,0:0:0:0:
131,298,105351,1,0,0:0:0:0:
72,286,105516,1,8,0:0:0:0:
72,286,105598,1,8,0:0:0:0:
72,286,105681,1,8,0:0:0:0:
86,293,105846,1,0,0:0:0:0:
86,293,106011,1,0,0:0:0:0:
86,293,106177,1,8,0:0:0:0:
86,293,106342,1,8,0:0:0:0:
139,38,106837,1,4,0:0:0:0:
115,283,107003,1,8,0:0:0:0:
94,182,107168,1,4,0:0:0:0:
94,182,107498,1,4,0:0:0:0:
115,283,107663,1,8,0:0:0:0:
100,166,107829,1,4,0:0:0:0:
148,131,108159,1,12,0:0:0:0:
148,131,108489,1,12,0:0:0:0:
148,131,108820,1,4,0:0:0:0:
106,293,109481,1,12,0:0:0:0:
106,293,109646,1,0,0:0:0:0:
97,98,109811,1,12,0:0:0:0:
111,125,110141,1,12,0:0:0:0:
122,290,110307,1,0,0:0:0:0:
111,125,110472,1,12,0:0:0:0:
109,99,110802,1,4,0:0:0:0:
109,99,111133,1,4,0:0:0:0:
109,99,111463,1,12,0:0:0:0:
109,159,112124,1,4,0:0:0:0:
108,300,112289,1,8,0:0:0:0:
105,165,112454,1,4,0:0:0:0:
105,165,112785,1,4,0:0:0:0:
108,300,112950,1,8,0:0:0:0:
105,165,113115,1,4,0:0:0:0:
109,158,113445,1,12,0:0:0:0:
109,158,113776,1,12,0:0:0:0:
109,158,114106,1,4,0:0:0:0:
114,55,114767,1,12,0:0:0:0:
120,285,114932,1,0,0:0:0:0:
107,117,115097,1,12,0:0:0:0:
107,117,115428,1,12,0:0:0:0:
120,285,115593,1,0,0:0:0:0:
107,117,115758,1,12,0:0:0:0:
107,117,116088,1,4,0:0:0:0:
107,117,116419,1,4,0:0:0:0:
107,117,116749,1,12,0:0:0:0:
106,85,117080,1,12,0:0:0:0:
113,285,117410,1,4,0:0:0:0:
81,275,118071,1,8,0:0:0:0:
81,275,118732,1,8,0:0:0:0:
81,275,119392,1,8,0:0:0:0:
81,275,120053,1,8,0:0:0:0:
81,275,120714,1,8,0:0:0:0:
81,275,121375,1,8,0:0:0:0:
81,275,122036,1,8,0:0:0:0:
81,275,122696,1,8,0:0:0:0:
81,275,123027,1,8,0:0:0:0:
81,275,123357,1,8,0:0:0:0:
81,275,124018,1,8,0:0:0:0:
81,275,124348,1,8,0:0:0:0:
81,275,124679,1,8,0:0:0:0:
81,275,125340,1,8,0:0:0:0:
81,275,125670,1,8,0:0:0:0:
81,275,126000,1,8,0:0:0:0:
81,275,126661,1,8,0:0:0:0:
81,275,126992,1,8,0:0:0:0:
81,275,127322,1,8,0:0:0:0:
81,275,127983,1,8,0:0:0:0:
81,275,128148,1,8,0:0:0:0:
81,275,128313,1,8,0:0:0:0:
81,275,128644,1,8,0:0:0:0:
81,275,128974,1,8,0:0:0:0:
81,275,129139,1,8,0:0:0:0:
81,275,129304,1,8,0:0:0:0:
104,264,129470,1,8,0:0:0:0:
104,264,129552,1,8,0:0:0:0:
110,279,129635,1,8,0:0:0:0:
104,278,129800,1,8,0:0:0:0:
104,278,129965,1,8,0:0:0:0:
104,278,130048,1,8,0:0:0:0:
104,278,130130,1,8,0:0:0:0:
100,73,130626,1,4,0:0:0:0:
117,295,130956,1,8,0:0:0:0:
117,295,131039,1,8,0:0:0:0:
117,295,131204,1,0,0:0:0:0:
117,295,131287,1,0,0:0:0:0:
118,278,131452,1,8,0:0:0:0:
118,278,131617,1,0,0:0:0:0:
127,279,131700,1,0,0:0:0:0:
118,278,131782,1,0,0:0:0:0:
118,278,131948,1,8,0:0:0:0:
118,278,132278,1,8,0:0:0:0:
123,271,132608,1,8,0:0:0:0:
123,271,133269,1,0,0:0:0:0:
123,271,133352,1,0,0:0:0:0:
123,271,133517,1,8,0:0:0:0:
123,271,133599,1,8,0:0:0:0:
122,280,133765,1,0,0:0:0:0:
139,268,133930,1,8,0:0:0:0:
139,268,134012,1,8,0:0:0:0:
139,268,134095,1,8,0:0:0:0:
138,268,134260,1,8,0:0:0:0:
138,268,134425,1,0,0:0:0:0:
139,268,134591,1,8,0:0:0:0:
138,268,134921,1,8,0:0:0:0:
127,263,135251,1,8,0:0:0:0:
114,273,135912,1,8,0:0:0:0:
114,273,135995,1,8,0:0:0:0:
114,273,136160,1,0,0:0:0:0:
114,273,136243,1,0,0:0:0:0:
114,273,136408,1,8,0:0:0:0:
114,273,136573,1,0,0:0:0:0:
114,273,136656,1,0,0:0:0:0:
114,273,136738,1,0,0:0:0:0:
114,273,136903,1,8,0:0:0:0:
114,273,137069,1,0,0:0:0:0:
114,273,137234,1,8,0:0:0:0:
114,273,137564,1,8,0:0:0:0:
114,273,137895,1,8,0:0:0:0:
114,273,138555,1,0,0:0:0:0:
114,273,138638,1,0,0:0:0:0:
114,273,138803,1,8,0:0:0:0:
114,273,138886,1,8,0:0:0:0:
114,273,139051,1,0,0:0:0:0:
114,273,139216,1,8,0:0:0:0:
114,273,139299,1,8,0:0:0:0:
114,273,139381,1,8,0:0:0:0:
114,273,139547,1,0,0:0:0:0:
114,273,139712,1,8,0:0:0:0:
114,273,139877,1,0,0:0:0:0:
114,273,139960,1,0,0:0:0:0:
114,273,140042,1,0,0:0:0:0:
114,273,140207,1,8,0:0:0:0:
131,272,140373,1,0,0:0:0:0:
131,272,140538,1,8,0:0:0:0:
99,67,141199,1,4,0:0:0:0:
130,353,141529,1,8,0:0:0:0:
121,356,141694,1,0,0:0:0:0:
121,356,141859,1,8,0:0:0:0:
121,356,142025,1,8,0:0:0:0:
121,356,142190,1,0,0:0:0:0:
121,356,142355,1,0,0:0:0:0:
117,339,142520,1,8,0:0:0:0:
119,338,142851,1,0,0:0:0:0:
119,338,143016,1,0,0:0:0:0:
118,337,143181,1,8,0:0:0:0:
119,338,143511,1,0,0:0:0:0:
119,338,143677,1,8,0:0:0:0:
119,338,143842,1,0,0:0:0:0:
119,338,143924,1,0,0:0:0:0:
118,337,144007,1,0,0:0:0:0:
119,338,144172,1,8,0:0:0:0:
119,338,144337,1,8,0:0:0:0:
119,338,144503,1,0,0:0:0:0:
119,338,144668,1,8,0:0:0:0:
128,346,144998,1,0,0:0:0:0:
127,346,145163,1,8,0:0:0:0:
121,324,145246,1,8,0:0:0:0:
119,338,145329,1,8,0:0:0:0:
120,333,145494,1,0,0:0:0:0:
120,333,145659,1,8,0:0:0:0:
105,333,145824,1,0,0:0:0:0:
119,338,145989,1,0,0:0:0:0:
137,65,146485,1,4,0:0:0:0:
100,304,146815,1,8,0:0:0:0:
100,304,146981,1,8,0:0:0:0:
100,304,147146,1,0,0:0:0:0:
100,304,147311,1,8,0:0:0:0:
100,304,147476,1,0,0:0:0:0:
100,304,147641,1,0,0:0:0:0:
100,304,147807,1,8,0:0:0:0:
100,304,148137,1,8,0:0:0:0:
100,304,148302,1,8,0:0:0:0:
100,304,148467,1,0,0:0:0:0:
93,301,148798,1,0,0:0:0:0:
93,301,148963,1,8,0:0:0:0:
93,301,149128,1,0,0:0:0:0:
93,301,149211,1,0,0:0:0:0:
93,301,149293,1,0,0:0:0:0:
93,301,149459,1,0,0:0:0:0:
93,301,149624,1,8,0:0:0:0:
93,301,149789,1,8,0:0:0:0:
93,301,149954,1,0,0:0:0:0:
93,301,150285,1,0,0:0:0:0:
93,301,150450,1,8,0:0:0:0:
82,279,150532,1,8,0:0:0:0:
82,279,150615,1,8,0:0:0:0:
98,292,150780,1,0,0:0:0:0:
98,292,150945,1,0,0:0:0:0:
98,292,151111,1,8,0:0:0:0:
98,292,151441,1,0,0:0:0:0:
85,311,151936,1,8,0:0:0:0:
161,79,152102,1,4,0:0:0:0:
92,317,152432,1,8,0:0:0:0:
92,317,152597,1,0,0:0:0:0:
92,317,152762,1,8,0:0:0:0:
97,302,152928,1,8,0:0:0:0:
97,302,153093,1,0,0:0:0:0:
97,302,153423,1,0,0:0:0:0:
97,302,153588,1,0,0:0:0:0:
97,302,153754,1,8,0:0:0:0:
97,302,154084,1,8,0:0:0:0:
97,302,154249,1,0,0:0:0:0:
87,290,154414,1,8,0:0:0:0:
87,290,154497,1,8,0:0:0:0:
87,290,154580,1,8,0:0:0:0:
81,311,154745,1,0,0:0:0:0:
81,311,154910,1,0,0:0:0:0:
81,311,155075,1,8,0:0:0:0:
81,311,155240,1,0,0:0:0:0:
81,311,155571,1,8,0:0:0:0:
81,311,155736,1,0,0:0:0:0:
81,311,155819,1,0,0:0:0:0:
81,311,155901,1,0,0:0:0:0:
86,319,156066,1,8,0:0:0:0:
85,319,156232,1,0,0:0:0:0:
85,319,156397,1,8,0:0:0:0:
85,319,156562,1,8,0:0:0:0:
156,112,157058,1,4,0:0:0:0:
76,329,157388,1,8,0:0:0:0:
76,329,157553,1,0,0:0:0:0:
76,329,157718,1,8,0:0:0:0:
76,329,157884,1,8,0:0:0:0:
76,329,158049,1,0,0:0:0:0:
76,329,158214,1,8,0:0:0:0:
76,329,158379,1,0,0:0:0:0:
84,316,158710,1,8,0:0:0:0:
84,316,158875,1,8,0:0:0:0:
84,316,159040,1,0,0:0:0:0:
84,316,159370,1,8,0:0:0:0:
96,300,159536,1,8,0:0:0:0:
96,300,159701,1,0,0:0:0:0:
96,300,159783,1,0,0:0:0:0:
96,300,159866,1,0,0:0:0:0:
44,326,160031,1,8,0:0:0:0:
44,326,160196,1,0,0:0:0:0:
44,326,160362,1,8,0:0:0:0:
44,326,160527,1,8,0:0:0:0:
103,333,160857,1,0,0:0:0:0:
163,327,161022,1,8,0:0:0:0:
163,327,161105,1,8,0:0:0:0:
163,327,161188,1,8,0:0:0:0:
149,332,161353,1,0,0:0:0:0:
149,332,161518,1,0,0:0:0:0:
149,332,161683,1,8,0:0:0:0:
149,332,161848,1,8,0:0:0:0:
131,334,162179,1,8,0:0:0:0:
133,362,162344,1,0,0:0:0:0:
129,348,162509,1,0,0:0:0:0:
129,348,162840,1,0,0:0:0:0:
129,348,163170,1,0,0:0:0:0:
129,348,163500,1,0,0:0:0:0:
129,348,163831,1,0,0:0:0:0:
129,348,164161,1,0,0:0:0:0:
129,348,164492,1,0,0:0:0:0:
129,348,164822,1,0,0:0:0:0:
129,348,165152,1,0,0:0:0:0:
