osu file format v14

[General]
AudioFilename: audio.mp3
AudioLeadIn: 0
PreviewTime: 32829
Countdown: 0
SampleSet: Normal
StackLeniency: 0
Mode: 1
LetterboxInBreaks: 0
WidescreenStoryboard: 1

[Editor]
Bookmarks: 85690
DistanceSpacing: 0.5
BeatDivisor: 2
GridSize: 32
TimelineZoom: 3.86

[Metadata]
Title:Malo Tebya
TitleUnicode:Мало Тебя
Artist:DJ SPIZDIL
ArtistUnicode:DJ SPIZDIL
Creator:Genjuro
Version:Genju & radar's Futsuu
Source:
Tags:electronic russian radar collab serebro Серебро hardstyle mix nightcore
BeatmapID:2949880
BeatmapSetID:1433215

[Difficulty]
HPDrainRate:6
CircleSize:2
OverallDifficulty:4
ApproachRate:10
SliderMultiplier:1.4
SliderTickRate:1

[Events]
//Background and Video events
0,0,"bg.jpg",0,50
//Break Periods
//Storyboard Layer 0 (Background)
//Storyboard Layer 1 (Fail)
//Storyboard Layer 2 (Pass)
//Storyboard Layer 3 (Foreground)
//Storyboard Layer 4 (Overlay)
//Storyboard Sound Samples

[TimingPoints]
1111,330.396475770925,4,1,0,75,1,0
1111,-100,4,1,0,75,0,0
22173,-100,4,1,0,88,0,0
32746,-100,4,1,0,100,0,0
32829,-100,4,1,0,100,0,1
64547,-100,4,1,0,100,0,0
64712,-100,4,1,0,75,0,0
75037,-100,4,1,0,88,0,0
85775,-100,4,1,0,100,0,0
85857,-100,4,1,0,100,0,1
96265,-100,4,1,0,100,0,0
96595,-100,4,1,0,100,0,1
101221,-100,4,1,0,100,0,0
101551,-100,4,1,0,100,0,1
117410,-100,4,1,0,100,0,0
117575,-100,4,1,0,75,0,0
122614,-100,4,1,0,88,0,0
130543,-100,4,1,0,100,0,0
130626,-100,4,1,0,100,0,1
151771,-100,4,1,0,100,0,0
151936,-100,4,1,0,100,0,1
162344,-100,4,1,0,88,0,0
162509,-100,4,1,0,66,0,0
162840,-100,4,1,0,55,0,0
163170,-100,4,1,0,44,0,0
163500,-100,4,1,0,33,0,0
163666,-100,4,1,0,33,0,0
163831,-100,4,1,0,22,0,0
164161,-100,4,1,0,22,0,0
164492,-100,4,1,0,22,0,0
164822,-100,4,1,0,22,0,0
164987,-100,4,1,0,22,0,0
165152,-100,4,1,0,22,0,0

[HitObjects]
256,192,1111,5,0,0:0:0:0:
256,192,1441,1,0,0:0:0:0:
256,192,1771,1,8,0:0:0:0:
256,192,2267,1,8,0:0:0:0:
256,192,2762,1,0,0:0:0:0:
256,192,3093,1,8,0:0:0:0:
256,192,3754,1,0,0:0:0:0:
256,192,4084,1,0,0:0:0:0:
256,192,4414,1,8,0:0:0:0:
256,192,4580,1,8,0:0:0:0:
256,192,4910,1,0,0:0:0:0:
256,192,5406,1,8,0:0:0:0:
256,192,5736,1,8,0:0:0:0:
256,192,6397,1,0,0:0:0:0:
256,192,6727,1,0,0:0:0:0:
256,192,7058,1,8,0:0:0:0:
256,192,7553,1,8,0:0:0:0:
256,192,8049,1,0,0:0:0:0:
256,192,8379,1,8,0:0:0:0:
256,192,9040,1,0,0:0:0:0:
256,192,9370,1,0,0:0:0:0:
256,192,9701,1,8,0:0:0:0:
256,192,9866,1,8,0:0:0:0:
256,192,10196,1,0,0:0:0:0:
256,192,10692,1,8,0:0:0:0:
256,192,11022,1,8,0:0:0:0:
256,192,11683,1,0,0:0:0:0:
256,192,12014,1,0,0:0:0:0:
256,192,12344,1,8,0:0:0:0:
256,192,12840,1,0,0:0:0:0:
256,192,13335,1,8,0:0:0:0:
256,192,13666,1,0,0:0:0:0:
256,192,13831,1,0,0:0:0:0:
256,192,13996,1,8,0:0:0:0:
256,192,14657,1,0,0:0:0:0:
256,192,14987,1,8,0:0:0:0:
256,192,15483,1,8,0:0:0:0:
256,192,15978,1,8,0:0:0:0:
256,192,16309,1,0,0:0:0:0:
256,192,16474,1,8,0:0:0:0:
256,192,16804,1,8,0:0:0:0:
256,192,16970,1,0,0:0:0:0:
256,192,17300,1,0,0:0:0:0:
256,192,17630,1,8,0:0:0:0:
256,192,18126,1,0,0:0:0:0:
256,192,18622,1,8,0:0:0:0:
256,192,18952,1,0,0:0:0:0:
256,192,19117,1,0,0:0:0:0:
256,192,19282,1,8,0:0:0:0:
256,192,19943,1,0,0:0:0:0:
256,192,20273,1,8,0:0:0:0:
256,192,20769,1,8,0:0:0:0:
256,192,21265,1,8,0:0:0:0:
256,192,21595,1,0,0:0:0:0:
256,192,21760,1,8,0:0:0:0:
256,192,22091,1,8,0:0:0:0:
256,192,22256,1,0,0:0:0:0:
256,192,22917,1,0,0:0:0:0:
256,192,23577,1,8,0:0:0:0:
256,192,24238,1,8,0:0:0:0:
256,192,24899,1,0,0:0:0:0:
256,192,25560,1,8,0:0:0:0:
256,192,26221,1,8,0:0:0:0:
256,192,26881,1,8,0:0:0:0:
256,192,27542,1,0,0:0:0:0:
256,192,27873,1,0,0:0:0:0:
256,192,28203,1,8,0:0:0:0:
256,192,28533,1,8,0:0:0:0:
256,192,28864,1,0,0:0:0:0:
256,192,29194,1,8,0:0:0:0:
256,192,29525,1,8,0:0:0:0:
256,192,29855,1,8,0:0:0:0:
256,192,30185,1,0,0:0:0:0:
256,192,30351,1,0,0:0:0:0:
256,192,30516,1,8,0:0:0:0:
256,192,30846,1,8,0:0:0:0:
256,192,31011,1,8,0:0:0:0:
256,192,31177,1,0,0:0:0:0:
256,192,31507,1,8,0:0:0:0:
256,192,32168,1,0,0:0:0:0:
256,192,32498,1,8,0:0:0:0:
256,192,32829,1,4,0:0:0:0:
256,192,33159,1,8,0:0:0:0:
256,192,33324,1,0,0:0:0:0:
256,192,33489,1,0,0:0:0:0:
256,192,33820,1,0,0:0:0:0:
256,192,33985,1,8,0:0:0:0:
256,192,34150,1,0,0:0:0:0:
256,192,34481,1,0,0:0:0:0:
256,192,34811,1,0,0:0:0:0:
256,192,35141,1,0,0:0:0:0:
256,192,35307,1,8,0:0:0:0:
256,192,35637,1,0,0:0:0:0:
256,192,35802,1,8,0:0:0:0:
256,192,35967,1,0,0:0:0:0:
256,192,36133,1,8,0:0:0:0:
256,192,36298,1,0,0:0:0:0:
256,192,36628,1,8,0:0:0:0:
256,192,36959,1,0,0:0:0:0:
256,192,37124,1,8,0:0:0:0:
256,192,37289,1,0,0:0:0:0:
256,192,37454,1,8,0:0:0:0:
256,192,38115,1,0,0:0:0:0:
256,192,38445,1,8,0:0:0:0:
256,192,38611,1,8,0:0:0:0:
256,192,38776,1,0,0:0:0:0:
256,192,39106,1,0,0:0:0:0:
256,192,39271,1,8,0:0:0:0:
256,192,39436,1,0,0:0:0:0:
256,192,39767,1,0,0:0:0:0:
256,192,40097,1,0,0:0:0:0:
256,192,40428,1,0,0:0:0:0:
256,192,40593,1,8,0:0:0:0:
256,192,40923,1,0,0:0:0:0:
256,192,41088,1,8,0:0:0:0:
256,192,41254,1,0,0:0:0:0:
256,192,41419,1,8,0:0:0:0:
256,192,41584,1,8,0:0:0:0:
256,192,41914,1,8,0:0:0:0:
256,192,42245,1,0,0:0:0:0:
256,192,42410,1,8,0:0:0:0:
256,192,42575,1,8,0:0:0:0:
256,192,42740,1,8,0:0:0:0:
256,192,43401,1,4,0:0:0:0:
256,192,43732,1,8,0:0:0:0:
256,192,43897,1,0,0:0:0:0:
256,192,44062,1,0,0:0:0:0:
256,192,44392,1,0,0:0:0:0:
256,192,44558,1,8,0:0:0:0:
256,192,44723,1,0,0:0:0:0:
256,192,45053,1,0,0:0:0:0:
256,192,45384,1,0,0:0:0:0:
256,192,45714,1,0,0:0:0:0:
256,192,45879,1,8,0:0:0:0:
256,192,46210,1,0,0:0:0:0:
256,192,46375,1,8,0:0:0:0:
256,192,46540,1,0,0:0:0:0:
256,192,46705,1,8,0:0:0:0:
256,192,46870,1,0,0:0:0:0:
256,192,47201,1,8,0:0:0:0:
256,192,47531,1,0,0:0:0:0:
256,192,47696,1,8,0:0:0:0:
256,192,47862,1,0,0:0:0:0:
256,192,48027,1,8,0:0:0:0:
256,192,48688,1,0,0:0:0:0:
256,192,49018,1,8,0:0:0:0:
256,192,49183,1,8,0:0:0:0:
256,192,49348,1,0,0:0:0:0:
256,192,49679,1,0,0:0:0:0:
256,192,49844,1,8,0:0:0:0:
256,192,50009,1,0,0:0:0:0:
256,192,50340,1,0,0:0:0:0:
256,192,50670,1,0,0:0:0:0:
256,192,51000,1,0,0:0:0:0:
256,192,51166,1,8,0:0:0:0:
256,192,51496,1,0,0:0:0:0:
256,192,51661,1,8,0:0:0:0:
256,192,51826,1,0,0:0:0:0:
256,192,51992,1,8,0:0:0:0:
256,192,52157,1,8,0:0:0:0:
256,192,52487,1,8,0:0:0:0:
256,192,52818,1,0,0:0:0:0:
256,192,52983,1,8,0:0:0:0:
256,192,53148,1,8,0:0:0:0:
256,192,53313,1,8,0:0:0:0:
256,192,53974,1,4,0:0:0:0:
256,192,54304,1,4,0:0:0:0:
256,192,54635,1,4,0:0:0:0:
256,192,55296,1,12,0:0:0:0:
256,192,55626,1,12,0:0:0:0:
256,192,55956,1,12,0:0:0:0:
256,192,56617,1,4,0:0:0:0:
256,192,56948,1,4,0:0:0:0:
256,192,57278,1,12,0:0:0:0:
256,192,57939,1,12,0:0:0:0:
256,192,58269,1,12,0:0:0:0:
256,192,58599,1,4,0:0:0:0:
256,192,59260,1,4,0:0:0:0:
256,192,59591,1,4,0:0:0:0:
256,192,59921,1,4,0:0:0:0:
256,192,60582,1,12,0:0:0:0:
256,192,60912,1,12,0:0:0:0:
256,192,61243,1,12,0:0:0:0:
256,192,61903,1,4,0:0:0:0:
256,192,62234,1,12,0:0:0:0:
256,192,62564,1,4,0:0:0:0:
256,192,63225,1,12,0:0:0:0:
256,192,63555,1,4,0:0:0:0:
256,192,63886,1,12,0:0:0:0:
256,192,64547,1,0,0:0:0:0:
256,192,64877,1,0,0:0:0:0:
256,192,65207,1,8,0:0:0:0:
256,192,65703,1,0,0:0:0:0:
256,192,66199,1,8,0:0:0:0:
256,192,66529,1,0,0:0:0:0:
256,192,66694,1,0,0:0:0:0:
256,192,66859,1,8,0:0:0:0:
256,192,67520,1,0,0:0:0:0:
256,192,67851,1,8,0:0:0:0:
256,192,68346,1,8,0:0:0:0:
256,192,68842,1,8,0:0:0:0:
256,192,69172,1,0,0:0:0:0:
256,192,69337,1,8,0:0:0:0:
256,192,69668,1,8,0:0:0:0:
256,192,69833,1,0,0:0:0:0:
256,192,70163,1,0,0:0:0:0:
256,192,70494,1,8,0:0:0:0:
256,192,70989,1,0,0:0:0:0:
256,192,71485,1,8,0:0:0:0:
256,192,71815,1,0,0:0:0:0:
256,192,71981,1,0,0:0:0:0:
256,192,72146,1,8,0:0:0:0:
256,192,72807,1,0,0:0:0:0:
256,192,73137,1,8,0:0:0:0:
256,192,73633,1,8,0:0:0:0:
256,192,74128,1,8,0:0:0:0:
256,192,74459,1,0,0:0:0:0:
256,192,74624,1,8,0:0:0:0:
256,192,74954,1,8,0:0:0:0:
256,192,75119,1,0,0:0:0:0:
256,192,75780,1,0,0:0:0:0:
256,192,76441,1,8,0:0:0:0:
256,192,77102,1,8,0:0:0:0:
256,192,77762,1,0,0:0:0:0:
256,192,78423,1,8,0:0:0:0:
256,192,79084,1,0,0:0:0:0:
256,192,79745,1,8,0:0:0:0:
256,192,80406,1,0,0:0:0:0:
256,192,80736,1,0,0:0:0:0:
256,192,81066,1,8,0:0:0:0:
256,192,81397,1,8,0:0:0:0:
256,192,81727,1,0,0:0:0:0:
256,192,82058,1,8,0:0:0:0:
256,192,82388,1,0,0:0:0:0:
256,192,82718,1,8,0:0:0:0:
256,192,83049,1,0,0:0:0:0:
256,192,83214,1,8,0:0:0:0:
256,192,83379,1,8,0:0:0:0:
256,192,83710,1,8,0:0:0:0:
256,192,83875,1,0,0:0:0:0:
256,192,84040,1,0,0:0:0:0:
256,192,84370,1,8,0:0:0:0:
256,192,85031,1,0,0:0:0:0:
256,192,85362,1,8,0:0:0:0:
114,280,86022,1,12,0:0:0:0:
114,280,86353,1,0,0:0:0:0:
114,280,86683,1,8,0:0:0:0:
114,280,86848,1,8,0:0:0:0:
110,262,87014,1,0,0:0:0:0:
110,262,87344,1,0,0:0:0:0:
112,244,87674,1,0,0:0:0:0:
128,255,88005,1,8,0:0:0:0:
128,255,88170,1,0,0:0:0:0:
126,264,88500,1,0,0:0:0:0:
126,264,88666,1,8,0:0:0:0:
126,264,88831,1,0,0:0:0:0:
126,264,88996,1,8,0:0:0:0:
126,264,89161,1,0,0:0:0:0:
126,264,89492,1,8,0:0:0:0:
126,264,89822,1,0,0:0:0:0:
113,262,89987,1,8,0:0:0:0:
126,264,90152,1,0,0:0:0:0:
117,294,90318,1,0,0:0:0:0:
117,294,90978,1,0,0:0:0:0:
131,301,91309,1,8,0:0:0:0:
131,301,91474,1,0,0:0:0:0:
131,301,91639,1,8,0:0:0:0:
131,301,91970,1,0,0:0:0:0:
131,301,92135,1,8,0:0:0:0:
131,301,92465,1,0,0:0:0:0:
131,301,92630,1,0,0:0:0:0:
131,301,92961,1,0,0:0:0:0:
131,301,93291,1,8,0:0:0:0:
131,301,93456,1,0,0:0:0:0:
131,301,93787,1,0,0:0:0:0:
131,301,93952,1,8,0:0:0:0:
131,301,94117,1,0,0:0:0:0:
131,301,94282,1,8,0:0:0:0:
131,301,94448,1,0,0:0:0:0:
131,301,94778,1,8,0:0:0:0:
131,301,95108,1,0,0:0:0:0:
131,301,95273,1,8,0:0:0:0:
131,301,95439,1,0,0:0:0:0:
131,301,95604,1,8,0:0:0:0:
131,276,95934,1,0,0:0:0:0:
102,284,96595,1,4,0:0:0:0:
102,284,96925,1,8,0:0:0:0:
118,294,97091,1,8,0:0:0:0:
102,284,97256,1,0,0:0:0:0:
102,284,97421,1,0,0:0:0:0:
116,273,97751,1,8,0:0:0:0:
116,273,97917,1,0,0:0:0:0:
116,273,98247,1,0,0:0:0:0:
116,273,98577,1,8,0:0:0:0:
116,273,98743,1,0,0:0:0:0:
116,273,99073,1,0,0:0:0:0:
116,273,99238,1,8,0:0:0:0:
116,273,99403,1,0,0:0:0:0:
116,273,99569,1,8,0:0:0:0:
116,273,99734,1,0,0:0:0:0:
116,273,100064,1,8,0:0:0:0:
116,273,100395,1,0,0:0:0:0:
116,273,100560,1,8,0:0:0:0:
116,273,100725,1,0,0:0:0:0:
116,273,100890,1,0,0:0:0:0:
116,273,101551,1,0,0:0:0:0:
131,278,101881,1,8,0:0:0:0:
131,278,102047,1,8,0:0:0:0:
131,278,102212,1,0,0:0:0:0:
131,278,102542,1,0,0:0:0:0:
131,278,102707,1,8,0:0:0:0:
131,278,103038,1,0,0:0:0:0:
131,278,103203,1,0,0:0:0:0:
131,278,103533,1,0,0:0:0:0:
131,278,103864,1,8,0:0:0:0:
131,278,104029,1,0,0:0:0:0:
131,278,104359,1,0,0:0:0:0:
131,278,104525,1,8,0:0:0:0:
132,264,104690,1,0,0:0:0:0:
132,264,104855,1,8,0:0:0:0:
132,264,105020,1,0,0:0:0:0:
133,257,105351,1,8,0:0:0:0:
133,257,105681,1,0,0:0:0:0:
133,257,105846,1,8,0:0:0:0:
133,257,106011,1,0,0:0:0:0:
133,257,106177,1,8,0:0:0:0:
102,79,106837,1,4,0:0:0:0:
102,79,107168,1,12,0:0:0:0:
102,79,107498,1,4,0:0:0:0:
102,79,107829,1,12,0:0:0:0:
108,88,108159,1,4,0:0:0:0:
108,88,108489,1,4,0:0:0:0:
108,88,108820,1,4,0:0:0:0:
108,88,109481,1,12,0:0:0:0:
108,88,109811,1,4,0:0:0:0:
108,88,110141,1,12,0:0:0:0:
94,115,110472,1,4,0:0:0:0:
102,106,110802,1,12,0:0:0:0:
102,106,111133,1,12,0:0:0:0:
102,106,111463,1,12,0:0:0:0:
102,106,112124,1,4,0:0:0:0:
102,106,112454,1,12,0:0:0:0:
102,106,112785,1,4,0:0:0:0:
102,106,113115,1,12,0:0:0:0:
102,106,113445,1,4,0:0:0:0:
102,106,113776,1,4,0:0:0:0:
102,106,114106,1,4,0:0:0:0:
102,106,114767,1,12,0:0:0:0:
102,106,115097,1,4,0:0:0:0:
102,106,115428,1,12,0:0:0:0:
102,106,115758,1,4,0:0:0:0:
102,106,116088,1,12,0:0:0:0:
102,106,116419,1,12,0:0:0:0:
102,106,116749,1,12,0:0:0:0:
86,268,117410,1,4,0:0:0:0:
108,268,118071,1,8,0:0:0:0:
108,268,118732,1,8,0:0:0:0:
108,268,119392,1,8,0:0:0:0:
108,268,120053,1,8,0:0:0:0:
108,268,120714,1,8,0:0:0:0:
108,268,121375,1,8,0:0:0:0:
108,268,122036,1,8,0:0:0:0:
108,268,122696,1,8,0:0:0:0:
108,268,123357,1,8,0:0:0:0:
108,268,124018,1,8,0:0:0:0:
108,268,124679,1,8,0:0:0:0:
108,268,125340,1,8,0:0:0:0:
108,268,126000,1,8,0:0:0:0:
108,268,126661,1,8,0:0:0:0:
108,268,127322,1,8,0:0:0:0:
108,268,127983,1,8,0:0:0:0:
108,268,128313,1,8,0:0:0:0:
108,268,128644,1,8,0:0:0:0:
108,268,128974,1,8,0:0:0:0:
111,282,129304,1,8,0:0:0:0:
111,282,129470,1,8,0:0:0:0:
111,282,129635,1,8,0:0:0:0:
111,282,129965,1,8,0:0:0:0:
65,79,130626,1,4,0:0:0:0:
118,284,130956,1,8,0:0:0:0:
118,284,131287,1,0,0:0:0:0:
118,284,131452,1,0,0:0:0:0:
118,284,131617,1,8,0:0:0:0:
120,276,131948,1,8,0:0:0:0:
120,276,132278,1,0,0:0:0:0:
120,276,132608,1,0,0:0:0:0:
113,291,133269,1,8,0:0:0:0:
113,291,133434,1,0,0:0:0:0:
113,291,133599,1,8,0:0:0:0:
113,291,133930,1,0,0:0:0:0:
113,291,134095,1,0,0:0:0:0:
113,291,134260,1,8,0:0:0:0:
113,291,134591,1,0,0:0:0:0:
113,291,134921,1,0,0:0:0:0:
113,291,135251,1,8,0:0:0:0:
113,291,135912,1,8,0:0:0:0:
113,291,136077,1,8,0:0:0:0:
113,291,136243,1,0,0:0:0:0:
122,282,136573,1,8,0:0:0:0:
122,282,136903,1,0,0:0:0:0:
122,282,137234,1,8,0:0:0:0:
122,282,137564,1,0,0:0:0:0:
122,282,137895,1,0,0:0:0:0:
122,282,138555,1,0,0:0:0:0:
122,282,138721,1,0,0:0:0:0:
122,282,138886,1,8,0:0:0:0:
122,272,139216,1,0,0:0:0:0:
122,272,139381,1,8,0:0:0:0:
122,272,139547,1,0,0:0:0:0:
118,260,139877,1,0,0:0:0:0:
118,260,140207,1,0,0:0:0:0:
118,260,140538,1,8,0:0:0:0:
118,75,141199,1,4,0:0:0:0:
167,349,141529,1,8,0:0:0:0:
167,349,141859,1,0,0:0:0:0:
167,349,142190,1,8,0:0:0:0:
167,349,142355,1,8,0:0:0:0:
165,330,142520,1,0,0:0:0:0:
165,330,142851,1,0,0:0:0:0:
157,314,143181,1,0,0:0:0:0:
146,329,143511,1,8,0:0:0:0:
146,329,143677,1,0,0:0:0:0:
150,337,144007,1,0,0:0:0:0:
150,337,144172,1,8,0:0:0:0:
150,337,144337,1,0,0:0:0:0:
150,337,144503,1,8,0:0:0:0:
150,337,144668,1,0,0:0:0:0:
150,337,144998,1,8,0:0:0:0:
150,337,145329,1,0,0:0:0:0:
162,331,145494,1,8,0:0:0:0:
150,337,145659,1,0,0:0:0:0:
168,363,145824,1,0,0:0:0:0:
168,363,146485,1,0,0:0:0:0:
157,374,146815,1,8,0:0:0:0:
157,374,146981,1,0,0:0:0:0:
157,374,147146,1,8,0:0:0:0:
157,374,147476,1,0,0:0:0:0:
157,374,147641,1,8,0:0:0:0:
157,374,147972,1,0,0:0:0:0:
157,374,148137,1,0,0:0:0:0:
157,374,148467,1,0,0:0:0:0:
157,374,148798,1,8,0:0:0:0:
157,374,148963,1,0,0:0:0:0:
157,374,149293,1,0,0:0:0:0:
157,374,149459,1,8,0:0:0:0:
157,374,149624,1,0,0:0:0:0:
157,374,149789,1,8,0:0:0:0:
157,374,149954,1,0,0:0:0:0:
157,374,150285,1,8,0:0:0:0:
157,374,150615,1,0,0:0:0:0:
157,374,150780,1,8,0:0:0:0:
157,374,150945,1,0,0:0:0:0:
157,374,151111,1,8,0:0:0:0:
179,349,152102,1,4,0:0:0:0:
179,349,152432,1,8,0:0:0:0:
167,363,152597,1,8,0:0:0:0:
179,349,152762,1,0,0:0:0:0:
179,349,152928,1,0,0:0:0:0:
163,343,153258,1,8,0:0:0:0:
163,343,153423,1,0,0:0:0:0:
163,343,153754,1,0,0:0:0:0:
163,343,154084,1,8,0:0:0:0:
163,343,154249,1,0,0:0:0:0:
163,343,154580,1,0,0:0:0:0:
163,343,154745,1,8,0:0:0:0:
163,343,154910,1,0,0:0:0:0:
163,343,155075,1,8,0:0:0:0:
163,343,155240,1,0,0:0:0:0:
163,343,155571,1,8,0:0:0:0:
163,343,155901,1,0,0:0:0:0:
163,343,156066,1,8,0:0:0:0:
163,343,156232,1,0,0:0:0:0:
163,343,156397,1,0,0:0:0:0:
163,343,157058,1,0,0:0:0:0:
150,352,157388,1,8,0:0:0:0:
150,352,157553,1,8,0:0:0:0:
150,352,157718,1,0,0:0:0:0:
150,352,158049,1,0,0:0:0:0:
150,352,158214,1,8,0:0:0:0:
150,352,158544,1,0,0:0:0:0:
150,352,158710,1,0,0:0:0:0:
150,352,159040,1,0,0:0:0:0:
150,352,159370,1,8,0:0:0:0:
150,352,159536,1,0,0:0:0:0:
150,352,159866,1,0,0:0:0:0:
150,352,160031,1,8,0:0:0:0:
145,339,160196,1,0,0:0:0:0:
145,339,160362,1,8,0:0:0:0:
145,339,160527,1,0,0:0:0:0:
141,333,160857,1,8,0:0:0:0:
141,333,161188,1,0,0:0:0:0:
141,333,161353,1,8,0:0:0:0:
141,333,161518,1,0,0:0:0:0:
141,333,161683,1,8,0:0:0:0:
154,364,162014,1,8,0:0:0:0:
256,192,162509,12,0,165152,0:0:0:0:
