osu file format v14

[General]
AudioFilename: audio.mp3
AudioLeadIn: 0
PreviewTime: 19790
Countdown: 0
SampleSet: Soft
StackLeniency: 0.7
Mode: 0
LetterboxInBreaks: 0
WidescreenStoryboard: 0

[Editor]
DistanceSpacing: 1.3
BeatDivisor: 8
GridSize: 8
TimelineZoom: 1.9

[Metadata]
Title:TURN DOWN FOR WHAT
TitleUnicode:TURN DOWN FOR WHAT
Artist:DJ SNAKE & LIL JON
ArtistUnicode:DJ SNAKE & LIL JON
Creator:Feb
Version:Normal
Source:
Tags:hiphop black cut version short
BeatmapID:957372
BeatmapSetID:444877

[Difficulty]
HPDrainRate:4
CircleSize:3.2
OverallDifficulty:5
ApproachRate:5
SliderMultiplier:1.4
SliderTickRate:1

[Events]
//Background and Video events
0,0,"wat.jpg",0,0
//Break Periods
2,18414,19614
2,76014,77214
//Storyboard Layer 0 (Background)
//Storyboard Layer 1 (Fail)
//Storyboard Layer 2 (Pass)
//Storyboard Layer 3 (Foreground)
//Storyboard Sound Samples

[TimingPoints]
1614,600,4,2,2,45,1,0
1614,-100,4,2,2,45,0,0
20814,-100,4,2,7,55,0,1
29514,-100,4,2,7,55,0,0
30414,-100,4,2,7,55,0,1
39114,-100,4,2,7,55,0,0
40314,-100,4,2,7,55,0,1
59214,-100,4,2,2,45,0,0
78414,-100,4,2,7,55,0,1
87114,-100,4,2,7,55,0,0
88014,-100,4,2,7,55,0,1
96414,-100,4,2,7,55,0,0
98514,-100,4,2,7,55,0,1
116214,714.285714285714,4,2,7,55,1,0
116214,-100,4,2,7,55,0,0
116572,967.741935483871,4,2,7,55,1,0
116572,-100,4,2,7,55,0,0
116750,-100,4,2,7,5,0,0
116813,-100,4,2,7,55,0,0

[Colours]
Combo1 : 128,64,64
Combo2 : 87,87,87
Combo3 : 94,0,0
Combo4 : 136,68,0
SliderBorder : 255,255,255
SliderTrackOverride : 27,18,49

[HitObjects]
282,73,1614,6,0,B|319:64|319:64|391:81,2,105,8|8|8,0:0|0:0|0:0,0:0:0:0:
148,46,2964,2,0,B|162:124,1,70,8|0,0:0|0:0,0:0:0:0:
180,155,3414,2,0,L|176:198,1,35,8|8,0:0|0:0,0:0:0:0:
132,319,4014,6,0,B|89:305|89:305|20:317,2,105,8|8|8,0:0|0:0|0:0,0:0:0:0:
265,345,5364,2,0,L|348:334,1,70,8|0,0:0|0:0,0:0:0:0:
372,310,5814,2,0,L|419:321,1,35,8|8,0:0|0:0,0:0:0:0:
440,185,6414,6,0,L|453:80,2,105,8|8|8,0:0|0:0|0:0,0:0:0:0:
303,170,7764,2,0,P|274:158|222:164,1,70,8|0,0:0|0:0,0:0:0:0:
206,194,8214,2,0,L|165:182,1,35,8|8,0:0|0:0,0:0:0:0:
47,128,8814,6,0,B|27:201|27:201|39:244,2,105,8|8|8,0:0|0:0|0:0,0:0:0:0:
166,61,10164,2,0,P|206:76|242:65,1,70,8|0,0:0|0:0,0:0:0:0:
277,64,10614,2,0,L|297:26,1,35,8|8,0:0|0:0,0:0:0:0:
338,162,11214,6,0,P|317:209|323:271,2,105,8|8|8,0:0|0:0|0:0,0:0:0:0:
437,68,12564,2,0,L|367:47,1,70,8|0,0:0|0:0,0:0:0:0:
328,30,13014,2,0,L|280:34,1,35,8|8,0:0|0:0,0:0:0:0:
172,98,13614,6,0,B|105:87|105:87|69:59,2,105,8|8|8,0:0|0:0|0:0,0:0:0:0:
206,230,14964,2,0,P|179:249|161:294,1,70,8|0,0:0|0:0,0:0:0:0:
166,326,15414,2,0,L|170:372,1,35,8|8,0:0|0:0,0:0:0:0:
32,353,16014,6,0,L|19:236,2,105,8|8|8,0:0|0:0|0:0,0:0:0:0:
166,326,17364,2,0,P|203:314|246:320,1,70,8|0,0:0|0:0,0:0:0:0:
271,340,17814,2,0,L|308:321,1,35,8|8,0:0|0:0,0:0:0:0:
364,74,20814,6,0,P|335:125|375:193,1,140,12|2,0:0|0:0,0:0:0:0:
435,254,21714,2,0,B|328:236|328:236|293:249,1,140,8|0,0:0|0:0,0:0:0:0:
221,295,22614,2,0,P|194:276|175:237,1,70,2|0,0:0|0:0,0:0:0:0:
114,177,23214,2,0,P|121:233|99:285,1,105,12|8,0:0|3:0,0:0:0:0:
90,320,23814,1,2,0:0:0:0:
172,361,24114,2,0,P|240:336|298:374,1,140,8|0,0:0|0:0,0:0:0:0:
378,333,25014,2,0,L|461:326,1,70
467,236,25614,6,0,B|360:244|360:244|328:211,1,140,12|2,0:0|0:0,0:0:0:0:
311,133,26514,2,0,P|299:63|247:91,1,140,8|0,0:0|0:0,0:0:0:0:
183,139,27414,2,0,L|106:132,1,70,2|0,0:0|0:0,0:0:0:0:
22,126,28014,2,0,P|58:151|77:216,1,105,12|8,0:0|3:0,0:0:0:0:
50,243,28614,1,2,0:0:0:0:
128,289,28914,2,0,L|271:303,1,140,8|0,0:0|0:0,0:0:0:0:
326,233,29814,1,2,0:0:0:0:
258,172,30114,2,0,P|252:152|258:123,1,35,4|4,3:0|3:0,0:0:0:0:
275,96,30414,6,0,L|430:108,1,140,12|2,0:0|0:0,0:0:0:0:
498,72,31314,2,0,P|453:117|485:194,1,140,8|0,0:0|0:0,0:0:0:0:
399,240,32214,2,0,P|378:274|373:311,1,70,2|0,0:0|0:0,0:0:0:0:
305,364,32814,2,0,L|186:353,1,105,12|0,0:0|0:0,0:0:0:0:
157,370,33414,1,2,0:0:0:0:
84,314,33714,2,0,P|149:330|190:265,1,140,8|0,0:0|0:0,0:0:0:0:
162,191,34614,2,0,L|150:93,1,70,2|0,0:0|0:0,0:0:0:0:
98,50,35214,6,0,B|185:83|185:83|240:63,1,140,12|2,0:0|0:0,0:0:0:0:
295,4,36114,2,0,P|264:64|327:124,1,140,8|0,0:0|0:0,0:0:0:0:
390,138,37014,2,0,L|374:218,1,70,2|0,0:0|0:0,0:0:0:0:
398,294,37614,2,0,P|350:264|296:265,1,105,12|0,0:0|0:0,0:0:0:0:
268,293,38214,1,2,0:0:0:0:
221,371,38514,2,0,B|210:221,1,140,8|0,0:0|0:0,0:0:0:0:
251,148,39414,1,2,0:0:0:0:
164,121,39714,2,0,L|122:101,2,35,4|4|12,3:0|3:0|3:0,0:0:0:0:
251,148,40314,6,0,P|295:146|323:132,1,70,2|2,0:0|0:0,0:0:0:0:
302,46,40914,2,0,L|337:27,1,35,10|0,0:0|0:0,0:0:0:0:
377,19,41214,1,2,0:0:0:0:
444,79,41514,2,0,L|426:153,1,70,2|2,0:0|0:0,0:0:0:0:
488,215,42114,1,0,0:0:0:0:
409,260,42414,5,12,0:0:0:0:
439,345,42714,2,0,P|409:339|366:343,1,70,2|2,0:0|0:0,0:0:0:0:
280,358,43314,2,0,L|266:322,1,35,8|0,0:0|0:0,0:0:0:0:
257,280,43614,1,2,0:0:0:0:
177,323,43914,2,0,L|96:310,1,70,2|2,0:0|0:0,0:0:0:0:
29,358,44514,1,0,0:0:0:0:
1,271,44814,5,14,0:0:0:0:
79,225,45114,2,0,B|96:193|96:193|104:145,1,70,2|2,0:0|0:0,0:0:0:0:
52,82,45714,2,0,P|41:63|33:35,1,35,10|2,0:0|0:0,0:0:0:0:
64,15,46014,1,2,0:0:0:0:
143,59,46314,2,0,B|168:69|168:69|223:57,1,70,2|2,0:0|0:0,0:0:0:0:
282,4,46914,1,0,0:0:0:0:
346,68,47214,5,14,0:0:0:0:
436,63,47514,2,0,L|512:46,1,70,2|0,0:0|0:0,0:0:0:0:
485,136,48114,2,0,P|469:156|463:170,1,35,10|0,0:0|0:0,0:0:0:0:
474,208,48414,1,4,0:0:0:0:
434,289,48714,2,0,L|356:276,1,70,2|0,0:0|0:0,0:0:0:0:
274,283,49314,1,4,3:0:0:0:
203,340,49614,6,0,P|261:320|326:364,1,140,12|0,0:0|0:0,0:0:0:0:
414,352,50514,2,0,L|460:342,1,35,8|0,0:0|0:0,0:0:0:0:
485,317,50814,1,2,0:0:0:0:
440,237,51114,1,2,0:0:0:0:
504,173,51414,2,0,P|513:140|503:101,1,70,0|0,0:0|0:0,0:0:0:0:
418,134,52014,6,0,B|323:142|323:142|271:116,1,140,12|2,0:0|0:0,0:0:0:0:
194,103,52914,2,0,P|205:139|203:150,1,35,10|2,0:0|0:0,0:0:0:0:
192,179,53214,1,2,0:0:0:0:
108,215,53514,1,2,0:0:0:0:
28,171,53814,2,0,P|5:133|6:99,1,70,0|0,0:0|0:0,0:0:0:0:
71,46,54414,6,0,B|173:41|173:41|210:62,1,140,12|2,0:0|0:0,0:0:0:0:
268,125,55314,2,0,L|309:121,1,35,10|0,0:0|0:0,0:0:0:0:
339,94,55614,1,2,0:0:0:0:
395,165,55914,1,2,0:0:0:0:
473,118,56214,2,0,P|487:155|479:199,1,70,2|0,0:0|0:0,0:0:0:0:
429,257,56814,6,0,B|384:276|384:276|352:318|372:372,1,140,12|2,0:0|0:0,0:0:0:0:
278,378,57714,2,0,P|259:367|244:364,1,35,8|0,0:0|0:0,0:0:0:0:
200,363,58014,1,4,0:0:0:0:
109,373,58314,1,2,0:0:0:0:
55,299,58614,1,2,0:0:0:0:
137,260,58914,2,0,P|148:239|149:214,1,35,6|4,3:0|3:0,0:0:0:0:
136,184,59214,6,0,L|243:175,2,105,12|8|8,0:0|0:0|0:0,0:0:0:0:
62,68,60564,2,0,P|95:82|128:75,1,70,8|0,0:0|0:0,0:0:0:0:
168,55,61014,2,0,L|215:58,1,35,8|8,0:0|0:0,0:0:0:0:
314,135,61614,6,0,B|195:144,2,105,8|8|8,0:0|0:0|0:0,0:0:0:0:
447,161,62964,2,0,P|419:176|395:211,1,70,8|0,0:0|0:0,0:0:0:0:
380,248,63414,2,0,L|398:291,1,35,8|8,0:0|0:0,0:0:0:0:
273,346,64014,6,0,L|152:340,2,105,8|8|8,0:0|0:0|0:0,0:0:0:0:
185,241,65364,2,0,P|177:209|188:173,1,70,8|0,0:0|0:0,0:0:0:0:
225,150,65814,2,0,L|221:112,1,35,8|8,0:0|0:0,0:0:0:0:
347,63,66414,6,0,L|329:176,2,105,8|8|8,0:0|0:0|0:0,0:0:0:0:
446,156,67764,2,0,P|459:184|497:210,1,70,8|0,0:0|0:0,0:0:0:0:
491,252,68214,2,0,L|475:289,1,35,8|8,0:0|0:0,0:0:0:0:
358,351,68814,6,0,L|249:341,2,105,8|8|8,0:0|0:0|0:0,0:0:0:0:
259,256,70164,2,0,P|233:216|229:186,1,70,8|0,0:0|0:0,0:0:0:0:
240,150,70614,2,0,L|255:106,1,35,8|8,0:0|0:0,0:0:0:0:
119,151,71214,6,0,B|72:158|72:158|11:145,2,105,8|8|8,0:0|0:0|0:0,0:0:0:0:
251,116,72564,2,0,P|304:104|323:107,1,70,8|0,0:0|0:0,0:0:0:0:
359,127,73014,2,0,L|395:115,1,35,8|8,0:0|0:0,0:0:0:0:
443,242,73614,6,0,L|422:356,2,105,8|8|8,0:0|0:0|0:0,0:0:0:0:
316,294,74964,2,0,P|273:309|249:301,1,70,8|0,0:0|0:0,0:0:0:0:
209,283,75414,2,0,L|161:269,1,35,8|8,0:0|0:0,0:0:0:0:
88,128,78414,6,0,P|113:147|166:78,1,140,14|2,0:0|0:0,0:0:0:0:
248,38,79314,2,0,L|283:47,1,35,8|0,0:0|0:0,0:0:0:0:
322,26,79614,1,0,0:0:0:0:
348,112,79914,1,0,0:0:0:0:
438,115,80214,1,2,0:0:0:0:
386,190,80514,2,0,P|372:208|366:230,1,35,0|0,0:0|0:0,0:0:0:0:
344,258,80814,6,0,L|196:261,1,140,14|2,0:0|0:0,0:0:0:0:
114,277,81714,2,0,P|132:295|138:308,1,35,8|0,0:0|0:0,0:0:0:0:
139,349,82014,1,0,0:0:0:0:
225,377,82314,1,0,0:0:0:0:
313,354,82614,1,2,0:0:0:0:
397,320,82914,2,0,P|416:321|441:329,1,35,0|0,0:0|0:0,0:0:0:0:
472,344,83214,6,0,P|441:291|477:215,1,140,14|2,0:0|0:0,0:0:0:0:
392,170,84114,2,0,P|385:157|382:134,1,35,8|0,0:0|0:0,0:0:0:0:
389,92,84414,1,0,0:0:0:0:
307,51,84714,1,0,0:0:0:0:
240,113,85014,1,2,0:0:0:0:
163,64,85314,2,0,P|146:64|127:57,1,35,0|0,0:0|0:0,0:0:0:0:
88,37,85614,6,0,B|106:136|106:136|79:171,1,140,14|2,0:0|0:0,0:0:0:0:
68,257,86514,2,0,P|87:261|100:272,1,35,8|0,0:0|0:0,0:0:0:0:
129,304,86814,1,0,0:0:0:0:
206,352,87114,1,0,0:0:0:0:
289,316,87414,1,2,0:0:0:0:
377,337,87714,2,0,P|393:326|414:321,1,35,4|4,3:0|3:0,0:0:0:0:
450,304,88014,6,0,B|361:267|361:267|347:208,1,140,14|2,0:0|0:0,0:0:0:0:
394,144,88914,2,0,P|403:127|409:97,1,35,8|0,0:0|0:0,0:0:0:0:
414,66,89214,1,0,0:0:0:0:
342,9,89514,1,0,0:0:0:0:
272,67,89814,1,2,0:0:0:0:
188,102,90114,2,0,P|165:90|147:67,1,35,0|0,0:0|0:0,0:0:0:0:
138,42,90414,6,0,L|126:184,1,140,14|2,0:0|0:0,0:0:0:0:
44,220,91314,2,0,P|54:240|60:257,1,35,8|0,0:0|0:0,0:0:0:0:
67,296,91614,1,0,0:0:0:0:
141,348,91914,1,0,0:0:0:0:
230,329,92214,1,2,0:0:0:0:
320,321,92514,2,0,P|341:319|356:313,1,35,0|0,0:0|0:0,0:0:0:0:
346,270,92814,6,0,P|275:281|229:330,1,140,14|2,0:0|0:0,0:0:0:0:
155,276,93714,2,0,L|150:232,1,35,8|0,0:0|0:0,0:0:0:0:
146,195,94014,1,0,0:0:0:0:
138,105,94314,1,0,0:0:0:0:
93,25,94614,1,2,0:0:0:0:
183,28,94914,1,0,0:0:0:0:
227,107,95214,6,0,L|270:110,1,35,12|0,0:0|0:0,0:0:0:0:
246,152,95514,2,0,L|303:155,1,35,2|0,0:0|0:0,0:0:0:0:
270,198,95814,1,2,0:0:0:0:
274,288,96114,1,8,0:0:0:0:
208,351,96414,2,0,P|270:324|346:376,1,140,0|2,0:0|0:0,0:0:0:0:
417,322,97314,2,0,L|466:305,1,35,4|4,3:0|3:0,0:0:0:0:
290,147,98214,5,0,0:0:0:0:
340,222,98514,2,0,L|395:205,1,35,2|0,0:0|0:0,0:0:0:0:
418,203,98814,1,2,0:0:0:0:
414,112,99114,1,2,0:0:0:0:
451,28,99414,1,2,0:0:0:0:
361,46,99714,2,0,L|317:30,1,35,0|0,0:0|0:0,0:0:0:0:
295,65,100014,6,0,L|129:58,1,140,14|2,0:0|0:0,0:0:0:0:
96,128,100914,2,0,P|119:142|127:154,1,35,8|0,0:0|0:0,0:0:0:0:
145,188,101214,1,2,0:0:0:0:
141,274,101514,1,2,0:0:0:0:
68,328,101814,2,0,P|91:356|124:362,1,70,6|6,0:0|0:0,0:0:0:0:
141,274,102414,6,0,L|309:267,1,140,14|2,0:0|0:0,0:0:0:0:
366,298,103314,2,0,P|387:310|398:330,1,35,8|0,0:0|0:0,0:0:0:0:
413,359,103614,1,2,0:0:0:0:
484,303,103914,1,2,0:0:0:0:
467,213,104214,1,2,0:0:0:0:
397,153,104514,2,0,P|400:134|416:113,1,35,0|0,0:0|0:0,0:0:0:0:
448,100,104814,6,0,P|380:108|338:47,1,140,14|2,0:0|0:0,0:0:0:0:
252,28,105714,2,0,L|245:85,1,35,8|0,0:0|0:0,0:0:0:0:
241,107,106014,1,2,0:0:0:0:
150,106,106314,1,2,0:0:0:0:
59,107,106614,1,10,0:0:0:0:
100,187,106914,2,0,P|98:212|91:229,1,35,4|4,3:0|3:0,0:0:0:0:
76,263,107214,6,0,L|155:271,1,70,14|0,0:0|0:0,0:0:0:0:
218,324,107814,1,2,0:0:0:0:
285,262,108114,2,0,L|326:265,1,35,8|0,0:0|0:0,0:0:0:0:
360,243,108414,1,2,0:0:0:0:
442,203,108714,1,2,0:0:0:0:
499,273,109014,1,2,0:0:0:0:
422,322,109314,2,0,P|410:346|405:366,1,35,0|0,0:0|0:0,0:0:0:0:
366,374,109614,6,0,L|268:366,1,70,14|0,0:0|0:0,0:0:0:0:
220,317,110214,1,2,0:0:0:0:
174,238,110514,2,0,L|120:230,1,35,0|0,0:0|0:0,0:0:0:0:
119,191,110814,1,2,0:0:0:0:
180,123,111114,1,2,0:0:0:0:
267,146,111414,1,6,0:0:0:0:
338,202,111714,2,0,P|360:195|384:179,1,35,6|0,0:0|0:0,0:0:0:0:
398,153,112014,6,0,L|496:162,1,70,14|0,0:0|0:0,0:0:0:0:
506,241,112614,1,2,0:0:0:0:
428,288,112914,2,0,L|370:285,1,35,0|0,0:0|0:0,0:0:0:0:
347,280,113214,1,2,0:0:0:0:
256,271,113514,1,2,0:0:0:0:
165,259,113814,1,2,0:0:0:0:
85,303,114114,1,0,0:0:0:0:
72,211,114414,6,0,L|24:204,1,35,12|0,0:0|0:0,0:0:0:0:
73,177,114714,2,0,L|30:172,1,35,2|0,0:0|0:0,0:0:0:0:
62,134,115014,1,2,0:0:0:0:
57,43,115314,1,8,0:0:0:0:
136,87,115614,1,6,0:0:0:0:
219,122,115914,2,0,L|277:105,1,35
284,90,116214,6,0,L|410:101,1,117.5,7|10,0:0|0:0,0:0:0:0:
