osu file format v14

[General]
AudioFilename: audio.mp3
AudioLeadIn: 0
PreviewTime: 19790
Countdown: 0
SampleSet: Soft
StackLeniency: 0.7
Mode: 0
LetterboxInBreaks: 0
WidescreenStoryboard: 0

[Editor]
DistanceSpacing: 1
BeatDivisor: 6
GridSize: 8
TimelineZoom: 2.4

[Metadata]
Title:TURN DOWN FOR WHAT
TitleUnicode:TURN DOWN FOR WHAT
Artist:DJ SNAKE & LIL JON
ArtistUnicode:DJ SNAKE & LIL JON
Creator:Feb
Version:Hard
Source:
Tags:hiphop black cut version short
BeatmapID:960407
BeatmapSetID:444877

[Difficulty]
HPDrainRate:5
CircleSize:4
OverallDifficulty:7
ApproachRate:7.5
SliderMultiplier:1.15
SliderTickRate:1

[Events]
//Background and Video events
0,0,"wat.jpg",0,0
//Break Periods
2,18414,19914
2,76014,77589
//Storyboard Layer 0 (Background)
//Storyboard Layer 1 (Fail)
//Storyboard Layer 2 (Pass)
//Storyboard Layer 3 (Foreground)
//Storyboard Sound Samples

[TimingPoints]
1614,600,4,2,2,45,1,0
1614,-200,4,2,2,45,0,0
3714,-100,4,2,2,45,0,0
4014,-166.666666666667,4,2,2,45,0,0
6114,-100,4,2,2,45,0,0
6414,-142.857142857143,4,2,2,45,0,0
8514,-100,4,2,2,45,0,0
8814,-125,4,2,2,45,0,0
10914,-100,4,2,2,45,0,0
11214,-111.111111111111,4,2,2,45,0,0
13314,-100,4,2,2,45,0,0
16014,-90.9090909090909,4,2,2,45,0,0
20814,-90.9090909090909,4,2,7,55,0,1
23139,-90.9090909090909,4,2,7,5,0,1
23214,-90.9090909090909,4,2,7,55,0,1
27939,-90.9090909090909,4,2,7,5,0,1
28014,-90.9090909090909,4,2,7,55,0,1
29514,-90.9090909090909,4,2,7,55,0,0
30414,-90.9090909090909,4,2,7,55,0,1
32739,-90.9090909090909,4,2,7,5,0,1
32814,-90.9090909090909,4,2,7,55,0,1
35139,-90.9090909090909,4,2,7,5,0,1
35214,-90.9090909090909,4,2,7,55,0,1
37539,-90.9090909090909,4,2,7,5,0,1
37614,-90.9090909090909,4,2,7,55,0,1
39114,-125,4,2,7,55,0,0
39714,-90.9090909090909,4,2,7,55,0,0
40314,-90.9090909090909,4,2,7,55,0,1
42339,-90.9090909090909,4,2,7,5,0,1
42414,-90.9090909090909,4,2,7,55,0,1
44739,-90.9090909090909,4,2,7,5,0,1
44814,-90.9090909090909,4,2,7,55,0,1
47139,-90.9090909090909,4,2,7,5,0,1
47214,-90.9090909090909,4,2,7,55,0,1
48339,-90.9090909090909,4,2,7,5,0,1
48414,-90.9090909090909,4,2,7,55,0,1
51939,-90.9090909090909,4,2,7,5,0,1
52014,-90.9090909090909,4,2,7,55,0,1
54339,-90.9090909090909,4,2,7,5,0,1
54414,-90.9090909090909,4,2,7,55,0,1
56739,-90.9090909090909,4,2,7,5,0,1
56814,-90.9090909090909,4,2,7,55,0,1
57939,-90.9090909090909,4,2,7,5,0,1
58014,-90.9090909090909,4,2,7,55,0,1
59214,-166.666666666667,4,2,2,45,0,0
61314,-90.9090909090909,4,2,2,45,0,0
61614,-142.857142857143,4,2,2,45,0,0
63714,-90.9090909090909,4,2,2,45,0,0
64014,-125,4,2,2,45,0,0
66114,-90.9090909090909,4,2,2,45,0,0
66414,-111.111111111111,4,2,2,45,0,0
68514,-90.9090909090909,4,2,2,45,0,0
68814,-99.9999999999999,4,2,2,45,0,0
70914,-90.9090909090909,4,2,2,45,0,0
73614,-83.3333333333333,4,2,2,45,0,0
78414,-83.3333333333333,4,2,7,55,0,1
87114,-83.3333333333333,4,2,7,55,0,0
88014,-83.3333333333333,4,2,7,55,0,1
96414,-111.111111111111,4,2,7,55,0,0
97014,-83.3333333333333,4,2,7,55,0,0
98214,-125,4,2,7,55,0,0
98439,-125,4,2,7,5,0,0
98514,-76.9230769230769,4,2,7,55,0,1
102039,-76.9230769230769,4,2,7,5,0,1
102114,-76.9230769230769,4,2,7,55,0,1
102339,-76.9230769230769,4,2,7,5,0,1
102414,-76.9230769230769,4,2,7,55,0,1
111639,-76.9230769230769,4,2,7,5,0,1
111714,-76.9230769230769,4,2,7,55,0,1
111939,-76.9230769230769,4,2,7,5,0,1
112014,-76.9230769230769,4,2,7,55,0,1
116214,714.285714285714,4,2,7,55,1,0
116214,-66.6666666666667,4,2,7,55,0,0
116572,967.741935483871,4,2,7,55,1,0
116572,-54.054054054054,4,2,7,55,0,0
116813,-83.3333333333333,4,2,7,55,0,0

[Colours]
Combo1 : 128,64,64
Combo2 : 87,87,87
Combo3 : 94,0,0
Combo4 : 136,68,0
SliderBorder : 255,255,255
SliderTrackOverride : 27,18,49

[HitObjects]
116,300,1614,6,0,L|146:304,1,28.75,8|0,0:0|0:0,0:0:0:0:
213,261,2064,2,0,L|246:251,1,28.75,8|0,0:0|0:0,0:0:0:0:
302,302,2514,6,0,L|332:306,1,28.75,8|0,0:0|0:0,0:0:0:0:
383,247,2964,2,0,L|416:237,1,28.75,8|0,0:0|0:0,0:0:0:0:
474,178,3414,1,8,0:0:0:0:
474,178,3564,1,8,0:0:0:0:
336,112,3714,2,0,L|374:119,1,28.75
355,139,4014,6,0,L|320:133,1,34.4999989471436,8|0,0:0|0:0,0:0:0:0:
248,102,4464,2,0,L|211:109,1,34.4999989471436,8|0,0:0|0:0,0:0:0:0:
156,166,4914,6,0,L|117:159,1,34.4999989471436,8|0,0:0|0:0,0:0:0:0:
56,112,5364,2,0,L|23:120,1,34.4999989471436,8|0,0:0|0:0,0:0:0:0:
60,210,5814,1,8,0:0:0:0:
60,210,5964,1,8,0:0:0:0:
142,276,6114,2,0,L|113:292,1,28.75
97,279,6414,6,0,L|139:258,1,40.2499987716675,8|0,0:0|0:0,0:0:0:0:
187,197,6864,2,0,L|228:206,1,40.2499987716675,8|0,0:0|0:0,0:0:0:0:
291,156,7314,6,0,L|333:140,1,40.2499987716675,8|0,0:0|0:0,0:0:0:0:
377,207,7764,2,0,L|423:213,1,40.2499987716675,8|0,0:0|0:0,0:0:0:0:
504,202,8214,1,8,0:0:0:0:
504,202,8364,1,8,0:0:0:0:
467,329,8514,2,0,L|475:292,1,28.75
445,307,8814,6,0,L|433:358,1,46,8|0,0:0|0:0,0:0:0:0:
328,363,9264,2,0,L|321:316,1,46,8|0,0:0|0:0,0:0:0:0:
234,261,9714,6,0,L|225:309,1,46,8|0,0:0|0:0,0:0:0:0:
145,343,10164,2,0,L|135:294,1,46,8|0,0:0|0:0,0:0:0:0:
71,242,10614,1,8,0:0:0:0:
71,242,10764,1,8,0:0:0:0:
200,143,10914,2,0,L|165:148,1,28.75
174,171,11214,6,0,L|226:165,1,51.7499984207154,8|0,0:0|0:0,0:0:0:0:
295,209,11664,2,0,L|348:218,1,51.7499984207154,8|0,0:0|0:0,0:0:0:0:
265,100,12114,6,0,L|317:92,1,51.7499984207154,8|0,0:0|0:0,0:0:0:0:
378,145,12564,2,0,L|428:155,1,51.7499984207154,8|0,0:0|0:0,0:0:0:0:
512,156,13014,1,8,0:0:0:0:
512,156,13164,1,8,0:0:0:0:
456,265,13314,2,0,L|494:271,1,28.75
473,295,13614,6,0,L|409:288,1,57.5,8|0,0:0|0:0,0:0:0:0:
368,350,14064,2,0,L|312:367,1,57.5,8|0,0:0|0:0,0:0:0:0:
263,295,14514,6,0,L|204:286,1,57.5,8|0,0:0|0:0,0:0:0:0:
147,347,14964,2,0,L|92:367,1,57.5,8|0,0:0|0:0,0:0:0:0:
38,286,15414,1,8,0:0:0:0:
38,286,15564,1,8,0:0:0:0:
135,170,15714,2,0,L|95:173,1,28.75
117,205,16014,6,0,L|183:197,1,63.2500019302369,8|0,0:0|0:0,0:0:0:0:
233,136,16464,2,0,L|306:153,1,63.2500019302369,8|0,0:0|0:0,0:0:0:0:
279,239,16914,6,0,L|345:228,1,63.2500019302369,8|0,0:0|0:0,0:0:0:0:
395,156,17364,2,0,L|468:171,1,63.2500019302369,8|0,0:0|0:0,0:0:0:0:
430,254,17814,5,8,0:0:0:0:
456,336,17964,1,8,0:0:0:0:
296,135,20814,6,0,L|331:138,2,31.6250009651184,12|0|0,0:0|0:0|0:0,0:0:0:0:
219,92,21264,1,0,0:0:0:0:
219,92,21414,2,0,L|217:56,1,31.6250009651184,2|0,0:0|0:0,0:0:0:0:
296,135,21714,6,0,P|333:163|340:215,1,94.8750028953553,8|0,0:0|0:0,0:0:0:0:
429,254,22314,1,0,0:0:0:0:
429,254,22464,1,0,0:0:0:0:
449,165,22614,2,0,L|491:158,1,31.6250009651184,2|0,0:0|0:0,0:0:0:0:
388,64,22914,1,0,0:0:0:0:
388,64,23214,6,0,L|422:37,1,31.6250009651184,12|0,0:0|0:0,0:0:0:0:
295,82,23514,2,0,L|252:69,1,31.6250009651184,0|8,0:0|3:0,0:0:0:0:
215,154,23814,2,0,L|172:164,1,31.6250009651184,2|0,0:0|0:0,0:0:0:0:
254,237,24114,6,0,P|296:252|315:306,1,94.8750028953553,8|0,0:0|0:0,0:0:0:0:
223,354,24714,2,0,P|191:346|169:348,1,42.1666679534912
150,357,25014,2,0,L|79:349,1,63.2500019302369
139,253,25464,1,0,0:0:0:0:
47,251,25614,6,0,L|28:212,2,31.6250009651184,12|0|0,0:0|0:0|0:0,0:0:0:0:
139,253,26064,1,0,0:0:0:0:
219,279,26214,2,0,P|237:275|257:268,1,31.6250009651184,2|0,0:0|0:0,0:0:0:0:
261,184,26514,6,0,P|228:159|173:153,1,94.8750028953553,8|0,0:0|0:0,0:0:0:0:
117,95,27114,1,0,0:0:0:0:
117,95,27264,1,0,0:0:0:0:
240,125,27414,2,0,L|270:116,1,31.6250009651184,2|0,0:0|0:0,0:0:0:0:
352,196,27714,1,0,0:0:0:0:
352,196,28014,6,0,L|398:198,1,31.6250009651184,12|0,0:0|0:0,0:0:0:0:
330,299,28314,2,0,L|287:311,2,31.6250009651184,0|8|2,0:0|3:0|0:0,0:0:0:0:
422,350,28764,1,0,0:0:0:0:
320,384,28914,6,0,P|290:356|233:352,1,94.8750028953553,8|0,0:0|0:0,0:0:0:0:
134,381,29514,2,0,L|126:344,1,31.6250009651184
66,285,29814,1,2,0:0:0:0:
66,285,29964,1,8,3:0:0:0:
185,272,30114,2,0,L|190:231,1,31.6250009651184,4|4,3:0|3:0,0:0:0:0:
129,169,30414,6,0,P|102:155|61:153,1,63.2500019302369,12|0,0:0|0:0,0:0:0:0:
136,65,30864,1,0,0:0:0:0:
207,136,31014,2,0,P|223:127|234:108,1,31.6250009651184,2|0,0:0|0:0,0:0:0:0:
299,61,31314,6,0,L|308:166,1,94.8750028953553,8|0,0:0|0:0,0:0:0:0:
269,235,31914,1,0,0:0:0:0:
396,176,32064,1,0,0:0:0:0:
396,176,32214,2,0,P|403:166|414:139,1,31.6250009651184,2|0,0:0|0:0,0:0:0:0:
369,267,32514,1,0,0:0:0:0:
369,267,32814,6,0,L|413:271,1,31.6250009651184,12|0,0:0|0:0,0:0:0:0:
334,340,33114,2,0,L|290:336,1,31.6250009651184
228,274,33414,2,0,P|206:283|190:297,1,31.6250009651184,2|0,0:0|0:0,0:0:0:0:
117,292,33714,6,0,P|156:322|163:364,1,94.8750028953553,8|0,0:0|0:0,0:0:0:0:
29,327,34314,2,0,P|19:304|20:272,1,42.1666679534912
40,258,34614,2,0,L|36:189,1,63.2500019302369,2|0,0:0|0:0,0:0:0:0:
116,152,35064,1,0,0:0:0:0:
39,83,35214,6,0,L|4:75,2,31.6250009651184,12|0|0,0:0|0:0|0:0,0:0:0:0:
125,46,35664,1,0,0:0:0:0:
199,92,35814,2,0,P|215:84|232:71,1,31.6250009651184,2|0,0:0|0:0,0:0:0:0:
316,131,36114,6,0,P|279:141|242:188,1,94.8750028953553,8|0,0:0|0:0,0:0:0:0:
331,225,36714,1,0,0:0:0:0:
331,225,36864,1,0,0:0:0:0:
238,268,37014,2,0,L|205:261,1,31.6250009651184,2|0,0:0|0:0,0:0:0:0:
315,343,37314,1,0,0:0:0:0:
315,343,37614,6,0,L|350:352,1,31.6250009651184,12|0,0:0|0:0,0:0:0:0:
404,286,37914,2,0,L|441:278,1,31.6250009651184
402,197,38214,2,0,P|410:186|412:158,1,31.6250009651184,2|0,0:0|0:0,0:0:0:0:
313,142,38514,2,0,B|259:148|259:148|221:128,1,94.8750028953553,8|0,0:0|0:0,0:0:0:0:
128,80,39114,6,0,L|124:49,2,23
82,148,39564,1,0,0:0:0:0:
143,202,39714,2,0,L|137:257,1,47.4375014476777,4|0,3:0|3:0,0:0:0:0:
135,265,40014,5,12,3:0:0:0:
262,270,40314,2,0,L|295:259,1,31.6250009651184,2|0,0:0|0:0,0:0:0:0:
325,332,40614,2,0,L|356:323,1,31.6250009651184,2|0,0:0|0:0,0:0:0:0:
401,232,40914,2,0,L|441:238,1,31.6250009651184,10|0,0:0|0:0,0:0:0:0:
293,170,41214,6,0,P|276:156|265:144,1,31.6250009651184,2|0,0:0|0:0,0:0:0:0:
234,65,41514,2,0,L|239:30,1,31.6250009651184,2|0,0:0|0:0,0:0:0:0:
160,116,41814,2,0,L|126:108,1,31.6250009651184,2|0,0:0|0:0,0:0:0:0:
118,227,42114,1,0,0:0:0:0:
118,227,42414,6,0,L|124:259,1,31.6250009651184,12|0,0:0|0:0,0:0:0:0:
198,312,42714,2,0,L|190:346,1,31.6250009651184,2|0,0:0|0:0,0:0:0:0:
283,293,43014,2,0,L|278:253,1,31.6250009651184,2|0,0:0|0:0,0:0:0:0:
235,183,43314,1,8,0:0:0:0:
235,183,43464,1,0,0:0:0:0:
335,206,43614,6,0,L|371:196,1,31.6250009651184,2|0,0:0|0:0,0:0:0:0:
310,114,43914,2,0,L|266:106,1,31.6250009651184,2|0,0:0|0:0,0:0:0:0:
357,26,44214,2,0,L|397:9,1,31.6250009651184,2|0,0:0|0:0,0:0:0:0:
231,30,44514,1,0,0:0:0:0:
231,30,44814,6,0,L|188:21,1,31.6250009651184,14|0,0:0|0:0,0:0:0:0:
107,78,45114,2,0,P|124:84|139:96,1,31.6250009651184,2|0,0:0|0:0,0:0:0:0:
177,180,45414,2,0,P|160:189|146:202,1,31.6250009651184,2|0,0:0|0:0,0:0:0:0:
81,272,45714,1,10,0:0:0:0:
81,272,45864,1,2,0:0:0:0:
179,346,46014,6,0,P|171:325|159:311,1,31.6250009651184,2|0,0:0|0:0,0:0:0:0:
96,368,46314,2,0,L|53:361,1,31.6250009651184,2|0,0:0|0:0,0:0:0:0:
202,361,46614,2,0,L|245:357,1,31.6250009651184,2|0,0:0|0:0,0:0:0:0:
346,309,46914,1,0,0:0:0:0:
346,309,47214,6,0,P|351:292|357:235,1,63.2500019302369,14|0,0:0|0:0,0:0:0:0:
285,194,47664,1,0,0:0:0:0:
360,110,47814,2,0,L|404:114,1,31.6250009651184
248,68,48114,1,10,0:0:0:0:
248,68,48414,6,0,P|243:57|231:42,1,31.6250009651184,4|0,0:0|0:0,0:0:0:0:
142,96,48714,2,0,P|135:111|130:129,1,31.6250009651184,2|0,0:0|0:0,0:0:0:0:
216,201,49014,2,0,P|220:222|221:236,1,31.6250009651184
112,351,49314,2,0,L|164:347,1,47.4375014476777,4|0,3:0|3:0,0:0:0:0:
175,346,49614,6,0,P|186:348|206:363,1,31.6250009651184,12|0,0:0|0:0,0:0:0:0:
303,350,49914,2,0,P|296:336|295:314,1,31.6250009651184,2|0,0:0|0:0,0:0:0:0:
360,250,50214,2,0,L|328:237,1,31.6250009651184
260,169,50514,2,0,L|301:160,1,31.6250009651184,8|0,0:0|0:0,0:0:0:0:
377,93,50814,6,0,P|363:84|345:69,1,31.6250009651184,2|0,0:0|0:0,0:0:0:0:
257,14,51114,2,0,P|254:29|245:52,1,31.6250009651184,2|0,0:0|0:0,0:0:0:0:
162,82,51414,2,0,L|119:76,1,31.6250009651184
122,186,51714,1,0,0:0:0:0:
122,186,52014,6,0,L|127:222,1,31.6250009651184,12|0,0:0|0:0,0:0:0:0:
211,288,52314,2,0,L|217:255,1,31.6250009651184,2|0,0:0|0:0,0:0:0:0:
246,158,52614,2,0,P|259:180|273:190,1,31.6250009651184,2|0,0:0|0:0,0:0:0:0:
345,117,52914,1,10,0:0:0:0:
345,117,53064,1,2,0:0:0:0:
262,46,53214,6,0,L|229:49,1,31.6250009651184,2|0,0:0|0:0,0:0:0:0:
153,104,53514,2,0,L|110:90,1,31.6250009651184,2|0,0:0|0:0,0:0:0:0:
178,187,53814,2,0,L|212:181,1,31.6250009651184
59,250,54114,1,0,0:0:0:0:
57,250,54414,6,0,L|38:220,1,31.6250009651184,12|0,0:0|0:0,0:0:0:0:
115,335,54714,2,0,L|111:366,1,31.6250009651184,2|0,0:0|0:0,0:0:0:0:
219,338,55014,2,0,P|236:333|259:333,1,31.6250009651184,2|0,0:0|0:0,0:0:0:0:
345,290,55314,2,0,P|330:282|319:266,1,31.6250009651184,10|0,0:0|0:0,0:0:0:0:
242,171,55614,6,0,L|249:208,1,31.6250009651184,2|0,0:0|0:0,0:0:0:0:
324,161,55914,2,0,L|328:128,1,31.6250009651184,2|0,0:0|0:0,0:0:0:0:
409,94,56214,2,0,L|414:127,1,31.6250009651184,2|0,0:0|0:0,0:0:0:0:
502,191,56514,1,0,0:0:0:0:
502,192,56814,6,0,P|511:214|518:254,1,63.2500019302369,12|0,0:0|0:0,0:0:0:0:
476,337,57264,1,0,0:0:0:0:
365,360,57414,2,0,L|328:369,1,31.6250009651184
323,259,57714,2,0,P|305:248|283:244,1,31.6250009651184,8|0,0:0|0:0,0:0:0:0:
207,295,58014,6,0,P|191:292|172:282,1,31.6250009651184,4|0,0:0|0:0,0:0:0:0:
146,200,58314,2,0,L|140:160,1,31.6250009651184,2|0,0:0|0:0,0:0:0:0:
231,123,58614,2,0,L|235:88,1,31.6250009651184,2|0,0:0|0:0,0:0:0:0:
280,210,58914,1,6,3:0:0:0:
280,210,59064,1,4,3:0:0:0:
365,108,59214,6,0,L|402:103,1,34.4999989471436,12|0,0:0|0:0,0:0:0:0:
411,196,59664,2,0,L|452:203,1,34.4999989471436,8|0,0:0|0:0,0:0:0:0:
352,279,60114,6,0,L|314:288,1,34.4999989471436,8|0,0:0|0:0,0:0:0:0:
237,244,60564,2,0,L|201:236,1,34.4999989471436,8|0,0:0|0:0,0:0:0:0:
117,290,61014,1,8,0:0:0:0:
117,290,61164,1,8,0:0:0:0:
107,154,61314,2,0,L|79:171,1,31.6250009651184
100,187,61614,6,0,L|141:164,1,40.2499987716675,8|0,0:0|0:0,0:0:0:0:
191,107,62064,2,0,L|235:114,1,40.2499987716675,8|0,0:0|0:0,0:0:0:0:
103,91,62514,6,0,L|60:82,1,40.2499987716675,8|0,0:0|0:0,0:0:0:0:
155,31,62964,2,0,L|204:26,1,40.2499987716675,8|0,0:0|0:0,0:0:0:0:
287,90,63414,1,8,0:0:0:0:
287,90,63564,1,8,0:0:0:0:
395,29,63714,2,0,L|355:27,1,31.6250009651184
376,56,64014,6,0,L|425:58,1,46,8|0,0:0|0:0,0:0:0:0:
462,136,64464,2,0,P|447:155|439:178,1,46,8|0,0:0|0:0,0:0:0:0:
381,232,64914,6,0,L|328:227,1,46,8|0,0:0|0:0,0:0:0:0:
271,281,65364,2,0,P|282:298|288:324,1,46,8|0,0:0|0:0,0:0:0:0:
223,384,65814,1,8,0:0:0:0:
223,384,65964,1,8,0:0:0:0:
402,364,66114,2,0,P|380:371|366:380,1,31.6250009651184
352,365,66414,6,0,P|371:349|404:342,1,51.7499984207154,8|0,0:0|0:0,0:0:0:0:
460,288,66864,2,0,L|466:237,1,51.7499984207154,8|0,0:0|0:0,0:0:0:0:
394,197,67314,6,0,L|385:141,1,51.7499984207154,8|0,0:0|0:0,0:0:0:0:
455,100,67764,2,0,P|465:74|464:39,1,51.7499984207154,8|0,0:0|0:0,0:0:0:0:
367,30,68214,1,8,0:0:0:0:
367,30,68364,1,8,0:0:0:0:
301,147,68514,2,0,P|318:133|323:118,1,31.6250009651184
345,126,68814,6,0,P|334:153|305:174,1,57.5,8|0,0:0|0:0,0:0:0:0:
202,152,69264,2,0,L|214:211,1,57.5,8|0,0:0|0:0,0:0:0:0:
286,273,69714,6,0,P|273:294|242:308,1,57.5,8|0,0:0|0:0,0:0:0:0:
164,346,70164,2,0,L|103:337,1,57.5,8|0,0:0|0:0,0:0:0:0:
50,276,70614,1,8,0:0:0:0:
50,276,70764,1,8,0:0:0:0:
156,207,70914,2,0,L|148:168,1,31.6250009651184
130,170,71214,6,0,L|143:236,1,63.2500019302369,8|0,0:0|0:0,0:0:0:0:
242,179,71664,2,0,L|305:185,1,63.2500019302369,8|0,0:0|0:0,0:0:0:0:
420,217,72114,6,0,P|392:227|365:254,1,63.2500019302369,8|0,0:0|0:0,0:0:0:0:
294,286,72564,2,0,L|230:280,1,63.2500019302369,8|0,0:0|0:0,0:0:0:0:
141,252,73014,1,8,0:0:0:0:
141,252,73164,1,8,0:0:0:0:
207,354,73314,2,0,L|169:357,1,31.6250009651184
166,373,73614,6,0,L|236:364,1,68.9999978942872,8|0,0:0|0:0,0:0:0:0:
333,352,74064,2,0,L|403:362,1,68.9999978942872,8|0,0:0|0:0,0:0:0:0:
448,286,74514,6,0,P|414:272|392:245,1,68.9999978942872,8|0,0:0|0:0,0:0:0:0:
408,152,74964,2,0,L|416:78,1,68.9999978942872,8|0,0:0|0:0,0:0:0:0:
340,21,75414,5,8,0:0:0:0:
264,65,75564,1,8,0:0:0:0:
336,67,78414,6,0,L|330:146,1,68.9999978942872,14|0,0:0|0:0,0:0:0:0:
393,183,78864,1,0,0:0:0:0:
315,215,79014,2,0,L|312:263,1,34.4999989471436,2|0,0:0|0:0,0:0:0:0:
380,324,79314,1,8,0:0:0:0:
380,324,79464,1,0,0:0:0:0:
260,348,79614,6,0,L|300:334,1,34.4999989471436
193,292,79914,2,0,L|227:280,1,34.4999989471436
124,234,80214,2,0,L|163:221,1,34.4999989471436,2|0,0:0|0:0,0:0:0:0:
92,321,80514,1,0,0:0:0:0:
92,321,80664,1,0,0:0:0:0:
152,224,80814,6,0,P|163:194|159:148,1,68.9999978942872,14|0,0:0|0:0,0:0:0:0:
92,114,81264,1,0,0:0:0:0:
167,41,81414,2,0,L|217:45,1,34.4999989471436,2|0,0:0|0:0,0:0:0:0:
285,12,81714,1,8,0:0:0:0:
285,12,81864,1,0,0:0:0:0:
293,126,82014,6,0,L|338:135,1,34.4999989471436
424,87,82314,2,0,L|458:82,1,34.4999989471436
396,168,82614,2,0,P|389:187|387:213,1,34.4999989471436,2|0,0:0|0:0,0:0:0:0:
459,243,82914,2,0,P|469:261|474:281,1,34.4999989471436
374,298,83214,6,0,L|303:291,1,68.9999978942872,14|0,0:0|0:0,0:0:0:0:
228,337,83664,1,0,0:0:0:0:
147,310,83814,2,0,L|109:326,2,34.4999989471436,2|0|0,0:0|0:0|0:0,0:0:0:0:
186,224,84264,1,0,0:0:0:0:
103,193,84414,6,0,L|70:175,1,34.4999989471436
158,131,84714,2,0,L|132:95,1,34.4999989471436
239,98,85014,2,0,L|241:57,1,34.4999989471436,2|0,0:0|0:0,0:0:0:0:
239,207,85314,1,0,0:0:0:0:
239,207,85464,1,0,0:0:0:0:
323,163,85614,6,0,L|392:166,1,68.9999978942872,14|0,0:0|0:0,0:0:0:0:
439,96,86064,1,0,0:0:0:0:
469,175,86214,2,0,L|513:178,1,34.4999989471436,2|0,0:0|0:0,0:0:0:0:
426,255,86514,2,0,P|409:270|397:292,1,34.4999989471436,8|0,0:0|0:0,0:0:0:0:
331,328,86814,6,0,L|286:323,1,34.4999989471436
215,314,87114,2,0,L|172:308,1,34.4999989471436
113,364,87414,1,2,0:0:0:0:
113,364,87564,1,0,0:0:0:0:
63,260,87714,2,0,L|121:248,1,51.7499984207154,4|0,3:0|3:0,0:0:0:0:
130,246,88014,6,0,P|145:216|141:179,1,68.9999978942872,14|0,0:0|0:0,0:0:0:0:
174,103,88464,1,0,0:0:0:0:
79,61,88614,2,0,L|39:57,1,34.4999989471436,2|0,0:0|0:0,0:0:0:0:
150,4,88914,1,8,0:0:0:0:
155,7,89064,1,0,0:0:0:0:
234,54,89214,6,0,L|280:47,1,34.4999989471436
273,126,89514,2,0,L|312:132,1,34.4999989471436
281,212,89814,2,0,L|313:228,1,34.4999989471436,2|0,0:0|0:0,0:0:0:0:
193,178,90114,1,0,0:0:0:0:
193,178,90264,1,0,0:0:0:0:
112,231,90414,6,0,L|39:242,1,68.9999978942872,14|0,0:0|0:0,0:0:0:0:
85,334,90864,1,0,0:0:0:0:
181,282,91014,2,0,L|219:292,2,34.4999989471436,2|0|0,0:0|0:0|0:0,0:0:0:0:
236,375,91464,1,0,0:0:0:0:
309,324,91614,6,0,P|313:310|314:286,1,34.4999989471436
258,207,91914,2,0,P|251:194|245:170,1,34.4999989471436
315,119,92214,2,0,L|355:124,1,34.4999989471436,2|0,0:0|0:0,0:0:0:0:
230,84,92514,2,0,L|194:91,1,34.4999989471436
51,117,92814,6,0,P|84:128|108:157,1,68.9999978942872,14|0,0:0|0:0,0:0:0:0:
31,210,93264,1,0,0:0:0:0:
115,239,93414,2,0,P|116:259|111:275,1,34.4999989471436,2|0,0:0|0:0,0:0:0:0:
59,347,93714,1,8,0:0:0:0:
59,347,93864,1,0,0:0:0:0:
178,327,94014,6,0,L|222:337,1,34.4999989471436
234,251,94314,2,0,L|277:249,1,34.4999989471436
241,157,94614,2,0,L|274:140,1,34.4999989471436,2|0,0:0|0:0,0:0:0:0:
189,83,94914,1,0,0:0:0:0:
128,154,95064,1,0,0:0:0:0:
124,163,95139,1,0,0:0:0:0:
119,172,95214,6,0,L|75:164,2,34.4999989471436,12|0|0,0:0|0:0|0:0,0:0:0:0:
189,83,95664,1,0,0:0:0:0:
271,141,95814,2,0,P|310:153|351:147,1,68.9999978942872
399,84,96264,1,0,0:0:0:0:
425,207,96414,6,0,L|428:244,1,25.8749992103577
354,288,96714,2,0,L|346:322,1,25.8749992103577
256,363,97014,2,0,L|250:327,1,34.4999989471436,2|0,0:0|0:0,0:0:0:0:
181,260,97314,2,0,L|186:209,1,51.7499984207154,4|4,3:0|3:0,0:0:0:0:
189,191,97614,5,12,3:0:0:0:
297,100,98214,2,0,L|342:93,1,46,0|2,0:0|0:0,0:0:0:0:
374,171,98664,1,0,0:0:0:0:
291,190,98814,6,0,L|251:197,1,37.3749982891084,2|0,0:0|0:0,0:0:0:0:
167,214,99114,2,0,L|126:221,1,37.3749982891084,2|0,0:0|0:0,0:0:0:0:
47,235,99414,2,0,L|10:242,1,37.3749982891084,2|0,0:0|0:0,0:0:0:0:
78,156,99714,1,0,0:0:0:0:
78,156,99864,1,0,0:0:0:0:
54,69,100014,6,0,L|46:25,2,37.3749982891084,14|0|0,0:0|0:0|0:0,0:0:0:0:
78,156,100464,1,0,0:0:0:0:
194,149,100614,2,0,P|206:124|205:73,1,74.7499965782167,2|0,0:0|0:0,0:0:0:0:
147,14,101064,1,0,0:0:0:0:
268,26,101214,6,0,B|312:16,1,37.3749982891084,2|0,0:0|0:0,0:0:0:0:
322,98,101514,2,0,L|368:85,1,37.3749982891084,2|0,0:0|0:0,0:0:0:0:
369,170,101814,2,0,L|444:150,1,74.7499965782167,6|6,0:0|0:0,0:0:0:0:
442,151,102414,6,0,L|394:140,1,37.3749982891084,14|0,0:0|0:0,0:0:0:0:
310,143,102714,2,0,L|270:131,1,37.3749982891084
191,146,103014,2,0,L|148:134,1,37.3749982891084,2|0,0:0|0:0,0:0:0:0:
89,83,103314,1,8,0:0:0:0:
89,83,103464,1,0,0:0:0:0:
24,159,103614,6,0,P|19:177|18:196,1,37.3749982891084,2|0,0:0|0:0,0:0:0:0:
106,230,103914,2,0,P|112:257|114:279,1,37.3749982891084,2|0,0:0|0:0,0:0:0:0:
52,336,104214,2,0,L|-1:329,1,37.3749982891084,2|0,0:0|0:0,0:0:0:0:
141,384,104514,1,0,0:0:0:0:
141,384,104664,1,0,0:0:0:0:
226,318,104814,6,0,P|263:299|300:294,1,74.7499965782167,14|0,0:0|0:0,0:0:0:0:
359,362,105264,1,0,0:0:0:0:
455,303,105414,2,0,L|492:310,2,37.3749982891084,2|0|0,0:0|0:0|0:0,0:0:0:0:
389,240,105864,1,0,0:0:0:0:
312,188,106014,6,0,P|306:172|303:150,1,37.3749982891084,2|0,0:0|0:0,0:0:0:0:
374,94,106314,2,0,P|380:79|380:58,1,37.3749982891084,2|0,0:0|0:0,0:0:0:0:
290,62,106614,2,0,L|246:57,1,37.3749982891084,10|8,0:0|0:0,0:0:0:0:
183,118,106914,2,0,L|128:126,1,56.0624974336625,4|0,3:0|3:0,0:0:0:0:
110,134,107214,6,0,P|101:157|100:172,1,37.3749982891084,14|0,0:0|0:0,0:0:0:0:
179,223,107514,2,0,P|184:241|187:261,1,37.3749982891084
98,314,107814,2,0,L|57:311,1,37.3749982891084,2|0,0:0|0:0,0:0:0:0:
163,384,108114,1,8,0:0:0:0:
163,384,108264,1,0,0:0:0:0:
256,336,108414,6,0,L|293:323,1,37.3749982891084,2|0,0:0|0:0,0:0:0:0:
399,346,108714,2,0,L|444:346,1,37.3749982891084,2|0,0:0|0:0,0:0:0:0:
351,265,109014,2,0,P|346:247|344:218,1,37.3749982891084,2|0,0:0|0:0,0:0:0:0:
395,160,109314,1,0,0:0:0:0:
395,160,109464,1,0,0:0:0:0:
280,168,109614,6,0,L|200:155,1,74.7499965782167,14|0,0:0|0:0,0:0:0:0:
158,78,110064,1,0,0:0:0:0:
57,138,110214,2,0,P|48:154|47:173,1,37.3749982891084,2|0,0:0|0:0,0:0:0:0:
103,249,110514,1,0,0:0:0:0:
103,249,110664,1,0,0:0:0:0:
201,304,110814,6,0,L|245:299,1,37.3749982891084,2|0,0:0|0:0,0:0:0:0:
137,352,111114,2,0,L|90:348,1,37.3749982891084,2|0,0:0|0:0,0:0:0:0:
250,378,111414,2,0,L|326:371,1,74.7499965782167,6|6,0:0|0:0,0:0:0:0:
324,371,112014,6,0,P|330:352|332:329,1,37.3749982891084,14|2,0:0|0:0,0:0:0:0:
341,251,112314,2,0,P|339:231|334:212,1,37.3749982891084
285,146,112614,2,0,P|270:140|249:135,1,37.3749982891084,2|0,0:0|0:0,0:0:0:0:
158,135,112914,1,0,0:0:0:0:
158,135,113064,1,0,0:0:0:0:
206,60,113214,6,0,L|211:9,1,37.3749982891084,2|0,0:0|0:0,0:0:0:0:
286,57,113514,2,0,L|292:14,1,37.3749982891084,2|0,0:0|0:0,0:0:0:0:
371,57,113814,2,0,L|378:17,1,37.3749982891084,2|0,0:0|0:0,0:0:0:0:
455,56,114114,1,0,0:0:0:0:
424,190,114264,1,0,0:0:0:0:
428,200,114339,1,0,0:0:0:0:
432,210,114414,6,0,L|470:211,2,37.3749982891084,12|0|0,0:0|0:0|0:0,0:0:0:0:
350,264,114864,1,0,0:0:0:0:
276,171,115014,2,0,P|257:149|212:130,1,74.7499965782167
131,157,115464,1,0,0:0:0:0:
188,245,115614,6,0,L|194:332,1,74.7499965782167,6|0,0:0|0:0,0:0:0:0:
118,377,116064,1,0,0:0:0:0:
193,319,116214,2,0,P|229:297|317:313,1,145,6|10,0:0|0:0,0:0:0:0:
