osu file format v14

[General]
AudioFilename: audio.mp3
AudioLeadIn: 0
PreviewTime: 19790
Countdown: 0
SampleSet: Soft
StackLeniency: 0.7
Mode: 0
LetterboxInBreaks: 0
WidescreenStoryboard: 0

[Editor]
DistanceSpacing: 1.1
BeatDivisor: 2
GridSize: 8
TimelineZoom: 2.3

[Metadata]
Title:TURN DOWN FOR WHAT
TitleUnicode:TURN DOWN FOR WHAT
Artist:DJ SNAKE & LIL JON
ArtistUnicode:DJ SNAKE & LIL JON
Creator:Feb
Version:Easy
Source:
Tags:hiphop black cut version short
BeatmapID:956369
BeatmapSetID:444877

[Difficulty]
HPDrainRate:3
CircleSize:3
OverallDifficulty:3
ApproachRate:3.5
SliderMultiplier:0.8
SliderTickRate:1

[Events]
//Background and Video events
0,0,"wat.jpg",0,0
//Break Periods
2,18414,19434
2,76014,77034
//Storyboard Layer 0 (Background)
//Storyboard Layer 1 (Fail)
//Storyboard Layer 2 (Pass)
//Storyboard Layer 3 (Foreground)
//Storyboard Sound Samples

[TimingPoints]
1614,600,4,2,2,45,1,0
1614,-100,4,2,2,45,0,0
20814,-100,4,2,7,55,0,1
29514,-100,4,2,7,55,0,0
30414,-100,4,2,7,55,0,1
39114,-100,4,2,7,55,0,0
40314,-100,4,2,7,55,0,1
59214,-100,4,2,2,45,0,0
78414,-100,4,2,7,55,0,1
87114,-100,4,2,7,55,0,0
88014,-100,4,2,7,55,0,1
96414,-100,4,2,7,55,0,0
98514,-100,4,2,7,55,0,1
116214,714.285714285714,4,2,7,55,1,0
116214,-66.6666666666667,4,2,7,55,0,0
116572,967.741935483871,4,2,7,55,1,0
116572,-54.054054054054,4,2,7,55,0,0
116750,-76.9230769230769,4,2,7,5,0,0
116813,-83.3333333333333,4,2,7,55,0,0

[Colours]
Combo1 : 128,64,64
Combo2 : 87,87,87
Combo3 : 94,0,0
Combo4 : 136,68,0
SliderBorder : 255,255,255
SliderTrackOverride : 27,18,49

[HitObjects]
220,62,1614,6,0,B|290:41|290:41|348:46,2,120,8|8|8,0:0|0:0|0:0,0:0:0:0:
177,138,4014,2,0,B|135:115|135:115|53:122,2,120,8|8|8,0:0|0:0|0:0,0:0:0:0:
247,190,6414,6,0,P|301:172|365:182,2,120,8|8|8,0:0|0:0|0:0,0:0:0:0:
166,226,8814,2,0,P|115:212|48:222,2,120,8|8|8,0:0|0:0|0:0,0:0:0:0:
246,261,11214,6,0,B|284:279|284:279|375:262,2,120,8|8|8,0:0|0:0|0:0,0:0:0:0:
166,226,13614,2,0,B|143:279|143:279|151:350,2,120,8|8|8,0:0|0:0|0:0,0:0:0:0:
213,152,16014,6,0,P|226:96|196:28,2,120,8|8|8,0:0|0:0|0:0,0:0:0:0:
137,136,20814,6,0,L|146:263,1,120,12|8,0:0|0:0,0:0:0:0:
237,349,22614,1,2,0:0:0:0:
280,272,23214,2,0,P|336:286|386:249,1,120,12|8,0:0|0:0,0:0:0:0:
360,122,25014,1,0,0:0:0:0:
284,167,25614,6,0,L|154:146,1,120,12|8,0:0|0:0,0:0:0:0:
88,254,27414,1,2,0:0:0:0:
126,333,28014,2,0,B|199:327|199:327|239:289,2,120,12|8|2,0:0|0:0|0:0,0:0:0:0:
88,254,30414,6,0,P|71:196|108:135,1,120,12|8,0:0|0:0,0:0:0:0:
219,99,32214,1,2,0:0:0:0:
286,156,32814,2,0,L|436:143,1,120,12|8,0:0|0:0,0:0:0:0:
334,257,34614,1,2,0:0:0:0:
269,317,35214,6,0,P|312:300|383:336,1,120,12|8,0:0|0:0,0:0:0:0:
468,232,37014,1,2,0:0:0:0:
382,209,37614,2,0,B|370:152|370:152|385:92,2,120,12|8|2,0:0|0:0|0:0,0:0:0:0:
498,76,40614,6,0,L|408:64,1,80,2|2,0:0|0:0,0:0:0:0:
341,22,41814,1,2,0:0:0:0:
281,86,42414,2,0,B|249:61|249:61|226:9,2,80,12|2|2,0:0|0:0|0:0,0:0:0:0:
327,160,44214,1,2,0:0:0:0:
364,239,44814,6,0,B|368:278|368:278|353:319,2,80,14|2|2,0:0|0:0|0:0,0:0:0:0:
279,263,46614,1,2,0:0:0:0:
205,311,47214,2,0,P|140:328|93:287,1,120,14|10,0:0|0:0,0:0:0:0:
203,220,49014,1,0,0:0:0:0:
279,263,49614,6,0,L|403:256,1,120,12|8,0:0|0:0,0:0:0:0:
427,127,51414,1,0,0:0:0:0:
471,203,52014,2,0,P|443:265|477:327,1,120,12|10,0:0|0:0,0:0:0:0:
336,359,53814,1,0,0:0:0:0:
262,310,54414,6,0,B|180:324|180:324|128:307,1,120,12|10,0:0|0:0,0:0:0:0:
116,183,56214,1,2,0:0:0:0:
85,100,56814,2,0,P|129:140|191:135,1,120,12|8,0:0|0:0,0:0:0:0:
317,119,58614,2,0,L|266:110,1,40,2|6,0:0|3:0,0:0:0:0:
258,72,59214,6,0,B|309:82|309:82|387:52,2,120,12|8|8,0:0|0:0|0:0,0:0:0:0:
171,89,61614,2,0,B|142:134|142:134|145:203,2,120,8|8|8,0:0|0:0|0:0,0:0:0:0:
225,159,64014,6,0,L|352:188,2,120,8|8|8,0:0|0:0|0:0,0:0:0:0:
223,246,66414,2,0,L|93:273,2,120,8|8|8,0:0|0:0|0:0,0:0:0:0:
303,280,68814,6,0,P|243:293|205:355,2,120,8|8|8,0:0|0:0|0:0,0:0:0:0:
390,275,71214,2,0,P|435:227|437:173,2,120,8|8|8,0:0|0:0|0:0,0:0:0:0:
347,197,73614,6,0,B|328:135|328:135|344:71,1,120,8|8,0:0|0:0,0:0:0:0:
222,139,75414,1,8,0:0:0:0:
88,115,78414,6,0,P|150:114|183:163,1,120,14|8,0:0|0:0,0:0:0:0:
195,198,79614,2,0,L|179:247,2,40,0|0|2,0:0|0:0|0:0,0:0:0:0:
282,203,80814,2,0,B|261:260|261:260|270:333,1,120,14|8,0:0|0:0,0:0:0:0:
302,346,82014,2,0,P|320:340|337:328,2,40,0|0|2,0:0|0:0|0:0,0:0:0:0:
213,344,83214,6,0,B|129:356|129:356|85:327,1,120,14|8,0:0|0:0,0:0:0:0:
85,295,84414,2,0,P|73:291|40:289,2,40,0|0|2,0:0|0:0|0:0,0:0:0:0:
156,242,85614,2,0,B|179:207|179:207|157:117,1,120,14|8,0:0|0:0,0:0:0:0:
179,91,86814,2,0,P|166:75|140:64,2,40,0|0|2,0:0|0:0|0:0,0:0:0:0:
261,123,88014,6,0,L|310:106,1,40,14|0,0:0|0:0,0:0:0:0:
340,96,88614,2,0,L|324:215,1,120,2|0,0:0|0:0,0:0:0:0:
351,249,89814,1,2,0:0:0:0:
297,319,90414,2,0,L|244:304,1,40,14|0,0:0|0:0,0:0:0:0:
233,344,91014,2,0,P|294:333|350:366,1,120,2|0,0:0|0:0,0:0:0:0:
386,350,92214,1,2,0:0:0:0:
406,264,92814,6,0,L|413:217,1,40,14|0,0:0|0:0,0:0:0:0:
435,187,93414,2,0,P|392:201|336:145,1,120,2|0,0:0|0:0,0:0:0:0:
328,114,94614,1,2,0:0:0:0:
240,121,95214,2,0,L|201:100,2,40,12|2|2,0:0|0:0|0:0,0:0:0:0:
237,165,96114,1,8,0:0:0:0:
326,264,97014,2,0,P|286:275|256:302,1,80,2|4,0:0|3:0,0:0:0:0:
173,330,98214,6,0,L|125:322,1,40,0|2,0:0|0:0,0:0:0:0:
105,289,98814,2,0,L|184:257,1,80,2|2,0:0|0:0,0:0:0:0:
249,206,100014,2,0,P|230:173|233:126,1,80,14|2,0:0|0:0,0:0:0:0:
247,90,100914,2,0,P|253:72|257:42,1,40,8|2,0:0|0:0,0:0:0:0:
341,69,101814,2,0,P|358:54|370:31,1,40,6|6,0:0|0:0,0:0:0:0:
402,14,102414,6,0,P|389:49|390:103,1,80,14|2,0:0|0:0,0:0:0:0:
403,133,103314,2,0,P|416:159|424:183,1,40,8|2,0:0|0:0,0:0:0:0:
354,228,104214,2,0,P|341:247|336:278,1,40,2|0,0:0|0:0,0:0:0:0:
326,306,104814,2,0,L|234:292,1,80,14|2,0:0|0:0,0:0:0:0:
203,291,105714,2,0,P|179:305|169:320,1,40,8|2,0:0|0:0,0:0:0:0:
92,280,106614,2,0,P|80:261|59:244,1,40,10|4,0:0|3:0,0:0:0:0:
35,217,107214,6,0,P|72:202|101:163,1,80,14|2,0:0|0:0,0:0:0:0:
103,128,108114,2,0,L|63:110,2,40,8|2|2,0:0|0:0|0:0,0:0:0:0:
146,120,109014,1,2,0:0:0:0:
218,70,109614,2,0,L|233:166,1,80,14|2,0:0|0:0,0:0:0:0:
252,186,110514,2,0,L|292:207,2,40,0|2|2,0:0|0:0|0:0,0:0:0:0:
229,223,111414,1,6,0:0:0:0:
186,300,112014,6,0,P|156:284|107:284,1,80,14|2,0:0|0:0,0:0:0:0:
67,291,112914,2,0,L|59:340,2,40,0|2|2,0:0|0:0|0:0,0:0:0:0:
37,257,113814,1,2,0:0:0:0:
54,168,114414,2,0,P|91:155|148:162,1,80,12|2,0:0|0:0,0:0:0:0:
171,173,115314,1,8,0:0:0:0:
213,161,115614,2,0,P|236:146|246:120,1,40,6|0,0:0|0:0,0:0:0:0:
249,90,116214,6,0,L|351:84,1,100.9,6|10,0:0|0:0,0:0:0:0:
