osu file format v14

[General]
AudioFilename: Touch the angel.mp3
AudioLeadIn: 0
PreviewTime: 73925
Countdown: 0
SampleSet: Normal
StackLeniency: 0.7
Mode: 3
LetterboxInBreaks: 0
SpecialStyle: 0
WidescreenStoryboard: 0

[Editor]
DistanceSpacing: 2
BeatDivisor: 2
GridSize: 16
TimelineZoom: 1.4

[Metadata]
Title:Touch the angel
TitleUnicode:Touch the angel
Artist:DJ SHARPNEL
ArtistUnicode:DJ SHARPNEL
Creator:pporse
Version:Insane
Source:けいおん!!
Tags:危ないベースライン 天使にふれたよ k-on!! Tenshi Ni Fureta Yo Houkago Tea Time ll
BeatmapID:683745
BeatmapSetID:304422

[Difficulty]
HPDrainRate:8
CircleSize:7
OverallDifficulty:7.5
ApproachRate:5
SliderMultiplier:1.4
SliderTickRate:1

[Events]
//Background and Video events
0,0,"TTA.png",0,0
//Break Periods
//Storyboard Layer 0 (Background)
//Storyboard Layer 1 (Fail)
//Storyboard Layer 2 (Pass)
//Storyboard Layer 3 (Foreground)
//Storyboard Sound Samples

[TimingPoints]
12,342.192312079389,4,1,1,30,1,0
76663,-100,4,1,1,30,0,1
87271,-100,4,1,1,30,0,0
87613,-100,4,1,1,30,0,1
98563,-100,4,1,1,30,0,0
114988,-100,4,1,1,30,0,1
125596,-100,4,1,1,30,0,0
125938,-100,4,1,1,30,0,1
136888,-100,4,1,1,30,0,0
172476,-100,4,1,1,30,0,1
194035,-100,4,1,1,30,0,0
194377,-100,4,1,1,30,0,1
205327,-100,4,1,1,30,0,0

[HitObjects]
475,192,12,5,2,0:0:0:0:
36,192,12,1,4,0:0:0:0:
256,192,12,1,4,0:0:0:0:
182,192,183,1,0,0:0:0:0:
475,192,354,1,2,0:0:0:0:
329,192,354,1,8,0:0:0:0:
182,192,525,1,0,0:0:0:0:
475,192,696,1,2,0:0:0:0:
182,192,867,1,0,0:0:0:0:
402,192,1038,1,8,0:0:0:0:
475,192,1038,1,2,0:0:0:0:
182,192,1209,1,0,0:0:0:0:
475,192,1380,1,2,0:0:0:0:
182,192,1551,1,0,0:0:0:0:
475,192,1722,1,2,0:0:0:0:
329,192,1722,1,8,0:0:0:0:
182,192,1894,1,0,0:0:0:0:
475,192,2065,1,2,0:0:0:0:
182,192,2236,1,0,0:0:0:0:
402,192,2407,1,8,0:0:0:0:
475,192,2407,1,2,0:0:0:0:
182,192,2578,1,0,0:0:0:0:
329,192,2749,1,2,0:0:0:0:
109,192,2920,1,0,0:0:0:0:
329,192,3091,1,2,0:0:0:0:
475,192,3091,1,8,0:0:0:0:
109,192,3262,1,0,0:0:0:0:
329,192,3433,1,2,0:0:0:0:
109,192,3605,1,0,0:0:0:0:
329,192,3776,1,2,0:0:0:0:
402,192,3776,1,8,0:0:0:0:
109,192,3947,1,0,0:0:0:0:
329,192,4118,1,2,0:0:0:0:
109,192,4289,1,0,0:0:0:0:
329,192,4460,1,2,0:0:0:0:
475,192,4460,1,8,0:0:0:0:
109,192,4631,1,0,0:0:0:0:
329,192,4802,1,2,0:0:0:0:
109,192,4973,1,0,0:0:0:0:
402,192,5144,1,8,0:0:0:0:
329,192,5144,1,2,0:0:0:0:
109,192,5315,1,0,0:0:0:0:
256,192,5487,1,2,0:0:0:0:
402,192,5658,1,0,0:0:0:0:
109,192,5829,1,8,0:0:0:0:
182,192,5829,1,2,0:0:0:0:
402,192,6000,1,0,0:0:0:0:
256,192,6171,1,2,0:0:0:0:
402,192,6342,1,0,0:0:0:0:
36,192,6513,1,8,0:0:0:0:
182,192,6513,1,2,0:0:0:0:
402,192,6684,1,0,0:0:0:0:
256,192,6855,1,2,0:0:0:0:
402,192,7026,1,0,0:0:0:0:
109,192,7198,1,8,0:0:0:0:
182,192,7198,1,2,0:0:0:0:
402,192,7369,1,0,0:0:0:0:
256,192,7540,1,2,0:0:0:0:
402,192,7711,1,0,0:0:0:0:
36,192,7882,1,8,0:0:0:0:
182,192,7882,1,2,0:0:0:0:
402,192,8053,1,0,0:0:0:0:
109,192,8224,1,2,0:0:0:0:
329,192,8395,1,0,0:0:0:0:
109,192,8566,1,2,0:0:0:0:
182,192,8566,1,8,0:0:0:0:
329,192,8737,1,0,0:0:0:0:
109,192,8909,1,2,0:0:0:0:
329,192,9080,1,0,0:0:0:0:
109,192,9251,1,2,0:0:0:0:
36,192,9251,1,8,0:0:0:0:
329,192,9422,1,0,0:0:0:0:
109,192,9593,1,2,0:0:0:0:
329,192,9764,1,0,0:0:0:0:
109,192,9935,1,2,0:0:0:0:
182,192,9935,1,8,0:0:0:0:
329,192,10106,1,0,0:0:0:0:
109,192,10277,1,2,0:0:0:0:
329,192,10448,1,0,0:0:0:0:
109,192,10619,1,2,0:0:0:0:
36,192,10619,1,8,0:0:0:0:
329,192,10791,1,0,0:0:0:0:
475,192,10962,1,4,0:0:0:0:
36,192,10962,1,2,0:0:0:0:
182,192,10962,1,0,0:0:0:0:
256,192,11133,1,0,0:0:0:0:
36,192,11304,1,2,0:0:0:0:
329,192,11304,1,0,0:0:0:0:
109,192,11304,1,8,0:0:0:0:
402,192,11475,128,0,11817:0:0:0:0:
36,192,11646,1,2,0:0:0:0:
256,192,11817,1,0,0:0:0:0:
36,192,11988,1,2,0:0:0:0:
109,192,11988,1,8,0:0:0:0:
329,192,11988,1,0,0:0:0:0:
475,192,12159,128,0,12502:0:0:0:0:
36,192,12330,1,2,0:0:0:0:
402,192,12502,1,0,0:0:0:0:
36,192,12673,1,2,0:0:0:0:
256,192,12673,1,0,0:0:0:0:
109,192,12673,1,8,0:0:0:0:
329,192,12844,1,0,0:0:0:0:
36,192,13015,1,2,0:0:0:0:
475,192,13015,1,0,0:0:0:0:
402,192,13100,1,0,0:0:0:0:
329,192,13186,1,0,0:0:0:0:
36,192,13357,1,2,0:0:0:0:
402,192,13357,1,0,0:0:0:0:
109,192,13357,1,8,0:0:0:0:
329,192,13528,1,0,0:0:0:0:
475,192,13699,1,2,0:0:0:0:
36,192,13699,1,0,0:0:0:0:
109,192,13870,1,0,0:0:0:0:
475,192,14041,1,2,0:0:0:0:
402,192,14041,1,8,0:0:0:0:
182,192,14041,1,0,0:0:0:0:
256,192,14212,128,0,14555:0:0:0:0:
475,192,14384,1,2,0:0:0:0:
109,192,14555,1,0,0:0:0:0:
475,192,14726,1,2,0:0:0:0:
402,192,14726,1,8,0:0:0:0:
182,192,14726,1,0,0:0:0:0:
36,192,14897,128,0,15239:0:0:0:0:
475,192,15068,1,2,0:0:0:0:
256,192,15239,1,0,0:0:0:0:
475,192,15410,1,2,0:0:0:0:
402,192,15410,1,8,0:0:0:0:
109,192,15410,1,0,0:0:0:0:
182,192,15581,1,0,0:0:0:0:
475,192,15752,1,2,0:0:0:0:
256,192,15752,1,0,0:0:0:0:
182,192,15838,1,0,0:0:0:0:
109,192,15923,1,0,0:0:0:0:
402,192,16095,1,8,0:0:0:0:
475,192,16095,1,2,0:0:0:0:
182,192,16095,1,0,0:0:0:0:
109,192,16266,1,0,0:0:0:0:
182,192,16437,1,0,0:0:0:0:
36,192,16437,1,2,0:0:0:0:
256,192,16608,1,0,0:0:0:0:
329,192,16779,1,0,0:0:0:0:
36,192,16779,1,2,0:0:0:0:
109,192,16779,1,8,0:0:0:0:
402,192,16950,128,0,17292:0:0:0:0:
36,192,17121,1,2,0:0:0:0:
256,192,17292,1,0,0:0:0:0:
36,192,17463,1,2,0:0:0:0:
109,192,17463,1,8,0:0:0:0:
329,192,17463,1,0,0:0:0:0:
475,192,17634,128,0,17977:0:0:0:0:
36,192,17806,1,2,0:0:0:0:
402,192,17977,1,0,0:0:0:0:
256,192,18148,1,0,0:0:0:0:
36,192,18148,1,2,0:0:0:0:
109,192,18148,1,8,0:0:0:0:
329,192,18319,1,0,0:0:0:0:
475,192,18490,1,0,0:0:0:0:
36,192,18490,1,2,0:0:0:0:
402,192,18575,1,0,0:0:0:0:
329,192,18661,1,0,0:0:0:0:
109,192,18832,1,8,0:0:0:0:
36,192,18832,1,2,0:0:0:0:
402,192,18832,1,0,0:0:0:0:
329,192,19003,1,0,0:0:0:0:
109,192,19174,1,0,0:0:0:0:
475,192,19174,1,2,0:0:0:0:
182,192,19345,1,0,0:0:0:0:
256,192,19516,1,0,0:0:0:0:
475,192,19516,1,2,0:0:0:0:
402,192,19516,1,8,0:0:0:0:
182,192,19688,128,0,20030:0:0:0:0:
475,192,19859,1,2,0:0:0:0:
36,192,20030,128,0,20372:0:0:0:0:
475,192,20201,1,2,0:0:0:0:
402,192,20201,1,8,0:0:0:0:
109,192,20372,128,0,21399:0:0:0:0:
475,192,20543,1,0,2:0:0:10:soft-hitnormal.wav
329,192,20629,1,0,2:0:0:10:soft-hitnormal.wav
182,192,20714,1,0,2:0:0:10:soft-hitnormal.wav
402,192,20800,1,0,2:0:0:10:soft-hitnormal.wav
256,192,20885,1,0,2:0:0:15:soft-hitnormal.wav
475,192,20971,1,0,2:0:0:15:soft-hitnormal.wav
329,192,21056,1,0,2:0:0:15:soft-hitnormal.wav
475,192,21142,1,0,2:0:0:15:soft-hitnormal.wav
329,192,21227,1,0,2:0:0:20:soft-hitnormal.wav
182,192,21313,1,0,2:0:0:20:soft-hitnormal.wav
329,192,21399,1,0,2:0:0:20:soft-hitnormal.wav
475,192,21399,1,0,0:0:0:0:
182,192,21484,1,0,2:0:0:20:soft-hitnormal.wav
36,192,21570,1,10,0:0:0:0:
329,192,21570,1,0,2:0:0:25:soft-hitnormal.wav
475,192,21570,1,0,0:0:0:0:
182,192,21655,1,0,2:0:0:25:soft-hitnormal.wav
329,192,21741,1,0,2:0:0:25:soft-hitnormal.wav
109,192,21826,1,0,2:0:0:25:soft-hitnormal.wav
475,192,21912,1,0,0:0:0:0:
36,192,21912,1,2,0:0:0:0:
256,192,21912,1,4,0:0:0:0:
402,192,22083,1,0,0:0:0:0:
182,192,22083,1,0,0:0:0:0:
109,192,22254,1,8,0:0:0:0:
36,192,22254,1,2,0:0:0:0:
329,192,22254,1,0,0:0:0:0:
402,192,22425,128,0,22767:0:0:0:0:
182,192,22425,1,0,0:0:0:0:
36,192,22596,1,2,0:0:0:0:
256,192,22767,1,0,0:0:0:0:
182,192,22767,1,0,0:0:0:0:
329,192,22938,1,0,0:0:0:0:
109,192,22938,1,8,0:0:0:0:
36,192,22938,1,2,0:0:0:0:
475,192,23109,128,0,23452:0:0:0:0:
182,192,23109,1,0,0:0:0:0:
36,192,23281,1,2,0:0:0:0:
402,192,23452,1,0,0:0:0:0:
182,192,23452,1,0,0:0:0:0:
109,192,23623,1,8,0:0:0:0:
36,192,23623,1,2,0:0:0:0:
256,192,23623,1,0,0:0:0:0:
329,192,23794,1,0,0:0:0:0:
182,192,23794,1,0,0:0:0:0:
36,192,23965,1,2,0:0:0:0:
475,192,23965,1,0,0:0:0:0:
402,192,24051,1,0,0:0:0:0:
329,192,24136,1,0,0:0:0:0:
182,192,24136,1,0,0:0:0:0:
402,192,24307,1,0,0:0:0:0:
36,192,24307,1,2,0:0:0:0:
109,192,24307,1,8,0:0:0:0:
329,192,24478,1,0,0:0:0:0:
475,192,24649,1,2,0:0:0:0:
182,192,24649,1,0,0:0:0:0:
36,192,24820,1,0,0:0:0:0:
329,192,24820,1,0,0:0:0:0:
109,192,24992,1,0,0:0:0:0:
402,192,24992,1,8,0:0:0:0:
475,192,24992,1,2,0:0:0:0:
182,192,25163,128,0,25505:0:0:0:0:
329,192,25163,1,0,0:0:0:0:
475,192,25334,1,2,0:0:0:0:
36,192,25505,1,0,0:0:0:0:
329,192,25505,1,0,0:0:0:0:
475,192,25676,1,2,0:0:0:0:
402,192,25676,1,8,0:0:0:0:
109,192,25676,1,0,0:0:0:0:
256,192,25847,128,0,26189:0:0:0:0:
329,192,25847,1,0,0:0:0:0:
475,192,26018,1,2,0:0:0:0:
182,192,26189,1,0,0:0:0:0:
329,192,26189,1,0,0:0:0:0:
402,192,26360,1,8,0:0:0:0:
475,192,26360,1,2,0:0:0:0:
109,192,26360,1,0,0:0:0:0:
182,192,26531,1,0,0:0:0:0:
329,192,26531,1,0,0:0:0:0:
36,192,26703,1,0,0:0:0:0:
475,192,26703,1,2,0:0:0:0:
109,192,26788,1,0,0:0:0:0:
182,192,26874,1,0,0:0:0:0:
329,192,26874,1,0,0:0:0:0:
402,192,27045,1,8,0:0:0:0:
475,192,27045,1,2,0:0:0:0:
256,192,27045,1,0,0:0:0:0:
109,192,27216,1,0,0:0:0:0:
36,192,27387,1,2,0:0:0:0:
329,192,27387,1,0,0:0:0:0:
182,192,27558,1,0,0:0:0:0:
402,192,27558,1,0,0:0:0:0:
329,192,27729,1,0,0:0:0:0:
109,192,27729,1,8,0:0:0:0:
36,192,27729,1,2,0:0:0:0:
402,192,27900,128,0,28242:0:0:0:0:
182,192,27900,1,0,0:0:0:0:
36,192,28071,1,2,0:0:0:0:
256,192,28242,1,0,0:0:0:0:
182,192,28242,1,0,0:0:0:0:
36,192,28413,1,2,0:0:0:0:
109,192,28413,1,8,0:0:0:0:
329,192,28413,1,0,0:0:0:0:
182,192,28585,1,0,0:0:0:0:
475,192,28585,128,0,28927:0:0:0:0:
36,192,28756,1,2,0:0:0:0:
402,192,28927,1,0,0:0:0:0:
182,192,28927,1,0,0:0:0:0:
36,192,29098,1,2,0:0:0:0:
109,192,29098,1,8,0:0:0:0:
256,192,29098,1,0,0:0:0:0:
329,192,29269,1,0,0:0:0:0:
182,192,29269,1,0,0:0:0:0:
475,192,29440,1,0,0:0:0:0:
36,192,29440,1,2,0:0:0:0:
402,192,29526,1,0,0:0:0:0:
329,192,29611,1,0,0:0:0:0:
182,192,29611,1,0,0:0:0:0:
402,192,29782,1,0,0:0:0:0:
109,192,29782,1,8,0:0:0:0:
36,192,29782,1,2,0:0:0:0:
329,192,29953,1,0,0:0:0:0:
475,192,30124,1,2,0:0:0:0:
182,192,30124,1,0,0:0:0:0:
329,192,30296,1,0,0:0:0:0:
36,192,30296,1,0,0:0:0:0:
109,192,30467,1,0,0:0:0:0:
402,192,30467,1,8,0:0:0:0:
475,192,30467,1,2,0:0:0:0:
329,192,30638,1,0,0:0:0:0:
182,192,30638,128,0,30980:0:0:0:0:
475,192,30809,1,2,0:0:0:0:
329,192,30980,1,0,0:0:0:0:
36,192,30980,1,0,0:0:0:0:
109,192,31151,1,0,0:0:0:0:
475,192,31151,1,2,0:0:0:0:
402,192,31151,1,8,0:0:0:0:
256,192,31322,128,0,31664:0:0:0:0:
329,192,31322,1,0,0:0:0:0:
475,192,31493,1,2,0:0:0:0:
329,192,31664,1,0,0:0:0:0:
182,192,31664,1,0,0:0:0:0:
402,192,31835,1,8,0:0:0:0:
475,192,31835,1,2,0:0:0:0:
109,192,31835,1,0,0:0:0:0:
182,192,32006,1,0,0:0:0:0:
329,192,32006,1,0,0:0:0:0:
475,192,32178,1,2,0:0:0:0:
36,192,32178,1,0,0:0:0:0:
109,192,32263,1,0,0:0:0:0:
329,192,32349,1,0,0:0:0:0:
182,192,32349,1,0,0:0:0:0:
256,192,32520,1,0,0:0:0:0:
475,192,32520,1,2,0:0:0:0:
402,192,32520,1,8,0:0:0:0:
182,192,32691,1,0,0:0:0:0:
36,192,32862,1,2,0:0:0:0:
329,192,32862,1,0,0:0:0:0:
475,192,32862,1,4,0:0:0:0:
402,192,33033,1,0,0:0:0:0:
182,192,33033,1,0,0:0:0:0:
36,192,33204,1,2,0:0:0:0:
109,192,33204,1,8,0:0:0:0:
329,192,33204,1,0,0:0:0:0:
182,192,33375,1,0,0:0:0:0:
402,192,33375,128,0,33717:0:0:0:0:
36,192,33546,1,2,0:0:0:0:
182,192,33717,1,0,0:0:0:0:
256,192,33717,1,0,0:0:0:0:
329,192,33889,1,0,0:0:0:0:
109,192,33889,1,8,0:0:0:0:
36,192,33889,1,2,0:0:0:0:
475,192,34060,128,0,34402:0:0:0:0:
182,192,34060,1,0,0:0:0:0:
36,192,34231,1,2,0:0:0:0:
182,192,34402,1,0,0:0:0:0:
402,192,34402,1,0,0:0:0:0:
256,192,34573,1,0,0:0:0:0:
109,192,34573,1,8,0:0:0:0:
36,192,34573,1,2,0:0:0:0:
182,192,34744,1,0,0:0:0:0:
329,192,34744,1,0,0:0:0:0:
36,192,34915,1,2,0:0:0:0:
475,192,34915,1,0,0:0:0:0:
402,192,35001,1,0,0:0:0:0:
182,192,35086,1,0,0:0:0:0:
329,192,35086,1,0,0:0:0:0:
36,192,35257,1,2,0:0:0:0:
109,192,35257,1,8,0:0:0:0:
402,192,35257,1,0,0:0:0:0:
329,192,35428,1,0,0:0:0:0:
182,192,35600,1,0,0:0:0:0:
475,192,35600,1,2,0:0:0:0:
36,192,35771,1,0,0:0:0:0:
329,192,35771,1,0,0:0:0:0:
475,192,35942,1,2,0:0:0:0:
402,192,35942,1,8,0:0:0:0:
109,192,35942,1,0,0:0:0:0:
182,192,36113,128,0,36455:0:0:0:0:
329,192,36113,1,0,0:0:0:0:
475,192,36284,1,2,0:0:0:0:
36,192,36455,1,0,0:0:0:0:
329,192,36455,1,0,0:0:0:0:
402,192,36626,1,8,0:0:0:0:
475,192,36626,1,2,0:0:0:0:
109,192,36626,1,0,0:0:0:0:
329,192,36797,1,0,0:0:0:0:
256,192,36797,128,0,37139:0:0:0:0:
475,192,36968,1,2,0:0:0:0:
182,192,37139,1,0,0:0:0:0:
329,192,37139,1,0,0:0:0:0:
109,192,37310,1,0,0:0:0:0:
475,192,37310,1,2,0:0:0:0:
402,192,37310,1,8,0:0:0:0:
329,192,37482,1,0,0:0:0:0:
182,192,37482,1,0,0:0:0:0:
36,192,37653,1,0,0:0:0:0:
475,192,37653,1,2,0:0:0:0:
109,192,37738,1,0,0:0:0:0:
182,192,37824,1,0,0:0:0:0:
329,192,37824,1,0,0:0:0:0:
402,192,37995,1,8,0:0:0:0:
475,192,37995,1,2,0:0:0:0:
256,192,37995,1,0,0:0:0:0:
109,192,38166,1,0,0:0:0:0:
256,192,38337,1,4,0:0:0:0:
36,192,38337,1,4,0:0:0:0:
475,192,38337,1,2,0:0:0:0:
402,192,38508,1,0,0:0:0:0:
109,192,38508,1,0,0:0:0:0:
329,192,38679,1,0,0:0:0:0:
36,192,38679,1,8,0:0:0:0:
402,192,38850,128,0,39193:0:0:0:0:
109,192,38850,1,0,0:0:0:0:
109,192,39193,1,0,0:0:0:0:
256,192,39193,1,0,0:0:0:0:
329,192,39364,1,0,0:0:0:0:
36,192,39364,1,8,0:0:0:0:
109,192,39535,1,0,0:0:0:0:
475,192,39535,128,0,39877:0:0:0:0:
402,192,39877,1,0,0:0:0:0:
109,192,39877,1,0,0:0:0:0:
36,192,40048,1,8,0:0:0:0:
256,192,40048,1,0,0:0:0:0:
329,192,40219,1,0,0:0:0:0:
109,192,40219,1,0,0:0:0:0:
475,192,40390,1,0,0:0:0:0:
402,192,40476,1,0,0:0:0:0:
109,192,40561,1,0,0:0:0:0:
329,192,40561,1,0,0:0:0:0:
36,192,40732,1,8,0:0:0:0:
402,192,40732,1,0,0:0:0:0:
109,192,40903,1,0,0:0:0:0:
256,192,40903,1,0,0:0:0:0:
329,192,41075,1,0,0:0:0:0:
36,192,41075,1,0,0:0:0:10:soft-hitnormal.wav
182,192,41160,1,0,0:0:0:10:soft-hitnormal.wav
402,192,41246,1,0,0:0:0:0:
109,192,41246,1,0,0:0:0:10:soft-hitnormal.wav
256,192,41331,1,0,0:0:0:10:soft-hitnormal.wav
475,192,41417,1,0,0:0:0:0:
182,192,41417,1,0,0:0:0:15:soft-hitnormal.wav
329,192,41502,1,0,0:0:0:15:soft-hitnormal.wav
402,192,41588,128,0,41930:0:0:0:0:
256,192,41588,1,0,0:0:0:15:soft-hitnormal.wav
109,192,41673,1,0,0:0:0:15:soft-hitnormal.wav
182,192,41759,1,0,0:0:0:20:soft-hitnormal.wav
36,192,41845,1,0,0:0:0:20:soft-hitnormal.wav
329,192,41930,128,0,42272:0:0:0:0:
182,192,41930,1,0,0:0:0:20:soft-hitnormal.wav
36,192,42016,1,0,0:0:0:20:soft-hitnormal.wav
256,192,42101,1,0,0:0:0:25:soft-hitnormal.wav
109,192,42187,1,0,0:0:0:25:soft-hitnormal.wav
402,192,42272,128,0,43299:0:0:0:0:
256,192,42272,1,0,0:0:0:25:soft-hitnormal.wav
36,192,42358,1,0,0:0:0:25:soft-hitnormal.wav
109,192,42443,1,0,2:0:0:0:
182,192,42529,1,0,2:0:0:0:
329,192,42614,1,0,2:0:0:0:
256,192,42700,1,0,2:0:0:0:
109,192,42786,1,0,2:0:0:0:
182,192,42871,1,0,2:0:0:0:
36,192,42957,1,0,2:0:0:0:
256,192,43042,1,0,2:0:0:0:
109,192,43128,1,0,2:0:0:0:
182,192,43213,1,0,2:0:0:0:
329,192,43299,1,0,0:0:0:0:
475,192,43299,1,0,0:0:0:0:
36,192,43299,1,0,2:0:0:0:
182,192,43384,1,0,2:0:0:0:
329,192,43470,1,0,0:0:0:0:
475,192,43470,1,0,0:0:0:0:
36,192,43470,1,0,2:0:0:0:
182,192,43555,1,0,2:0:0:0:
256,192,43641,1,0,2:0:0:0:
109,192,43727,1,0,2:0:0:0:
329,192,43812,1,4,0:0:0:0:
475,192,43812,1,2,0:0:0:0:
36,192,43812,1,0,0:0:0:0:
182,192,43898,1,0,0:0:0:0:
329,192,43983,1,0,0:0:0:0:
109,192,44069,1,0,0:0:0:0:
402,192,44154,1,8,0:0:0:0:
475,192,44154,1,2,0:0:0:0:
182,192,44240,1,0,0:0:0:0:
329,192,44325,1,0,0:0:0:0:
36,192,44411,1,0,0:0:0:0:
475,192,44497,1,2,0:0:0:0:
182,192,44582,1,0,0:0:0:0:
329,192,44668,1,0,0:0:0:0:
109,192,44753,1,0,0:0:0:0:
402,192,44839,1,8,0:0:0:0:
475,192,44839,1,2,0:0:0:0:
182,192,44924,1,0,0:0:0:0:
329,192,45010,1,0,0:0:0:0:
109,192,45095,1,0,0:0:0:0:
402,192,45181,128,0,45352:0:0:0:0:
475,192,45181,128,0,45352:0:0:0:0:
182,192,45181,1,2,0:0:0:0:
36,192,45523,1,0,0:0:0:0:
109,192,45523,1,2,0:0:0:0:
256,192,45523,1,8,0:0:0:0:
402,192,45694,128,0,45865:0:0:0:0:
475,192,45694,128,0,45865:0:0:0:0:
182,192,45865,1,2,0:0:0:0:
402,192,46036,128,0,46207:0:0:0:0:
475,192,46036,128,0,46207:0:0:0:0:
36,192,46207,1,0,0:0:0:0:
109,192,46207,1,2,0:0:0:0:
256,192,46207,1,8,0:0:0:0:
329,192,46379,1,0,0:0:0:0:
182,192,46550,1,0,0:0:0:0:
36,192,46550,1,2,0:0:0:0:
329,192,46635,1,0,0:0:0:0:
182,192,46721,1,0,0:0:0:0:
402,192,46806,1,0,0:0:0:0:
109,192,46892,1,8,0:0:0:0:
36,192,46892,1,2,0:0:0:0:
329,192,46977,1,0,0:0:0:0:
182,192,47063,1,0,0:0:0:0:
475,192,47148,1,0,0:0:0:0:
36,192,47234,1,2,0:0:0:0:
329,192,47320,1,0,0:0:0:0:
182,192,47405,1,0,0:0:0:0:
402,192,47491,1,0,0:0:0:0:
109,192,47576,1,8,0:0:0:0:
36,192,47576,1,2,0:0:0:0:
329,192,47662,1,0,0:0:0:0:
182,192,47747,1,0,0:0:0:0:
402,192,47833,1,0,0:0:0:0:
109,192,47918,128,0,48090:0:0:0:0:
36,192,47918,128,0,48090:0:0:0:0:
329,192,47918,1,2,0:0:0:0:
475,192,48261,1,0,0:0:0:0:
256,192,48261,1,8,0:0:0:0:
402,192,48261,1,2,0:0:0:0:
36,192,48432,128,0,48603:0:0:0:0:
109,192,48432,128,0,48603:0:0:0:0:
329,192,48603,1,2,0:0:0:0:
36,192,48774,128,0,48945:0:0:0:0:
109,192,48774,128,0,48945:0:0:0:0:
475,192,48945,1,0,0:0:0:0:
256,192,48945,1,8,0:0:0:0:
402,192,48945,1,2,0:0:0:0:
182,192,49116,1,2,0:0:0:0:
475,192,49287,1,2,0:0:0:0:
109,192,49287,1,0,0:0:0:0:
329,192,49373,1,0,0:0:0:0:
36,192,49458,1,0,0:0:0:0:
182,192,49544,1,0,0:0:0:0:
475,192,49629,1,2,0:0:0:0:
256,192,49629,1,8,0:0:0:0:
329,192,49715,1,0,0:0:0:0:
36,192,49800,1,0,0:0:0:0:
182,192,49886,1,0,0:0:0:0:
475,192,49972,1,2,0:0:0:0:
402,192,49972,1,0,0:0:0:0:
329,192,50057,1,0,0:0:0:0:
36,192,50143,1,0,0:0:0:0:
182,192,50228,1,0,0:0:0:0:
475,192,50314,1,2,0:0:0:0:
256,192,50314,1,8,0:0:0:0:
329,192,50399,1,0,0:0:0:0:
36,192,50485,1,0,0:0:0:0:
182,192,50570,1,0,0:0:0:0:
329,192,50656,1,2,0:0:0:0:
109,192,50656,1,0,0:0:0:0:
475,192,50742,1,0,0:0:0:0:
182,192,50827,1,0,0:0:0:0:
36,192,50913,1,0,0:0:0:0:
329,192,50998,1,2,0:0:0:0:
256,192,50998,1,8,0:0:0:0:
475,192,51084,1,0,0:0:0:0:
182,192,51169,1,0,0:0:0:0:
36,192,51255,1,0,0:0:0:0:
329,192,51340,1,2,0:0:0:0:
402,192,51340,1,0,0:0:0:0:
475,192,51426,1,0,0:0:0:0:
109,192,51511,1,0,0:0:0:0:
256,192,51511,1,2,0:0:0:0:
36,192,51597,1,0,0:0:0:0:
329,192,51683,1,2,0:0:0:0:
182,192,51683,1,8,0:0:0:0:
475,192,51768,1,0,0:0:0:0:
256,192,51854,1,0,0:0:0:0:
109,192,51939,1,0,0:0:0:0:
329,192,52025,1,0,2:0:0:10:soft-hitnormal.wav
475,192,52025,1,0,0:0:0:0:
256,192,52110,1,0,2:0:0:10:soft-hitnormal.wav
36,192,52196,1,0,0:0:0:0:
182,192,52196,1,0,2:0:0:10:soft-hitnormal.wav
256,192,52281,1,0,2:0:0:10:soft-hitnormal.wav
475,192,52367,1,0,0:0:0:0:
329,192,52367,1,0,2:0:0:15:soft-hitnormal.wav
109,192,52452,1,0,2:0:0:15:soft-hitnormal.wav
402,192,52538,1,0,0:0:0:0:
256,192,52538,1,0,2:0:0:15:soft-hitnormal.wav
36,192,52624,1,0,2:0:0:15:soft-hitnormal.wav
475,192,52709,1,0,0:0:0:20:soft-hitnormal.wav
182,192,52709,1,0,0:0:0:0:
329,192,52795,1,0,0:0:0:20:soft-hitnormal.wav
109,192,52880,1,0,0:0:0:0:
402,192,52880,1,0,0:0:0:20:soft-hitnormal.wav
256,192,52966,1,0,0:0:0:20:soft-hitnormal.wav
329,192,53051,1,0,0:0:0:25:soft-hitnormal.wav
182,192,53051,1,0,0:0:0:0:
475,192,53137,1,0,0:0:0:25:soft-hitnormal.wav
402,192,53222,1,0,0:0:0:0:
256,192,53222,1,0,0:0:0:25:soft-hitnormal.wav
182,192,53308,1,0,0:0:0:25:soft-hitnormal.wav
36,192,53394,1,0,0:0:0:0:
475,192,53394,1,0,2:0:0:0:
256,192,53479,1,0,2:0:0:0:
109,192,53565,1,0,0:0:0:0:
402,192,53565,1,0,2:0:0:0:
182,192,53650,1,0,0:0:0:0:
329,192,53650,1,0,2:0:0:0:
109,192,53736,1,0,0:0:0:0:
402,192,53736,1,0,2:0:0:0:
182,192,53821,1,0,0:0:0:0:
329,192,53821,1,0,2:0:0:0:
109,192,53907,1,0,0:0:0:0:
402,192,53907,1,0,2:0:0:0:
182,192,53992,1,0,0:0:0:0:
329,192,53992,1,0,2:0:0:0:
36,192,54078,1,0,0:0:0:0:
475,192,54078,1,0,2:0:0:0:
109,192,54163,1,0,0:0:0:0:
256,192,54163,1,0,2:0:0:0:
402,192,54163,1,0,2:0:0:0:
109,192,54420,1,0,0:0:0:0:
256,192,54420,1,0,2:0:0:0:
402,192,54420,1,0,2:0:0:0:
182,192,54591,1,0,2:0:0:0:
256,192,54634,1,0,2:0:0:0:
329,192,54677,1,0,2:0:0:0:
402,192,54719,1,0,2:0:0:0:
36,192,54762,1,4,0:0:0:0:
475,192,54762,1,2,0:0:0:0:
109,192,54762,1,0,0:0:0:0:
182,192,54848,1,0,0:0:0:0:
329,192,54933,1,0,0:0:0:0:
109,192,55019,1,0,0:0:0:0:
402,192,55104,1,8,0:0:0:0:
475,192,55104,1,2,0:0:0:0:
182,192,55190,1,0,0:0:0:0:
329,192,55276,1,0,0:0:0:0:
36,192,55361,1,0,0:0:0:0:
475,192,55447,1,2,0:0:0:0:
182,192,55532,1,0,0:0:0:0:
329,192,55618,1,0,0:0:0:0:
109,192,55703,1,0,0:0:0:0:
402,192,55789,1,8,0:0:0:0:
475,192,55789,1,2,0:0:0:0:
182,192,55874,1,0,0:0:0:0:
329,192,55960,1,0,0:0:0:0:
109,192,56045,1,0,0:0:0:0:
402,192,56131,1,0,0:0:0:0:
475,192,56131,1,0,0:0:0:0:
36,192,56131,1,2,0:0:0:0:
475,192,56302,1,0,0:0:0:0:
182,192,56302,1,0,0:0:0:0:
402,192,56302,1,0,0:0:0:0:
402,192,56473,1,0,0:0:0:0:
475,192,56473,1,0,0:0:0:0:
256,192,56473,1,8,0:0:0:0:
36,192,56473,1,2,0:0:0:0:
475,192,56644,128,0,56815:0:0:0:0:
402,192,56644,128,0,56815:0:0:0:0:
182,192,56644,1,0,0:0:0:0:
109,192,56815,1,2,0:0:0:0:
402,192,56987,1,0,0:0:0:0:
475,192,56987,1,0,0:0:0:0:
182,192,56987,1,0,0:0:0:0:
402,192,57158,128,0,57243:0:0:0:0:
475,192,57158,128,0,57243:0:0:0:0:
36,192,57158,1,2,0:0:0:0:
256,192,57158,1,8,0:0:0:0:
475,192,57329,1,0,0:0:0:0:
329,192,57329,1,0,0:0:0:0:
182,192,57329,1,0,0:0:0:0:
475,192,57500,1,0,0:0:0:0:
36,192,57500,1,2,0:0:0:0:
256,192,57500,1,0,0:0:0:0:
329,192,57585,1,0,0:0:0:0:
182,192,57671,1,0,0:0:0:0:
402,192,57756,1,0,0:0:0:0:
109,192,57842,1,8,0:0:0:0:
36,192,57842,1,0,0:0:0:0:
329,192,57928,1,0,0:0:0:0:
182,192,58013,1,0,0:0:0:0:
475,192,58099,1,0,0:0:0:0:
36,192,58184,1,0,0:0:0:0:
329,192,58270,1,0,0:0:0:0:
182,192,58355,1,0,0:0:0:0:
402,192,58441,1,0,0:0:0:0:
109,192,58526,1,8,0:0:0:0:
36,192,58526,1,0,0:0:0:0:
329,192,58612,1,0,0:0:0:0:
182,192,58697,1,0,0:0:0:0:
402,192,58783,1,0,0:0:0:0:
109,192,58869,1,0,0:0:0:0:
36,192,58869,1,0,0:0:0:0:
475,192,58869,1,2,0:0:0:0:
36,192,59040,1,0,0:0:0:0:
109,192,59040,1,0,0:0:0:0:
329,192,59040,1,0,0:0:0:0:
109,192,59211,1,0,0:0:0:0:
36,192,59211,1,0,0:0:0:0:
256,192,59211,1,8,0:0:0:0:
475,192,59211,1,2,0:0:0:0:
36,192,59382,128,0,59553:0:0:0:0:
109,192,59382,128,0,59553:0:0:0:0:
329,192,59382,1,0,0:0:0:0:
402,192,59553,1,2,0:0:0:0:
109,192,59724,1,0,0:0:0:0:
329,192,59724,1,0,0:0:0:0:
36,192,59724,1,0,0:0:0:0:
36,192,59895,128,0,59981:0:0:0:0:
256,192,59895,1,8,0:0:0:0:
475,192,59895,1,2,0:0:0:0:
109,192,59895,128,0,59981:0:0:0:0:
36,192,60066,1,0,0:0:0:0:
329,192,60066,1,2,0:0:0:0:
182,192,60066,1,0,0:0:0:0:
256,192,60237,1,0,0:0:0:0:
475,192,60237,1,2,0:0:0:0:
36,192,60237,1,0,0:0:0:0:
182,192,60323,1,0,0:0:0:0:
109,192,60408,1,0,0:0:0:0:
256,192,60494,1,0,0:0:0:0:
329,192,60580,1,0,0:0:0:0:
475,192,60580,1,8,0:0:0:0:
36,192,60580,1,2,0:0:0:0:
256,192,60665,1,0,0:0:0:0:
182,192,60751,1,0,0:0:0:0:
329,192,60836,1,0,0:0:0:0:
402,192,60922,1,0,0:0:0:0:
36,192,60922,1,2,0:0:0:0:
329,192,61007,1,0,0:0:0:0:
256,192,61093,1,0,0:0:0:0:
402,192,61178,1,0,0:0:0:0:
475,192,61264,1,0,0:0:0:0:
36,192,61264,1,2,0:0:0:0:
182,192,61264,1,8,0:0:0:0:
402,192,61349,1,0,0:0:0:0:
329,192,61435,1,0,0:0:0:0:
475,192,61521,1,0,0:0:0:0:
36,192,61606,1,0,0:0:0:0:
402,192,61606,1,2,0:0:0:0:
109,192,61692,1,0,0:0:0:0:
256,192,61777,1,0,0:0:0:0:
182,192,61863,1,0,0:0:0:0:
109,192,61948,1,0,0:0:0:0:
475,192,61948,1,8,0:0:0:0:
402,192,61948,1,2,0:0:0:0:
182,192,62034,1,0,0:0:0:0:
329,192,62119,1,0,0:0:0:0:
256,192,62205,1,0,0:0:0:0:
182,192,62291,1,0,0:0:0:0:
36,192,62291,1,2,0:0:0:0:
256,192,62376,1,0,0:0:0:0:
402,192,62462,1,0,0:0:0:0:
329,192,62547,1,0,0:0:0:0:
256,192,62633,1,0,0:0:0:0:
36,192,62633,1,2,0:0:0:0:
109,192,62633,1,8,0:0:0:0:
329,192,62718,1,0,0:0:0:0:
475,192,62804,1,0,0:0:0:0:
182,192,62804,1,0,0:0:0:0:
402,192,62889,1,0,0:0:0:0:
256,192,62889,1,0,0:0:0:0:
36,192,62975,1,0,0:0:0:0:
182,192,62975,1,0,0:0:0:0:
329,192,63060,1,0,0:0:0:0:
182,192,63146,1,0,0:0:0:0:
36,192,63146,1,0,0:0:0:0:
256,192,63232,1,0,0:0:0:0:
475,192,63317,1,0,0:0:0:0:
329,192,63317,1,0,0:0:0:0:
109,192,63317,1,8,0:0:0:0:
256,192,63403,1,0,0:0:0:0:
36,192,63488,1,0,0:0:0:0:
182,192,63488,1,0,0:0:0:0:
329,192,63574,1,0,0:0:0:0:
256,192,63659,1,0,0:0:0:0:
402,192,63659,1,0,0:0:0:0:
109,192,63745,1,0,0:0:0:0:
329,192,63830,1,0,0:0:0:0:
182,192,63830,1,0,0:0:0:0:
475,192,63916,1,0,0:0:0:0:
36,192,64001,1,0,0:0:0:0:
182,192,64001,1,0,0:0:0:0:
402,192,64001,1,8,0:0:0:0:
256,192,64087,1,0,0:0:0:0:
475,192,64173,1,0,0:0:0:0:
329,192,64173,1,0,0:0:0:0:
256,192,64258,1,0,0:0:0:0:
182,192,64344,128,0,64686:0:0:0:0:
36,192,64344,128,0,64686:0:0:0:0:
329,192,64686,1,2,0:0:0:0:
402,192,64686,1,4,0:0:0:0:
256,192,64857,1,0,0:0:0:0:
109,192,65028,1,2,0:0:0:0:
402,192,65028,1,2,0:0:0:0:
182,192,65114,1,2,0:0:0:0:
329,192,65114,1,2,0:0:0:0:
182,192,65285,1,2,0:0:0:0:
329,192,65285,1,2,0:0:0:0:
182,192,65456,1,2,0:0:0:0:
329,192,65456,1,2,0:0:0:0:
109,192,65541,1,2,0:0:0:0:
402,192,65541,1,2,0:0:0:0:
256,192,65712,1,4,0:0:0:0:
36,192,65712,128,0,66055:0:0:0:0:
475,192,65712,128,0,66055:0:0:0:0:
402,192,66055,1,0,0:0:0:0:
329,192,66055,1,8,0:0:0:0:
109,192,66055,1,0,0:0:0:0:
109,192,66226,128,0,66568:0:0:0:0:
402,192,66226,128,0,66568:0:0:0:0:
329,192,66568,1,0,0:0:0:0:
182,192,66568,1,0,0:0:0:0:
256,192,66739,1,0,0:0:0:0:
475,192,66739,1,8,0:0:0:0:
402,192,66739,1,0,0:0:0:0:
36,192,66910,128,0,67252:0:0:0:0:
182,192,66910,128,0,67252:0:0:0:0:
109,192,67423,1,0,0:0:0:0:
256,192,67423,1,0,0:0:0:0:
475,192,67423,1,8,0:0:0:0:
182,192,67594,128,0,67937:0:0:0:0:
329,192,67594,128,0,67937:0:0:0:0:
475,192,68108,1,8,0:0:0:0:
109,192,68279,1,0,0:0:0:0:
402,192,68279,1,0,0:0:0:0:
182,192,68364,1,0,0:0:0:0:
329,192,68364,1,0,0:0:0:0:
109,192,68450,1,0,0:0:0:0:
402,192,68450,1,0,0:0:0:0:
182,192,68621,128,0,68878:0:0:0:0:
329,192,68621,128,0,68878:0:0:0:0:
475,192,68792,1,8,0:0:0:0:
182,192,68963,1,0,0:0:0:0:
329,192,68963,1,0,0:0:0:0:
182,192,69134,1,0,0:0:0:0:
329,192,69134,1,0,0:0:0:0:
256,192,69477,1,0,0:0:0:0:
402,192,69477,1,0,0:0:0:0:
36,192,69477,1,8,0:0:0:0:
475,192,69819,1,0,0:0:0:0:
329,192,69819,1,2,0:0:0:0:
182,192,69819,1,0,0:0:0:0:
329,192,69990,1,0,0:0:0:0:
109,192,70161,1,0,0:0:0:0:
256,192,70161,1,10,0:0:0:0:
402,192,70161,1,0,0:0:0:0:
256,192,70332,1,0,0:0:0:0:
329,192,70503,1,0,0:0:0:0:
182,192,70503,1,2,0:0:0:0:
36,192,70503,1,0,0:0:0:0:
402,192,70589,1,0,0:0:0:0:
329,192,70674,1,0,0:0:0:0:
402,192,70760,1,0,0:0:0:0:
329,192,70845,1,0,0:0:0:0:
109,192,70845,1,0,0:0:0:0:
182,192,70845,1,10,0:0:0:0:
256,192,71016,1,2,0:0:0:0:
36,192,71188,128,0,72385:0:0:0:0:
475,192,71188,1,2,0:0:0:0:
182,192,71188,128,0,71530:0:0:0:0:
329,192,71359,1,0,0:0:0:0:
475,192,71530,1,2,0:0:0:0:
402,192,71530,1,8,0:0:0:0:
329,192,71701,1,0,0:0:0:0:
109,192,71701,1,0,0:0:0:0:
475,192,71872,1,2,0:0:0:0:
182,192,71872,128,0,72214:0:0:0:0:
329,192,72043,1,0,0:0:0:0:
475,192,72214,1,2,0:0:0:0:
402,192,72214,1,8,0:0:0:0:
329,192,72385,1,0,0:0:0:0:
329,192,72556,128,0,72898:0:0:0:0:
475,192,72556,128,0,73754:0:0:0:0:
36,192,72556,1,2,0:0:0:0:
182,192,72727,1,0,0:0:0:0:
36,192,72898,1,2,0:0:0:0:
109,192,72898,1,8,0:0:0:0:
182,192,73070,1,0,0:0:0:0:
402,192,73070,1,0,0:0:0:0:
329,192,73155,1,0,0:0:0:0:
36,192,73241,1,2,0:0:0:0:
256,192,73241,128,0,73583:0:0:0:0:
182,192,73412,1,0,0:0:0:0:
36,192,73583,1,2,0:0:0:0:
109,192,73583,1,8,0:0:0:0:
182,192,73754,1,0,0:0:0:0:
329,192,73754,1,0,0:0:0:0:
109,192,73925,1,0,2:0:0:0:
402,192,73925,1,0,0:0:0:0:
256,192,74011,1,0,2:0:0:0:
182,192,74096,1,0,2:0:0:0:
36,192,74096,1,0,0:0:0:0:
256,192,74182,1,0,2:0:0:0:
475,192,74267,1,0,0:0:0:0:
329,192,74267,1,0,2:0:0:0:
182,192,74353,1,0,2:0:0:0:
329,192,74438,1,0,2:0:0:0:
475,192,74438,1,0,0:0:0:0:
256,192,74524,1,0,2:0:0:0:
36,192,74609,1,0,0:0:0:0:
182,192,74609,1,0,2:0:0:0:
329,192,74695,1,0,2:0:0:0:
109,192,74781,1,0,0:0:0:0:
256,192,74781,1,0,2:0:0:0:
402,192,74866,1,0,2:0:0:0:
182,192,74952,1,0,0:0:0:0:
329,192,74952,1,0,2:0:0:0:
475,192,75037,1,0,2:0:0:0:
256,192,75123,1,0,0:0:0:0:
402,192,75123,1,0,2:0:0:0:
182,192,75208,1,0,2:0:0:0:
36,192,75294,1,2,0:0:0:0:
109,192,75294,1,2,0:0:0:0:
329,192,75379,1,0,0:0:0:0:
36,192,75465,1,2,0:0:0:0:
109,192,75465,1,2,0:0:0:0:
329,192,75550,1,0,0:0:0:0:
36,192,75636,1,2,0:0:0:0:
182,192,75636,1,2,0:0:0:0:
329,192,75722,1,0,0:0:0:0:
36,192,75807,1,2,0:0:0:0:
182,192,75807,1,2,0:0:0:0:
329,192,75893,1,0,0:0:0:0:
475,192,75978,1,2,0:0:0:0:
402,192,75978,1,2,0:0:0:0:
109,192,76064,1,0,0:0:0:0:
402,192,76149,1,2,0:0:0:0:
475,192,76149,1,2,0:0:0:0:
109,192,76235,1,0,0:0:0:0:
329,192,76320,1,2,0:0:0:0:
475,192,76320,1,2,0:0:0:0:
109,192,76406,1,0,0:0:0:0:
329,192,76491,1,2,0:0:0:0:
475,192,76491,1,2,0:0:0:0:
109,192,76577,1,0,0:0:0:0:
402,192,76663,1,4,0:0:0:0:
475,192,76663,1,2,0:0:0:0:
256,192,76663,1,0,0:0:0:0:
182,192,76834,1,0,0:0:0:0:
329,192,76919,1,0,0:0:0:0:
475,192,77005,1,2,0:0:0:0:
109,192,77005,1,0,0:0:0:0:
256,192,77005,1,8,0:0:0:0:
329,192,77176,1,0,0:0:0:0:
182,192,77261,1,0,0:0:0:0:
36,192,77347,1,2,0:0:0:0:
402,192,77347,1,0,0:0:0:0:
182,192,77518,1,0,0:0:0:0:
329,192,77604,1,0,0:0:0:0:
109,192,77689,1,2,0:0:0:0:
256,192,77689,1,8,0:0:0:0:
475,192,77689,1,0,0:0:0:0:
329,192,77860,1,0,0:0:0:0:
182,192,77946,1,0,0:0:0:0:
402,192,78031,1,0,0:0:0:0:
36,192,78031,1,2,0:0:0:0:
109,192,78202,1,0,0:0:0:0:
182,192,78288,1,0,0:0:0:0:
256,192,78374,1,8,0:0:0:0:
402,192,78374,1,0,0:0:0:0:
36,192,78374,1,2,0:0:0:0:
182,192,78545,1,0,0:0:0:0:
329,192,78630,1,0,0:0:0:0:
402,192,78716,1,0,0:0:0:0:
36,192,78716,1,2,0:0:0:0:
109,192,78887,1,0,0:0:0:0:
182,192,78972,1,0,0:0:0:0:
36,192,79058,1,2,0:0:0:0:
402,192,79058,1,0,0:0:0:0:
256,192,79058,1,8,0:0:0:0:
182,192,79229,1,0,0:0:0:0:
329,192,79315,1,0,0:0:0:0:
402,192,79400,1,0,0:0:0:0:
36,192,79400,1,2,0:0:0:0:
182,192,79571,1,0,0:0:0:0:
329,192,79657,1,0,0:0:0:0:
109,192,79742,1,0,0:0:0:0:
475,192,79742,1,2,0:0:0:0:
256,192,79742,1,8,0:0:0:0:
329,192,79913,1,0,0:0:0:0:
182,192,79999,1,0,0:0:0:0:
36,192,80085,1,2,0:0:0:0:
402,192,80085,1,0,0:0:0:0:
182,192,80256,1,0,0:0:0:0:
329,192,80341,1,0,0:0:0:0:
256,192,80427,1,8,0:0:0:0:
109,192,80427,1,2,0:0:0:0:
475,192,80427,1,0,0:0:0:0:
329,192,80598,1,0,0:0:0:0:
182,192,80683,1,0,0:0:0:0:
36,192,80769,1,2,0:0:0:0:
329,192,80769,1,0,0:0:0:0:
402,192,80940,1,0,0:0:0:0:
329,192,81026,1,0,0:0:0:0:
256,192,81111,1,8,0:0:0:0:
475,192,81111,1,0,0:0:0:0:
109,192,81111,1,2,0:0:0:0:
182,192,81282,1,0,0:0:0:0:
329,192,81368,1,0,0:0:0:0:
36,192,81453,1,2,0:0:0:0:
475,192,81453,1,0,0:0:0:0:
402,192,81624,1,0,0:0:0:0:
329,192,81710,1,0,0:0:0:0:
475,192,81795,1,2,0:0:0:0:
109,192,81795,1,0,0:0:0:0:
256,192,81795,1,8,0:0:0:0:
329,192,81967,1,0,0:0:0:0:
475,192,81967,1,2,0:0:0:0:
182,192,82052,1,0,0:0:0:0:
402,192,82138,1,2,0:0:0:0:
36,192,82138,1,0,0:0:0:0:
109,192,82223,1,0,0:0:0:0:
182,192,82309,1,0,0:0:0:0:
256,192,82394,1,0,0:0:0:0:
475,192,82480,1,0,0:0:0:0:
36,192,82480,1,2,0:0:0:0:
109,192,82480,1,8,0:0:0:0:
402,192,82565,1,0,0:0:0:0:
329,192,82651,1,0,0:0:0:0:
256,192,82736,1,0,0:0:0:0:
36,192,82822,1,0,0:0:0:0:
402,192,82822,1,2,0:0:0:0:
109,192,82908,1,0,0:0:0:0:
182,192,82993,1,0,0:0:0:0:
256,192,83079,1,0,0:0:0:0:
329,192,83164,1,0,0:0:0:0:
475,192,83164,1,8,0:0:0:0:
36,192,83164,1,2,0:0:0:0:
256,192,83250,1,0,0:0:0:0:
182,192,83335,1,0,0:0:0:0:
109,192,83421,1,0,0:0:0:0:
36,192,83506,1,2,0:0:0:0:
475,192,83506,1,0,0:0:0:0:
402,192,83592,1,0,0:0:0:0:
329,192,83678,1,0,0:0:0:0:
256,192,83763,1,0,0:0:0:0:
36,192,83849,1,0,0:0:0:0:
475,192,83849,1,2,0:0:0:0:
402,192,83849,1,8,0:0:0:0:
109,192,83934,1,0,0:0:0:0:
182,192,84020,1,0,0:0:0:0:
256,192,84105,1,0,0:0:0:0:
475,192,84191,1,0,0:0:0:0:
109,192,84191,1,2,0:0:0:0:
402,192,84276,1,0,0:0:0:0:
329,192,84362,1,0,0:0:0:0:
256,192,84447,1,0,0:0:0:0:
182,192,84533,1,0,0:0:0:0:
36,192,84533,1,8,0:0:0:0:
475,192,84533,1,2,0:0:0:0:
256,192,84619,1,0,0:0:0:0:
329,192,84704,1,0,0:0:0:0:
402,192,84790,1,0,0:0:0:0:
475,192,84875,1,2,0:0:0:0:
36,192,84875,1,0,0:0:0:0:
109,192,84961,1,0,0:0:0:0:
182,192,85046,1,0,0:0:0:0:
256,192,85132,1,0,0:0:0:0:
109,192,85217,1,0,0:0:0:0:
402,192,85217,1,8,0:0:0:0:
475,192,85217,1,2,0:0:0:0:
182,192,85303,1,0,0:0:0:0:
256,192,85388,1,0,0:0:0:0:
329,192,85474,1,0,0:0:0:0:
475,192,85560,1,0,0:0:0:0:
36,192,85560,1,2,0:0:0:0:
402,192,85645,1,0,0:0:0:0:
329,192,85731,1,0,0:0:0:0:
256,192,85816,1,0,0:0:0:0:
402,192,85902,1,0,0:0:0:0:
109,192,85902,1,8,0:0:0:0:
36,192,85902,1,2,0:0:0:0:
329,192,85987,1,0,0:0:0:0:
256,192,86073,1,0,0:0:0:0:
182,192,86158,1,0,0:0:0:0:
36,192,86244,1,4,0:0:0:0:
475,192,86244,1,4,0:0:0:0:
109,192,86415,1,2,0:0:0:0:
256,192,86415,1,0,0:0:0:0:
402,192,86415,1,0,0:0:0:0:
36,192,86586,1,2,0:0:0:0:
329,192,86586,1,0,0:0:0:0:
182,192,86586,1,0,0:0:0:0:
475,192,86757,1,0,0:0:0:0:
182,192,86757,1,2,0:0:0:0:
329,192,86757,1,0,0:0:0:0:
36,192,86928,1,2,0:0:0:0:
256,192,86928,1,0,0:0:0:0:
475,192,86928,1,0,0:0:0:0:
36,192,87099,1,2,0:0:0:0:
182,192,87099,1,0,0:0:0:0:
329,192,87099,1,0,0:0:0:0:
109,192,87271,1,2,0:0:0:0:
256,192,87271,1,0,0:0:0:0:
402,192,87271,1,0,0:0:0:0:
475,192,87613,1,4,0:0:0:0:
36,192,87613,1,2,0:0:0:0:
182,192,87613,1,0,0:0:0:0:
329,192,87784,1,0,0:0:0:0:
182,192,87869,1,0,0:0:0:0:
402,192,87955,1,0,0:0:0:0:
256,192,87955,1,8,0:0:0:0:
36,192,87955,1,2,0:0:0:0:
182,192,88126,1,0,0:0:0:0:
329,192,88212,1,0,0:0:0:0:
475,192,88297,1,0,0:0:0:0:
109,192,88297,1,2,0:0:0:0:
329,192,88468,1,0,0:0:0:0:
182,192,88554,1,0,0:0:0:0:
36,192,88639,1,2,0:0:0:0:
402,192,88639,1,0,0:0:0:0:
256,192,88639,1,8,0:0:0:0:
182,192,88810,1,0,0:0:0:0:
329,192,88896,1,0,0:0:0:0:
475,192,88982,1,0,0:0:0:0:
109,192,88982,1,2,0:0:0:0:
402,192,89153,1,0,0:0:0:0:
329,192,89238,1,0,0:0:0:0:
256,192,89324,1,8,0:0:0:0:
475,192,89324,1,0,0:0:0:0:
109,192,89324,1,2,0:0:0:0:
329,192,89495,1,0,0:0:0:0:
182,192,89580,1,0,0:0:0:0:
109,192,89666,1,2,0:0:0:0:
475,192,89666,1,0,0:0:0:0:
402,192,89837,1,0,0:0:0:0:
329,192,89923,1,0,0:0:0:0:
109,192,90008,1,2,0:0:0:0:
475,192,90008,1,0,0:0:0:0:
256,192,90008,1,8,0:0:0:0:
329,192,90179,1,0,0:0:0:0:
182,192,90265,1,0,0:0:0:0:
109,192,90350,1,2,0:0:0:0:
475,192,90350,1,0,0:0:0:0:
329,192,90521,1,0,0:0:0:0:
182,192,90607,1,0,0:0:0:0:
36,192,90692,1,2,0:0:0:0:
402,192,90692,1,0,0:0:0:0:
256,192,90692,1,8,0:0:0:0:
182,192,90864,1,0,0:0:0:0:
329,192,90949,1,0,0:0:0:0:
475,192,91035,1,0,0:0:0:0:
109,192,91035,1,2,0:0:0:0:
329,192,91206,1,0,0:0:0:0:
182,192,91291,1,0,0:0:0:0:
256,192,91377,1,8,0:0:0:0:
36,192,91377,1,2,0:0:0:0:
402,192,91377,1,0,0:0:0:0:
182,192,91548,1,0,0:0:0:0:
329,192,91633,1,0,0:0:0:0:
475,192,91719,1,2,0:0:0:0:
182,192,91719,1,0,0:0:0:0:
109,192,91890,1,0,0:0:0:0:
182,192,91976,1,0,0:0:0:0:
402,192,92061,1,2,0:0:0:0:
256,192,92061,1,8,0:0:0:0:
36,192,92061,1,0,0:0:0:0:
329,192,92232,1,0,0:0:0:0:
182,192,92318,1,0,0:0:0:0:
475,192,92403,1,2,0:0:0:0:
36,192,92403,1,0,0:0:0:0:
109,192,92575,1,0,0:0:0:0:
182,192,92660,1,0,0:0:0:0:
256,192,92746,1,8,0:0:0:0:
36,192,92746,1,0,0:0:0:0:
402,192,92746,1,2,0:0:0:0:
182,192,92917,1,0,0:0:0:0:
402,192,92917,1,2,0:0:0:0:
329,192,93002,1,0,0:0:0:0:
36,192,93088,1,0,0:0:0:0:
402,192,93088,1,2,0:0:0:0:
109,192,93173,1,0,0:0:0:0:
182,192,93259,1,0,0:0:0:0:
256,192,93344,1,0,0:0:0:0:
36,192,93430,1,2,0:0:0:0:
109,192,93430,1,8,0:0:0:0:
475,192,93430,1,0,0:0:0:0:
402,192,93516,1,0,0:0:0:0:
329,192,93601,1,0,0:0:0:0:
256,192,93687,1,0,0:0:0:0:
36,192,93772,1,0,0:0:0:0:
402,192,93772,1,2,0:0:0:0:
109,192,93858,1,0,0:0:0:0:
182,192,93943,1,0,0:0:0:0:
256,192,94029,1,0,0:0:0:0:
329,192,94114,1,0,0:0:0:0:
36,192,94114,1,2,0:0:0:0:
475,192,94114,1,8,0:0:0:0:
256,192,94200,1,0,0:0:0:0:
182,192,94285,1,0,0:0:0:0:
109,192,94371,1,0,0:0:0:0:
475,192,94457,1,0,0:0:0:0:
36,192,94457,1,2,0:0:0:0:
402,192,94542,1,0,0:0:0:0:
329,192,94628,1,0,0:0:0:0:
256,192,94713,1,0,0:0:0:0:
402,192,94799,1,2,0:0:0:0:
475,192,94799,1,8,0:0:0:0:
36,192,94799,1,0,0:0:0:0:
109,192,94884,1,0,0:0:0:0:
182,192,94970,1,0,0:0:0:0:
256,192,95055,1,0,0:0:0:0:
475,192,95141,1,0,0:0:0:0:
109,192,95141,1,2,0:0:0:0:
402,192,95227,1,0,0:0:0:0:
329,192,95312,1,0,0:0:0:0:
256,192,95398,1,0,0:0:0:0:
182,192,95483,1,0,0:0:0:0:
36,192,95483,1,8,0:0:0:0:
475,192,95483,1,2,0:0:0:0:
256,192,95569,1,0,0:0:0:0:
329,192,95654,1,0,0:0:0:0:
402,192,95740,1,0,0:0:0:0:
475,192,95825,1,2,0:0:0:0:
36,192,95825,1,0,0:0:0:0:
109,192,95911,1,0,0:0:0:0:
182,192,95996,1,0,0:0:0:0:
256,192,96082,1,0,0:0:0:0:
475,192,96168,1,0,0:0:0:0:
36,192,96168,1,2,0:0:0:0:
109,192,96168,1,8,0:0:0:0:
329,192,96253,1,0,0:0:0:0:
475,192,96339,1,0,0:0:0:0:
329,192,96424,1,0,0:0:0:0:
475,192,96510,1,0,0:0:0:0:
182,192,96510,1,2,0:0:0:0:
402,192,96595,1,0,0:0:0:0:
329,192,96681,1,0,0:0:0:0:
256,192,96766,1,0,0:0:0:0:
36,192,96852,1,2,0:0:0:0:
109,192,96852,1,8,0:0:0:0:
402,192,96852,1,0,0:0:0:0:
329,192,96937,1,0,0:0:0:0:
256,192,97023,1,0,0:0:0:0:
182,192,97109,1,0,0:0:0:0:
36,192,97194,1,0,0:0:0:0:
402,192,97194,1,2,0:0:0:0:
109,192,97280,1,0,0:0:0:0:
182,192,97365,1,0,0:0:0:0:
256,192,97451,1,0,0:0:0:0:
329,192,97536,1,2,0:0:0:0:
475,192,97536,1,8,0:0:0:0:
109,192,97536,1,0,0:0:0:0:
182,192,97622,1,0,0:0:0:0:
256,192,97707,1,0,0:0:0:0:
329,192,97793,1,0,0:0:0:0:
475,192,97879,1,0,0:0:0:0:
182,192,97879,1,2,0:0:0:0:
329,192,97964,1,0,0:0:0:0:
475,192,98050,1,0,0:0:0:0:
182,192,98050,1,2,0:0:0:0:
329,192,98135,1,0,0:0:0:0:
36,192,98135,1,2,0:0:0:0:
475,192,98221,1,0,0:0:0:0:
182,192,98221,1,2,0:0:0:0:
329,192,98306,1,0,0:0:0:0:
256,192,98392,1,0,0:0:0:0:
475,192,98392,1,2,0:0:0:0:
182,192,98477,1,0,0:0:0:0:
109,192,98563,128,0,99076:0:0:0:0:
36,192,98563,1,4,0:0:0:0:
402,192,98734,1,0,0:0:0:0:
329,192,98905,1,8,0:0:0:0:
402,192,99076,1,0,0:0:0:0:
402,192,99418,1,0,0:0:0:0:
329,192,99589,1,8,0:0:0:0:
402,192,99761,1,0,0:0:0:0:
36,192,99761,128,0,100017:0:0:0:0:
109,192,99761,128,0,100017:0:0:0:0:
36,192,100103,1,0,0:0:0:0:
182,192,100103,1,0,0:0:0:0:
402,192,100103,1,0,0:0:0:0:
256,192,100274,128,0,100445:0:0:0:0:
329,192,100274,128,0,100445:0:0:0:0:
402,192,100445,128,0,101129:0:0:0:0:
475,192,100445,128,0,101129:0:0:0:0:
36,192,100616,1,2,0:0:0:0:
182,192,100616,1,2,0:0:0:0:
329,192,100787,1,2,0:0:0:0:
256,192,100787,1,2,0:0:0:0:
182,192,100873,1,2,0:0:0:0:
109,192,100958,1,2,0:0:0:0:
36,192,100958,1,2,0:0:0:0:
36,192,101129,1,2,0:0:0:0:
109,192,101129,1,2,0:0:0:0:
475,192,101300,1,4,0:0:0:0:
329,192,101300,1,4,0:0:0:0:
36,192,101300,1,2,0:0:0:0:
182,192,101472,1,0,0:0:0:0:
36,192,101643,1,2,0:0:0:0:
329,192,101643,1,0,0:0:0:0:
109,192,101643,1,8,0:0:0:0:
256,192,101814,1,0,0:0:0:0:
36,192,101985,1,2,0:0:0:0:
182,192,102156,1,0,0:0:0:0:
36,192,102327,1,2,0:0:0:0:
109,192,102327,1,8,0:0:0:0:
329,192,102327,1,0,0:0:0:0:
402,192,102498,128,0,102840:0:0:0:0:
36,192,102669,1,2,0:0:0:0:
256,192,102840,1,0,0:0:0:0:
36,192,103011,1,2,0:0:0:0:
109,192,103011,1,8,0:0:0:0:
329,192,103011,1,0,0:0:0:0:
402,192,103182,1,0,0:0:0:0:
36,192,103354,1,2,0:0:0:0:
329,192,103525,1,0,0:0:0:0:
36,192,103696,1,2,0:0:0:0:
109,192,103696,1,8,0:0:0:0:
256,192,103696,1,0,0:0:0:0:
329,192,103867,128,0,104209:0:0:0:0:
475,192,104038,1,2,0:0:0:0:
182,192,104209,1,0,0:0:0:0:
475,192,104380,1,2,0:0:0:0:
402,192,104380,1,8,0:0:0:0:
36,192,104380,1,0,0:0:0:0:
109,192,104551,1,0,0:0:0:0:
475,192,104722,1,2,0:0:0:0:
36,192,104893,1,0,0:0:0:0:
475,192,105065,1,2,0:0:0:0:
402,192,105065,1,8,0:0:0:0:
182,192,105065,1,0,0:0:0:0:
256,192,105236,128,0,105578:0:0:0:0:
475,192,105407,1,2,0:0:0:0:
182,192,105578,1,0,0:0:0:0:
475,192,105749,1,2,0:0:0:0:
402,192,105749,1,8,0:0:0:0:
109,192,105749,128,0,106091:0:0:0:0:
475,192,106091,1,2,0:0:0:0:
256,192,106091,128,0,106433:0:0:0:0:
475,192,106433,1,2,0:0:0:0:
402,192,106433,1,8,0:0:0:0:
109,192,106433,128,0,106604:0:0:0:0:
182,192,106604,128,0,106776:0:0:0:0:
36,192,106776,128,0,107802:0:0:0:0:
402,192,106776,128,0,106947:0:0:0:0:
475,192,106776,128,0,106947:0:0:0:0:
182,192,107118,1,8,0:0:0:0:
402,192,107118,1,0,0:0:0:0:
475,192,107118,1,0,0:0:0:0:
329,192,107289,128,0,107631:0:0:0:0:
475,192,107289,128,0,107631:0:0:0:0:
182,192,107802,1,8,0:0:0:0:
329,192,107802,1,0,0:0:0:0:
475,192,107802,1,0,0:0:0:0:
109,192,108144,1,2,0:0:0:0:
402,192,108144,1,0,0:0:0:0:
256,192,108315,1,0,0:0:0:0:
329,192,108486,1,0,0:0:0:0:
36,192,108486,1,2,0:0:0:0:
475,192,108486,1,8,0:0:0:0:
182,192,108658,1,0,0:0:0:0:
256,192,108829,1,0,0:0:0:0:
36,192,108829,1,2,0:0:0:0:
329,192,109000,1,0,0:0:0:0:
402,192,109171,128,0,109513:0:0:0:0:
182,192,109171,1,8,0:0:0:0:
36,192,109171,1,2,0:0:0:0:
182,192,109513,128,0,110711:0:0:0:0:
36,192,109513,1,2,0:0:0:0:
329,192,109513,1,0,0:0:0:0:
475,192,109684,1,0,0:0:0:0:
402,192,109684,1,0,0:0:0:0:
36,192,109855,1,2,0:0:0:0:
256,192,109855,1,8,0:0:0:0:
475,192,110026,1,0,0:0:0:0:
402,192,110026,1,0,0:0:0:0:
36,192,110197,1,2,0:0:0:0:
402,192,110369,1,0,0:0:0:0:
475,192,110369,1,0,0:0:0:0:
475,192,110540,1,0,0:0:0:0:
36,192,110540,1,2,0:0:0:0:
256,192,110540,1,8,0:0:0:0:
329,192,110540,1,0,0:0:0:0:
475,192,110882,128,0,112079:0:0:0:0:
109,192,110882,1,2,0:0:0:0:
402,192,111053,1,0,0:0:0:0:
329,192,111053,1,0,0:0:0:0:
182,192,111224,1,8,0:0:0:0:
109,192,111224,1,2,0:0:0:0:
329,192,111395,1,0,0:0:0:0:
402,192,111395,1,0,0:0:0:0:
109,192,111566,1,2,0:0:0:0:
182,192,111737,1,2,0:0:0:0:
329,192,111737,1,2,0:0:0:0:
109,192,111823,1,2,0:0:0:0:
402,192,111823,1,2,0:0:0:0:
182,192,111908,1,2,0:0:0:0:
329,192,111908,1,2,0:0:0:0:
182,192,112079,1,2,0:0:0:0:
329,192,112079,1,2,0:0:0:0:
402,192,112251,1,2,0:0:0:0:
182,192,112251,1,0,2:0:0:0:
36,192,112251,1,4,0:0:0:0:
329,192,112336,1,0,2:0:0:0:
109,192,112422,1,0,2:0:0:0:
402,192,112507,1,0,2:0:0:0:
182,192,112593,1,0,2:0:0:0:
329,192,112678,1,0,2:0:0:0:
109,192,112764,1,0,2:0:0:0:
36,192,112764,1,0,0:0:0:0:
402,192,112849,1,0,2:0:0:0:
182,192,112935,1,0,2:0:0:0:
329,192,113021,1,0,2:0:0:0:
109,192,113106,1,0,2:0:0:0:
402,192,113192,1,0,2:0:0:0:
182,192,113277,1,0,2:0:0:0:
36,192,113277,1,0,0:0:0:0:
329,192,113363,1,0,2:0:0:0:
475,192,113363,1,0,0:0:0:0:
182,192,113448,1,0,2:0:0:0:
36,192,113448,1,0,0:0:0:0:
402,192,113534,1,0,2:0:0:0:
109,192,113619,1,0,2:0:0:0:
329,192,113705,1,0,2:0:0:0:
182,192,113790,1,0,2:0:0:0:
402,192,113876,1,0,2:0:0:0:
109,192,113962,1,0,2:0:0:0:
36,192,113962,1,0,0:0:0:0:
329,192,114047,1,0,2:0:0:0:
182,192,114133,1,0,2:0:0:0:
475,192,114133,1,0,0:0:0:0:
329,192,114218,1,0,2:0:0:0:
109,192,114304,1,0,2:0:0:0:
256,192,114304,1,0,0:0:0:0:
36,192,114389,1,0,2:0:0:0:
182,192,114475,1,0,2:0:0:0:
329,192,114475,1,0,0:0:0:0:
109,192,114560,1,0,2:0:0:0:
256,192,114646,1,0,2:0:0:0:
402,192,114646,1,0,0:0:0:0:
182,192,114731,1,0,2:0:0:0:
329,192,114817,1,0,2:0:0:0:
475,192,114817,1,0,0:0:0:0:
256,192,114903,1,0,2:0:0:0:
402,192,114988,1,4,0:0:0:0:
182,192,114988,1,4,0:0:0:0:
36,192,114988,1,2,0:0:0:0:
182,192,115159,1,0,0:0:0:0:
329,192,115245,1,0,0:0:0:0:
475,192,115330,1,0,0:0:0:0:
256,192,115330,1,8,0:0:0:0:
109,192,115330,1,2,0:0:0:0:
329,192,115501,1,0,0:0:0:0:
182,192,115587,1,0,0:0:0:0:
36,192,115673,1,2,0:0:0:0:
402,192,115673,1,0,0:0:0:0:
182,192,115844,1,0,0:0:0:0:
329,192,115929,1,0,0:0:0:0:
109,192,116015,1,2,0:0:0:0:
256,192,116015,1,8,0:0:0:0:
475,192,116015,1,0,0:0:0:0:
329,192,116186,1,0,0:0:0:0:
182,192,116271,1,0,0:0:0:0:
36,192,116357,1,2,0:0:0:0:
402,192,116357,1,0,0:0:0:0:
109,192,116528,1,0,0:0:0:0:
182,192,116614,1,0,0:0:0:0:
402,192,116699,1,2,0:0:0:0:
256,192,116699,1,8,0:0:0:0:
36,192,116699,1,0,0:0:0:0:
182,192,116870,1,0,0:0:0:0:
329,192,116956,1,0,0:0:0:0:
402,192,117041,1,2,0:0:0:0:
36,192,117041,1,0,0:0:0:0:
109,192,117212,1,0,0:0:0:0:
182,192,117298,1,0,0:0:0:0:
36,192,117383,1,0,0:0:0:0:
256,192,117383,1,8,0:0:0:0:
402,192,117383,1,2,0:0:0:0:
182,192,117555,1,0,0:0:0:0:
329,192,117640,1,0,0:0:0:0:
36,192,117726,1,0,0:0:0:0:
402,192,117726,1,2,0:0:0:0:
182,192,117897,1,0,0:0:0:0:
329,192,117982,1,0,0:0:0:0:
475,192,118068,1,2,0:0:0:0:
256,192,118068,1,8,0:0:0:0:
109,192,118068,1,0,0:0:0:0:
329,192,118239,1,0,0:0:0:0:
182,192,118324,1,0,0:0:0:0:
402,192,118410,1,2,0:0:0:0:
36,192,118410,1,0,0:0:0:0:
182,192,118581,1,0,0:0:0:0:
329,192,118667,1,0,0:0:0:0:
256,192,118752,1,8,0:0:0:0:
109,192,118752,1,0,0:0:0:0:
475,192,118752,1,2,0:0:0:0:
329,192,118923,1,0,0:0:0:0:
182,192,119009,1,0,0:0:0:0:
329,192,119094,1,0,0:0:0:0:
36,192,119094,1,2,0:0:0:0:
402,192,119266,1,0,0:0:0:0:
329,192,119351,1,0,0:0:0:0:
475,192,119437,1,0,0:0:0:0:
256,192,119437,1,8,0:0:0:0:
109,192,119437,1,2,0:0:0:0:
182,192,119608,1,0,0:0:0:0:
329,192,119693,1,0,0:0:0:0:
36,192,119779,1,2,0:0:0:0:
475,192,119779,1,0,0:0:0:0:
402,192,119950,1,0,0:0:0:0:
329,192,120035,1,0,0:0:0:0:
475,192,120121,1,0,0:0:0:0:
256,192,120121,1,8,0:0:0:0:
109,192,120121,1,2,0:0:0:0:
475,192,120292,1,0,0:0:0:0:
109,192,120292,1,2,0:0:0:0:
256,192,120463,128,0,120634:0:0:0:0:
475,192,120463,128,0,120634:0:0:0:0:
402,192,120634,128,0,120805:0:0:0:0:
182,192,120634,128,0,120805:0:0:0:0:
109,192,120805,128,0,120976:0:0:0:0:
329,192,120805,128,0,120976:0:0:0:0:
182,192,120976,128,0,121148:0:0:0:0:
402,192,120976,128,0,121148:0:0:0:0:
36,192,121148,1,0,0:0:0:0:
475,192,121148,1,2,0:0:0:0:
109,192,121233,1,0,0:0:0:0:
182,192,121319,1,0,0:0:0:0:
256,192,121404,1,0,0:0:0:0:
329,192,121490,1,0,0:0:0:0:
36,192,121490,1,2,0:0:0:0:
475,192,121490,1,8,0:0:0:0:
256,192,121575,1,0,0:0:0:0:
182,192,121661,1,0,0:0:0:0:
109,192,121746,1,0,0:0:0:0:
36,192,121832,128,0,122003:0:0:0:0:
475,192,121832,128,0,122003:0:0:0:0:
182,192,122003,128,0,122174:0:0:0:0:
329,192,122003,128,0,122174:0:0:0:0:
402,192,122174,128,0,122345:0:0:0:0:
109,192,122174,128,0,122345:0:0:0:0:
182,192,122345,128,0,122516:0:0:0:0:
329,192,122345,128,0,122516:0:0:0:0:
475,192,122516,1,0,0:0:0:0:
36,192,122516,1,2,0:0:0:0:
402,192,122602,1,0,0:0:0:0:
329,192,122687,1,0,0:0:0:0:
256,192,122773,1,0,0:0:0:0:
475,192,122859,1,2,0:0:0:0:
36,192,122859,1,8,0:0:0:0:
182,192,122859,1,0,0:0:0:0:
256,192,122944,1,0,0:0:0:0:
329,192,123030,1,0,0:0:0:0:
402,192,123115,1,0,0:0:0:0:
475,192,123201,1,2,0:0:0:0:
36,192,123201,1,0,0:0:0:0:
109,192,123286,1,0,0:0:0:0:
182,192,123372,1,0,0:0:0:0:
256,192,123457,1,0,0:0:0:0:
109,192,123543,1,0,0:0:0:0:
402,192,123543,1,8,0:0:0:0:
475,192,123543,1,2,0:0:0:0:
182,192,123628,1,0,0:0:0:0:
256,192,123714,1,0,0:0:0:0:
329,192,123800,1,0,0:0:0:0:
36,192,123885,1,2,0:0:0:0:
475,192,123885,1,0,0:0:0:0:
402,192,123971,1,0,0:0:0:0:
329,192,124056,1,0,0:0:0:0:
256,192,124142,1,0,0:0:0:0:
402,192,124227,1,0,0:0:0:0:
36,192,124227,1,2,0:0:0:0:
109,192,124227,1,8,0:0:0:0:
329,192,124313,1,0,0:0:0:0:
256,192,124398,1,0,0:0:0:0:
182,192,124484,1,0,0:0:0:0:
475,192,124570,1,4,0:0:0:0:
36,192,124570,1,4,0:0:0:0:
402,192,124741,1,0,0:0:0:0:
256,192,124741,1,0,0:0:0:0:
109,192,124741,1,2,0:0:0:0:
329,192,124912,1,0,0:0:0:0:
182,192,124912,1,0,0:0:0:0:
36,192,124912,1,2,0:0:0:0:
329,192,125083,1,0,0:0:0:0:
475,192,125083,1,0,0:0:0:0:
182,192,125083,1,2,0:0:0:0:
475,192,125254,1,0,0:0:0:0:
36,192,125254,1,2,0:0:0:0:
256,192,125254,1,0,0:0:0:0:
182,192,125425,1,0,0:0:0:0:
329,192,125425,1,0,0:0:0:0:
36,192,125425,1,2,0:0:0:0:
256,192,125596,1,0,0:0:0:0:
109,192,125596,1,2,0:0:0:0:
402,192,125596,1,0,0:0:0:0:
475,192,125938,1,4,0:0:0:0:
36,192,125938,1,2,0:0:0:0:
182,192,125938,1,0,0:0:0:0:
402,192,126109,1,0,0:0:0:0:
329,192,126195,1,0,0:0:0:0:
36,192,126280,1,2,0:0:0:0:
256,192,126280,1,8,0:0:0:0:
402,192,126280,1,0,0:0:0:0:
182,192,126452,1,0,0:0:0:0:
329,192,126537,1,0,0:0:0:0:
109,192,126623,1,0,0:0:0:0:
475,192,126623,1,2,0:0:0:0:
329,192,126794,1,0,0:0:0:0:
182,192,126879,1,0,0:0:0:0:
256,192,126965,1,8,0:0:0:0:
402,192,126965,1,2,0:0:0:0:
36,192,126965,1,0,0:0:0:0:
182,192,127136,1,0,0:0:0:0:
329,192,127221,1,0,0:0:0:0:
36,192,127307,1,0,0:0:0:0:
475,192,127307,1,2,0:0:0:0:
109,192,127478,1,0,0:0:0:0:
182,192,127564,1,0,0:0:0:0:
475,192,127649,1,2,0:0:0:0:
256,192,127649,1,8,0:0:0:0:
109,192,127649,1,0,0:0:0:0:
329,192,127820,1,0,0:0:0:0:
182,192,127906,1,0,0:0:0:0:
329,192,127991,1,0,0:0:0:0:
475,192,127991,1,2,0:0:0:0:
109,192,128163,1,0,0:0:0:0:
182,192,128248,1,0,0:0:0:0:
402,192,128334,1,2,0:0:0:0:
36,192,128334,1,0,0:0:0:0:
256,192,128334,1,8,0:0:0:0:
329,192,128505,1,0,0:0:0:0:
182,192,128590,1,0,0:0:0:0:
109,192,128676,1,0,0:0:0:0:
475,192,128676,1,2,0:0:0:0:
329,192,128847,1,0,0:0:0:0:
182,192,128932,1,0,0:0:0:0:
402,192,129018,1,2,0:0:0:0:
256,192,129018,1,8,0:0:0:0:
36,192,129018,1,0,0:0:0:0:
182,192,129189,1,0,0:0:0:0:
329,192,129275,1,0,0:0:0:0:
109,192,129360,1,0,0:0:0:0:
475,192,129360,1,2,0:0:0:0:
329,192,129531,1,0,0:0:0:0:
182,192,129617,1,0,0:0:0:0:
402,192,129702,1,2,0:0:0:0:
256,192,129702,1,8,0:0:0:0:
36,192,129702,1,0,0:0:0:0:
182,192,129873,1,0,0:0:0:0:
329,192,129959,1,0,0:0:0:0:
475,192,130045,1,2,0:0:0:0:
182,192,130045,1,0,0:0:0:0:
109,192,130216,1,0,0:0:0:0:
402,192,130301,1,0,0:0:0:0:
256,192,130387,1,8,0:0:0:0:
475,192,130387,1,2,0:0:0:0:
36,192,130387,1,0,0:0:0:0:
329,192,130558,1,0,0:0:0:0:
182,192,130643,1,0,0:0:0:0:
36,192,130729,1,0,0:0:0:0:
475,192,130729,1,2,0:0:0:0:
329,192,130900,1,0,0:0:0:0:
256,192,130986,1,0,0:0:0:0:
402,192,131071,1,2,0:0:0:0:
182,192,131071,1,8,0:0:0:0:
36,192,131071,1,0,0:0:0:0:
402,192,131242,1,2,0:0:0:0:
36,192,131242,1,0,0:0:0:0:
475,192,131413,128,0,132098:0:0:0:0:
256,192,131413,128,0,131584:0:0:0:0:
402,192,131584,128,0,132098:0:0:0:0:
182,192,131584,128,0,131756:0:0:0:0:
329,192,131756,128,0,132098:0:0:0:0:
109,192,131756,128,0,131927:0:0:0:0:
256,192,131927,128,0,132098:0:0:0:0:
36,192,131927,128,0,132098:0:0:0:0:
109,192,132098,1,0,0:0:0:0:
182,192,132183,1,0,0:0:0:0:
256,192,132269,1,0,0:0:0:0:
329,192,132354,1,0,0:0:0:0:
475,192,132440,1,2,0:0:0:0:
36,192,132440,1,8,0:0:0:0:
402,192,132440,1,0,0:0:0:0:
256,192,132525,1,0,0:0:0:0:
182,192,132611,1,0,0:0:0:0:
109,192,132697,1,0,0:0:0:0:
36,192,132782,128,0,133467:0:0:0:0:
329,192,132782,128,0,132953:0:0:0:0:
182,192,132953,128,0,133467:0:0:0:0:
402,192,132953,128,0,133124:0:0:0:0:
256,192,133124,128,0,133467:0:0:0:0:
475,192,133124,128,0,133295:0:0:0:0:
109,192,133295,128,0,133467:0:0:0:0:
329,192,133295,128,0,133467:0:0:0:0:
475,192,133467,1,0,0:0:0:0:
402,192,133552,1,0,0:0:0:0:
329,192,133638,1,0,0:0:0:0:
256,192,133723,1,0,0:0:0:0:
36,192,133809,1,2,0:0:0:0:
182,192,133809,1,0,0:0:0:0:
475,192,133809,1,8,0:0:0:0:
256,192,133894,1,0,0:0:0:0:
329,192,133980,1,0,0:0:0:0:
402,192,134065,1,0,0:0:0:0:
36,192,134151,1,0,0:0:0:0:
475,192,134151,1,2,0:0:0:0:
109,192,134236,1,0,0:0:0:0:
182,192,134322,1,0,0:0:0:0:
256,192,134408,1,0,0:0:0:0:
36,192,134493,1,2,0:0:0:0:
475,192,134493,1,0,0:0:0:0:
109,192,134493,1,8,0:0:0:0:
329,192,134579,1,0,0:0:0:0:
475,192,134664,1,0,0:0:0:0:
329,192,134750,1,0,0:0:0:0:
182,192,134835,1,2,0:0:0:0:
475,192,134835,1,0,0:0:0:0:
402,192,134921,1,0,0:0:0:0:
329,192,135006,1,0,0:0:0:0:
256,192,135092,1,0,0:0:0:0:
36,192,135177,1,2,0:0:0:0:
109,192,135177,1,8,0:0:0:0:
402,192,135177,1,0,0:0:0:0:
329,192,135263,1,0,0:0:0:0:
256,192,135349,1,0,0:0:0:0:
182,192,135434,1,0,0:0:0:0:
36,192,135520,1,0,0:0:0:0:
402,192,135520,1,2,0:0:0:0:
109,192,135605,1,0,0:0:0:0:
182,192,135691,1,0,0:0:0:0:
256,192,135776,1,0,0:0:0:0:
109,192,135862,1,0,0:0:0:0:
475,192,135862,1,8,0:0:0:0:
329,192,135862,1,2,0:0:0:0:
182,192,135947,1,0,0:0:0:0:
256,192,136033,1,0,0:0:0:0:
329,192,136118,1,0,0:0:0:0:
182,192,136204,1,2,0:0:0:0:
475,192,136204,1,0,0:0:0:0:
329,192,136290,1,0,0:0:0:0:
182,192,136375,1,2,0:0:0:0:
475,192,136375,1,0,0:0:0:0:
36,192,136461,1,2,0:0:0:0:
329,192,136461,1,0,0:0:0:0:
182,192,136546,1,2,0:0:0:0:
475,192,136546,1,0,0:0:0:0:
329,192,136632,1,0,0:0:0:0:
256,192,136717,1,0,0:0:0:0:
475,192,136717,1,2,0:0:0:0:
182,192,136803,1,0,0:0:0:0:
109,192,136888,128,0,137402:0:0:0:0:
402,192,137060,1,0,0:0:0:0:
329,192,137231,1,8,0:0:0:0:
402,192,137402,1,0,0:0:0:0:
402,192,137744,1,0,0:0:0:0:
329,192,137915,1,8,0:0:0:0:
36,192,138086,128,0,138343:0:0:0:0:
402,192,138086,1,0,0:0:0:0:
109,192,138086,128,0,138343:0:0:0:0:
182,192,138428,1,0,0:0:0:0:
36,192,138428,1,0,0:0:0:0:
402,192,138428,1,0,0:0:0:0:
256,192,138599,128,0,138770:0:0:0:0:
329,192,138599,128,0,138770:0:0:0:0:
475,192,138770,128,0,139113:0:0:0:0:
402,192,138770,128,0,139113:0:0:0:0:
182,192,138942,1,2,0:0:0:0:
36,192,138942,1,2,0:0:0:0:
329,192,139113,1,2,0:0:0:0:
109,192,139113,1,2,0:0:0:0:
256,192,139198,1,2,0:0:0:0:
182,192,139284,1,2,0:0:0:0:
402,192,139284,1,2,0:0:0:0:
182,192,139455,1,2,0:0:0:0:
402,192,139455,1,2,0:0:0:0:
36,192,139626,1,2,0:0:0:0:
329,192,139626,1,0,0:0:0:0:
475,192,139626,1,4,0:0:0:0:
256,192,139797,1,0,0:0:0:0:
36,192,139968,1,2,0:0:0:0:
109,192,139968,1,8,0:0:0:0:
329,192,139968,1,0,0:0:0:0:
402,192,140139,128,0,140481:0:0:0:0:
36,192,140310,1,2,0:0:0:0:
256,192,140481,1,0,0:0:0:0:
36,192,140653,1,2,0:0:0:0:
109,192,140653,1,8,0:0:0:0:
329,192,140653,1,0,0:0:0:0:
475,192,140824,128,0,141166:0:0:0:0:
36,192,140995,1,2,0:0:0:0:
402,192,141166,1,0,0:0:0:0:
36,192,141337,1,2,0:0:0:0:
109,192,141337,1,8,0:0:0:0:
256,192,141337,1,0,0:0:0:0:
329,192,141508,1,0,0:0:0:0:
36,192,141679,1,2,0:0:0:0:
402,192,141679,1,0,0:0:0:0:
329,192,141765,1,0,0:0:0:0:
256,192,141850,1,0,0:0:0:0:
36,192,142021,1,2,0:0:0:0:
109,192,142021,1,8,0:0:0:0:
329,192,142021,1,0,0:0:0:0:
256,192,142192,1,0,0:0:0:0:
109,192,142364,1,0,0:0:0:0:
475,192,142364,1,2,0:0:0:0:
36,192,142535,1,0,0:0:0:0:
109,192,142706,1,0,0:0:0:0:
475,192,142706,1,2,0:0:0:0:
402,192,142706,1,8,0:0:0:0:
182,192,142877,128,0,143219:0:0:0:0:
475,192,143048,1,2,0:0:0:0:
109,192,143219,1,0,0:0:0:0:
36,192,143390,1,0,0:0:0:0:
402,192,143390,1,8,0:0:0:0:
475,192,143390,1,2,0:0:0:0:
256,192,143561,128,0,143903:0:0:0:0:
475,192,143732,1,2,0:0:0:0:
182,192,143903,1,0,0:0:0:0:
402,192,144074,1,8,0:0:0:0:
475,192,144074,1,2,0:0:0:0:
36,192,144074,1,0,0:0:0:0:
109,192,144246,1,0,0:0:0:0:
475,192,144417,1,2,0:0:0:0:
256,192,144417,1,0,0:0:0:0:
182,192,144502,1,0,0:0:0:0:
109,192,144588,1,0,0:0:0:0:
402,192,144759,1,8,0:0:0:0:
475,192,144759,1,2,0:0:0:0:
182,192,144759,1,0,0:0:0:0:
109,192,144930,1,0,0:0:0:0:
36,192,145101,1,2,0:0:0:0:
182,192,145101,128,0,145272:0:0:0:0:
256,192,145272,128,0,145443:0:0:0:0:
109,192,145443,1,8,0:0:0:0:
36,192,145443,1,2,0:0:0:0:
329,192,145443,128,0,145614:0:0:0:0:
402,192,145614,128,0,145957:0:0:0:0:
36,192,145785,1,2,0:0:0:0:
256,192,145957,128,0,146128:0:0:0:0:
36,192,146128,1,2,0:0:0:0:
109,192,146128,1,8,0:0:0:0:
329,192,146128,128,0,146299:0:0:0:0:
475,192,146299,128,0,146641:0:0:0:0:
36,192,146470,1,2,0:0:0:0:
402,192,146641,128,0,146812:0:0:0:0:
109,192,146812,1,8,0:0:0:0:
256,192,146812,128,0,146983:0:0:0:0:
36,192,146812,1,2,0:0:0:0:
329,192,146983,128,0,147154:0:0:0:0:
36,192,147154,1,2,0:0:0:0:
402,192,147154,128,0,147240:0:0:0:0:
256,192,147240,128,0,147325:0:0:0:0:
109,192,147325,128,0,147411:0:0:0:0:
402,192,147496,1,8,0:0:0:0:
36,192,147496,1,2,0:0:0:0:
329,192,147496,128,0,147667:0:0:0:0:
182,192,147667,128,0,147839:0:0:0:0:
109,192,147839,128,0,148010:0:0:0:0:
475,192,147839,1,2,0:0:0:0:
36,192,148010,128,0,148181:0:0:0:0:
109,192,148181,128,0,148352:0:0:0:0:
475,192,148181,1,2,0:0:0:0:
402,192,148181,1,8,0:0:0:0:
182,192,148352,128,0,148694:0:0:0:0:
475,192,148523,1,2,0:0:0:0:
109,192,148694,128,0,148865:0:0:0:0:
36,192,148865,128,0,149036:0:0:0:0:
402,192,148865,1,8,0:0:0:0:
475,192,148865,1,2,0:0:0:0:
256,192,149036,128,0,149378:0:0:0:0:
475,192,149207,1,2,0:0:0:0:
182,192,149378,128,0,149550:0:0:0:0:
36,192,149550,128,0,149721:0:0:0:0:
402,192,149550,1,8,0:0:0:0:
475,192,149550,1,2,0:0:0:0:
109,192,149721,128,0,149892:0:0:0:0:
329,192,149892,128,0,149977:0:0:0:0:
475,192,149892,1,2,0:0:0:0:
182,192,149977,128,0,150063:0:0:0:0:
36,192,150063,128,0,150148:0:0:0:0:
182,192,150234,128,0,150405:0:0:0:0:
402,192,150234,1,8,0:0:0:0:
475,192,150234,1,2,0:0:0:0:
109,192,150405,128,0,150576:0:0:0:0:
475,192,150576,1,4,0:0:0:0:
36,192,150576,1,2,0:0:0:0:
256,192,150576,128,0,150747:0:0:0:0:
329,192,150747,128,0,150918:0:0:0:0:
182,192,150747,1,0,0:0:0:0:
402,192,150918,128,0,151089:0:0:0:0:
36,192,150918,1,2,0:0:0:0:
109,192,150918,1,8,0:0:0:0:
475,192,151089,128,0,151432:0:0:0:0:
182,192,151089,1,0,0:0:0:0:
36,192,151261,1,2,0:0:0:0:
402,192,151432,128,0,151603:0:0:0:0:
182,192,151432,1,0,0:0:0:0:
329,192,151603,128,0,151774:0:0:0:0:
109,192,151603,1,8,0:0:0:0:
36,192,151603,1,2,0:0:0:0:
475,192,151774,128,0,152116:0:0:0:0:
182,192,151774,1,0,0:0:0:0:
36,192,151945,1,2,0:0:0:0:
402,192,152116,128,0,152287:0:0:0:0:
182,192,152116,1,0,0:0:0:0:
329,192,152287,128,0,152458:0:0:0:0:
36,192,152287,1,2,0:0:0:0:
109,192,152287,1,8,0:0:0:0:
402,192,152458,128,0,152629:0:0:0:0:
182,192,152458,1,0,0:0:0:0:
256,192,152629,128,0,152715:0:0:0:0:
36,192,152629,1,2,0:0:0:0:
329,192,152715,128,0,152800:0:0:0:0:
402,192,152800,128,0,152886:0:0:0:0:
182,192,152800,1,0,0:0:0:0:
329,192,152971,128,0,153143:0:0:0:0:
109,192,152971,1,8,0:0:0:0:
36,192,152971,1,2,0:0:0:0:
402,192,153143,128,0,153314:0:0:0:0:
182,192,153143,1,0,0:0:0:0:
475,192,153314,1,2,0:0:0:0:
36,192,153314,128,0,153485:0:0:0:0:
329,192,153485,1,0,0:0:0:0:
109,192,153485,128,0,153656:0:0:0:0:
402,192,153656,1,8,0:0:0:0:
475,192,153656,1,2,0:0:0:0:
182,192,153656,128,0,153827:0:0:0:0:
329,192,153827,1,0,0:0:0:0:
256,192,153827,128,0,154169:0:0:0:0:
475,192,153998,1,2,0:0:0:0:
329,192,154169,1,0,0:0:0:0:
182,192,154169,128,0,154340:0:0:0:0:
402,192,154340,1,8,0:0:0:0:
475,192,154340,1,2,0:0:0:0:
109,192,154340,128,0,154511:0:0:0:0:
329,192,154511,1,0,0:0:0:0:
256,192,154511,128,0,154854:0:0:0:0:
475,192,154682,1,2,0:0:0:0:
329,192,154854,1,0,0:0:0:0:
182,192,154854,128,0,155025:0:0:0:0:
402,192,155025,1,8,0:0:0:0:
475,192,155025,1,2,0:0:0:0:
36,192,155025,128,0,155196:0:0:0:0:
329,192,155196,1,0,0:0:0:0:
109,192,155196,128,0,155367:0:0:0:0:
475,192,155367,1,2,0:0:0:0:
256,192,155367,128,0,155452:0:0:0:0:
182,192,155452,128,0,155538:0:0:0:0:
329,192,155538,1,0,0:0:0:0:
109,192,155538,128,0,155623:0:0:0:0:
402,192,155709,1,8,0:0:0:0:
475,192,155709,1,2,0:0:0:0:
182,192,155709,128,0,155880:0:0:0:0:
329,192,155880,1,0,0:0:0:0:
109,192,155880,128,0,156051:0:0:0:0:
36,192,156051,1,4,0:0:0:0:
256,192,156051,1,2,0:0:0:0:
475,192,156051,1,0,0:0:0:0:
402,192,156051,1,0,0:0:0:0:
475,192,156222,1,0,0:0:0:0:
329,192,156222,1,0,0:0:0:0:
182,192,156393,1,8,0:0:0:0:
109,192,156393,1,0,0:0:0:0:
402,192,156479,1,0,0:0:0:0:
475,192,156479,1,0,0:0:0:0:
329,192,156736,1,0,0:0:0:0:
475,192,156736,1,0,0:0:0:0:
329,192,156992,1,0,0:0:0:0:
475,192,156992,1,0,0:0:0:0:
109,192,157078,1,0,0:0:0:0:
182,192,157078,1,8,0:0:0:0:
329,192,157249,1,0,0:0:0:0:
475,192,157249,1,0,0:0:0:0:
402,192,157420,1,0,0:0:0:0:
256,192,157420,1,0,0:0:0:0:
329,192,157591,1,0,0:0:0:0:
475,192,157591,1,0,0:0:0:0:
36,192,157762,1,0,0:0:0:0:
109,192,157762,1,8,0:0:0:0:
329,192,157848,1,0,0:0:0:0:
256,192,157848,1,0,0:0:0:0:
329,192,158104,1,0,0:0:0:0:
402,192,158104,1,0,0:0:0:0:
329,192,158361,1,0,0:0:0:0:
402,192,158361,1,0,0:0:0:0:
109,192,158447,1,8,0:0:0:0:
36,192,158447,1,0,0:0:0:0:
329,192,158618,1,0,0:0:0:0:
402,192,158618,1,0,0:0:0:0:
475,192,158789,1,0,2:0:0:10:soft-hitnormal.wav
329,192,158874,1,0,2:0:0:10:soft-hitnormal.wav
475,192,158960,1,0,2:0:0:10:soft-hitnormal.wav
329,192,159045,1,0,2:0:0:10:soft-hitnormal.wav
36,192,159131,1,8,0:0:0:0:
182,192,159131,1,0,2:0:0:15:soft-hitnormal.wav
329,192,159216,1,0,2:0:0:15:soft-hitnormal.wav
182,192,159302,1,0,2:0:0:15:soft-hitnormal.wav
329,192,159388,1,0,2:0:0:15:soft-hitnormal.wav
182,192,159473,1,0,0:0:0:20:soft-hitnormal.wav
36,192,159559,1,0,0:0:0:20:soft-hitnormal.wav
182,192,159644,1,0,0:0:0:20:soft-hitnormal.wav
36,192,159730,1,0,0:0:0:20:soft-hitnormal.wav
182,192,159815,1,0,0:0:0:25:soft-hitnormal.wav
475,192,159815,1,8,0:0:0:0:
329,192,159901,1,0,0:0:0:25:soft-hitnormal.wav
182,192,159986,1,0,0:0:0:25:soft-hitnormal.wav
329,192,160072,1,0,0:0:0:25:soft-hitnormal.wav
475,192,160158,1,0,2:0:0:0:
329,192,160243,1,0,2:0:0:0:
475,192,160329,1,0,2:0:0:0:
329,192,160414,1,0,2:0:0:0:
36,192,160500,1,8,0:0:0:0:
182,192,160500,1,0,2:0:0:0:
329,192,160585,1,0,2:0:0:0:
182,192,160671,1,0,2:0:0:0:
402,192,160756,1,0,2:0:0:0:
329,192,160756,1,0,2:0:0:0:
109,192,160927,1,0,2:0:0:0:
402,192,160927,1,0,2:0:0:0:
182,192,161013,1,2,0:0:0:0:
329,192,161013,1,2,0:0:0:0:
36,192,161184,1,0,2:0:0:0:
475,192,161184,1,0,2:0:0:0:
256,192,161184,1,0,2:0:0:0:
182,192,161355,1,0,2:0:0:0:
256,192,161398,1,0,2:0:0:0:
329,192,161441,1,0,2:0:0:0:
402,192,161483,1,0,2:0:0:0:
475,192,161526,1,6,0:0:0:0:
109,192,161526,128,0,162040:0:0:0:0:
36,192,161526,128,0,162040:0:0:0:0:
475,192,161868,1,2,0:0:0:0:
256,192,162040,1,0,0:0:0:0:
329,192,162125,1,0,0:0:0:0:
182,192,162211,1,0,0:0:0:0:
475,192,162211,1,2,0:0:0:0:
402,192,162211,1,0,0:0:0:0:
182,192,162467,1,0,0:0:0:0:
402,192,162467,1,0,0:0:0:0:
475,192,162553,1,2,0:0:0:0:
182,192,162724,1,0,0:0:0:0:
402,192,162724,1,0,0:0:0:0:
36,192,162895,1,2,0:0:0:0:
475,192,162895,1,0,0:0:0:0:
182,192,162981,1,0,0:0:0:0:
329,192,163066,1,0,0:0:0:0:
475,192,163152,1,0,0:0:0:0:
256,192,163237,1,0,0:0:0:0:
36,192,163237,1,2,0:0:0:0:
402,192,163323,1,0,0:0:0:0:
182,192,163408,1,0,0:0:0:0:
329,192,163494,1,0,0:0:0:0:
256,192,163579,1,0,0:0:0:0:
475,192,163579,1,0,0:0:0:0:
36,192,163579,1,2,0:0:0:0:
256,192,163836,1,0,0:0:0:0:
475,192,163836,1,0,0:0:0:0:
36,192,163922,1,2,0:0:0:0:
256,192,164093,1,0,0:0:0:0:
475,192,164093,1,0,0:0:0:0:
402,192,164178,1,0,0:0:0:0:
182,192,164178,1,0,0:0:0:0:
329,192,164264,1,0,0:0:0:0:
109,192,164264,1,0,0:0:0:0:
36,192,164264,1,2,0:0:0:0:
109,192,164520,1,0,0:0:0:0:
329,192,164520,1,0,0:0:0:0:
36,192,164606,1,2,0:0:0:0:
182,192,164777,1,0,0:0:0:0:
256,192,164777,1,0,0:0:0:0:
109,192,164863,1,0,0:0:0:0:
329,192,164863,1,0,0:0:0:0:
475,192,164948,1,0,0:0:0:0:
402,192,164948,1,0,0:0:0:0:
36,192,164948,1,2,0:0:0:0:
402,192,165205,1,0,0:0:0:0:
475,192,165205,1,0,0:0:0:0:
36,192,165290,1,2,0:0:0:0:
402,192,165461,1,0,0:0:0:0:
475,192,165461,1,0,0:0:0:0:
329,192,165547,1,0,0:0:0:0:
256,192,165547,1,0,0:0:0:0:
109,192,165633,1,0,0:0:0:0:
36,192,165633,1,2,0:0:0:0:
182,192,165718,1,0,0:0:0:0:
329,192,165804,1,0,0:0:0:0:
256,192,165889,1,0,0:0:0:0:
402,192,165975,1,0,0:0:0:0:
109,192,165975,1,2,0:0:0:0:
329,192,166060,1,0,0:0:0:0:
475,192,166146,1,0,0:0:0:0:
36,192,166146,1,0,0:0:0:0:
402,192,166231,1,0,0:0:0:0:
109,192,166231,1,0,0:0:0:0:
329,192,166317,1,0,0:0:0:0:
182,192,166317,1,0,0:0:0:0:
256,192,166317,1,2,0:0:0:0:
329,192,166574,1,0,0:0:0:0:
182,192,166574,1,0,0:0:0:0:
36,192,166659,1,2,0:0:0:0:
182,192,166830,1,0,0:0:0:0:
329,192,166830,1,0,0:0:0:0:
256,192,166830,1,2,0:0:0:0:
402,192,166916,1,0,0:0:0:0:
109,192,166916,1,0,0:0:0:0:
475,192,167001,1,0,0:0:0:0:
36,192,167001,1,2,0:0:0:0:
109,192,167087,1,0,0:0:0:0:
182,192,167172,1,0,0:0:0:0:
256,192,167258,1,0,0:0:0:0:
109,192,167344,1,8,0:0:0:0:
475,192,167344,1,0,0:0:0:0:
36,192,167344,1,2,0:0:0:0:
402,192,167429,1,0,0:0:0:0:
329,192,167515,1,0,0:0:0:0:
256,192,167600,1,0,0:0:0:0:
36,192,167686,1,0,0:0:0:0:
402,192,167686,1,2,0:0:0:0:
109,192,167771,1,0,0:0:0:0:
182,192,167857,1,0,0:0:0:0:
256,192,167942,1,0,0:0:0:0:
329,192,168028,1,0,0:0:0:0:
475,192,168028,1,2,0:0:0:0:
36,192,168028,1,8,0:0:0:0:
256,192,168113,1,0,0:0:0:0:
182,192,168199,1,0,0:0:0:0:
109,192,168285,1,0,0:0:0:0:
36,192,168370,1,2,0:0:0:0:
475,192,168370,1,0,0:0:0:0:
402,192,168456,1,0,0:0:0:0:
329,192,168541,1,0,0:0:0:0:
256,192,168627,1,0,0:0:0:0:
36,192,168712,1,0,0:0:0:0:
402,192,168712,1,8,0:0:0:0:
475,192,168712,1,2,0:0:0:0:
109,192,168798,1,0,0:0:0:0:
182,192,168883,1,0,0:0:0:0:
256,192,168969,1,0,0:0:0:0:
109,192,169055,1,2,0:0:0:0:
475,192,169055,1,0,0:0:0:0:
402,192,169140,1,0,0:0:0:0:
329,192,169226,1,0,0:0:0:0:
256,192,169311,1,0,0:0:0:0:
36,192,169397,1,2,0:0:0:0:
475,192,169397,1,8,0:0:0:0:
182,192,169397,1,0,0:0:0:0:
256,192,169482,1,0,0:0:0:0:
329,192,169568,1,0,0:0:0:0:
402,192,169653,1,0,0:0:0:0:
475,192,169739,1,0,0:0:0:0:
36,192,169739,1,2,0:0:0:0:
256,192,169739,128,0,169910:0:0:0:0:
182,192,169739,128,0,169910:0:0:0:0:
36,192,170081,1,2,0:0:0:0:
402,192,170252,1,0,0:0:0:0:
329,192,170252,1,0,0:0:0:0:
36,192,170423,1,2,0:0:0:0:
329,192,170423,128,0,170765:0:0:0:0:
402,192,170423,128,0,170765:0:0:0:0:
36,192,170765,1,2,0:0:0:0:
256,192,170765,128,0,171108:0:0:0:0:
182,192,170765,128,0,171108:0:0:0:0:
475,192,171108,1,4,0:0:0:0:
402,192,171108,1,4,0:0:0:0:
329,192,171279,1,0,0:0:0:0:
256,192,171279,1,0,0:0:0:0:
109,192,171279,1,2,0:0:0:0:
329,192,171450,1,0,0:0:0:0:
402,192,171450,1,0,0:0:0:0:
182,192,171450,1,2,0:0:0:0:
109,192,171621,1,2,0:0:0:0:
402,192,171621,1,0,0:0:0:0:
475,192,171621,1,0,0:0:0:0:
36,192,171792,1,0,0:0:0:0:
182,192,171792,1,2,0:0:0:0:
329,192,171792,1,0,0:0:0:0:
182,192,171963,1,2,0:0:0:0:
329,192,171963,1,0,0:0:0:0:
475,192,171963,1,0,0:0:0:0:
109,192,172134,1,2,0:0:0:0:
256,192,172134,1,0,0:0:0:0:
402,192,172134,1,0,0:0:0:0:
475,192,172476,128,0,172819:0:0:0:0:
36,192,172476,1,4,0:0:0:0:
329,192,172476,1,0,0:0:0:0:
182,192,172562,1,0,0:0:0:0:
329,192,172648,1,0,0:0:0:0:
182,192,172733,1,0,0:0:0:0:
329,192,172819,1,0,0:0:0:0:
109,192,172904,1,0,0:0:0:0:
36,192,172990,1,0,0:0:0:0:
256,192,172990,1,0,0:0:0:0:
329,192,173075,1,0,0:0:0:0:
402,192,173161,1,0,0:0:0:0:
475,192,173161,1,0,0:0:0:0:
182,192,173161,1,0,0:0:0:0:
109,192,173246,1,0,0:0:0:0:
329,192,173332,1,0,0:0:0:0:
182,192,173417,1,0,0:0:0:0:
475,192,173417,1,0,0:0:0:0:
402,192,173417,1,0,0:0:0:0:
109,192,173503,1,0,0:0:0:0:
329,192,173589,1,0,0:0:0:0:
402,192,173674,1,0,0:0:0:0:
475,192,173674,1,0,0:0:0:0:
182,192,173674,1,0,0:0:0:0:
109,192,173760,1,0,0:0:0:0:
36,192,173845,128,0,174187:0:0:0:0:
329,192,173845,1,0,0:0:0:0:
182,192,173931,1,0,0:0:0:0:
329,192,174016,1,0,0:0:0:0:
182,192,174102,1,0,0:0:0:0:
329,192,174187,1,0,0:0:0:0:
402,192,174273,1,0,0:0:0:0:
475,192,174358,1,0,0:0:0:0:
256,192,174358,1,0,0:0:0:0:
182,192,174444,1,0,0:0:0:0:
109,192,174530,1,0,0:0:0:0:
36,192,174530,1,0,0:0:0:0:
329,192,174530,1,0,0:0:0:0:
402,192,174615,1,0,0:0:0:0:
182,192,174701,1,0,0:0:0:0:
329,192,174786,1,0,0:0:0:0:
36,192,174786,1,0,0:0:0:0:
109,192,174786,1,0,0:0:0:0:
402,192,174872,1,0,0:0:0:0:
182,192,174957,1,0,0:0:0:0:
329,192,175043,1,0,0:0:0:0:
36,192,175043,1,0,0:0:0:0:
109,192,175043,1,0,0:0:0:0:
402,192,175128,1,0,0:0:0:0:
475,192,175214,128,0,175556:0:0:0:0:
256,192,175214,1,0,0:0:0:0:
182,192,175300,1,0,0:0:0:0:
329,192,175385,1,0,0:0:0:0:
256,192,175471,1,0,0:0:0:0:
109,192,175556,1,0,0:0:0:0:
182,192,175642,1,0,0:0:0:0:
256,192,175727,1,0,0:0:0:0:
36,192,175727,1,0,0:0:0:0:
329,192,175813,1,0,0:0:0:0:
475,192,175898,1,0,0:0:0:0:
402,192,175898,1,0,0:0:0:0:
182,192,175898,1,0,0:0:0:0:
109,192,175984,1,0,0:0:0:0:
329,192,176069,1,0,0:0:0:0:
402,192,176155,1,0,0:0:0:0:
475,192,176155,1,0,0:0:0:0:
182,192,176155,1,0,0:0:0:0:
109,192,176241,1,0,0:0:0:0:
329,192,176326,1,0,0:0:0:0:
475,192,176412,1,0,0:0:0:0:
182,192,176412,1,0,0:0:0:0:
402,192,176412,1,0,0:0:0:0:
109,192,176497,1,0,0:0:0:0:
36,192,176583,128,0,176925:0:0:0:0:
256,192,176583,1,0,0:0:0:0:
329,192,176668,1,0,0:0:0:0:
182,192,176754,1,0,0:0:0:0:
256,192,176839,1,0,0:0:0:0:
402,192,176925,1,0,0:0:0:0:
329,192,177010,1,0,0:0:0:0:
256,192,177096,1,0,0:0:0:0:
475,192,177096,1,0,0:0:0:0:
182,192,177182,1,0,0:0:0:0:
36,192,177267,1,0,0:0:0:0:
109,192,177267,1,0,0:0:0:0:
402,192,177267,1,0,0:0:0:0:
329,192,177353,1,0,0:0:0:0:
109,192,177438,1,0,0:0:0:0:
256,192,177438,1,0,0:0:0:0:
329,192,177524,1,0,0:0:0:0:
475,192,177609,1,2,0:0:0:0:
402,192,177609,1,0,0:0:0:0:
182,192,177609,1,0,0:0:0:0:
402,192,177780,1,0,0:0:0:0:
475,192,177780,1,2,0:0:0:0:
182,192,177780,1,0,0:0:0:0:
36,192,177952,1,0,0:0:0:0:
475,192,177952,1,2,0:0:0:0:
109,192,178037,1,0,0:0:0:0:
182,192,178123,1,0,0:0:0:0:
256,192,178208,1,0,0:0:0:0:
329,192,178294,1,0,0:0:0:0:
475,192,178294,1,8,0:0:0:0:
36,192,178294,1,2,0:0:0:0:
256,192,178379,1,0,0:0:0:0:
182,192,178465,1,0,0:0:0:0:
109,192,178550,1,0,0:0:0:0:
36,192,178636,1,0,0:0:0:0:
475,192,178636,1,0,0:0:0:0:
402,192,178721,1,0,0:0:0:0:
329,192,178807,1,0,0:0:0:0:
256,192,178893,1,0,0:0:0:0:
182,192,178978,1,0,0:0:0:0:
36,192,178978,1,8,0:0:0:0:
475,192,178978,1,2,0:0:0:0:
256,192,179064,1,0,0:0:0:0:
329,192,179149,1,0,0:0:0:0:
402,192,179235,1,0,0:0:0:0:
475,192,179320,1,0,0:0:0:0:
36,192,179320,1,2,0:0:0:0:
182,192,179406,1,0,0:0:0:0:
109,192,179491,1,0,0:0:0:0:
256,192,179577,1,0,0:0:0:0:
182,192,179662,1,8,0:0:0:0:
402,192,179662,1,0,0:0:0:0:
36,192,179662,1,2,0:0:0:0:
329,192,179748,1,0,0:0:0:0:
256,192,179834,1,0,0:0:0:0:
402,192,179919,1,0,0:0:0:0:
329,192,180005,1,0,0:0:0:0:
109,192,180005,1,2,0:0:0:0:
182,192,180090,1,0,0:0:0:0:
256,192,180176,1,0,0:0:0:0:
329,192,180261,1,0,0:0:0:0:
475,192,180347,1,0,0:0:0:0:
36,192,180347,1,2,0:0:0:0:
182,192,180347,1,8,0:0:0:0:
402,192,180432,1,0,0:0:0:0:
329,192,180518,1,0,0:0:0:0:
256,192,180603,1,0,0:0:0:0:
475,192,180689,1,2,0:0:0:0:
36,192,180689,1,0,0:0:0:0:
109,192,180775,1,0,0:0:0:0:
182,192,180860,1,0,0:0:0:0:
256,192,180946,1,0,0:0:0:0:
475,192,181031,1,0,0:0:0:0:
109,192,181031,1,8,0:0:0:0:
36,192,181031,1,2,0:0:0:0:
329,192,181117,1,0,0:0:0:0:
475,192,181202,1,0,0:0:0:0:
329,192,181288,1,0,0:0:0:0:
475,192,181373,1,0,0:0:0:0:
182,192,181373,1,2,0:0:0:0:
402,192,181459,1,0,0:0:0:0:
329,192,181545,1,0,0:0:0:0:
256,192,181630,1,0,0:0:0:0:
109,192,181716,1,8,0:0:0:0:
402,192,181716,1,0,0:0:0:0:
36,192,181716,1,2,0:0:0:0:
329,192,181801,1,0,0:0:0:0:
256,192,181887,1,0,0:0:0:0:
182,192,181972,1,0,0:0:0:0:
402,192,182058,1,2,0:0:0:0:
36,192,182058,1,0,0:0:0:0:
109,192,182143,1,0,0:0:0:0:
182,192,182229,1,0,0:0:0:0:
256,192,182314,1,0,0:0:0:0:
475,192,182400,1,2,0:0:0:0:
329,192,182400,1,8,0:0:0:0:
109,192,182400,1,0,0:0:0:0:
182,192,182486,1,0,0:0:0:0:
256,192,182571,1,0,0:0:0:0:
329,192,182657,1,0,0:0:0:0:
475,192,182742,1,0,0:0:0:0:
182,192,182742,1,2,0:0:0:0:
329,192,182828,1,0,0:0:0:0:
475,192,182913,1,0,0:0:0:0:
182,192,182913,1,2,0:0:0:0:
329,192,182999,1,0,0:0:0:0:
36,192,182999,1,2,0:0:0:0:
182,192,183084,1,2,0:0:0:0:
475,192,183084,1,0,0:0:0:0:
329,192,183170,1,0,0:0:0:0:
475,192,183255,1,2,0:0:0:0:
256,192,183255,1,0,0:0:0:0:
182,192,183341,1,0,0:0:0:0:
36,192,183427,128,0,183769:0:0:0:0:
109,192,183427,128,0,183769:0:0:0:0:
329,192,183427,128,0,183769:0:0:0:0:
475,192,183427,128,0,183769:0:0:0:0:
36,192,183940,1,0,0:0:0:0:
182,192,183940,1,0,0:0:0:0:
329,192,183940,1,0,0:0:0:0:
402,192,183940,1,0,0:0:0:0:
36,192,184111,1,2,0:0:0:0:
182,192,184111,1,0,0:0:0:0:
329,192,184111,1,0,0:0:0:0:
402,192,184111,1,0,0:0:0:0:
329,192,184368,1,0,0:0:0:0:
402,192,184368,1,0,0:0:0:0:
182,192,184368,1,0,0:0:0:0:
36,192,184453,1,2,0:0:0:0:
109,192,184453,1,0,0:0:0:0:
329,192,184624,1,0,0:0:0:0:
402,192,184624,1,0,0:0:0:0:
182,192,184624,1,0,0:0:0:0:
109,192,184795,128,0,185138:0:0:0:0:
36,192,184795,128,0,185138:0:0:0:0:
256,192,184795,128,0,185138:0:0:0:0:
402,192,184795,128,0,185138:0:0:0:0:
109,192,185309,1,0,0:0:0:0:
182,192,185309,1,0,0:0:0:0:
329,192,185309,1,0,0:0:0:0:
475,192,185309,1,0,0:0:0:0:
36,192,185480,1,0,0:0:0:0:
109,192,185480,1,0,0:0:0:0:
256,192,185480,1,2,0:0:0:0:
402,192,185480,1,0,0:0:0:0:
402,192,185736,1,0,0:0:0:0:
36,192,185736,1,0,0:0:0:0:
109,192,185736,1,0,0:0:0:0:
329,192,185822,1,2,0:0:0:0:
182,192,185822,1,0,0:0:0:0:
402,192,185993,1,0,0:0:0:0:
109,192,185993,1,0,0:0:0:0:
36,192,185993,1,0,0:0:0:0:
475,192,186164,128,0,186506:0:0:0:0:
402,192,186164,128,0,186506:0:0:0:0:
256,192,186164,128,0,186506:0:0:0:0:
36,192,186164,128,0,186506:0:0:0:0:
109,192,186677,1,0,0:0:0:0:
182,192,186677,1,0,0:0:0:0:
329,192,186677,1,0,0:0:0:0:
402,192,186677,1,0,0:0:0:0:
475,192,186849,1,0,0:0:0:0:
329,192,186849,1,2,0:0:0:0:
36,192,186849,1,0,0:0:0:0:
182,192,186849,1,0,0:0:0:0:
402,192,187105,1,0,0:0:0:0:
182,192,187105,1,0,0:0:0:0:
475,192,187105,1,0,0:0:0:0:
329,192,187191,1,2,0:0:0:0:
256,192,187191,1,0,0:0:0:0:
182,192,187362,1,0,0:0:0:0:
475,192,187362,1,0,0:0:0:0:
402,192,187362,1,0,0:0:0:0:
109,192,187533,128,0,187875:0:0:0:0:
256,192,187533,128,0,187875:0:0:0:0:
36,192,187533,128,0,187875:0:0:0:0:
475,192,187533,128,0,187875:0:0:0:0:
182,192,188046,1,0,0:0:0:0:
109,192,188046,1,0,0:0:0:0:
329,192,188046,1,0,0:0:0:0:
402,192,188046,1,0,0:0:0:0:
256,192,188217,1,0,0:0:0:0:
329,192,188217,1,0,0:0:0:0:
109,192,188217,1,0,0:0:0:0:
36,192,188217,1,2,0:0:0:0:
109,192,188388,1,0,0:0:0:0:
402,192,188388,1,0,0:0:0:0:
475,192,188559,1,0,0:0:0:0:
329,192,188559,1,2,0:0:0:0:
182,192,188559,1,2,0:0:0:0:
36,192,188559,1,0,0:0:0:0:
329,192,188731,1,2,0:0:0:0:
475,192,188731,1,0,0:0:0:0:
182,192,188731,1,2,0:0:0:0:
36,192,188731,1,0,0:0:0:0:
36,192,188902,1,0,0:0:0:0:
109,192,188902,1,0,0:0:0:0:
402,192,188902,1,2,0:0:0:0:
475,192,188902,1,0,0:0:0:0:
256,192,188902,1,0,0:0:0:0:
109,192,189073,1,0,0:0:0:0:
182,192,189073,1,0,0:0:0:0:
329,192,189073,1,0,0:0:0:0:
182,192,189244,1,0,0:0:0:0:
256,192,189244,1,0,0:0:0:0:
402,192,189244,1,0,0:0:0:0:
256,192,189415,1,0,0:0:0:0:
329,192,189415,1,0,0:0:0:0:
475,192,189415,1,0,0:0:0:0:
36,192,189586,1,0,0:0:0:0:
402,192,189586,1,2,0:0:0:0:
109,192,189672,1,0,0:0:0:0:
182,192,189757,1,0,0:0:0:0:
256,192,189843,1,0,0:0:0:0:
329,192,189928,1,0,0:0:0:0:
475,192,189928,1,8,0:0:0:0:
36,192,189928,1,2,0:0:0:0:
256,192,190014,1,0,0:0:0:0:
182,192,190099,1,0,0:0:0:0:
109,192,190185,1,0,0:0:0:0:
36,192,190270,1,0,0:0:0:0:
475,192,190270,1,2,0:0:0:0:
402,192,190270,1,0,0:0:0:0:
256,192,190270,1,0,0:0:0:0:
182,192,190442,1,0,0:0:0:0:
109,192,190442,1,0,0:0:0:0:
329,192,190442,1,0,0:0:0:0:
402,192,190613,1,0,0:0:0:0:
256,192,190613,1,0,0:0:0:0:
109,192,190613,1,0,0:0:0:0:
36,192,190784,1,0,0:0:0:0:
329,192,190784,1,0,0:0:0:0:
182,192,190784,1,0,0:0:0:0:
475,192,190955,1,0,0:0:0:0:
109,192,190955,1,2,0:0:0:0:
402,192,191040,1,0,0:0:0:0:
329,192,191126,1,0,0:0:0:0:
256,192,191211,1,0,0:0:0:0:
182,192,191297,1,0,0:0:0:0:
36,192,191297,1,8,0:0:0:0:
475,192,191297,1,2,0:0:0:0:
256,192,191383,1,0,0:0:0:0:
329,192,191468,1,0,0:0:0:0:
402,192,191554,1,0,0:0:0:0:
475,192,191639,1,2,0:0:0:0:
36,192,191639,1,0,0:0:0:0:
109,192,191725,1,0,0:0:0:0:
182,192,191810,1,0,0:0:0:0:
256,192,191896,1,0,0:0:0:0:
402,192,191981,1,8,0:0:0:0:
109,192,191981,1,0,0:0:0:0:
475,192,191981,1,2,0:0:0:0:
182,192,192067,1,0,0:0:0:0:
256,192,192152,1,0,0:0:0:0:
329,192,192238,1,0,0:0:0:0:
36,192,192324,1,2,0:0:0:0:
475,192,192324,1,0,0:0:0:0:
402,192,192409,1,0,0:0:0:0:
329,192,192495,1,0,0:0:0:0:
256,192,192580,1,0,0:0:0:0:
109,192,192666,1,8,0:0:0:0:
402,192,192666,1,0,0:0:0:0:
36,192,192666,1,2,0:0:0:0:
329,192,192751,1,0,0:0:0:0:
256,192,192837,1,0,0:0:0:0:
182,192,192922,1,0,0:0:0:0:
475,192,193008,1,4,0:0:0:0:
36,192,193008,1,4,0:0:0:0:
402,192,193179,1,0,0:0:0:0:
256,192,193179,1,0,0:0:0:0:
109,192,193179,1,2,0:0:0:0:
182,192,193350,1,2,0:0:0:0:
36,192,193350,1,0,0:0:0:0:
329,192,193350,1,0,0:0:0:0:
475,192,193521,1,0,0:0:0:0:
329,192,193521,1,0,0:0:0:0:
182,192,193521,1,2,0:0:0:0:
475,192,193692,1,0,0:0:0:0:
36,192,193692,1,2,0:0:0:0:
256,192,193692,1,0,0:0:0:0:
182,192,193863,1,2,0:0:0:0:
329,192,193863,1,0,0:0:0:0:
36,192,193863,1,0,0:0:0:0:
109,192,194035,1,0,2:0:0:0:
256,192,194035,1,0,0:0:0:0:
402,192,194035,1,2,0:0:0:0:
182,192,194120,1,0,2:0:0:0:
329,192,194120,1,2,0:0:0:0:
109,192,194206,1,0,2:0:0:0:
402,192,194206,1,2,0:0:0:0:
182,192,194291,1,0,2:0:0:0:
329,192,194291,1,2,0:0:0:0:
475,192,194377,128,0,195574:0:0:0:0:
36,192,194377,1,2,0:0:0:0:
256,192,194377,1,4,0:0:0:0:
329,192,194462,1,0,0:0:0:0:
402,192,194548,1,0,0:0:0:0:
329,192,194633,1,0,0:0:0:0:
36,192,194719,1,2,0:0:0:0:
109,192,194719,1,8,0:0:0:0:
256,192,194719,1,0,0:0:0:0:
402,192,194804,1,0,0:0:0:0:
329,192,194890,1,0,0:0:0:0:
402,192,194976,1,0,0:0:0:0:
36,192,195061,1,2,0:0:0:0:
329,192,195061,1,0,0:0:0:0:
256,192,195147,1,0,0:0:0:0:
182,192,195232,1,0,0:0:0:0:
256,192,195318,1,0,0:0:0:0:
36,192,195403,1,2,0:0:0:0:
109,192,195403,1,8,0:0:0:0:
329,192,195403,1,0,0:0:0:0:
402,192,195489,1,0,0:0:0:0:
329,192,195574,1,0,0:0:0:0:
256,192,195660,1,0,0:0:0:0:
36,192,195746,128,0,196943:0:0:0:0:
475,192,195746,1,2,0:0:0:0:
182,192,195746,1,0,0:0:0:0:
256,192,195831,1,0,0:0:0:0:
329,192,195917,1,0,0:0:0:0:
256,192,196002,1,0,0:0:0:0:
402,192,196088,1,8,0:0:0:0:
475,192,196088,1,2,0:0:0:0:
182,192,196088,1,0,0:0:0:0:
109,192,196173,1,0,0:0:0:0:
182,192,196259,1,0,0:0:0:0:
256,192,196344,1,0,0:0:0:0:
475,192,196430,1,2,0:0:0:0:
329,192,196430,1,0,0:0:0:0:
256,192,196515,1,0,0:0:0:0:
182,192,196601,1,0,0:0:0:0:
109,192,196687,1,0,0:0:0:0:
402,192,196772,1,8,0:0:0:0:
475,192,196772,1,2,0:0:0:0:
182,192,196772,1,0,0:0:0:0:
256,192,196858,1,0,0:0:0:0:
329,192,196943,1,0,0:0:0:0:
256,192,197029,1,0,0:0:0:0:
475,192,197114,128,0,198312:0:0:0:0:
36,192,197114,1,2,0:0:0:0:
182,192,197114,1,0,0:0:0:0:
256,192,197200,1,0,0:0:0:0:
329,192,197285,1,0,0:0:0:0:
402,192,197371,1,0,0:0:0:0:
36,192,197456,1,2,0:0:0:0:
109,192,197456,1,8,0:0:0:0:
329,192,197456,1,0,0:0:0:0:
256,192,197542,1,0,0:0:0:0:
182,192,197628,1,0,0:0:0:0:
256,192,197713,1,0,0:0:0:0:
36,192,197799,1,2,0:0:0:0:
329,192,197799,1,0,0:0:0:0:
402,192,197884,1,0,0:0:0:0:
329,192,197970,1,0,0:0:0:0:
256,192,198055,1,0,0:0:0:0:
36,192,198141,1,2,0:0:0:0:
109,192,198141,1,8,0:0:0:0:
182,192,198141,1,0,0:0:0:0:
256,192,198226,1,0,0:0:0:0:
329,192,198312,1,0,0:0:0:0:
402,192,198397,1,0,0:0:0:0:
256,192,198483,128,0,199681:0:0:0:0:
36,192,198483,1,0,0:0:0:0:
475,192,198483,1,2,0:0:0:0:
109,192,198569,1,0,0:0:0:0:
182,192,198654,1,0,0:0:0:0:
109,192,198740,1,0,0:0:0:0:
36,192,198825,1,0,0:0:0:0:
402,192,198825,1,8,0:0:0:0:
475,192,198825,1,2,0:0:0:0:
329,192,198911,1,0,0:0:0:0:
402,192,198996,1,0,0:0:0:0:
475,192,199082,1,0,0:0:0:0:
36,192,199167,1,0,0:0:0:0:
329,192,199167,1,2,0:0:0:0:
109,192,199253,1,0,0:0:0:0:
182,192,199339,1,0,0:0:0:0:
109,192,199424,1,0,0:0:0:0:
36,192,199510,1,0,0:0:0:0:
475,192,199510,1,8,0:0:0:0:
402,192,199510,1,2,0:0:0:0:
475,192,199681,1,0,0:0:0:0:
402,192,199681,1,2,0:0:0:0:
36,192,199681,1,0,0:0:0:0:
256,192,199852,128,0,200536:0:0:0:0:
475,192,199852,1,0,0:0:0:0:
402,192,199937,1,0,0:0:0:0:
182,192,200023,128,0,200536:0:0:0:0:
329,192,200023,1,0,0:0:0:0:
402,192,200108,1,0,0:0:0:0:
109,192,200194,128,0,200536:0:0:0:0:
475,192,200194,1,0,0:0:0:0:
402,192,200280,1,0,0:0:0:0:
36,192,200365,128,0,200536:0:0:0:0:
329,192,200365,1,0,0:0:0:0:
402,192,200451,1,0,0:0:0:0:
475,192,200536,1,0,0:0:0:0:
402,192,200622,1,0,0:0:0:0:
329,192,200707,1,0,0:0:0:0:
182,192,200793,1,0,0:0:0:0:
256,192,200878,1,0,0:0:0:0:
402,192,200878,1,8,0:0:0:0:
36,192,200878,1,2,0:0:0:0:
329,192,200964,1,0,0:0:0:0:
256,192,201049,1,0,0:0:0:0:
182,192,201135,1,0,0:0:0:0:
475,192,201221,1,0,0:0:0:0:
256,192,201221,128,0,201905:0:0:0:0:
36,192,201221,1,0,0:0:0:0:
109,192,201306,1,0,0:0:0:0:
329,192,201392,128,0,201905:0:0:0:0:
182,192,201392,1,0,0:0:0:0:
109,192,201477,1,0,0:0:0:0:
475,192,201563,128,0,201905:0:0:0:0:
36,192,201563,1,0,0:0:0:0:
109,192,201648,1,0,0:0:0:0:
402,192,201734,128,0,201905:0:0:0:0:
182,192,201734,1,0,0:0:0:0:
109,192,201819,1,0,0:0:0:0:
36,192,201905,1,0,0:0:0:0:
182,192,201991,1,0,0:0:0:0:
329,192,202076,1,0,0:0:0:0:
256,192,202162,1,0,0:0:0:0:
182,192,202247,1,0,0:0:0:0:
36,192,202247,1,8,0:0:0:0:
475,192,202247,1,2,0:0:0:0:
402,192,202333,1,0,0:0:0:0:
329,192,202418,1,0,0:0:0:0:
256,192,202504,1,0,0:0:0:0:
36,192,202589,1,0,0:0:0:0:
475,192,202589,1,2,0:0:0:0:
109,192,202675,1,0,0:0:0:0:
182,192,202760,1,0,0:0:0:0:
256,192,202846,1,0,0:0:0:0:
109,192,202932,1,2,0:0:0:0:
36,192,202932,1,8,0:0:0:0:
475,192,202932,1,0,0:0:0:0:
329,192,203017,1,0,0:0:0:0:
475,192,203103,1,0,0:0:0:0:
329,192,203188,1,0,0:0:0:0:
182,192,203274,1,2,0:0:0:0:
475,192,203274,1,0,0:0:0:0:
402,192,203359,1,0,0:0:0:0:
329,192,203445,1,0,0:0:0:0:
256,192,203530,1,0,0:0:0:0:
109,192,203616,1,8,0:0:0:0:
402,192,203616,1,0,0:0:0:0:
36,192,203616,1,2,0:0:0:0:
329,192,203701,1,0,0:0:0:0:
256,192,203787,1,0,0:0:0:0:
182,192,203873,1,0,0:0:0:0:
402,192,203958,1,2,0:0:0:0:
36,192,203958,1,0,0:0:0:0:
109,192,204044,1,0,0:0:0:0:
182,192,204129,1,0,0:0:0:0:
256,192,204215,1,0,0:0:0:0:
329,192,204300,1,2,0:0:0:0:
109,192,204300,1,0,0:0:0:0:
475,192,204300,1,8,0:0:0:0:
182,192,204386,1,0,0:0:0:0:
256,192,204471,1,0,0:0:0:0:
329,192,204557,1,0,0:0:0:0:
182,192,204643,1,2,0:0:0:0:
475,192,204643,1,0,0:0:0:0:
329,192,204728,1,0,0:0:0:0:
475,192,204814,1,0,0:0:0:0:
182,192,204814,1,2,0:0:0:0:
36,192,204899,1,2,0:0:0:0:
329,192,204899,1,0,0:0:0:0:
475,192,204985,1,0,0:0:0:0:
182,192,204985,1,2,0:0:0:0:
329,192,205070,1,0,0:0:0:0:
256,192,205156,1,0,0:0:0:0:
475,192,205156,1,2,0:0:0:0:
182,192,205241,1,0,0:0:0:0:
109,192,205327,1,2,0:0:0:0:
329,192,205327,1,4,0:0:0:0:
109,192,205669,1,2,0:0:0:0:
182,192,205669,1,8,0:0:0:0:
402,192,205669,1,0,0:0:0:0:
109,192,206011,1,2,0:0:0:0:
109,192,206353,1,2,0:0:0:0:
402,192,206353,1,0,0:0:0:0:
182,192,206353,1,8,0:0:0:0:
109,192,206696,1,2,0:0:0:0:
109,192,207038,1,2,0:0:0:0:
329,192,207038,1,8,0:0:0:0:
402,192,207038,1,0,0:0:0:0:
109,192,207380,1,2,0:0:0:0:
109,192,207722,1,2,0:0:0:0:
329,192,207722,1,8,0:0:0:0:
402,192,207722,1,0,0:0:0:0:
36,192,208064,1,2,0:0:0:0:
36,192,208407,1,2,0:0:0:0:
182,192,208407,1,8,0:0:0:0:
329,192,208407,1,0,0:0:0:0:
36,192,208749,1,2,0:0:0:0:
36,192,209091,1,2,0:0:0:0:
182,192,209091,1,8,0:0:0:0:
329,192,209091,1,0,0:0:0:0:
36,192,209433,1,2,0:0:0:0:
36,192,209775,1,2,0:0:0:0:
182,192,209775,1,0,0:0:0:0:
402,192,209775,1,8,0:0:0:0:
36,192,210118,1,2,0:0:0:0:
36,192,210460,1,2,0:0:0:0:
182,192,210460,1,0,0:0:0:0:
402,192,210460,1,8,0:0:0:0:
329,192,210802,1,2,0:0:0:0:
329,192,211144,1,2,0:0:0:0:
475,192,211144,1,0,0:0:0:0:
109,192,211144,1,8,0:0:0:0:
329,192,211486,1,2,0:0:0:0:
329,192,211829,1,2,0:0:0:0:
109,192,211829,1,8,0:0:0:0:
475,192,211829,1,0,0:0:0:0:
329,192,212171,1,2,0:0:0:0:
329,192,212513,1,2,0:0:0:0:
256,192,212513,1,8,0:0:0:0:
36,192,212513,1,0,0:0:0:0:
329,192,212855,1,2,0:0:0:0:
329,192,213197,1,2,0:0:0:0:
36,192,213197,1,0,0:0:0:0:
256,192,213197,1,8,0:0:0:0:
475,192,213540,1,2,0:0:0:0:
475,192,213882,1,2,0:0:0:0:
329,192,213882,1,8,0:0:0:0:
109,192,213882,1,0,0:0:0:0:
475,192,214224,1,2,0:0:0:0:
475,192,214566,1,2,0:0:0:0:
329,192,214566,1,8,0:0:0:0:
109,192,214566,1,0,0:0:0:0:
475,192,214908,1,2,0:0:0:0:
475,192,215250,1,2,0:0:0:0:
402,192,215250,1,0,0:0:0:0:
182,192,215250,1,8,0:0:0:0:
475,192,215593,1,2,0:0:0:0:
475,192,215935,1,2,0:0:0:0:
182,192,215935,1,8,0:0:0:0:
402,192,215935,1,0,0:0:0:0:
256,192,216277,1,4,0:0:0:0:
402,192,216448,1,0,0:0:0:0:
182,192,216619,1,0,0:0:0:0:
109,192,216619,1,8,0:0:0:0:
402,192,216790,1,0,0:0:0:0:
402,192,217133,1,0,0:0:0:0:
182,192,217304,1,0,0:0:0:0:
109,192,217304,1,8,0:0:0:0:
402,192,217475,1,0,0:0:0:0:
402,192,217817,1,0,0:0:0:0:
109,192,217988,1,8,0:0:0:0:
256,192,217988,1,0,0:0:0:0:
402,192,218159,1,0,0:0:0:0:
402,192,218501,1,0,0:0:0:0:
109,192,218672,1,8,0:0:0:0:
256,192,218672,1,0,0:0:0:0:
402,192,218843,1,0,0:0:0:0:
109,192,219186,1,0,0:0:0:0:
402,192,219357,1,8,0:0:0:0:
329,192,219357,1,0,0:0:0:0:
109,192,219528,1,0,0:0:0:0:
109,192,219870,1,0,0:0:0:0:
402,192,220041,1,8,0:0:0:0:
329,192,220041,1,0,0:0:0:0:
109,192,220212,1,0,0:0:0:0:
109,192,220554,1,0,0:0:0:0:
402,192,220726,1,8,0:0:0:0:
256,192,220726,1,0,0:0:0:0:
109,192,220897,1,0,0:0:0:0:
109,192,221239,1,0,0:0:0:0:
256,192,221410,1,0,0:0:0:0:
402,192,221410,1,8,0:0:0:0:
109,192,221581,1,0,0:0:0:0:
329,192,221923,1,0,0:0:0:0:
182,192,222094,1,8,0:0:0:0:
329,192,222265,1,0,0:0:0:0:
329,192,222608,1,0,0:0:0:0:
182,192,222779,1,8,0:0:0:0:
329,192,222950,1,0,0:0:0:0:
182,192,223292,1,0,0:0:0:0:
329,192,223463,1,8,0:0:0:0:
182,192,223634,1,0,0:0:0:0:
182,192,223976,1,0,0:0:0:0:
329,192,224147,1,8,0:0:0:0:
182,192,224319,1,0,0:0:0:0:
36,192,224490,1,0,2:0:0:10:soft-hitnormal.wav
182,192,224575,1,0,2:0:0:10:soft-hitnormal.wav
36,192,224661,1,0,2:0:0:10:soft-hitnormal.wav
182,192,224746,1,0,2:0:0:10:soft-hitnormal.wav
329,192,224832,1,0,2:0:0:15:soft-hitnormal.wav
475,192,224832,1,8,0:0:0:0:
182,192,224917,1,0,2:0:0:15:soft-hitnormal.wav
329,192,225003,1,0,2:0:0:15:soft-hitnormal.wav
182,192,225088,1,0,2:0:0:15:soft-hitnormal.wav
329,192,225174,1,0,0:0:0:20:soft-hitnormal.wav
475,192,225260,1,0,0:0:0:20:soft-hitnormal.wav
329,192,225345,1,0,0:0:0:20:soft-hitnormal.wav
475,192,225431,1,0,0:0:0:20:soft-hitnormal.wav
329,192,225516,1,0,0:0:0:25:soft-hitnormal.wav
36,192,225516,1,8,0:0:0:0:
182,192,225602,1,0,0:0:0:25:soft-hitnormal.wav
329,192,225687,1,0,0:0:0:25:soft-hitnormal.wav
182,192,225773,1,0,0:0:0:25:soft-hitnormal.wav
36,192,225858,1,0,0:0:0:0:
475,192,225858,1,0,2:0:0:0:
402,192,225944,1,0,2:0:0:0:
109,192,225944,1,0,0:0:0:0:
182,192,226030,1,0,0:0:0:0:
329,192,226030,1,0,2:0:0:0:
109,192,226115,1,0,0:0:0:0:
402,192,226115,1,0,2:0:0:0:
182,192,226201,1,0,0:0:0:0:
329,192,226201,1,0,2:0:0:0:
36,192,226286,1,0,0:0:0:0:
475,192,226286,1,0,2:0:0:0:
109,192,226372,1,0,0:0:0:0:
402,192,226372,1,0,2:0:0:0:
182,192,226457,1,0,0:0:0:0:
329,192,226457,1,0,2:0:0:0:
36,192,226543,1,0,0:0:0:0:
475,192,226543,1,0,2:0:0:0:
182,192,226628,1,0,0:0:0:0:
329,192,226628,1,0,2:0:0:0:
109,192,226714,1,0,0:0:0:0:
402,192,226714,1,0,2:0:0:0:
182,192,226799,1,0,0:0:0:0:
329,192,226799,1,0,2:0:0:0:
109,192,226885,1,0,0:0:0:0:
402,192,226885,1,0,2:0:0:0:
182,192,226971,1,0,0:0:0:0:
329,192,226971,1,0,2:0:0:0:
109,192,227056,1,0,0:0:0:0:
402,192,227056,1,0,2:0:0:0:
182,192,227142,1,0,0:0:0:0:
329,192,227142,1,0,2:0:0:0:
109,192,227227,1,2,0:0:0:0:
36,192,227227,1,4,0:0:0:0:
402,192,227227,1,2,0:0:0:0:
475,192,227227,1,4,0:0:0:0:
