osu file format v14

[General]
AudioFilename: audio.mp3
AudioLeadIn: 0
PreviewTime: 182050
Countdown: 0
SampleSet: Normal
StackLeniency: 0.7
Mode: 2
LetterboxInBreaks: 0
WidescreenStoryboard: 0

[Editor]
Bookmarks: 20993,36662,83670,104562,125454,148958,159404,182908,224692,245585,266477,308262,370938
DistanceSpacing: 1.5
BeatDivisor: 4
GridSize: 16
TimelineZoom: 4.299998

[Metadata]
Title:TAKECORE OF YOURSELF
TitleUnicode:TAKECORE OF YOURSELF
Artist:DJ SHARPNEL
ArtistUnicode:DJ SHARPNEL
Creator:AutoLs
Version:LIMIT BREAK
Source:
Tags:electronic japanese hardcore j-core jcore sharpnelsound archer 4rcher- take core SRPC-0021 SRPC0021 オタクオーバークロックス21 = Otaku Overclocks 21 Drum and Bass DnB D&B Happy Neon Genesis Evangelion Death and Rebirth 魂のルフラン Tamashii no Refrain 高橋洋子 Takahashi Yoko Roselia Fafner of the Azure Dead Aggressor Serial Experiments Lain
BeatmapID:4332291
BeatmapSetID:2070482

[Difficulty]
HPDrainRate:4
CircleSize:4
OverallDifficulty:9.8
ApproachRate:9.8
SliderMultiplier:2.1
SliderTickRate:2

[Events]
//Background and Video events
0,0,"neon-genesis-evangelion-up_3235294.jpg",0,0
//Break Periods
2,128265,137216
//Storyboard Layer 0 (Background)
//Storyboard Layer 1 (Fail)
//Storyboard Layer 2 (Pass)
//Storyboard Layer 3 (Foreground)
//Storyboard Layer 4 (Overlay)
//Storyboard Sound Samples

[TimingPoints]
100,326.441784548422,4,1,1,70,1,0
36743,-100,4,1,1,35,0,0
36987,-100,4,1,1,40,0,0
37314,-100,4,1,1,45,0,0
37640,-100,4,1,1,50,0,0
37967,-100,4,1,1,55,0,0
38293,-100,4,1,1,60,0,0
38620,-100,4,1,1,65,0,0
38946,-100,4,1,1,70,0,0
39273,-100,4,1,1,40,0,0
39599,-100,4,1,1,45,0,0
39925,-100,4,1,1,50,0,0
40252,-100,4,1,1,55,0,0
40578,-100,4,1,1,60,0,0
40905,-100,4,1,1,65,0,0
41231,-100,4,1,1,70,0,0
41884,-83.3333333333333,4,1,1,70,0,0
125453,-133.333333333333,4,1,1,70,0,0
138511,-83.3333333333333,4,1,1,70,0,0
159566,-83.3333333333333,4,1,1,30,0,0
161362,-83.3333333333333,4,1,1,40,0,0
163320,-83.3333333333333,4,1,1,50,0,0
164626,-83.3333333333333,4,1,1,60,0,0
165932,-83.3333333333333,4,1,1,70,0,0
175072,-83.3333333333333,4,1,1,80,0,0
182907,-83.3333333333333,4,1,1,90,0,1
223386,-83.3333333333333,4,1,1,90,0,0
308261,-83.3333333333333,4,1,1,90,0,1
348739,-83.3333333333333,4,1,1,90,0,0
360491,-100,4,1,1,90,0,0
370856,-100,4,1,1,30,0,0
370937,-100,4,1,1,70,0,0
371264,-100,4,1,2,70,0,0
371305,-100,4,1,1,70,0,0
371917,-100,4,1,2,70,0,0
371957,-100,4,1,1,70,0,0
372570,-100,4,1,2,70,0,0
372610,-100,4,1,1,70,0,0
373222,-100,4,1,2,70,0,0
373263,-100,4,1,1,70,0,0
373875,-100,4,1,2,70,0,0
373916,-100,4,1,1,70,0,0
374528,-100,4,1,2,70,0,0
374569,-100,4,1,1,70,0,0
375181,-100,4,1,2,70,0,0
375222,-100,4,1,1,70,0,0
375834,-100,4,1,2,70,0,0
375875,-100,4,1,1,70,0,0
376487,-100,4,1,2,70,0,0
376528,-100,4,1,1,70,0,0
377140,-100,4,1,2,70,0,0
377181,-100,4,1,1,70,0,0
377793,-100,4,1,2,70,0,0
377833,-100,4,1,1,70,0,0
378446,-100,4,1,2,70,0,0
378486,-100,4,1,1,70,0,0
379098,-100,4,1,2,70,0,0
379139,-100,4,1,1,70,0,0
379751,-100,4,1,2,70,0,0
379792,-100,4,1,1,70,0,0
380404,-100,4,1,2,70,0,0
380445,-100,4,1,1,70,0,0
381057,-100,4,1,2,70,0,0
381098,-100,4,1,1,70,0,0
381710,-100,4,1,2,70,0,0
381751,-100,4,1,1,70,0,0
382363,-100,4,1,2,70,0,0
382404,-100,4,1,1,70,0,0
383016,-100,4,1,2,70,0,0
383057,-100,4,1,1,70,0,0
383669,-100,4,1,2,70,0,0
383709,-100,4,1,1,70,0,0
384321,-100,4,1,2,70,0,0
384362,-100,4,1,1,70,0,0
384974,-100,4,1,2,70,0,0
385015,-100,4,1,1,70,0,0
385627,-100,4,1,2,70,0,0
385668,-100,4,1,1,70,0,0
386280,-100,4,1,2,70,0,0
386321,-100,4,1,1,70,0,0
392809,-100,4,1,1,5,0,0

[Colours]
Combo1 : 0,0,255
Combo2 : 255,0,0
Combo3 : 0,128,255
Combo4 : 128,64,64

[HitObjects]
169,256,100,6,0,L|317:256,1,105,0|0,3:0|0:0,0:0:0:0:
54,153,426,1,8,0:0:0:0:
264,118,752,6,0,L|127:118,1,105,0|2,3:0|0:0,0:0:0:0:
381,217,1079,1,8,0:0:0:0:
172,301,1405,6,0,L|172:179,1,105,0|0,3:0|0:0,0:0:0:0:
394,136,1732,1,8,0:0:0:0:
143,73,2058,6,0,L|143:197,1,105,0|0,3:0|0:0,0:0:0:0:
365,282,2385,1,8,0:0:0:0:
260,284,2548,1,0,3:0:0:0:
428,241,2711,6,0,L|427:126,1,105,0|0,3:0|0:0,0:0:0:0:
186,96,3037,1,8,0:0:0:0:
355,243,3364,6,0,L|355:369,1,105,0|0,3:0|0:0,0:0:0:0:
114,350,3690,1,8,0:0:0:0:
324,346,4017,6,0,L|189:346,1,105,2|0,3:0|0:0,0:0:0:0:
439,296,4343,1,8,0:0:0:0:
229,239,4670,6,0,L|236:174,1,52.5,0|0,3:0|3:0,0:0:0:0:
314,174,4833,2,0,L|296:108,1,52.5,0|0,3:0|0:0,0:0:0:0:
131,113,4996,1,8,0:0:0:0:
236,97,5159,1,0,3:0:0:0:
56,301,5323,6,0,L|56:147,1,105,0|0,3:0|0:0,0:0:0:0:
276,180,5649,1,8,0:0:0:0:
66,237,5975,6,0,L|179:236,1,105,0|2,3:0|0:0,0:0:0:0:
393,288,6302,1,8,0:0:0:0:
162,331,6628,6,0,L|279:331,1,105,0|0,3:0|0:0,0:0:0:0:
489,211,6955,1,8,0:0:0:0:
321,206,7281,6,0,L|473:206,1,105,0|0,3:0|0:0,0:0:0:0:
183,161,7608,1,8,0:0:0:0:
350,247,7934,6,0,L|203:247,1,105,0|0,3:0|0:0,0:0:0:0:
23,349,8261,1,8,0:0:0:0:
170,133,8587,6,0,L|18:134,1,105,0|0,3:0|0:0,0:0:0:0:
285,216,8913,1,8,0:0:0:0:
137,220,9240,6,0,L|137:356,1,105,2|0,3:0|0:0,0:0:0:0:
378,328,9566,1,8,0:0:0:0:
168,131,9893,6,0,L|283:131,1,105,0|0,3:0|0:0,0:0:0:0:
493,211,10219,1,8,0:0:0:0:
283,281,10546,6,0,L|410:282,1,105,0|2,3:0|0:2,0:0:0:0:
168,311,10872,2,0,L|167:176,1,105,8|2,0:0|0:2,0:0:0:0:
325,166,11199,2,0,L|173:165,1,105,0|2,3:0|0:2,0:0:0:0:
440,230,11525,2,0,L|440:343,1,105,8|2,0:0|0:2,0:0:0:0:
283,319,11851,6,0,L|144:319,1,105,0|2,3:0|0:2,0:0:0:0:
400,162,12178,2,0,L|261:162,1,105,8|2,0:0|0:2,0:0:0:0:
138,178,12504,2,0,L|139:317,1,105,0|2,3:0|0:2,0:0:0:0:
360,293,12831,2,0,L|204:294,1,105,8|2,0:0|0:2,0:0:0:0:
412,296,13157,6,0,L|412:152,1,105,0|2,3:0|0:2,0:0:0:0:
190,173,13484,2,0,L|51:173,1,105,8|2,0:0|0:2,0:0:0:0:
242,268,13810,2,0,L|371:268,1,105,0|2,3:0|0:2,0:0:0:0:
127,340,14136,2,0,L|127:208,1,105,8|2,0:0|0:2,0:0:0:0:
285,172,14463,6,0,L|141:173,1,105,2|2,3:0|0:2,0:0:0:0:
442,200,14789,2,0,L|441:328,1,105,8|2,0:0|0:2,0:0:0:0:
283,348,15116,2,0,L|162:348,1,105,0|2,3:0|0:2,0:0:0:0:
440,85,15442,2,0,L|441:214,1,105,8|2,0:0|0:2,0:0:0:0:
283,223,15769,6,0,L|421:222,1,105,0|2,3:0|0:2,0:0:0:0:
126,136,16095,2,0,L|126:283,1,105,8|2,0:0|0:2,0:0:0:0:
284,328,16422,2,0,L|131:329,1,105,0|2,3:0|0:2,0:0:0:0:
399,256,16748,2,0,L|511:256,1,105,8|2,0:0|0:2,0:0:0:0:
347,108,17074,6,0,L|467:109,1,105,0|2,3:0|0:2,0:0:0:0:
188,221,17401,2,0,L|70:221,1,105,8|2,0:0|0:2,0:0:0:0:
240,261,17727,2,0,L|240:139,1,105,0|2,3:0|0:2,0:0:0:0:
18,354,18054,2,0,L|158:353,1,105,8|2,0:0|0:2,0:0:0:0:
280,323,18380,6,0,L|146:323,1,105,0|2,3:0|0:2,0:0:0:0:
397,261,18707,2,0,L|503:263,1,105,8|2,0:0|0:2,0:0:0:0:
345,198,19033,2,0,L|206:195,1,105,0|2,3:0|0:2,0:0:0:0:
462,202,19360,2,0,L|463:345,1,105,8|2,0:0|0:2,0:0:0:0:
305,341,19686,6,0,L|305:214,1,105,2|2,3:0|0:2,0:0:0:0:
42,57,20012,2,0,L|154:56,1,105,8|2,0:0|0:2,0:0:0:0:
305,69,20339,2,0,L|305:219,1,105,0|2,0:0|0:2,0:0:0:0:
43,344,20665,2,0,L|191:345,1,105,8|2,0:0|0:2,0:0:0:0:
412,276,20992,5,6,3:1:0:0:
276,253,21155,1,0,0:0:0:0:
496,189,21318,1,8,0:0:0:0:
496,189,21481,1,0,0:0:0:0:
338,168,21645,1,2,3:0:0:0:
474,266,21808,1,0,0:0:0:0:
212,276,21971,1,8,0:0:0:0:
212,276,22134,1,0,0:0:0:0:
370,321,22298,5,2,3:0:0:0:
244,344,22461,1,0,0:0:0:0:
24,335,22624,1,8,0:0:0:0:
24,335,22787,1,0,0:0:0:0:
160,278,22950,1,2,3:0:0:0:
318,263,23114,1,0,0:0:0:0:
98,202,23277,1,8,0:0:0:0:
255,167,23440,1,0,3:0:0:0:
140,110,23603,5,2,3:0:0:0:
140,110,23767,1,0,0:0:0:0:
360,293,23930,1,8,0:0:0:0:
465,285,24093,1,0,0:0:0:0:
308,206,24256,1,2,3:0:0:0:
308,206,24419,1,0,0:0:0:0:
86,258,24583,1,8,0:0:0:0:
86,258,24746,1,0,0:0:0:0:
243,307,24909,5,2,3:0:0:0:
107,338,25072,1,0,0:0:0:0:
339,245,25236,1,8,0:0:0:0:
339,245,25399,1,0,0:0:0:0:
203,218,25562,2,0,L|105:212,1,52.5,2|0,3:0|3:0,0:0:0:0:
70,270,25725,1,0,3:0:0:0:
290,333,25888,1,8,0:0:0:0:
153,345,26052,1,0,3:0:0:0:
426,287,26215,5,6,3:0:0:0:
426,287,26378,1,0,0:0:0:0:
206,217,26541,1,8,0:0:0:0:
312,211,26705,1,0,0:0:0:0:
176,252,26868,1,2,3:0:0:0:
166,356,27031,1,0,0:0:0:0:
408,245,27194,1,8,0:0:0:0:
303,181,27357,1,0,0:0:0:0:
408,245,27521,5,2,3:0:0:0:
429,353,27684,1,0,0:0:0:0:
188,341,27847,1,8,0:0:0:0:
324,278,28010,1,0,0:0:0:0:
324,278,28173,1,2,3:0:0:0:
461,247,28337,1,0,0:0:0:0:
199,210,28500,1,8,0:0:0:0:
335,204,28663,1,0,3:0:0:0:
104,174,28826,5,2,3:0:0:0:
51,285,28990,1,0,0:0:0:0:
313,304,29153,1,8,0:0:0:0:
177,298,29316,1,0,0:0:0:0:
177,298,29479,1,2,3:0:0:0:
41,215,29642,1,0,0:0:0:0:
326,109,29806,1,8,0:0:0:0:
326,109,29969,1,0,0:0:0:0:
169,158,30132,5,2,3:0:0:0:
326,109,30295,1,0,0:0:0:0:
32,346,30459,1,8,0:0:0:0:
32,346,30622,1,0,0:0:0:0:
254,292,30785,2,0,L|183:292,2,52.5,2|0|0,3:0|3:0|3:0,0:0:0:0:
23,255,31111,1,8,0:0:0:0:
151,239,31275,1,0,3:0:0:0:
452,328,31438,6,0,L|453:186,1,105,6|0,3:0|0:0,0:0:0:0:
222,187,31764,2,0,L|221:52,1,105,8|0,0:0|0:0,0:0:0:0:
379,228,32091,2,0,L|246:227,1,105,2|0,3:0|0:0,0:0:0:0:
54,327,32417,2,0,L|55:174,1,105,8|0,0:0|0:0,0:0:0:0:
192,191,32744,6,0,L|69:190,1,105,2|0,3:0|0:0,0:0:0:0:
328,323,33070,2,0,L|460:323,1,105,8|0,0:0|0:0,0:0:0:0:
275,266,33397,2,0,L|275:142,1,105,2|0,3:0|0:0,0:0:0:0:
495,105,33723,2,0,L|346:104,1,105,8|0,0:0|3:0,0:0:0:0:
149,191,34049,6,0,L|30:192,1,105,2|0,3:0|0:0,0:0:0:0:
287,230,34376,2,0,L|286:358,1,105,8|0,0:0|0:0,0:0:0:0:
129,338,34702,2,0,L|246:339,1,105,2|0,3:0|0:0,0:0:0:0:
456,261,35029,2,0,L|458:127,1,105,8|0,0:0|0:0,0:0:0:0:
300,318,35355,6,0,L|451:320,1,105,2|0,3:0|0:0,0:0:0:0:
110,254,35682,2,0,L|101:138,1,105,8|0,0:0|0:0,0:0:0:0:
259,124,36008,1,2,3:0:0:0:
206,124,36089,1,0,3:0:0:0:
154,124,36171,1,0,3:0:0:0:
376,234,36335,1,8,0:0:0:0:
219,260,36498,1,0,3:0:0:0:
450,335,36661,5,6,3:0:0:0:
436,286,36742,1,8,0:3:0:0:
392,258,36824,1,8,0:3:0:0:
340,248,36905,1,8,0:3:0:0:
289,236,36987,1,8,0:3:0:0:
257,198,37069,1,8,0:3:0:0:
274,150,37150,1,8,0:3:0:0:
315,117,37232,1,8,0:3:0:0:
366,107,37313,5,8,0:3:0:0:
415,123,37395,1,8,0:3:0:0:
448,162,37477,1,8,0:3:0:0:
453,214,37558,1,8,0:3:0:0:
432,262,37640,1,8,0:3:0:0:
396,300,37721,1,8,0:3:0:0:
354,331,37803,1,8,0:3:0:0:
308,356,37885,1,8,0:3:0:0:
149,315,37967,6,0,L|139:240,1,52.5,8|8,0:3|0:3,0:0:0:0:
221,257,38130,2,0,L|231:190,1,52.5,8|8,0:3|0:3,0:0:0:0:
149,182,38293,2,0,L|142:110,1,52.5,8|8,0:3|0:3,0:0:0:0:
223,132,38456,2,0,L|241:52,1,52.5,8|8,0:3|0:3,0:0:0:0:
154,57,38620,6,0,L|220:43,1,52.5,8|8,0:3|0:3,0:0:0:0:
285,75,38783,2,0,L|295:143,1,52.5,8|8,0:3|0:3,0:0:0:0:
212,213,38946,2,0,L|151:220,1,52.5,8|8,0:3|0:3,0:0:0:0:
239,258,39109,2,0,L|245:319,1,52.5,8|8,0:3|0:3,0:0:0:0:
62,346,39273,6,0,L|54:286,1,52.5,2|2,0:0|0:0,0:0:0:0:
134,253,39436,2,0,L|126:180,1,52.5,2|2,0:0|0:0,0:0:0:0:
208,157,39599,2,0,L|211:95,1,52.5,2|2,0:0|0:0,0:0:0:0:
289,94,39762,2,0,L|304:39,1,52.5,2|2,0:0|0:0,0:0:0:0:
451,346,39925,6,0,L|459:286,1,52.5,2|2,0:0|0:0,0:0:0:0:
379,253,40088,2,0,L|387:180,1,52.5,2|2,0:0|0:0,0:0:0:0:
305,157,40251,2,0,L|302:95,1,52.5,2|2,0:0|0:0,0:0:0:0:
224,94,40414,2,0,L|209:39,1,52.5,2|2,0:0|0:0,0:0:0:0:
395,184,40578,6,0,L|381:116,1,52.5,2|2,0:0|0:0,0:0:0:0:
224,223,40742,2,0,L|150:219,1,52.5,2|2,0:0|0:0,0:0:0:0:
342,339,40905,2,0,L|328:251,1,52.5,2|2,0:0|0:0,0:0:0:0:
165,316,41068,2,0,L|66:315,1,52.5,2|2,0:0|0:0,0:0:0:0:
402,308,41231,6,0,P|459:246|303:120,1,315,2|0,3:0|3:0,0:0:0:0:
58,344,41884,6,0,L|197:333,1,125.999996154785,6|2,3:1|0:0,0:0:0:0:
247,329,42129,1,2,0:0:0:0:
84,272,42210,2,0,L|108:137,1,125.999996154785,10|2,0:0|0:0,0:0:0:0:
437,259,42537,6,0,L|432:91,1,125.999996154785,2|2,3:1|0:0,0:0:0:0:
369,117,42782,1,2,0:0:0:0:
194,170,42863,2,0,L|208:90,1,62.9999980773926,10|0,0:0|0:0,0:0:0:0:
269,105,43027,2,0,L|256:23,1,62.9999980773926,2|0,0:0|0:0,0:0:0:0:
82,345,43190,6,0,L|242:333,1,125.999996154785,2|2,3:1|0:0,0:0:0:0:
144,314,43435,1,2,0:0:0:0:
306,296,43516,2,0,L|338:166,1,125.999996154785,8|2,0:0|0:0,0:0:0:0:
83,172,43843,5,2,3:1:0:0:
145,166,43924,1,2,0:0:0:0:
208,161,44006,1,2,0:0:0:0:
271,156,44088,1,2,0:0:0:0:
108,207,44169,2,0,L|98:338,1,125.999996154785,10|2,0:0|3:1,0:0:0:0:
351,114,44496,5,2,3:1:0:0:
288,111,44577,1,2,0:0:0:0:
225,109,44659,1,2,0:0:0:0:
162,106,44740,1,2,0:0:0:0:
328,250,44822,2,0,L|347:181,1,62.9999980773926,10|0,0:0|0:0,0:0:0:0:
269,170,44985,1,2,0:0:0:0:
495,313,45148,5,2,3:1:0:0:
432,308,45229,1,2,0:0:0:0:
369,304,45311,1,2,0:0:0:0:
306,300,45392,1,2,0:0:0:0:
126,319,45475,1,10,0:0:0:0:
188,315,45556,1,0,0:0:0:0:
251,312,45638,1,2,3:1:0:0:
24,252,45801,5,2,3:1:0:0:
26,190,45882,1,0,0:0:0:0:
64,140,45964,1,2,0:0:0:0:
123,122,46045,1,2,0:0:0:0:
303,182,46128,2,0,L|214:184,2,62.9999980773926,10|0|2,0:0|0:0|0:0,0:0:0:0:
368,182,46373,1,0,0:0:0:0:
192,334,46454,5,2,3:1:0:0:
134,311,46535,1,2,3:0:0:0:
107,256,46617,1,2,3:1:0:0:
123,196,46698,1,2,0:0:0:0:
283,255,46781,2,0,L|383:246,1,62.9999980773926,10|0,0:0|0:0,0:0:0:0:
181,183,46944,2,0,L|104:171,1,62.9999980773926,2|0,3:1|0:0,0:0:0:0:
384,148,47107,5,6,3:1:0:0:
400,207,47188,1,2,0:0:0:0:
379,266,47270,1,2,0:0:0:0:
329,302,47351,1,2,0:0:0:0:
162,341,47434,2,0,L|71:338,1,62.9999980773926,10|0,0:0|0:0,0:0:0:0:
162,341,47597,2,0,L|267:341,1,62.9999980773926,2|0,0:0|0:0,0:0:0:0:
48,268,47760,6,0,L|40:122,1,125.999996154785,2|2,3:1|0:0,0:0:0:0:
105,134,48005,1,2,0:0:0:0:
268,197,48086,2,0,L|275:88,1,62.9999980773926,10|0,0:0|0:0,0:0:0:0:
208,128,48250,2,0,L|202:42,1,62.9999980773926,2|0,0:0|0:0,0:0:0:0:
381,203,48413,6,0,L|245:198,1,125.999996154785,2|2,3:1|0:0,0:0:0:0:
192,205,48658,1,2,0:0:0:0:
374,324,48739,1,8,0:0:0:0:
312,322,48820,1,0,0:0:0:0:
249,317,48902,1,2,0:0:0:0:
24,268,49066,6,0,L|16:175,1,62.9999980773926,2|2,3:1|0:0,0:0:0:0:
82,185,49229,2,0,L|171:178,1,62.9999980773926,2|2,0:0|0:0,0:0:0:0:
322,170,49392,2,0,L|307:66,1,62.9999980773926,10|0,0:0|0:0,0:0:0:0:
250,99,49555,2,0,L|322:91,1,62.9999980773926,2|0,3:1|0:0,0:0:0:0:
146,174,49719,5,2,3:1:0:0:
148,236,49800,1,2,0:0:0:0:
185,285,49882,1,2,0:0:0:0:
244,306,49963,1,2,0:0:0:0:
409,289,50045,2,0,L|489:287,2,62.9999980773926,10|0|2,0:0|0:0|0:0,0:0:0:0:
88,238,50372,6,0,L|77:84,1,125.999996154785,2|2,3:1|0:0,0:0:0:0:
141,108,50616,1,2,0:0:0:0:
306,206,50698,1,10,0:0:0:0:
243,206,50779,1,0,0:0:0:0:
180,206,50861,1,2,3:1:0:0:
425,295,51024,6,0,L|426:157,1,125.999996154785,2|2,3:1|0:0,0:0:0:0:
362,146,51269,1,2,0:0:0:0:
197,118,51351,2,0,L|13:108,1,125.999996154785,10|2,0:0|0:0,0:0:0:0:
322,243,51677,6,0,L|163:234,1,125.999996154785,2|2,3:1|0:0,0:0:0:0:
386,320,51922,2,0,L|455:321,2,62.9999980773926,2|10|0,3:0|0:0|0:0,0:0:0:0:
222,289,52167,2,0,L|194:200,1,62.9999980773926,2|0,3:1|0:0,0:0:0:0:
477,209,52330,5,6,3:1:0:0:
480,266,52411,1,2,0:0:0:0:
417,306,52493,2,0,L|507:313,1,62.9999980773926,2|2,0:0|0:0,0:0:0:0:
254,223,52657,1,10,0:0:0:0:
254,223,52738,1,0,0:0:0:0:
317,212,52820,1,2,0:0:0:0:
61,338,52983,6,0,L|232:329,1,125.999996154785,2|2,3:1|0:0,0:0:0:0:
250,330,53228,1,2,0:0:0:0:
85,258,53310,2,0,L|66:176,1,62.9999980773926,10|0,0:0|0:0,0:0:0:0:
135,172,53473,2,0,L|37:170,1,62.9999980773926,2|0,0:0|0:0,0:0:0:0:
249,137,53636,6,0,L|360:132,2,62.9999980773926,2|0|2,3:1|0:0|0:0,0:0:0:0:
185,144,53881,1,2,0:0:0:0:
360,223,53962,2,0,L|368:157,1,62.9999980773926,8|0,0:0|0:0,0:0:0:0:
273,174,54126,2,0,L|263:87,1,62.9999980773926,2|0,0:0|0:0,0:0:0:0:
50,338,54289,6,0,L|120:335,3,62.9999980773926,2|2|2|2,3:1|0:0|0:0|0:0,0:0:0:0:
277,303,54615,1,10,0:0:0:0:
403,265,54778,1,2,3:1:0:0:
82,227,54942,5,2,3:1:0:0:
61,168,55023,1,2,0:0:0:0:
84,111,55105,1,2,0:0:0:0:
140,85,55186,1,2,0:0:0:0:
330,142,55268,1,10,0:0:0:0:
267,199,55350,1,0,0:0:0:0:
204,254,55431,1,2,0:0:0:0:
459,260,55595,6,0,L|279:254,1,125.999996154785,2|2,3:1|0:0,0:0:0:0:
269,268,55839,1,2,0:0:0:0:
105,346,55921,2,0,L|179:344,1,62.9999980773926,10|0,0:0|0:0,0:0:0:0:
332,359,56084,1,2,3:1:0:0:
80,251,56247,6,0,P|62:186|125:128,1,125.999996154785,2|2,3:1|0:0,0:0:0:0:
156,127,56492,1,2,0:0:0:0:
346,168,56574,2,0,L|441:160,2,62.9999980773926,10|2|2,0:0|0:0|0:0,0:0:0:0:
119,327,56900,6,0,L|126:245,1,62.9999980773926,2|2,3:1|3:0,0:0:0:0:
291,231,57064,2,0,L|196:222,1,62.9999980773926,2|2,3:1|0:0,0:0:0:0:
32,330,57227,1,10,0:0:0:0:
258,312,57390,1,2,3:1:0:0:
32,330,57553,5,6,3:1:0:0:
25,269,57634,1,2,0:0:0:0:
89,238,57716,2,0,L|11:228,1,62.9999980773926,2|2,0:0|0:0,0:0:0:0:
248,202,57880,1,10,0:0:0:0:
312,205,57961,1,0,0:0:0:0:
375,200,58043,1,2,0:0:0:0:
147,139,58206,5,2,3:1:0:0:
209,137,58287,1,0,0:0:0:0:
272,136,58369,1,2,0:0:0:0:
335,134,58450,1,2,0:0:0:0:
168,272,58533,2,0,L|65:269,2,62.9999980773926,10|0|2,0:0|0:0|0:0,0:0:0:0:
395,217,58859,6,0,L|220:214,1,125.999996154785,2|2,3:1|0:0,0:0:0:0:
206,216,59104,1,2,0:0:0:0:
369,314,59185,1,8,0:0:0:0:
306,312,59266,1,0,0:0:0:0:
243,311,59348,1,2,0:0:0:0:
471,169,59512,5,2,3:1:0:0:
481,229,59593,1,2,0:0:0:0:
452,284,59675,1,2,0:0:0:0:
395,308,59756,1,2,0:0:0:0:
168,186,59838,2,0,L|86:184,1,62.9999980773926,10|0,0:0|0:0,0:0:0:0:
273,229,60002,2,0,L|373:222,1,62.9999980773926,2|0,3:1|0:0,0:0:0:0:
171,356,60165,5,2,3:1:0:0:
149,298,60246,1,2,0:0:0:0:
175,242,60328,1,2,0:0:0:0:
233,221,60409,1,2,0:0:0:0:
397,218,60491,2,0,L|486:221,1,62.9999980773926,10|0,0:0|0:0,0:0:0:0:
270,141,60654,1,2,0:0:0:0:
491,139,60818,5,2,3:1:0:0:
497,200,60899,1,2,0:0:0:0:
467,254,60981,1,2,0:0:0:0:
414,288,61062,1,2,0:0:0:0:
224,301,61144,2,0,L|307:294,1,62.9999980773926,10|0,0:0|0:0,0:0:0:0:
451,200,61307,1,2,3:1:0:0:
222,149,61471,6,0,L|67:148,1,125.999996154785,2|2,3:1|0:0,0:0:0:0:
159,197,61715,1,2,0:0:0:0:
349,245,61797,2,0,L|429:244,2,62.9999980773926,10|0|2,0:0|0:0|0:0,0:0:0:0:
123,343,62123,6,0,L|44:225,1,125.999996154785,2|2,3:1|0:0,0:0:0:0:
243,242,62368,1,2,3:0:0:0:
305,238,62449,1,10,0:0:0:0:
368,235,62531,1,0,0:0:0:0:
191,142,62613,2,0,L|280:132,1,62.9999980773926,2|0,3:1|0:0,0:0:0:0:
469,160,62776,5,6,3:1:0:0:
486,219,62857,1,2,0:0:0:0:
465,277,62939,1,2,0:0:0:0:
414,312,63020,1,2,0:0:0:0:
222,288,63103,2,0,L|305:280,1,62.9999980773926,10|0,0:0|0:0,0:0:0:0:
449,355,63266,1,2,0:0:0:0:
197,339,63429,5,2,3:1:0:0:
176,280,63510,1,0,0:0:0:0:
202,224,63592,1,2,0:0:0:0:
259,201,63673,1,2,0:0:0:0:
426,167,63756,2,0,L|350:158,1,62.9999980773926,10|0,0:0|0:0,0:0:0:0:
198,144,63919,1,2,0:0:0:0:
424,305,64082,6,0,L|427:165,1,125.999996154785,2|2,3:1|0:0,0:0:0:0:
363,281,64327,1,2,0:0:0:0:
197,275,64409,2,0,L|263:264,1,62.9999980773926,8|0,0:0|0:0,0:0:0:0:
424,191,64572,1,2,0:0:0:0:
198,129,64735,6,0,L|113:132,3,62.9999980773926,2|2|2|2,3:1|0:0|0:0|0:0,0:0:0:0:
300,218,65061,2,0,L|137:215,1,125.999996154785,10|2,0:0|3:1,0:0:0:0:
402,316,65388,5,2,3:1:0:0:
416,255,65469,1,2,0:0:0:0:
392,198,65551,1,2,0:0:0:0:
339,166,65632,1,2,0:0:0:0:
173,138,65714,2,0,L|80:140,1,62.9999980773926,10|0,0:0|0:0,0:0:0:0:
276,237,65878,1,2,0:0:0:0:
50,332,66041,5,2,3:1:0:0:
42,270,66122,1,2,0:0:0:0:
76,219,66204,1,2,0:0:0:0:
136,203,66285,1,2,0:0:0:0:
300,189,66367,2,0,L|386:191,1,62.9999980773926,10|0,0:0|0:0,0:0:0:0:
199,319,66530,1,2,3:1:0:0:
426,330,66694,6,0,L|458:202,1,125.999996154785,2|2,3:1|0:0,0:0:0:0:
394,192,66938,1,2,0:0:0:0:
230,185,67020,2,0,L|222:94,1,62.9999980773926,10|2,0:0|0:0,0:0:0:0:
390,93,67183,1,2,0:0:0:0:
162,75,67347,5,2,3:1:0:0:
224,72,67428,1,2,3:0:0:0:
287,70,67510,1,2,3:1:0:0:
124,172,67591,1,2,0:0:0:0:
289,258,67673,2,0,L|392:259,1,62.9999980773926,10|0,0:0|0:0,0:0:0:0:
188,337,67836,2,0,L|122:338,1,62.9999980773926,2|0,3:1|0:0,0:0:0:0:
315,331,67999,6,0,L|313:257,1,62.9999980773926,6|2,3:1|0:0,0:0:0:0:
236,257,68163,2,0,L|228:174,1,62.9999980773926,2|2,0:0|0:0,0:0:0:0:
401,171,68326,2,0,L|373:102,1,62.9999980773926,10|0,0:0|0:0,0:0:0:0:
213,92,68489,1,2,0:0:0:0:
440,243,68652,5,2,3:1:0:0:
377,244,68733,1,0,0:0:0:0:
314,246,68815,1,2,0:0:0:0:
251,248,68896,1,2,0:0:0:0:
440,332,68979,2,0,L|455:235,1,62.9999980773926,10|0,0:0|0:0,0:0:0:0:
285,192,69142,1,2,0:0:0:0:
59,335,69305,6,0,L|45:179,1,125.999996154785,2|2,3:1|0:0,0:0:0:0:
111,188,69550,1,2,0:0:0:0:
276,133,69632,2,0,L|273:63,1,62.9999980773926,8|0,0:0|0:0,0:0:0:0:
109,58,69795,1,2,0:0:0:0:
336,234,69958,5,2,3:1:0:0:
273,231,70039,1,2,0:0:0:0:
210,228,70121,1,2,0:0:0:0:
147,225,70202,1,2,0:0:0:0:
337,169,70284,2,0,L|477:170,1,125.999996154785,10|2,0:0|3:1,0:0:0:0:
462,169,70529,1,0,0:0:0:0:
260,333,70611,6,0,L|247:264,1,62.9999980773926,2|2,3:1|0:0,0:0:0:0:
325,264,70774,2,0,L|350:176,1,62.9999980773926,2|2,0:0|0:0,0:0:0:0:
177,170,70937,2,0,L|188:91,1,62.9999980773926,10|0,0:0|0:0,0:0:0:0:
352,88,71101,1,2,0:0:0:0:
126,69,71264,5,2,3:1:0:0:
188,70,71345,1,2,0:0:0:0:
251,71,71427,1,2,0:0:0:0:
314,72,71508,1,2,0:0:0:0:
125,298,71590,2,0,L|114:205,1,62.9999980773926,10|0,0:0|0:0,0:0:0:0:
282,200,71753,1,2,3:1:0:0:
54,220,71917,6,0,L|47:85,1,125.999996154785,2|2,3:1|0:0,0:0:0:0:
111,83,72162,1,2,0:0:0:0:
299,122,72243,2,0,L|314:196,1,62.9999980773926,10|0,0:0|0:0,0:0:0:0:
147,278,72406,1,2,0:0:0:0:
375,330,72570,6,0,L|511:323,1,125.999996154785,2|2,3:1|0:0,0:0:0:0:
313,236,72814,2,0,L|240:233,2,62.9999980773926,2|10|0,3:0|0:0|0:0,0:0:0:0:
149,135,73059,2,0,L|36:126,1,62.9999980773926,2|0,3:1|0:0,0:0:0:0:
333,112,73222,5,6,3:1:0:0:
373,157,73303,1,2,0:0:0:0:
366,217,73385,1,2,0:0:0:0:
315,251,73466,1,2,0:0:0:0:
149,332,73549,2,0,L|121:221,1,62.9999980773926,10|0,0:0|0:0,0:0:0:0:
298,323,73712,1,2,0:0:0:0:
72,141,73875,5,2,3:1:0:0:
32,186,73956,1,0,0:0:0:0:
39,246,74038,1,2,0:0:0:0:
90,280,74119,1,2,0:0:0:0:
282,224,74202,2,0,L|267:120,1,62.9999980773926,10|0,0:0|0:0,0:0:0:0:
108,116,74365,1,2,0:0:0:0:
334,108,74528,6,0,L|506:115,1,125.999996154785,2|2,3:1|0:0,0:0:0:0:
396,152,74773,1,2,0:0:0:0:
206,289,74855,2,0,L|196:220,1,62.9999980773926,8|0,0:0|0:0,0:0:0:0:
362,235,75018,1,2,0:0:0:0:
135,147,75181,6,0,L|53:148,3,62.9999980773926,2|2|2|2,3:1|0:0|0:0|0:0,0:0:0:0:
239,193,75508,1,10,0:0:0:0:
112,249,75671,1,2,3:1:0:0:
364,300,75834,5,2,3:1:0:0:
301,296,75915,1,2,0:0:0:0:
238,293,75997,1,2,0:0:0:0:
175,289,76078,1,2,0:0:0:0:
340,221,76160,2,0,L|448:221,1,62.9999980773926,10|0,0:0|0:0,0:0:0:0:
236,126,76324,1,2,0:0:0:0:
463,105,76487,6,0,L|468:285,1,125.999996154785,2|2,3:1|0:0,0:0:0:0:
403,241,76732,1,2,0:0:0:0:
215,297,76813,2,0,L|291:286,1,62.9999980773926,10|0,0:0|0:0,0:0:0:0:
444,338,76977,1,2,3:1:0:0:
217,192,77140,6,0,L|50:182,1,125.999996154785,2|2,3:1|0:0,0:0:0:0:
155,229,77385,1,2,0:0:0:0:
318,275,77466,2,0,L|318:356,1,62.9999980773926,10|2,0:0|0:0,0:0:0:0:
152,344,77629,1,2,0:0:0:0:
380,172,77793,6,0,L|301:172,1,62.9999980773926,2|2,3:1|3:0,0:0:0:0:
154,214,77956,1,2,0:0:0:0:
217,211,78037,1,2,0:0:0:0:
380,172,78119,1,10,3:1:0:0:
103,255,78282,1,2,3:1:0:0:
383,327,78446,6,0,L|305:327,1,62.9999980773926,6|2,3:1|0:0,0:0:0:0:
257,328,78609,2,0,L|151:328,1,62.9999980773926,2|2,0:0|0:0,0:0:0:0:
359,258,78772,2,0,L|448:261,1,62.9999980773926,10|0,0:0|0:0,0:0:0:0:
257,196,78935,1,2,0:0:0:0:
484,153,79098,6,0,L|486:317,1,125.999996154785,2|2,3:1|0:0,0:0:0:0:
422,293,79343,1,2,0:0:0:0:
232,308,79425,2,0,L|241:236,1,62.9999980773926,10|0,0:0|0:0,0:0:0:0:
404,167,79588,1,2,0:0:0:0:
177,117,79751,6,0,L|48:115,1,125.999996154785,2|2,3:1|0:0,0:0:0:0:
114,158,79996,1,2,0:0:0:0:
304,193,80078,2,0,L|299:258,1,62.9999980773926,8|0,0:0|0:0,0:0:0:0:
134,315,80241,1,2,0:0:0:0:
361,282,80404,6,0,L|462:282,1,62.9999980773926,2|2,3:1|0:0,0:0:0:0:
361,282,80567,2,0,L|253:276,1,62.9999980773926,2|2,0:0|0:0,0:0:0:0:
131,242,80731,2,0,L|126:159,1,62.9999980773926,10|0,0:0|0:0,0:0:0:0:
204,171,80894,2,0,L|211:94,1,62.9999980773926,2|0,3:0|0:0,0:0:0:0:
46,87,81057,6,0,L|139:68,1,62.9999980773926,2|8,3:1|0:3,0:0:0:0:
171,74,81220,2,0,L|104:62,1,62.9999980773926,8|8,0:3|0:3,0:0:0:0:
302,117,81384,2,0,L|314:201,1,62.9999980773926,10|8,0:0|0:3,0:0:0:0:
146,267,81547,2,0,L|216:270,1,62.9999980773926,8|8,0:3|0:3,0:0:0:0:
399,317,81710,6,0,L|376:232,1,62.9999980773926,2|8,3:1|0:3,0:0:0:0:
306,232,81873,2,0,L|301:127,1,62.9999980773926,8|8,0:3|0:3,0:0:0:0:
468,134,82036,2,0,L|470:69,1,62.9999980773926,10|8,0:0|0:3,0:0:0:0:
405,88,82200,2,0,L|491:96,1,62.9999980773926,8|8,0:3|0:3,0:0:0:0:
250,73,82363,6,0,L|229:232,1,125.999996154785,0|2,3:1|0:0,0:0:0:0:
398,250,82608,1,2,3:1:0:0:
335,252,82689,1,0,0:0:0:0:
272,255,82771,1,2,0:0:0:0:
460,325,82852,2,0,L|472:232,1,62.9999980773926,2|0,3:1|3:0,0:0:0:0:
274,171,83016,6,0,L|106:162,1,125.999996154785,2|2,3:1|0:0,0:0:0:0:
338,113,83261,2,0,L|238:105,1,62.9999980773926,2|0,3:1|0:0,0:0:0:0:
110,172,83424,1,2,0:0:0:0:
272,226,83505,2,0,L|384:230,1,62.9999980773926,2|0,3:1|0:0,0:0:0:0:
143,349,83669,6,0,L|17:343,1,125.999996154785,6|2,3:1|0:2,0:0:0:0:
79,318,83913,1,0,0:0:0:0:
245,295,83995,2,0,L|255:167,1,125.999996154785,10|2,0:0|0:2,0:0:0:0:
191,158,84240,1,0,0:0:0:0:
254,169,84321,5,0,3:0:0:0:
254,169,84403,1,0,0:0:0:0:
178,258,84485,2,0,L|170:166,1,62.9999980773926,2|0,0:2|0:0,0:0:0:0:
331,213,84648,1,8,0:0:0:0:
426,305,84811,2,0,L|342:304,1,62.9999980773926,2|0,0:2|0:0,0:0:0:0:
205,321,84974,5,0,3:0:0:0:
153,287,85055,1,0,0:0:0:0:
145,227,85138,1,2,0:2:0:0:
186,181,85218,1,0,0:0:0:0:
349,190,85301,2,0,L|184:180,1,125.999996154785,8|2,0:0|0:2,0:0:0:0:
160,182,85546,1,0,0:0:0:0:
224,182,85627,6,0,L|229:115,1,62.9999980773926,0|0,3:0|0:0,0:0:0:0:
153,118,85790,2,0,L|152:54,1,62.9999980773926,2|0,0:2|0:0,0:0:0:0:
319,327,85954,1,8,0:0:0:0:
193,319,86117,1,2,3:2:0:0:
344,283,86280,6,0,L|177:281,1,125.999996154785,0|2,3:0|0:2,0:0:0:0:
155,282,86525,1,0,0:0:0:0:
320,202,86607,2,0,L|451:192,1,125.999996154785,8|2,0:0|0:2,0:0:0:0:
383,166,86851,1,0,0:0:0:0:
446,192,86933,6,0,L|452:271,1,62.9999980773926,0|0,3:0|0:0,0:0:0:0:
388,281,87096,2,0,L|481:281,1,62.9999980773926,2|0,0:2|0:0,0:0:0:0:
262,340,87259,1,8,0:0:0:0:
262,340,87423,1,2,0:2:0:0:
337,343,87504,1,0,0:0:0:0:
179,317,87586,6,0,L|321:297,1,125.999996154785,2|2,3:0|0:2,0:0:0:0:
239,239,87831,1,0,0:0:0:0:
63,47,87912,2,0,L|50:179,1,125.999996154785,8|2,0:0|0:2,0:0:0:0:
114,199,88157,1,0,0:0:0:0:
304,251,88239,6,0,L|308:158,1,62.9999980773926,0|0,3:0|3:0,0:0:0:0:
230,145,88402,2,0,L|334:136,1,62.9999980773926,2|0,3:2|0:0,0:0:0:0:
457,187,88565,1,8,0:0:0:0:
306,291,88728,2,0,L|199:295,1,62.9999980773926,2|0,3:2|0:0,0:0:0:0:
436,332,88892,6,0,L|430:169,1,125.999996154785,4|2,3:0|0:2,0:0:0:0:
368,202,89136,1,0,0:0:0:0:
203,168,89218,2,0,L|65:171,1,125.999996154785,8|2,0:0|0:2,0:0:0:0:
140,207,89463,1,0,0:0:0:0:
203,168,89545,6,0,L|203:269,1,62.9999980773926,0|0,3:0|0:0,0:0:0:0:
127,239,89708,2,0,L|127:318,1,62.9999980773926,2|0,0:2|0:0,0:0:0:0:
286,270,89871,2,0,L|205:273,1,62.9999980773926,8|0,0:0|0:0,0:0:0:0:
160,304,90034,2,0,L|263:292,1,62.9999980773926,2|0,0:2|0:0,0:0:0:0:
318,285,90197,6,0,L|316:202,1,62.9999980773926,0|0,3:0|0:0,0:0:0:0:
252,198,90361,2,0,L|181:193,1,62.9999980773926,2|0,0:2|0:0,0:0:0:0:
366,300,90524,2,0,L|501:294,1,125.999996154785,8|2,0:0|0:2,0:0:0:0:
429,264,90769,1,0,0:0:0:0:
366,300,90850,6,0,L|366:224,1,62.9999980773926,0|0,3:0|0:0,0:0:0:0:
443,210,91014,2,0,L|440:118,1,62.9999980773926,2|0,0:2|0:0,0:0:0:0:
276,114,91177,2,0,L|197:113,1,62.9999980773926,8|0,0:0|0:0,0:0:0:0:
276,114,91340,2,0,L|279:193,1,62.9999980773926,2|0,3:2|0:0,0:0:0:0:
101,269,91503,5,0,3:0:0:0:
163,263,91584,1,0,0:0:0:0:
226,257,91666,1,2,0:2:0:0:
290,249,91748,1,0,0:0:0:0:
100,113,91830,2,0,L|100:263,1,125.999996154785,8|2,0:0|0:2,0:0:0:0:
162,243,92074,1,0,0:0:0:0:
225,233,92156,6,0,L|136:228,1,62.9999980773926,0|0,3:0|0:0,0:0:0:0:
99,228,92319,2,0,L|214:208,1,62.9999980773926,2|0,0:2|0:0,0:0:0:0:
353,320,92483,2,0,P|357:256|296:197,1,125.999996154785,8|2,0:0|0:2,0:0:0:0:
259,201,92727,1,0,0:0:0:0:
70,158,92809,6,0,L|140:146,1,62.9999980773926,0|0,3:0|0:0,0:0:0:0:
297,139,92972,2,0,L|367:144,1,62.9999980773926,2|0,0:2|0:0,0:0:0:0:
196,294,93135,2,0,L|58:290,1,125.999996154785,8|2,0:0|0:2,0:0:0:0:
133,333,93380,1,0,0:0:0:0:
323,275,93462,6,0,L|244:268,1,62.9999980773926,0|0,3:0|3:0,0:0:0:0:
184,252,93625,2,0,L|272:216,1,62.9999980773926,2|0,3:2|0:0,0:0:0:0:
407,196,93788,2,0,L|411:347,1,125.999996154785,8|2,0:0|3:2,0:0:0:0:
347,334,94033,1,0,0:0:0:0:
113,284,94115,5,4,3:0:0:0:
121,177,94196,1,0,0:0:0:0:
163,170,94278,1,2,0:2:0:0:
240,181,94360,1,0,0:0:0:0:
403,275,94441,2,0,L|382:210,1,62.9999980773926,8|0,0:0|0:0,0:0:0:0:
308,208,94604,2,0,L|304:122,1,62.9999980773926,2|0,0:2|0:0,0:0:0:0:
382,117,94768,6,0,L|308:98,1,62.9999980773926,0|0,3:0|0:0,0:0:0:0:
257,141,94931,2,0,L|334:130,1,62.9999980773926,2|0,0:2|0:0,0:0:0:0:
483,266,95094,2,0,L|480:337,1,62.9999980773926,8|0,0:0|0:0,0:0:0:0:
405,323,95257,2,0,L|485:324,1,62.9999980773926,2|0,0:2|0:0,0:0:0:0:
308,261,95421,6,0,L|137:258,1,125.999996154785,0|2,3:0|0:2,0:0:0:0:
259,327,95665,1,0,0:0:0:0:
101,313,95747,2,0,L|92:174,1,125.999996154785,8|2,0:0|0:2,0:0:0:0:
156,177,95992,1,0,0:0:0:0:
219,158,96073,6,0,L|207:92,1,62.9999980773926,0|0,3:0|0:0,0:0:0:0:
131,95,96237,2,0,L|141:21,1,62.9999980773926,2|0,0:2|0:0,0:0:0:0:
304,97,96400,2,0,L|380:96,1,62.9999980773926,8|0,0:0|0:0,0:0:0:0:
304,97,96563,2,0,L|209:92,1,62.9999980773926,2|0,3:2|0:0,0:0:0:0:
76,337,96726,5,0,3:0:0:0:
60,278,96807,1,0,0:0:0:0:
100,232,96889,1,2,0:2:0:0:
157,218,96971,1,0,0:0:0:0:
322,247,97053,2,0,L|256:222,1,62.9999980773926,8|0,0:0|0:0,0:0:0:0:
200,232,97216,2,0,L|314:217,1,62.9999980773926,2|0,0:2|0:0,0:0:0:0:
338,250,97379,5,0,3:0:0:0:
338,250,97461,1,0,0:0:0:0:
263,369,97542,2,0,L|252:293,1,62.9999980773926,2|0,0:2|0:0,0:0:0:0:
421,124,97706,2,0,L|528:125,1,62.9999980773926,8|0,0:0|0:0,0:0:0:0:
421,124,97869,2,0,L|303:122,1,62.9999980773926,2|0,0:2|0:0,0:0:0:0:
192,125,98032,5,2,3:0:0:0:
186,186,98113,1,0,0:0:0:0:
223,235,98195,1,2,0:2:0:0:
283,248,98276,1,0,0:0:0:0:
118,303,98358,2,0,L|112:372,1,62.9999980773926,8|0,0:0|0:0,0:0:0:0:
190,361,98522,2,0,L|83:352,1,62.9999980773926,2|0,0:2|0:0,0:0:0:0:
51,310,98685,6,0,L|137:303,1,62.9999980773926,0|0,3:0|3:0,0:0:0:0:
278,294,98848,2,0,L|345:294,1,62.9999980773926,0|0,3:0|0:0,0:0:0:0:
176,187,99011,2,0,L|77:180,1,62.9999980773926,8|0,0:0|0:0,0:0:0:0:
280,120,99175,2,0,L|207:115,1,62.9999980773926,0|0,3:0|0:0,0:0:0:0:
46,107,99338,5,4,3:0:0:0:
34,167,99419,1,0,0:0:0:0:
60,223,99501,1,0,0:0:0:0:
114,253,99582,1,0,0:0:0:0:
190,308,99664,1,8,0:3:0:0:
207,249,99745,1,0,0:0:0:0:
177,195,99827,1,0,0:0:0:0:
117,180,99908,1,0,0:0:0:0:
194,91,99991,6,0,L|213:167,1,62.9999980773926
133,155,100154,2,0,L|131:225,1,62.9999980773926
207,231,100317,2,0,L|315:227,1,62.9999980773926,8|0,0:3|0:0,0:0:0:0:
333,224,100480,2,0,L|216:211,1,62.9999980773926
193,254,100644,6,0,L|191:332,1,62.9999980773926,0|8,3:0|0:3,0:0:0:0:
287,343,100807,2,0,L|395:350,1,62.9999980773926,8|8,0:3|0:3,0:0:0:0:
255,279,100970,2,0,L|245:199,1,62.9999980773926,8|8,0:3|0:3,0:0:0:0:
342,184,101133,2,0,L|264:174,1,62.9999980773926,8|8,0:3|0:3,0:0:0:0:
184,171,101296,6,0,L|178:91,1,62.9999980773926,8|8,0:3|0:3,0:0:0:0:
276,105,101460,2,0,L|279:39,1,62.9999980773926,8|8,0:3|0:3,0:0:0:0:
184,43,101623,2,0,L|168:141,1,62.9999980773926,8|8,0:3|0:3,0:0:0:0:
269,146,101786,2,0,L|174:152,1,62.9999980773926,8|8,0:3|0:3,0:0:0:0:
111,174,101949,6,0,L|107:256,1,62.9999980773926,8|8,0:3|0:3,0:0:0:0:
204,261,102113,2,0,L|81:268,1,62.9999980773926,8|8,0:3|0:3,0:0:0:0:
236,317,102276,2,0,L|348:311,1,62.9999980773926,8|8,0:3|0:3,0:0:0:0:
204,354,102439,2,0,L|106:351,1,62.9999980773926,8|8,0:3|0:3,0:0:0:0:
287,206,102602,6,0,L|353:203,1,62.9999980773926,8|8,0:3|0:3,0:0:0:0:
169,166,102765,2,0,L|74:164,1,62.9999980773926,8|8,0:3|0:3,0:0:0:0:
299,109,102929,2,0,L|387:102,1,62.9999980773926,8|8,0:3|0:3,0:0:0:0:
140,64,103092,2,0,L|56:56,1,62.9999980773926,8|8,0:3|0:3,0:0:0:0:
331,76,103255,6,0,L|328:220,1,125.999996154785,0|0,3:0|3:0,0:0:0:0:
265,234,103500,1,0,0:0:0:0:
170,256,103582,2,0,L|162:387,1,125.999996154785,8|0,0:3|0:0,0:0:0:0:
257,363,103826,1,0,0:0:0:0:
422,328,103908,6,0,L|500:324,2,62.9999980773926,0|0|0,3:0|0:0|0:0,0:0:0:0:
256,190,104153,2,0,L|373:178,2,62.9999980773926,0|8|0,3:0|0:0|0:0,0:0:0:0:
91,281,104398,2,0,L|84:192,1,62.9999980773926,0|0,3:0|0:0,0:0:0:0:
276,137,104561,6,0,L|352:130,1,62.9999980773926,4|0,3:0|0:0,0:0:0:0:
174,125,104724,2,0,L|176:223,1,62.9999980773926,2|0,0:2|0:0,0:0:0:0:
365,260,104887,1,8,0:0:0:0:
200,330,104969,1,0,0:0:0:0:
262,327,105050,1,2,0:2:0:0:
325,324,105132,1,0,0:0:0:0:
161,241,105214,6,0,L|79:242,2,62.9999980773926,0|0|2,3:0|0:0|0:2,0:0:0:0:
307,218,105459,1,0,0:0:0:0:
120,188,105540,2,0,L|30:182,3,62.9999980773926,8|0|2|0,0:0|0:0|0:2|0:0,0:0:0:0:
250,281,105867,5,0,3:0:0:0:
93,352,105948,2,0,L|26:349,2,62.9999980773926,0|2|0,0:0|0:2|0:0,0:0:0:0:
263,146,106193,2,0,L|367:142,1,62.9999980773926,8|0,0:0|0:0,0:0:0:0:
161,100,106356,2,0,L|57:90,1,62.9999980773926,2|0,0:2|0:0,0:0:0:0:
265,216,106520,6,0,L|161:202,1,62.9999980773926,0|0,3:0|0:0,0:0:0:0:
279,289,106683,2,0,L|357:286,1,62.9999980773926,2|0,0:2|0:0,0:0:0:0:
152,323,106846,1,8,0:0:0:0:
311,216,106928,1,0,0:0:0:0:
248,212,107009,1,2,3:2:0:0:
185,208,107091,1,0,0:0:0:0:
377,164,107172,6,0,L|484:164,2,62.9999980773926,0|0|2,3:0|0:0|0:2,0:0:0:0:
211,153,107417,1,0,0:0:0:0:
376,290,107499,2,0,L|279:290,1,62.9999980773926,8|0,0:0|0:0,0:0:0:0:
148,331,107662,2,0,L|263:331,1,62.9999980773926,2|0,0:2|0:0,0:0:0:0:
370,343,107825,5,0,3:0:0:0:
224,269,107907,2,0,L|139:270,2,62.9999980773926,0|2|0,0:0|0:2|0:0,0:0:0:0:
78,167,108152,2,0,L|-14:168,2,62.9999980773926,8|0|2,0:0|0:0|0:2,0:0:0:0:
240,229,108397,1,0,0:0:0:0:
398,268,108478,5,2,3:0:0:0:
429,216,108559,1,0,0:0:0:0:
409,158,108641,1,2,0:2:0:0:
351,138,108722,1,0,0:0:0:0:
191,137,108805,1,8,0:0:0:0:
348,264,108886,1,0,0:0:0:0:
285,260,108967,1,2,0:2:0:0:
222,257,109049,1,0,0:0:0:0:
412,330,109131,5,0,0:0:0:0:
247,313,109213,1,0,0:0:0:0:
84,291,109294,1,0,0:0:0:0:
247,313,109376,1,0,0:0:0:0:
411,122,109457,2,0,L|349:127,1,62.9999980773926,8|0,0:0|0:0,0:0:0:0:
169,281,109621,2,0,L|284:285,1,62.9999980773926,2|0,3:2|0:0,0:0:0:0:
390,282,109784,5,4,3:0:0:0:
232,343,109866,1,0,0:0:0:0:
169,341,109947,1,2,0:2:0:0:
106,339,110029,1,0,0:0:0:0:
296,247,110110,2,0,L|384:249,1,62.9999980773926,8|0,0:0|0:0,0:0:0:0:
192,182,110274,2,0,L|105:181,1,62.9999980773926,2|0,0:2|0:0,0:0:0:0:
288,127,110437,5,0,3:0:0:0:
291,188,110518,1,0,0:0:0:0:
253,240,110600,1,2,0:2:0:0:
191,259,110681,1,0,0:0:0:0:
43,265,110763,1,8,0:0:0:0:
233,345,110845,2,0,L|160:346,2,62.9999980773926,0|2|0,0:0|0:2|0:0,0:0:0:0:
402,237,111090,5,0,3:0:0:0:
339,233,111171,1,0,0:0:0:0:
276,230,111253,1,2,0:2:0:0:
111,228,111335,1,0,0:0:0:0:
275,142,111416,2,0,L|376:139,1,62.9999980773926,8|0,0:0|0:0,0:0:0:0:
161,89,111579,2,0,L|52:86,1,62.9999980773926,2|0,0:2|0:0,0:0:0:0:
265,199,111743,5,0,3:0:0:0:
103,341,111824,2,0,L|29:346,2,62.9999980773926,0|2|0,0:0|0:2|0:0,0:0:0:0:
261,306,112069,2,0,L|373:308,2,62.9999980773926,8|0|2,0:0|0:0|3:2,0:0:0:0:
112,215,112314,1,0,0:0:0:0:
305,167,112395,5,0,3:0:0:0:
368,167,112476,1,0,0:0:0:0:
431,167,112558,1,2,0:2:0:0:
368,167,112640,1,0,0:0:0:0:
176,187,112722,1,8,0:0:0:0:
341,236,112804,2,0,L|451:249,2,62.9999980773926,0|2|0,0:0|0:2|0:0,0:0:0:0:
178,347,113048,6,0,L|166:246,1,62.9999980773926,0|0,3:0|0:0,0:0:0:0:
337,268,113212,2,0,L|266:259,1,62.9999980773926,2|0,0:2|0:0,0:0:0:0:
97,227,113375,1,8,0:0:0:0:
159,220,113456,1,0,0:0:0:0:
222,214,113538,1,2,0:2:0:0:
285,207,113620,1,0,0:0:0:0:
135,102,113701,5,0,3:0:0:0:
283,150,113783,2,0,L|362:148,2,62.9999980773926,0|2|0,0:0|0:2|0:0,0:0:0:0:
429,268,114028,2,0,L|448:342,1,62.9999980773926,8|0,0:0|0:0,0:0:0:0:
280,326,114191,2,0,L|398:319,1,62.9999980773926,2|0,0:2|0:0,0:0:0:0:
152,237,114354,6,0,L|50:238,3,62.9999980773926,0|0|2|0,3:0|3:0|3:2|0:0,0:0:0:0:
253,286,114681,2,0,L|356:281,1,62.9999980773926,8|0,0:0|0:0,0:0:0:0:
151,165,114844,2,0,L|142:81,1,62.9999980773926,2|0,3:2|0:0,0:0:0:0:
361,145,115007,6,0,L|458:143,1,62.9999980773926,4|0,3:0|0:0,0:0:0:0:
260,181,115170,2,0,L|243:255,1,62.9999980773926,2|0,0:2|0:0,0:0:0:0:
455,319,115333,1,8,0:0:0:0:
308,354,115415,2,0,L|224:353,2,62.9999980773926,0|2|0,0:0|0:2|0:0,0:0:0:0:
162,265,115660,6,0,L|75:262,2,62.9999980773926,0|0|2,3:0|0:0|0:2,0:0:0:0:
320,263,115905,1,0,0:0:0:0:
170,161,115986,2,0,L|66:144,1,62.9999980773926,8|0,0:0|0:0,0:0:0:0:
300,146,116150,2,0,L|305:240,1,62.9999980773926,2|0,0:2|0:0,0:0:0:0:
145,348,116313,5,0,3:0:0:0:
314,314,116394,1,0,0:0:0:0:
251,309,116475,1,2,0:2:0:0:
188,305,116557,1,0,0:0:0:0:
346,192,116639,2,0,L|413:193,2,62.9999980773926,8|0|2,0:0|0:0|0:2,0:0:0:0:
188,137,116884,1,0,0:0:0:0:
345,234,116966,6,0,L|447:221,1,62.9999980773926,0|0,3:0|0:0,0:0:0:0:
219,212,117129,2,0,L|294:202,1,62.9999980773926,2|0,0:2|0:0,0:0:0:0:
459,201,117292,1,8,0:0:0:0:
307,337,117374,2,0,L|385:338,2,62.9999980773926,0|2|0,0:0|3:2|0:0,0:0:0:0:
155,309,117619,6,0,L|83:304,2,62.9999980773926,0|0|2,3:0|0:0|0:2,0:0:0:0:
300,264,117863,1,0,0:0:0:0:
98,152,117945,2,0,L|165:152,1,62.9999980773926,8|0,0:0|0:0,0:0:0:0:
350,210,118108,2,0,L|253:208,1,62.9999980773926,2|0,0:2|0:0,0:0:0:0:
97,332,118271,6,0,L|197:333,3,62.9999980773926,0|0|2|0,3:0|0:0|0:2|0:0,0:0:0:0:
327,270,118598,2,0,L|252:261,1,62.9999980773926,8|0,0:0|0:0,0:0:0:0:
100,237,118761,2,0,L|199:225,1,62.9999980773926,2|0,0:2|0:0,0:0:0:0:
384,157,118924,6,0,L|348:90,1,62.9999980773926,2|0,3:0|0:0,0:0:0:0:
187,58,119088,2,0,L|87:57,1,62.9999980773926,2|0,0:2|0:0,0:0:0:0:
314,191,119251,1,8,0:0:0:0:
125,344,119332,2,0,L|194:288,1,62.9999980773926,0|2,0:0|0:2,0:0:0:0:
238,284,119496,1,0,0:0:0:0:
391,300,119577,6,0,L|475:297,3,62.9999980773926,0|0|2|0,3:0|3:0|3:2|0:0,0:0:0:0:
261,150,119904,2,0,L|164:146,1,62.9999980773926,8|0,0:0|0:0,0:0:0:0:
386,226,120067,2,0,L|295:226,1,62.9999980773926,2|0,3:2|0:0,0:0:0:0:
133,334,120230,5,4,3:0:0:0:
89,291,120311,1,0,0:0:0:0:
95,231,120393,1,0,0:0:0:0:
147,199,120474,1,0,0:0:0:0:
225,197,120557,2,0,L|244:129,1,62.9999980773926,8|0,0:3|0:0,0:0:0:0:
178,114,120720,2,0,L|171:47,1,62.9999980773926
235,84,120883,6,0,L|248:146,1,62.9999980773926
184,157,121046,2,0,L|173:246,1,62.9999980773926,8|8,0:3|0:3,0:0:0:0:
253,273,121209,2,0,L|318:275,1,62.9999980773926,8|0,0:3|0:0,0:0:0:0:
393,243,121373,2,0,L|380:154,1,62.9999980773926
289,148,121536,6,0,L|199:130,1,62.9999980773926,0|0,3:0|0:0,0:0:0:0:
322,121,121699,2,0,L|420:113,1,62.9999980773926,0|0,3:0|0:0,0:0:0:0:
289,148,121862,2,0,L|199:130,1,62.9999980773926,8|0,0:3|0:0,0:0:0:0:
322,121,122025,2,0,L|420:113,1,62.9999980773926
288,210,122189,6,0,L|291:297,1,62.9999980773926
385,338,122352,2,0,L|387:246,1,62.9999980773926,8|8,0:3|0:3,0:0:0:0:
291,248,122515,2,0,L|217:245,1,62.9999980773926,8|0,0:3|0:0,0:0:0:0:
323,163,122678,2,0,L|402:159,1,62.9999980773926
193,90,122842,6,0,L|96:88,1,62.9999980773926,8|8,0:3|0:3,0:0:0:0:
295,194,123005,2,0,L|366:192,1,62.9999980773926,8|0,0:3|0:0,0:0:0:0:
193,336,123168,2,0,L|105:338,1,62.9999980773926,8|8,0:3|0:3,0:0:0:0:
295,265,123331,2,0,L|399:264,1,62.9999980773926,8|0,0:3|0:0,0:0:0:0:
168,187,123494,6,0,L|73:187,1,62.9999980773926,8|8,0:3|0:3,0:0:0:0:
285,121,123658,2,0,L|375:121,1,62.9999980773926,8|8,0:3|3:0,0:0:0:0:
120,57,123821,2,0,L|19:56,1,62.9999980773926,8|8,0:3|0:3,0:0:0:0:
222,133,123984,1,8,0:3:0:0:
387,157,124066,1,8,0:3:0:0:
224,326,124147,6,0,L|126:325,1,62.9999980773926,0|0,3:0|0:0,0:0:0:0:
224,326,124311,2,0,L|226:250,1,62.9999980773926,0|0,3:0|0:0,0:0:0:0:
61,248,124474,2,0,L|58:159,1,62.9999980773926,8|0,0:3|0:0,0:0:0:0:
224,161,124637,2,0,L|295:162,1,62.9999980773926,0|0,3:0|0:0,0:0:0:0:
123,91,124800,6,0,L|54:91,2,62.9999980773926,0|8|8,3:0|0:3|0:3,0:0:0:0:
289,217,125045,2,0,L|383:220,2,62.9999980773926,0|8|0,3:0|0:3|0:0,0:0:0:0:
124,343,125290,2,0,L|50:340,1,62.9999980773926,0|0,3:0|0:0,0:0:0:0:
378,330,125453,5,6,3:2:0:0:
256,192,125616,12,2,127901,0:0:0:0:
256,197,128065,5,4,3:0:0:0:
256,199,137695,5,2,0:0:0:0:
374,200,137858,1,2,0:0:0:0:
144,168,138103,1,2,0:0:0:0:
321,126,138348,1,2,0:0:0:0:
69,303,138511,5,6,3:1:0:0:
221,235,138756,1,2,0:0:0:0:
409,215,139000,1,2,0:0:0:0:
257,226,139164,5,2,0:0:0:0:
277,104,139409,1,2,0:0:0:0:
428,93,139653,1,2,0:0:0:0:
276,181,139817,5,2,0:0:0:0:
226,291,140061,1,2,0:0:0:0:
396,333,140306,1,2,0:0:0:0:
245,232,140469,5,2,0:0:0:0:
397,180,140714,1,2,0:0:0:0:
207,120,140959,1,2,0:0:0:0:
370,306,141122,5,2,0:0:0:0:
218,238,141367,1,2,0:0:0:0:
30,218,141611,1,2,0:0:0:0:
182,229,141775,5,2,0:0:0:0:
162,107,142020,1,2,0:0:0:0:
11,96,142264,1,2,0:0:0:0:
163,184,142428,5,2,0:0:0:0:
213,294,142672,1,2,0:0:0:0:
43,336,142917,1,2,0:0:0:0:
194,235,143080,5,2,0:0:0:0:
42,183,143325,1,2,0:0:0:0:
232,123,143570,1,2,0:0:0:0:
384,278,143734,5,2,0:0:0:0:
408,169,143979,1,2,0:0:0:0:
401,46,144224,1,2,0:0:0:0:
237,315,144387,5,2,0:0:0:0:
213,206,144632,1,2,0:0:0:0:
220,83,144877,1,2,0:0:0:0:
371,302,145040,5,2,0:0:0:0:
395,193,145285,1,2,0:0:0:0:
388,70,145530,1,2,0:0:0:0:
236,80,145693,5,2,0:0:0:0:
47,198,145937,1,2,0:0:0:0:
236,80,146182,1,2,0:0:0:0:
387,180,146345,5,2,0:0:0:0:
377,296,146590,1,2,0:0:0:0:
241,329,146835,1,2,0:0:0:0:
91,86,146998,5,2,0:0:0:0:
101,202,147243,1,2,0:0:0:0:
237,235,147488,1,2,0:0:0:0:
387,168,147651,5,2,0:0:0:0:
377,284,147896,1,2,0:0:0:0:
241,317,148141,1,2,0:0:0:0:
77,78,148304,5,2,0:0:0:0:
264,131,148549,1,2,0:0:0:0:
131,231,148794,1,2,0:0:0:0:
427,100,148957,5,6,3:1:0:0:
390,155,149202,1,2,0:0:0:0:
352,218,149447,1,2,0:0:0:0:
188,209,149610,5,2,0:0:0:0:
225,264,149855,1,2,0:0:0:0:
263,327,150100,1,2,0:0:0:0:
426,241,150263,5,2,0:0:0:0:
445,185,150508,1,2,0:0:0:0:
445,185,150753,1,2,0:0:0:0:
281,141,150916,5,2,0:0:0:0:
130,174,151160,1,2,0:0:0:0:
281,141,151405,1,2,0:0:0:0:
118,267,151568,5,2,0:0:0:0:
118,267,151813,1,2,0:0:0:0:
230,295,152058,1,2,0:0:0:0:
381,194,152221,5,2,0:0:0:0:
368,266,152466,1,2,0:0:0:0:
217,330,152711,1,2,0:0:0:0:
347,241,152874,5,2,0:0:0:0:
384,304,153119,1,2,0:0:0:0:
421,364,153364,1,2,0:0:0:0:
270,337,153527,5,2,0:0:0:0:
119,284,153772,1,2,0:0:0:0:
270,337,154017,1,2,0:0:0:0:
434,271,154180,5,2,0:0:0:0:
282,241,154425,1,2,0:0:0:0:
92,224,154670,1,2,0:0:0:0:
243,324,154833,5,2,0:0:0:0:
395,286,155078,1,2,0:0:0:0:
243,324,155323,1,2,0:0:0:0:
92,333,155486,5,2,0:0:0:0:
130,231,155731,1,2,0:0:0:0:
167,144,155975,1,2,0:0:0:0:
319,316,156139,5,2,0:0:0:0:
281,214,156384,1,2,0:0:0:0:
244,127,156628,1,2,0:0:0:0:
92,156,156792,5,2,0:0:0:0:
92,156,157036,1,2,0:0:0:0:
92,156,157281,1,2,0:0:0:0:
218,235,157444,5,2,0:0:0:0:
218,235,157688,1,2,0:0:0:0:
218,235,157933,1,2,0:0:0:0:
345,290,158097,5,2,0:0:0:0:
345,290,158341,1,2,0:0:0:0:
345,290,158586,1,2,0:0:0:0:
193,328,158750,5,2,0:0:0:0:
42,323,158995,1,2,0:0:0:0:
193,328,159240,1,2,0:0:0:0:
419,254,159403,6,0,L|276:251,1,125.999996154785,6|0,3:1|0:0,0:0:0:0:
357,238,159648,2,0,L|358:108,1,125.999996154785,2|0,0:0|0:0,0:0:0:0:
295,123,159893,2,0,L|301:47,1,62.9999980773926,2|2,0:0|0:0,0:0:0:0:
363,54,160056,6,0,L|495:53,1,125.999996154785,2|0,0:2|0:0,0:0:0:0:
426,91,160301,2,0,L|292:95,1,125.999996154785,2|0,0:0|0:0,0:0:0:0:
363,125,160546,2,0,L|379:232,1,62.9999980773926,2|2,0:0|0:0,0:0:0:0:
309,228,160709,6,0,L|133:231,1,125.999996154785,2|0,0:2|0:0,0:0:0:0:
247,242,160954,2,0,L|249:379,1,125.999996154785,2|0,0:0|0:0,0:0:0:0:
185,353,161199,2,0,L|175:273,1,62.9999980773926,2|2,0:0|0:0,0:0:0:0:
241,272,161362,6,0,L|383:269,1,125.999996154785,2|0,0:2|0:0,0:0:0:0:
303,236,161607,2,0,L|285:108,1,125.999996154785,2|0,0:0|0:0,0:0:0:0:
348,121,161851,2,0,L|345:42,1,62.9999980773926,2|2,0:0|0:0,0:0:0:0:
281,47,162015,6,0,L|134:47,1,125.999996154785,2|0,0:2|0:0,0:0:0:0:
218,89,162259,2,0,L|372:88,1,125.999996154785,2|0,0:0|0:0,0:0:0:0:
280,133,162504,2,0,L|179:126,1,62.9999980773926,2|2,0:0|0:0,0:0:0:0:
281,175,162668,6,0,L|291:331,1,125.999996154785,2|0,0:2|0:0,0:0:0:0:
226,321,162912,2,0,L|48:315,1,125.999996154785,2|0,0:0|0:0,0:0:0:0:
163,291,163157,2,0,L|253:285,1,62.9999980773926,2|2,0:0|0:0,0:0:0:0:
162,254,163320,6,0,L|144:110,1,125.999996154785,2|0,0:2|0:0,0:0:0:0:
210,111,163565,2,0,L|367:99,1,125.999996154785,2|0,0:0|0:0,0:0:0:0:
272,126,163810,2,0,L|271:212,1,62.9999980773926,2|2,0:0|0:0,0:0:0:0:
336,203,163973,6,0,L|180:209,1,125.999996154785,2|0,0:2|0:0,0:0:0:0:
274,257,164218,2,0,L|106:266,1,125.999996154785,2|0,0:0|0:0,0:0:0:0:
213,319,164463,2,0,L|327:320,1,62.9999980773926,2|2,0:0|0:0,0:0:0:0:
99,193,164626,6,0,L|79:373,1,125.999996154785,2|0,0:2|0:0,0:0:0:0:
151,321,164871,2,0,L|317:310,1,125.999996154785,2|0,0:0|0:0,0:0:0:0:
212,276,165116,2,0,L|201:172,1,62.9999980773926,2|2,0:0|0:0,0:0:0:0:
270,191,165279,6,0,L|411:182,1,125.999996154785,2|0,0:2|0:0,0:0:0:0:
331,145,165524,2,0,L|485:134,1,125.999996154785,2|0,0:0|0:0,0:0:0:0:
394,102,165769,2,0,L|325:101,1,62.9999980773926,2|2,0:0|0:0,0:0:0:0:
268,133,165932,6,0,L|444:136,1,125.999996154785,2|0,0:2|0:0,0:0:0:0:
330,179,166177,2,0,L|159:185,1,125.999996154785,2|0,0:0|0:0,0:0:0:0:
270,219,166422,2,0,L|191:223,1,62.9999980773926,2|2,0:0|0:0,0:0:0:0:
290,290,166585,6,0,L|436:296,1,125.999996154785,2|0,0:2|0:0,0:0:0:0:
351,271,166830,2,0,L|413:143,1,125.999996154785,2|0,0:0|0:0,0:0:0:0:
488,136,167074,2,0,L|494:67,1,62.9999980773926,2|2,0:0|0:0,0:0:0:0:
327,92,167238,6,0,L|484:85,1,125.999996154785,2|0,0:2|0:0,0:0:0:0:
377,55,167483,2,0,L|216:50,1,125.999996154785,2|0,0:0|0:0,0:0:0:0:
326,123,167727,2,0,L|423:122,1,62.9999980773926,2|2,0:0|0:0,0:0:0:0:
197,176,167891,6,0,L|185:323,1,125.999996154785,2|0,3:0|0:0,0:0:0:0:
262,300,168135,2,0,L|80:316,1,125.999996154785,2|0,0:0|0:0,0:0:0:0:
200,358,168380,2,0,L|110:355,1,62.9999980773926,2|2,0:0|0:0,0:0:0:0:
314,249,168543,6,0,L|479:232,1,125.999996154785,2|0,3:0|0:0,0:0:0:0:
363,189,168788,2,0,L|204:171,1,125.999996154785,2|0,0:0|0:0,0:0:0:0:
314,128,169033,2,0,L|401:127,1,62.9999980773926,2|2,0:0|0:0,0:0:0:0:
211,274,169196,6,0,L|96:271,3,62.9999980773926,2|0|0|2,3:0|0:0|0:0|0:0,0:0:0:0:
315,232,169523,2,0,L|326:145,1,62.9999980773926,2|0,0:2|0:0,0:0:0:0:
247,147,169686,2,0,L|276:73,1,62.9999980773926,2|2,0:0|0:0,0:0:0:0:
447,128,169849,5,6,3:2:0:0:
321,176,170012,2,0,L|415:171,1,62.9999980773926,0|2,0:0|0:0,0:0:0:0:
256,272,170257,2,0,L|161:268,1,62.9999980773926,0|10,0:0|0:3,0:0:0:0:
446,233,170502,5,2,0:0:0:0:
320,317,170665,2,0,L|391:315,1,62.9999980773926,0|2,0:0|0:0,0:0:0:0:
257,211,170910,2,0,L|370:204,1,62.9999980773926,0|2,0:0|0:0,0:0:0:0:
92,176,171155,5,10,0:3:0:0:
243,270,171318,2,0,L|167:268,1,62.9999980773926,0|2,0:0|0:0,0:0:0:0:
307,205,171563,2,0,L|381:198,1,62.9999980773926,0|10,0:0|0:3,0:0:0:0:
116,337,171808,5,2,0:0:0:0:
267,293,171971,2,0,L|186:284,1,62.9999980773926,0|2,0:0|0:0,0:0:0:0:
356,228,172216,2,0,L|269:222,1,62.9999980773926,0|2,0:0|0:0,0:0:0:0:
65,216,172461,5,10,0:3:0:0:
216,198,172624,2,0,L|289:197,1,62.9999980773926,0|2,0:0|0:0,0:0:0:0:
127,323,172869,2,0,L|211:319,1,62.9999980773926,0|10,0:0|0:3,0:0:0:0:
443,235,173114,5,2,0:0:0:0:
216,152,173277,2,0,L|325:149,1,62.9999980773926,0|2,0:0|0:0,0:0:0:0:
51,260,173522,2,0,L|141:251,1,62.9999980773926,0|2,0:0|0:0,0:0:0:0:
367,302,173767,5,10,0:3:0:0:
140,182,173930,2,0,L|26:185,1,62.9999980773926,0|2,0:0|0:0,0:0:0:0:
329,191,174175,2,0,L|225:190,1,62.9999980773926,0|10,0:0|0:3,0:0:0:0:
492,133,174419,5,2,0:0:0:0:
264,109,174583,2,0,L|380:103,1,62.9999980773926,0|2,0:0|0:0,0:0:0:0:
100,279,174827,2,0,L|31:279,1,62.9999980773926,0|2,0:0|0:0,0:0:0:0:
366,273,175072,5,10,3:0:0:0:
138,211,175236,1,2,0:0:0:0:
313,191,175317,2,0,L|314:103,1,62.9999980773926,2|10,0:0|0:3,0:0:0:0:
187,89,175562,1,2,0:0:0:0:
351,103,175644,2,0,L|352:170,1,62.9999980773926,2|10,0:0|0:3,0:0:0:0:
226,185,175888,5,2,0:0:0:0:
416,295,175970,2,0,L|351:296,1,62.9999980773926,2|10,0:0|0:3,0:0:0:0:
481,189,176215,1,2,0:0:0:0:
318,245,176296,2,0,L|317:173,1,62.9999980773926,2|10,0:0|0:3,0:0:0:0:
445,158,176541,5,2,0:0:0:0:
281,135,176623,2,0,L|283:65,1,62.9999980773926,2|10,0:0|0:3,0:0:0:0:
409,234,176868,1,2,0:0:0:0:
221,230,176949,2,0,L|217:155,1,62.9999980773926,2|10,0:0|0:3,0:0:0:0:
343,313,177194,5,2,0:0:0:0:
153,212,177276,2,0,L|150:141,1,62.9999980773926,2|10,0:0|0:3,0:0:0:0:
277,120,177521,2,0,L|185:108,1,62.9999980773926,2|2,0:0|0:0,0:0:0:0:
401,289,177684,6,0,L|334:271,1,62.9999980773926,10|2,0:3|0:0,0:0:0:0:
163,239,177847,2,0,L|227:233,1,62.9999980773926,10|2,0:3|0:0,0:0:0:0:
403,175,178010,2,0,L|327:169,1,62.9999980773926,10|2,0:3|0:0,0:0:0:0:
150,128,178173,2,0,L|223:119,1,62.9999980773926,10|2,0:3|0:0,0:0:0:0:
379,216,178337,6,0,L|312:198,1,62.9999980773926,10|2,0:3|0:0,0:0:0:0:
152,165,178500,2,0,L|82:156,1,62.9999980773926,10|2,0:3|0:0,0:0:0:0:
291,116,178663,2,0,L|367:110,1,62.9999980773926,10|2,0:3|0:0,0:0:0:0:
140,67,178826,2,0,L|67:58,1,62.9999980773926,10|2,0:3|0:0,0:0:0:0:
302,47,178990,6,0,L|352:47,2,31.4999990386963,10|8|8,0:3|0:3|0:3,0:0:0:0:
191,136,179112,1,8,0:3:0:0:
80,231,179153,2,0,L|19:232,2,31.4999990386963,8|8|8,0:3|0:3|0:3,0:0:0:0:
194,295,179275,1,8,0:3:0:0:
308,203,179316,2,0,L|368:203,2,31.4999990386963,8|8|8,0:3|0:3|0:3,0:0:0:0:
194,97,179438,1,8,0:3:0:0:
80,65,179479,2,0,L|31:66,2,31.4999990386963,8|8|8,0:3|0:3|0:3,0:0:0:0:
216,42,179602,1,8,0:3:0:0:
346,33,179642,6,0,L|398:33,2,31.4999990386963,8|8|8,0:3|0:3|0:3,0:0:0:0:
216,42,179765,1,8,0:3:0:0:
83,171,179806,2,0,L|36:172,2,31.4999990386963,8|8|8,0:3|0:3|0:3,0:0:0:0:
238,226,179928,1,8,0:3:0:0:
396,269,179969,2,0,L|445:270,2,31.4999990386963,8|8|8,0:3|0:3|0:3,0:0:0:0:
238,343,180091,1,8,0:3:0:0:
79,348,180132,2,0,L|39:348,2,31.4999990386963,8|8|8,0:3|0:3|0:3,0:0:0:0:
251,285,180255,1,8,0:3:0:0:
437,225,180295,5,6,0:0:0:0:
256,192,180459,12,0,181928,0:0:0:0:
254,195,182091,5,2,0:0:0:0:
128,189,182254,1,2,0:0:0:0:
355,168,182499,1,2,0:0:0:0:
128,189,182744,1,2,0:0:0:0:
380,255,182907,6,0,L|455:259,1,62.9999980773926,6|0,3:1|0:0,0:0:0:0:
380,255,183070,2,0,L|308:254,1,62.9999980773926,2|2,0:2|0:0,0:0:0:0:
152,340,183233,2,0,L|231:336,1,62.9999980773926,8|0,0:0|0:0,0:0:0:0:
48,273,183397,2,0,L|52:188,1,62.9999980773926,2|0,0:2|0:0,0:0:0:0:
336,300,183560,6,0,L|412:298,1,62.9999980773926,2|0,3:1|0:0,0:0:0:0:
234,224,183723,1,2,0:2:0:0:
400,187,183805,2,0,L|483:188,2,62.9999980773926,2|8|0,0:0|0:0|0:0,0:0:0:0:
237,133,184049,2,0,L|231:233,1,62.9999980773926,2|0,0:2|0:0,0:0:0:0:
488,306,184213,6,0,L|408:304,1,62.9999980773926,2|0,3:1|0:0,0:0:0:0:
361,264,184376,2,0,L|426:256,1,62.9999980773926,2|2,0:2|0:0,0:0:0:0:
212,166,184539,2,0,L|137:165,1,62.9999980773926,8|0,0:0|0:0,0:0:0:0:
212,166,184702,2,0,L|315:161,1,62.9999980773926,2|0,0:2|0:0,0:0:0:0:
108,331,184866,6,0,L|23:324,2,62.9999980773926,2|0|2,3:1|0:0|0:2,0:0:0:0:
270,278,185110,1,2,0:0:0:0:
207,266,185192,1,8,0:0:0:0:
144,258,185274,1,0,0:0:0:0:
319,207,185355,2,0,L|402:202,1,62.9999980773926,2|0,0:2|0:0,0:0:0:0:
192,92,185518,5,2,3:1:0:0:
158,142,185599,1,0,0:0:0:0:
178,200,185681,1,2,0:2:0:0:
235,219,185762,1,2,0:0:0:0:
403,171,185845,2,0,L|490:163,1,62.9999980773926,8|0,0:0|0:0,0:0:0:0:
301,88,186008,2,0,L|214:84,1,62.9999980773926,2|0,0:2|0:0,0:0:0:0:
429,255,186171,6,0,L|502:247,1,62.9999980773926,2|0,3:1|0:0,0:0:0:0:
325,307,186335,1,2,0:2:0:0:
181,251,186416,2,0,L|110:248,2,62.9999980773926,2|8|0,0:0|0:0|0:0,0:0:0:0:
325,173,186661,2,0,L|317:103,1,62.9999980773926,2|0,0:2|0:0,0:0:0:0:
129,89,186824,6,0,L|49:85,2,62.9999980773926,2|0|2,3:1|0:0|0:2,0:0:0:0:
293,218,187069,2,0,L|208:211,2,62.9999980773926,2|8|0,0:0|0:0|0:0,0:0:0:0:
109,332,187314,2,0,L|15:313,1,62.9999980773926,2|0,0:2|0:0,0:0:0:0:
275,313,187477,6,0,L|266:241,1,62.9999980773926,2|0,3:1|3:0,0:0:0:0:
102,206,187640,1,2,3:1:0:0:
102,206,187722,1,0,0:0:0:0:
287,145,187804,2,0,L|298:74,1,62.9999980773926,10|0,0:0|0:0,0:0:0:0:
462,191,187967,2,0,L|455:121,1,62.9999980773926,2|0,3:2|0:0,0:0:0:0:
290,252,188130,6,0,L|196:247,1,62.9999980773926,2|0,3:1|0:0,0:0:0:0:
391,310,188293,1,2,0:2:0:0:
201,314,188375,2,0,L|288:315,2,62.9999980773926,2|8|0,0:0|0:0|0:0,0:0:0:0:
56,170,188620,2,0,L|154:162,1,62.9999980773926,2|0,0:2|0:0,0:0:0:0:
309,120,188783,6,0,L|234:114,1,62.9999980773926,2|0,3:1|0:0,0:0:0:0:
411,93,188946,1,2,0:2:0:0:
243,264,189028,2,0,L|133:256,2,62.9999980773926,2|8|0,0:0|0:0|0:0,0:0:0:0:
382,149,189273,2,0,L|275:139,1,62.9999980773926,2|0,0:2|0:0,0:0:0:0:
54,121,189436,5,2,3:1:0:0:
42,181,189517,1,0,0:0:0:0:
69,238,189599,1,2,0:2:0:0:
123,268,189680,1,2,0:0:0:0:
314,239,189762,2,0,L|312:164,1,62.9999980773926,8|0,0:0|0:0,0:0:0:0:
148,154,189925,2,0,L|139:75,1,62.9999980773926,2|0,0:2|0:0,0:0:0:0:
301,113,190089,5,2,3:1:0:0:
238,116,190170,1,0,0:0:0:0:
175,119,190252,1,2,0:2:0:0:
333,183,190333,1,2,0:0:0:0:
488,243,190415,2,0,L|488:317,1,62.9999980773926,8|0,0:0|0:0,0:0:0:0:
269,330,190578,2,0,L|358:328,1,62.9999980773926,2|0,0:2|0:0,0:0:0:0:
139,105,190742,5,2,3:1:0:0:
87,137,190823,1,0,0:0:0:0:
84,198,190905,1,2,0:2:0:0:
131,236,190986,1,2,0:0:0:0:
322,196,191068,2,0,L|337:115,1,62.9999980773926,8|0,0:0|0:0,0:0:0:0:
187,144,191231,2,0,L|161:55,1,62.9999980773926,2|0,0:2|0:0,0:0:0:0:
403,61,191394,6,0,L|331:47,1,62.9999980773926,2|0,3:1|0:0,0:0:0:0:
263,80,191558,1,2,0:2:0:0:
101,145,191639,1,2,0:0:0:0:
278,216,191721,2,0,L|358:204,1,62.9999980773926,8|0,0:0|0:0,0:0:0:0:
176,136,191884,2,0,L|248:137,1,62.9999980773926,2|0,0:2|0:0,0:0:0:0:
37,353,192047,6,0,L|50:271,1,62.9999980773926,0|0,3:1|0:0,0:0:0:0:
123,274,192210,1,2,0:2:0:0:
315,271,192292,1,2,0:0:0:0:
252,269,192373,1,8,0:0:0:0:
189,268,192455,1,0,0:0:0:0:
382,190,192537,2,0,L|490:188,1,62.9999980773926,2|0,0:2|0:0,0:0:0:0:
217,121,192700,6,0,L|126:104,1,62.9999980773926,2|0,3:1|3:0,0:0:0:0:
320,73,192863,1,0,3:0:0:0:
155,207,192945,2,0,L|52:201,1,62.9999980773926,2|10,0:0|0:0,0:0:0:0:
282,272,193108,1,0,0:0:0:0:
67,362,193190,2,0,L|144:358,1,62.9999980773926,2|0,3:2|0:0,0:0:0:0:
383,334,193353,5,6,3:1:0:0:
425,290,193434,1,0,0:0:0:0:
418,230,193516,1,2,0:2:0:0:
366,198,193597,1,2,0:0:0:0:
177,171,193679,2,0,L|172:91,1,62.9999980773926,8|0,0:0|0:0,0:0:0:0:
250,102,193843,2,0,L|271:18,1,62.9999980773926,2|0,0:2|0:0,0:0:0:0:
75,89,194006,5,2,3:1:0:0:
137,87,194087,1,0,0:0:0:0:
200,86,194169,1,2,0:2:0:0:
344,247,194250,1,2,0:0:0:0:
99,321,194332,2,0,L|29:325,1,62.9999980773926,8|0,0:0|0:0,0:0:0:0:
203,242,194496,2,0,L|128:235,1,62.9999980773926,2|0,0:2|0:0,0:0:0:0:
331,188,194659,5,2,3:1:0:0:
393,185,194740,1,0,0:0:0:0:
456,183,194822,1,2,0:2:0:0:
286,314,194904,2,0,L|203:310,2,62.9999980773926,2|8|0,0:0|0:0|0:0,0:0:0:0:
123,173,195148,2,0,L|28:168,1,62.9999980773926,2|0,0:2|0:0,0:0:0:0:
265,103,195312,5,2,3:1:0:0:
202,97,195393,1,0,0:0:0:0:
139,92,195475,1,2,0:2:0:0:
342,200,195557,2,0,L|454:198,2,62.9999980773926,2|8|0,0:0|0:0|0:0,0:0:0:0:
154,335,195801,2,0,L|66:336,1,62.9999980773926,2|0,0:2|0:0,0:0:0:0:
318,294,195965,5,2,3:1:0:0:
367,259,196046,1,0,0:0:0:0:
368,198,196128,1,2,0:2:0:0:
319,162,196209,1,2,0:0:0:0:
130,229,196291,2,0,L|121:163,1,62.9999980773926,8|0,0:0|0:0,0:0:0:0:
286,106,196454,2,0,L|369:108,1,62.9999980773926,2|0,0:2|0:0,0:0:0:0:
130,111,196617,5,2,3:1:0:0:
193,109,196698,1,0,0:0:0:0:
256,108,196780,1,2,0:2:0:0:
421,149,196862,1,2,0:0:0:0:
257,226,196944,2,0,L|153:229,1,62.9999980773926,8|0,0:0|0:0,0:0:0:0:
359,319,197107,2,0,L|454:311,1,62.9999980773926,2|0,0:2|0:0,0:0:0:0:
181,323,197270,5,2,3:1:0:0:
163,262,197351,1,0,0:0:0:0:
145,202,197433,1,2,0:2:0:0:
335,148,197515,1,2,0:0:0:0:
273,144,197596,1,8,0:0:0:0:
210,140,197678,1,0,0:0:0:0:
374,62,197760,2,0,L|487:59,1,62.9999980773926,2|0,0:2|0:0,0:0:0:0:
209,88,197923,6,0,L|292:88,1,62.9999980773926,2|0,3:1|3:0,0:0:0:0:
437,252,198086,2,0,L|440:178,1,62.9999980773926,2|0,3:1|0:0,0:0:0:0:
273,186,198250,2,0,L|261:91,1,62.9999980773926,10|0,0:0|0:0,0:0:0:0:
88,334,198413,2,0,L|92:256,1,62.9999980773926,2|0,3:2|0:0,0:0:0:0:
284,236,198576,6,0,L|188:233,2,62.9999980773926,2|0|2,3:1|0:0|0:2,0:0:0:0:
449,304,198821,1,2,0:0:0:0:
245,330,198903,2,0,L|246:253,1,62.9999980773926,8|0,0:0|0:0,0:0:0:0:
393,237,199066,2,0,L|305:218,1,62.9999980773926,2|0,0:2|0:0,0:0:0:0:
131,175,199229,5,2,3:1:0:0:
93,129,199310,1,0,0:0:0:0:
123,78,199392,1,2,0:2:0:0:
301,68,199474,1,2,0:0:0:0:
62,245,199555,2,0,L|142:248,1,62.9999980773926,8|0,0:0|0:0,0:0:0:0:
305,305,199719,2,0,L|410:317,1,62.9999980773926,2|0,0:2|0:0,0:0:0:0:
114,336,199882,5,2,3:1:0:0:
73,290,199963,1,0,0:0:0:0:
83,229,200045,1,2,0:2:0:0:
135,198,200126,1,2,0:0:0:0:
306,182,200208,2,0,L|334:86,1,62.9999980773926,8|0,0:0|0:0,0:0:0:0:
157,98,200372,2,0,L|140:8,1,62.9999980773926,2|0,0:2|0:0,0:0:0:0:
336,109,200535,6,0,L|435:108,2,62.9999980773926,2|0|2,3:1|0:0|0:2,0:0:0:0:
184,298,200780,1,2,0:0:0:0:
411,330,200861,2,0,L|414:237,1,62.9999980773926,8|0,0:0|0:0,0:0:0:0:
248,206,201024,2,0,L|227:128,1,62.9999980773926,2|0,0:2|0:0,0:0:0:0:
423,134,201188,6,0,L|527:132,1,62.9999980773926,2|0,3:1|0:0,0:0:0:0:
423,134,201351,2,0,L|332:133,1,62.9999980773926,2|2,0:2|0:0,0:0:0:0:
169,319,201514,2,0,L|171:234,1,62.9999980773926,8|0,0:0|0:0,0:0:0:0:
316,240,201677,2,0,L|330:159,1,62.9999980773926,2|0,0:2|0:0,0:0:0:0:
78,135,201841,6,0,L|9:136,2,62.9999980773926,2|0|2,3:1|0:0|0:2,0:0:0:0:
241,284,202085,1,2,0:0:0:0:
431,304,202167,2,0,L|446:200,1,62.9999980773926,8|0,0:0|0:0,0:0:0:0:
274,153,202330,2,0,L|272:62,1,62.9999980773926,2|0,0:2|0:0,0:0:0:0:
438,80,202493,6,0,L|447:167,1,62.9999980773926,0|0,3:1|0:0,0:0:0:0:
380,169,202657,1,2,0:2:0:0:
217,234,202738,2,0,L|115:229,2,62.9999980773926,0|8|0,0:0|0:0|0:0,0:0:0:0:
27,339,202983,2,0,L|24:262,1,62.9999980773926,2|0,0:2|0:0,0:0:0:0:
189,206,203146,5,2,3:1:0:0:
354,187,203228,1,0,3:0:0:0:
189,206,203310,1,0,3:0:0:0:
251,200,203391,1,2,0:0:0:0:
314,194,203473,1,10,0:0:0:0:
63,97,203636,1,2,3:2:0:0:
315,79,203799,5,6,3:1:0:0:
325,139,203880,1,0,0:0:0:0:
295,193,203962,1,2,0:2:0:0:
237,215,204043,1,2,0:0:0:0:
486,314,204126,2,0,L|497:212,1,62.9999980773926,8|0,0:0|0:0,0:0:0:0:
328,218,204289,2,0,L|227:214,1,62.9999980773926,2|0,0:2|0:0,0:0:0:0:
436,151,204452,6,0,L|509:152,2,62.9999980773926,2|0|2,3:1|0:0|0:2,0:0:0:0:
283,204,204697,1,2,0:0:0:0:
129,339,204778,2,0,L|226:337,1,62.9999980773926,8|0,0:0|0:0,0:0:0:0:
371,283,204942,2,0,L|295:283,1,62.9999980773926,2|0,0:2|0:0,0:0:0:0:
118,198,205105,6,0,L|38:196,2,62.9999980773926,2|0|2,3:1|0:0|0:2,0:0:0:0:
284,136,205350,2,0,L|386:140,2,62.9999980773926,2|8|0,0:0|0:0|0:0,0:0:0:0:
120,70,205595,2,0,L|36:72,1,62.9999980773926,2|0,0:2|0:0,0:0:0:0:
250,279,205758,6,0,L|146:274,2,62.9999980773926,2|0|2,3:1|0:0|0:2,0:0:0:0:
415,193,206003,2,0,L|478:192,2,62.9999980773926,2|8|0,0:0|0:0|0:0,0:0:0:0:
227,140,206247,2,0,L|316:146,1,62.9999980773926,2|0,0:2|0:0,0:0:0:0:
97,137,206411,6,0,L|82:227,1,62.9999980773926,2|0,3:1|0:0,0:0:0:0:
150,227,206574,2,0,L|244:237,1,62.9999980773926,2|2,0:2|0:0,0:0:0:0:
36,353,206737,2,0,L|31:251,1,62.9999980773926,8|0,0:0|0:0,0:0:0:0:
223,253,206900,2,0,L|134:248,1,62.9999980773926,2|0,0:2|0:0,0:0:0:0:
352,191,207064,6,0,L|436:189,2,62.9999980773926,2|0|2,3:1|0:0|0:2,0:0:0:0:
208,342,207308,1,2,0:0:0:0:
478,214,207390,2,0,L|485:294,1,62.9999980773926,8|0,0:0|0:0,0:0:0:0:
294,319,207553,2,0,L|380:319,1,62.9999980773926,2|0,0:2|0:0,0:0:0:0:
129,207,207716,6,0,L|28:205,2,62.9999980773926,2|0|2,3:1|0:0|0:2,0:0:0:0:
319,113,207961,1,2,0:0:0:0:
256,111,208042,1,8,0:0:0:0:
193,110,208124,1,0,0:0:0:0:
383,249,208206,2,0,L|487:246,1,62.9999980773926,2|0,0:2|0:0,0:0:0:0:
155,342,208369,6,0,L|134:257,1,62.9999980773926,2|0,3:1|3:0,0:0:0:0:
307,214,208533,2,0,L|321:142,1,62.9999980773926,2|0,3:1|0:0,0:0:0:0:
483,363,208696,2,0,L|465:284,1,62.9999980773926,10|0,0:0|0:0,0:0:0:0:
305,217,208859,2,0,L|277:96,1,62.9999980773926,2|0,3:2|0:0,0:0:0:0:
37,222,209022,5,2,3:1:0:0:
30,160,209103,1,0,0:0:0:0:
65,110,209185,1,2,0:2:0:0:
211,160,209267,1,2,0:0:0:0:
356,312,209349,2,0,L|352:209,1,62.9999980773926,8|0,0:0|0:0,0:0:0:0:
277,234,209512,2,0,L|293:142,1,62.9999980773926,2|0,0:2|0:0,0:0:0:0:
439,123,209675,6,0,L|515:118,2,62.9999980773926,2|0|2,3:1|0:0|0:2,0:0:0:0:
248,105,209920,1,2,0:0:0:0:
45,259,210002,2,0,L|36:168,1,62.9999980773926,8|0,0:0|0:0,0:0:0:0:
211,158,210165,2,0,L|308:151,1,62.9999980773926,2|0,0:2|0:0,0:0:0:0:
65,88,210328,5,2,3:1:0:0:
36,142,210409,1,0,0:0:0:0:
47,203,210491,1,2,0:2:0:0:
93,245,210572,1,2,0:0:0:0:
283,248,210654,2,0,L|359:248,1,62.9999980773926,8|0,0:0|0:0,0:0:0:0:
173,328,210818,2,0,L|102:327,1,62.9999980773926,2|0,0:2|0:0,0:0:0:0:
300,345,210981,6,0,L|386:344,2,62.9999980773926,2|0|2,3:1|0:0|0:2,0:0:0:0:
154,222,211226,1,2,0:0:0:0:
425,274,211307,2,0,L|438:199,1,62.9999980773926,8|0,0:0|0:0,0:0:0:0:
359,185,211471,2,0,L|455:187,1,62.9999980773926,2|0,0:2|0:0,0:0:0:0:
99,90,211634,5,2,3:1:0:0:
37,120,211715,1,0,0:0:0:0:
27,180,211797,1,2,0:2:0:0:
66,228,211879,1,2,0:0:0:0:
229,188,211960,2,0,L|229:279,1,62.9999980773926,8|0,0:0|0:0,0:0:0:0:
77,274,212123,2,0,L|74:377,1,62.9999980773926,2|0,0:2|0:0,0:0:0:0:
327,280,212287,5,2,3:1:0:0:
389,280,212368,1,0,0:0:0:0:
452,281,212450,1,2,0:2:0:0:
264,161,212531,2,0,L|165:162,2,62.9999980773926,2|8|0,0:0|0:0|0:0,0:0:0:0:
74,238,212776,2,0,L|151:237,1,62.9999980773926,2|0,0:2|0:0,0:0:0:0:
329,180,212940,5,0,3:1:0:0:
266,179,213021,1,0,0:0:0:0:
203,178,213103,1,2,0:2:0:0:
366,283,213184,1,2,0:0:0:0:
176,343,213266,2,0,L|61:342,1,62.9999980773926,8|0,0:0|0:0,0:0:0:0:
278,265,213429,2,0,L|196:262,1,62.9999980773926,2|0,0:2|0:0,0:0:0:0:
69,197,213592,5,2,3:1:0:0:
131,195,213673,1,0,3:0:0:0:
194,194,213755,1,0,3:0:0:0:
384,213,213837,1,2,0:0:0:0:
216,184,213919,2,0,L|294:177,1,62.9999980773926,10|0,0:0|0:0,0:0:0:0:
101,272,214082,2,0,L|184:276,1,62.9999980773926,2|0,3:2|0:0,0:0:0:0:
394,315,214245,6,0,L|497:325,1,62.9999980773926,6|0,3:1|0:0,0:0:0:0:
394,315,214409,2,0,L|291:303,1,62.9999980773926,2|2,0:2|0:0,0:0:0:0:
167,219,214572,2,0,L|244:218,1,62.9999980773926,8|0,0:0|0:0,0:0:0:0:
65,283,214735,2,0,L|57:349,1,62.9999980773926,2|0,0:2|0:0,0:0:0:0:
285,253,214898,6,0,L|387:249,2,62.9999980773926,2|0|2,3:1|0:0|0:2,0:0:0:0:
139,342,215143,1,2,0:0:0:0:
372,246,215225,2,0,L|391:145,1,62.9999980773926,8|0,0:0|0:0,0:0:0:0:
194,129,215388,2,0,L|190:36,1,62.9999980773926,2|0,0:2|0:0,0:0:0:0:
394,102,215551,5,2,3:1:0:0:
331,97,215632,1,0,0:0:0:0:
268,92,215714,1,2,0:2:0:0:
433,184,215796,1,2,0:0:0:0:
243,286,215878,2,0,L|155:282,1,62.9999980773926,8|0,0:0|0:0,0:0:0:0:
371,344,216041,2,0,L|477:345,1,62.9999980773926,2|0,0:2|0:0,0:0:0:0:
244,203,216204,5,2,3:1:0:0:
181,203,216285,1,0,0:0:0:0:
118,203,216367,1,2,0:2:0:0:
283,122,216449,1,2,0:0:0:0:
95,69,216530,2,0,L|181:68,1,62.9999980773926,8|0,0:0|0:0,0:0:0:0:
350,43,216694,2,0,L|452:45,1,62.9999980773926,2|0,0:2|0:0,0:0:0:0:
184,323,216857,6,0,L|186:234,1,62.9999980773926,2|0,3:1|0:0,0:0:0:0:
249,247,217020,2,0,L|358:245,1,62.9999980773926,2|2,0:2|0:0,0:0:0:0:
147,146,217183,2,0,L|77:147,1,62.9999980773926,8|0,0:0|0:0,0:0:0:0:
251,65,217347,2,0,L|256:151,1,62.9999980773926,2|0,0:2|0:0,0:0:0:0:
66,212,217510,5,2,3:1:0:0:
128,210,217591,1,0,0:0:0:0:
191,208,217673,1,2,0:2:0:0:
46,342,217755,1,2,0:0:0:0:
262,293,217836,2,0,L|335:292,1,62.9999980773926,8|0,0:0|0:0,0:0:0:0:
158,170,217999,2,0,L|148:90,1,62.9999980773926,2|0,0:2|0:0,0:0:0:0:
343,95,218163,5,2,3:1:0:0:
405,94,218244,1,0,0:0:0:0:
468,93,218326,1,2,0:2:0:0:
306,193,218407,1,2,0:0:0:0:
495,298,218489,2,0,L|413:293,1,62.9999980773926,8|0,0:0|0:0,0:0:0:0:
242,315,218652,2,0,L|366:316,1,62.9999980773926,2|0,0:2|0:0,0:0:0:0:
63,275,218815,6,0,L|45:177,1,62.9999980773926,2|0,3:1|3:0,0:0:0:0:
218,153,218979,2,0,L|218:84,1,62.9999980773926,2|0,3:1|0:0,0:0:0:0:
398,203,219142,2,0,L|410:130,1,62.9999980773926,10|0,0:0|0:0,0:0:0:0:
243,273,219305,2,0,L|234:190,1,62.9999980773926,2|0,3:2|0:0,0:0:0:0:
414,331,219468,6,0,L|498:334,2,62.9999980773926,0|0|2,3:1|0:0|0:2,0:0:0:0:
224,322,219713,1,2,0:0:0:0:
369,230,219795,2,0,L|448:230,1,62.9999980773926,8|0,0:0|0:0,0:0:0:0:
229,164,219958,2,0,L|339:158,1,62.9999980773926,2|0,0:2|0:0,0:0:0:0:
484,118,220121,5,2,3:1:0:0:
421,114,220202,1,0,0:0:0:0:
358,110,220284,1,2,0:2:0:0:
193,222,220366,1,2,0:0:0:0:
386,253,220448,2,0,L|302:255,1,62.9999980773926,8|0,0:0|0:0,0:0:0:0:
172,324,220611,2,0,L|262:319,1,62.9999980773926,2|0,0:2|0:0,0:0:0:0:
70,222,220774,6,0,L|55:156,1,62.9999980773926,2|0,3:1|0:0,0:0:0:0:
120,148,220937,2,0,L|205:145,1,62.9999980773926,2|2,0:2|0:0,0:0:0:0:
413,144,221101,2,0,L|437:68,1,62.9999980773926,8|0,0:0|0:0,0:0:0:0:
242,211,221264,2,0,L|224:119,1,62.9999980773926,2|0,0:2|0:0,0:0:0:0:
460,302,221427,5,2,3:1:0:0:
397,294,221508,1,0,0:0:0:0:
334,287,221590,1,2,0:2:0:0:
145,339,221672,1,2,0:0:0:0:
308,225,221753,2,0,L|223:217,1,62.9999980773926,8|0,0:0|0:0,0:0:0:0:
53,212,221917,2,0,L|139:207,1,62.9999980773926,2|0,0:2|0:0,0:0:0:0:
357,151,222080,5,2,3:1:0:0:
193,133,222162,1,0,0:0:0:0:
30,127,222243,1,2,0:2:0:0:
193,133,222325,1,2,0:0:0:0:
381,203,222406,2,0,L|381:284,1,62.9999980773926,8|0,0:0|0:0,0:0:0:0:
214,334,222570,1,2,0:2:0:0:
51,343,222651,1,0,0:0:0:0:
273,295,222733,5,2,3:1:0:0:
462,278,222814,1,0,0:0:0:0:
273,295,222896,1,2,0:2:0:0:
83,297,222978,1,2,0:0:0:0:
273,295,223059,2,0,L|168:296,1,62.9999980773926,8|0,0:0|0:0,0:0:0:0:
400,187,223222,2,0,L|290:188,1,62.9999980773926,2|0,0:2|0:0,0:0:0:0:
42,171,223386,5,6,3:1:0:0:
258,278,224528,1,2,0:0:0:0:
491,293,224691,6,0,L|491:121,1,125.999996154785,6|2,3:1|0:2,0:0:0:0:
428,162,224936,1,0,0:0:0:0:
263,191,225018,2,0,L|266:45,1,125.999996154785,10|2,0:0|0:2,0:0:0:0:
329,63,225263,1,0,0:0:0:0:
166,287,225344,6,0,L|166:202,1,62.9999980773926,0|0,3:0|0:0,0:0:0:0:
230,224,225508,2,0,L|229:130,1,62.9999980773926,2|0,0:2|0:0,0:0:0:0:
52,125,225671,1,8,0:0:0:0:
279,116,225834,2,0,L|209:117,1,62.9999980773926,2|0,0:2|0:0,0:0:0:0:
362,178,225997,5,0,3:0:0:0:
198,229,226160,1,2,0:2:0:0:
261,228,226242,1,0,0:0:0:0:
407,270,226324,2,0,L|242:268,1,125.999996154785,8|2,0:0|0:2,0:0:0:0:
344,262,226568,1,0,0:0:0:0:
179,123,226650,6,0,L|179:212,1,62.9999980773926,0|0,3:0|0:0,0:0:0:0:
242,174,226813,2,0,L|242:250,1,62.9999980773926,2|0,0:2|0:0,0:0:0:0:
75,318,226977,2,0,L|236:315,1,125.999996154785,8|2,0:0|3:2,0:0:0:0:
200,315,227221,1,0,0:0:0:0:
34,214,227303,6,0,L|31:77,1,125.999996154785,0|2,3:0|0:2,0:0:0:0:
95,79,227548,1,0,0:0:0:0:
282,118,227629,2,0,L|106:117,1,125.999996154785,8|2,0:0|0:2,0:0:0:0:
220,159,227874,1,0,0:0:0:0:
366,171,227956,6,0,L|367:253,1,62.9999980773926,0|0,3:0|0:0,0:0:0:0:
291,277,228119,2,0,L|291:200,1,62.9999980773926,2|0,0:2|0:0,0:0:0:0:
455,190,228282,2,0,L|456:346,1,125.999996154785,8|2,0:0|0:2,0:0:0:0:
373,316,228527,1,0,0:0:0:0:
151,318,228609,6,0,L|295:225,1,125.999996154785,0|2,3:0|0:2,0:0:0:0:
320,186,228854,1,0,0:0:0:0:
157,178,228935,2,0,L|155:42,1,125.999996154785,8|2,0:0|0:2,0:0:0:0:
219,49,229180,1,0,0:0:0:0:
53,226,229262,6,0,L|56:319,1,62.9999980773926,0|0,3:0|3:0,0:0:0:0:
220,293,229425,2,0,L|224:362,1,62.9999980773926,2|0,3:2|0:0,0:0:0:0:
452,246,229588,1,8,0:0:0:0:
225,204,229751,1,2,3:2:0:0:
465,190,229915,6,0,L|464:42,1,125.999996154785,4|2,3:0|0:2,0:0:0:0:
401,52,230159,1,0,0:0:0:0:
224,135,230241,2,0,L|91:134,1,125.999996154785,8|2,0:0|0:2,0:0:0:0:
162,140,230486,1,0,0:0:0:0:
16,209,230567,6,0,L|15:287,1,62.9999980773926,0|0,3:0|0:0,0:0:0:0:
92,300,230731,2,0,L|6:299,1,62.9999980773926,2|0,0:2|0:0,0:0:0:0:
301,314,230894,1,8,0:0:0:0:
342,273,230975,1,0,0:0:0:0:
311,225,231057,1,2,0:2:0:0:
260,205,231139,1,0,0:0:0:0:
97,282,231220,6,0,L|87:147,1,125.999996154785,0|2,3:0|0:2,0:0:0:0:
151,141,231465,1,0,0:0:0:0:
316,132,231547,2,0,L|322:43,1,62.9999980773926,8|0,0:0|0:0,0:0:0:0:
245,75,231710,2,0,L|226:7,1,62.9999980773926,2|0,0:2|0:0,0:0:0:0:
405,198,231873,6,0,L|472:197,3,62.9999980773926,0|0|2|0,3:0|0:0|0:2|0:0,0:0:0:0:
301,313,232200,2,0,L|172:311,1,125.999996154785,8|2,0:0|3:2,0:0:0:0:
238,293,232444,1,0,0:0:0:0:
403,262,232526,6,0,L|387:118,1,125.999996154785,0|2,3:0|0:2,0:0:0:0:
326,121,232771,1,0,0:0:0:0:
163,259,232852,2,0,L|13:256,1,125.999996154785,8|2,0:0|0:2,0:0:0:0:
101,243,233097,1,0,0:0:0:0:
290,271,233179,6,0,L|221:262,3,62.9999980773926,0|0|2|0,3:0|0:0|0:2|0:0,0:0:0:0:
392,348,233505,2,0,L|496:258,1,125.999996154785,8|2,0:0|0:2,0:0:0:0:
424,249,233750,1,0,0:0:0:0:
247,189,233832,6,0,L|237:97,1,62.9999980773926,0|0,3:0|0:0,0:0:0:0:
305,115,233995,2,0,L|316:28,1,62.9999980773926,2|0,0:2|0:0,0:0:0:0:
148,264,234158,2,0,L|325:253,1,125.999996154785,8|2,0:0|0:2,0:0:0:0:
273,256,234403,1,0,0:0:0:0:
96,170,234485,6,0,L|181:167,2,62.9999980773926,0|0|2,3:0|3:0|3:2,0:0:0:0:
261,162,234730,2,0,L|254:56,1,62.9999980773926,0|8,0:0|0:0,0:0:0:0:
181,88,234893,1,0,0:0:0:0:
345,218,234974,2,0,L|410:210,1,62.9999980773926,2|0,3:2|0:0,0:0:0:0:
176,328,235138,6,0,L|169:254,1,62.9999980773926,4|0,3:0|0:0,0:0:0:0:
246,267,235301,2,0,L|253:184,1,62.9999980773926,2|0,0:2|0:0,0:0:0:0:
81,173,235464,2,0,L|9:168,2,62.9999980773926,8|0|2,0:0|0:0|0:2,0:0:0:0:
144,196,235709,1,0,0:0:0:0:
306,128,235790,6,0,L|202:126,1,62.9999980773926,0|0,3:0|0:0,0:0:0:0:
306,128,235954,2,0,L|316:222,1,62.9999980773926,2|0,0:2|0:0,0:0:0:0:
147,318,236117,1,8,0:0:0:0:
116,268,236198,1,0,0:0:0:0:
152,222,236280,1,2,0:2:0:0:
216,208,236362,1,0,0:0:0:0:
29,187,236443,6,0,P|33:114|101:86,1,125.999996154785,0|2,3:0|0:2,0:0:0:0:
136,80,236688,1,0,0:0:0:0:
326,90,236770,1,8,0:0:0:0:
326,152,236851,1,0,0:0:0:0:
326,215,236933,1,2,0:2:0:0:
263,215,237015,1,0,0:0:0:0:
439,288,237096,6,0,L|520:289,1,62.9999980773926,0|0,3:0|0:0,0:0:0:0:
439,288,237259,2,0,L|359:289,1,62.9999980773926,2|0,0:2|0:0,0:0:0:0:
183,312,237423,2,0,L|188:230,1,62.9999980773926,8|0,0:0|0:0,0:0:0:0:
267,228,237586,2,0,L|263:137,1,62.9999980773926,2|0,3:2|0:0,0:0:0:0:
442,129,237749,6,0,L|504:119,1,62.9999980773926,0|0,3:0|0:0,0:0:0:0:
442,129,237912,2,0,L|356:126,1,62.9999980773926,2|0,0:2|0:0,0:0:0:0:
199,244,238076,2,0,L|186:176,1,62.9999980773926,8|0,0:0|0:0,0:0:0:0:
263,167,238239,2,0,L|285:64,1,62.9999980773926,2|0,0:2|0:0,0:0:0:0:
86,314,238402,6,0,L|157:309,3,62.9999980773926,0|0|2|0,3:0|0:0|0:2|0:0,0:0:0:0:
314,245,238728,2,0,L|322:160,1,62.9999980773926,8|0,0:0|0:0,0:0:0:0:
241,162,238892,2,0,L|232:74,1,62.9999980773926,2|0,0:2|0:0,0:0:0:0:
412,69,239055,5,0,3:0:0:0:
349,66,239136,1,0,0:0:0:0:
286,64,239218,1,2,0:2:0:0:
223,61,239299,1,0,0:0:0:0:
413,237,239381,2,0,L|515:236,1,62.9999980773926,8|0,0:0|0:0,0:0:0:0:
413,237,239545,2,0,L|328:235,1,62.9999980773926,2|0,0:2|0:0,0:0:0:0:
121,322,239708,6,0,L|105:249,1,62.9999980773926,0|0,3:0|3:0,0:0:0:0:
272,193,239871,2,0,L|281:107,1,62.9999980773926,0|0,3:0|0:0,0:0:0:0:
469,112,240034,1,8,0:0:0:0:
167,107,240197,1,0,3:0:0:0:
395,302,240361,6,0,L|293:298,1,62.9999980773926,6|0,3:1|0:0,0:0:0:0:
269,297,240524,2,0,L|355:290,1,62.9999980773926,2|0,0:2|0:0,0:0:0:0:
154,208,240687,1,10,0:0:0:0:
216,204,240768,1,0,0:0:0:0:
279,201,240850,1,2,0:2:0:0:
342,198,240931,1,0,0:0:0:0:
176,104,241014,6,0,L|255:115,3,62.9999980773926,0|0|2|0,3:0|0:0|0:2|0:0,0:0:0:0:
58,174,241340,1,8,0:0:0:0:
36,231,241421,1,0,0:0:0:0:
57,289,241503,1,2,0:2:0:0:
112,317,241584,1,0,0:0:0:0:
302,273,241666,6,0,L|312:187,1,62.9999980773926,0|0,3:0|0:0,0:0:0:0:
233,192,241830,2,0,L|219:122,1,62.9999980773926,2|0,0:2|0:0,0:0:0:0:
404,105,241993,2,0,L|476:101,1,62.9999980773926,8|0,0:0|0:0,0:0:0:0:
404,105,242156,2,0,L|306:107,1,62.9999980773926,2|0,0:2|0:0,0:0:0:0:
176,247,242319,6,0,L|91:241,3,62.9999980773926,0|0|2|0,3:0|0:0|0:2|0:0,0:0:0:0:
306,222,242646,2,0,L|294:316,1,62.9999980773926,8|0,0:0|0:0,0:0:0:0:
121,345,242809,2,0,L|98:267,1,62.9999980773926,2|0,3:2|0:0,0:0:0:0:
294,150,242972,5,0,3:0:0:0:
231,146,243053,1,0,0:0:0:0:
168,143,243135,1,2,0:2:0:0:
231,146,243217,1,0,0:0:0:0:
396,75,243299,1,8,0:0:0:0:
333,71,243380,1,0,0:0:0:0:
270,68,243462,1,2,0:2:0:0:
207,64,243543,1,0,0:0:0:0:
397,219,243625,6,0,L|509:222,3,62.9999980773926,0|0|2|0,3:0|0:0|0:2|0:0,0:0:0:0:
235,272,243952,2,0,L|310:255,1,62.9999980773926,8|0,0:0|0:0,0:0:0:0:
461,349,244115,2,0,L|362:337,1,62.9999980773926,2|0,0:2|0:0,0:0:0:0:
159,337,244278,6,0,L|92:337,1,62.9999980773926,0|0,3:0|0:0,0:0:0:0:
159,337,244441,2,0,L|246:338,1,62.9999980773926,2|0,0:2|0:0,0:0:0:0:
45,213,244604,1,8,0:0:0:0:
107,212,244685,1,0,0:0:0:0:
170,212,244767,1,2,0:2:0:0:
233,212,244848,1,0,0:0:0:0:
426,145,244931,6,0,L|314:141,2,62.9999980773926,0|0|2,3:0|3:0|3:2,0:0:0:0:
217,115,245176,2,0,L|120:109,2,62.9999980773926,0|8|0,0:0|0:0|0:0,0:0:0:0:
388,251,245421,2,0,L|284:246,1,62.9999980773926,2|0,3:2|0:0,0:0:0:0:
135,324,245584,6,0,L|118:231,1,62.9999980773926,4|0,3:0|0:0,0:0:0:0:
200,255,245747,2,0,L|211:151,1,62.9999980773926,2|0,0:2|0:0,0:0:0:0:
54,138,245910,1,8,0:0:0:0:
213,159,245992,2,0,L|290:153,2,62.9999980773926,0|2|0,0:0|0:2|0:0,0:0:0:0:
372,217,246237,6,0,L|456:212,2,62.9999980773926,0|0|2,3:0|0:0|0:2,0:0:0:0:
229,323,246481,1,0,0:0:0:0:
447,296,246563,2,0,L|459:198,1,62.9999980773926,8|0,0:0|0:0,0:0:0:0:
290,177,246726,2,0,L|380:168,1,62.9999980773926,2|0,0:2|0:0,0:0:0:0:
162,116,246889,5,0,3:0:0:0:
309,93,246971,2,0,L|400:84,2,62.9999980773926,0|2|0,0:0|0:2|0:0,0:0:0:0:
449,190,247216,2,0,L|562:189,2,62.9999980773926,8|0|2,0:0|0:0|0:2,0:0:0:0:
303,221,247461,1,0,0:0:0:0:
468,117,247542,6,0,L|390:110,1,62.9999980773926,0|0,3:0|0:0,0:0:0:0:
232,301,247706,2,0,L|346:305,1,62.9999980773926,2|0,0:2|0:0,0:0:0:0:
105,217,247869,1,8,0:0:0:0:
249,142,247950,2,0,L|340:142,2,62.9999980773926,0|2|0,0:0|3:2|0:0,0:0:0:0:
439,202,248195,5,0,3:0:0:0:
376,201,248276,1,0,0:0:0:0:
313,200,248358,1,2,0:2:0:0:
167,329,248440,1,0,0:0:0:0:
384,322,248522,2,0,L|269:315,1,62.9999980773926,8|0,0:0|0:0,0:0:0:0:
486,253,248685,2,0,L|495:172,1,62.9999980773926,2|0,0:2|0:0,0:0:0:0:
341,155,248848,5,0,3:0:0:0:
190,252,248930,2,0,L|272:248,2,62.9999980773926,0|2|0,0:0|0:2|0:0,0:0:0:0:
38,126,249175,2,0,L|144:122,2,62.9999980773926,8|0|2,0:0|0:0|0:2,0:0:0:0:
207,166,249419,1,0,0:0:0:0:
392,219,249501,6,0,L|416:115,1,62.9999980773926,0|0,3:0|0:0,0:0:0:0:
241,303,249664,2,0,L|338:298,1,62.9999980773926,2|0,0:2|0:0,0:0:0:0:
114,181,249827,1,8,0:0:0:0:
266,118,249909,2,0,L|348:114,2,62.9999980773926,0|2|0,0:0|0:2|0:0,0:0:0:0:
424,251,250154,5,0,3:0:0:0:
216,259,250236,1,0,3:0:0:0:
53,252,250317,1,2,3:2:0:0:
216,259,250399,1,0,0:0:0:0:
366,214,250480,2,0,L|269:210,1,62.9999980773926,8|0,0:0|0:0,0:0:0:0:
457,111,250644,2,0,L|347:110,1,62.9999980773926,2|0,3:2|0:0,0:0:0:0:
172,167,250807,5,4,3:0:0:0:
310,164,250888,1,0,0:0:0:0:
247,163,250969,1,2,0:2:0:0:
310,164,251051,1,0,0:0:0:0:
459,265,251133,1,8,0:0:0:0:
396,260,251214,1,0,0:0:0:0:
333,255,251296,1,2,0:2:0:0:
483,172,251378,1,0,0:0:0:0:
291,149,251460,6,0,L|396:149,1,62.9999980773926,0|0,3:0|0:0,0:0:0:0:
189,258,251623,2,0,L|112:248,1,62.9999980773926,2|0,0:2|0:0,0:0:0:0:
291,186,251786,1,8,0:0:0:0:
126,344,251868,1,0,0:0:0:0:
188,342,251949,1,2,0:2:0:0:
251,340,252031,1,0,0:0:0:0:
99,79,252113,5,0,3:0:0:0:
287,84,252194,2,0,L|357:82,2,62.9999980773926,0|2|0,0:0|0:2|0:0,0:0:0:0:
119,143,252439,2,0,L|55:140,1,62.9999980773926,8|0,0:0|0:0,0:0:0:0:
221,83,252602,2,0,L|124:74,1,62.9999980773926,2|0,0:2|0:0,0:0:0:0:
336,186,252765,5,0,3:0:0:0:
185,303,252847,2,0,L|260:303,2,62.9999980773926,0|2|0,0:0|0:2|0:0,0:0:0:0:
344,234,253092,2,0,L|431:230,2,62.9999980773926,8|0|2,0:0|0:0|3:2,0:0:0:0:
490,130,253337,1,0,0:0:0:0:
249,138,253418,6,0,L|145:128,1,62.9999980773926,0|0,3:0|0:0,0:0:0:0:
352,193,253582,2,0,L|265:184,1,62.9999980773926,2|0,0:2|0:0,0:0:0:0:
131,177,253745,1,8,0:0:0:0:
288,261,253826,2,0,L|360:261,2,62.9999980773926,0|2|0,0:0|0:2|0:0,0:0:0:0:
66,336,254071,5,0,3:0:0:0:
212,317,254153,1,0,0:0:0:0:
356,303,254234,1,2,0:2:0:0:
212,317,254316,1,0,0:0:0:0:
401,263,254398,2,0,L|403:184,1,62.9999980773926,8|0,0:0|0:0,0:0:0:0:
257,122,254561,2,0,L|343:116,1,62.9999980773926,2|0,0:2|0:0,0:0:0:0:
161,93,254724,5,0,3:0:0:0:
319,195,254806,2,0,L|231:189,2,62.9999980773926,0|2|0,0:0|0:2|0:0,0:0:0:0:
129,263,255051,2,0,L|231:250,2,62.9999980773926,8|0|2,0:0|0:0|0:2,0:0:0:0:
268,287,255295,1,0,0:0:0:0:
420,190,255377,6,0,L|516:191,3,62.9999980773926,0|0|0|0,3:0|3:0|3:0|3:0,0:0:0:0:
291,128,255703,1,8,0:0:0:0:
437,93,255785,2,0,L|504:91,2,62.9999980773926,0|0|0,0:0|3:0|0:0,0:0:0:0:
293,318,256030,6,0,L|190:321,1,62.9999980773926,6|0,3:1|0:0,0:0:0:0:
394,253,256193,2,0,L|326:252,1,62.9999980773926,2|0,0:2|0:0,0:0:0:0:
173,205,256356,1,10,0:0:0:0:
331,136,256438,1,0,0:0:0:0:
268,134,256519,1,2,0:2:0:0:
205,132,256601,1,0,0:0:0:0:
363,82,256683,6,0,L|453:79,2,62.9999980773926,0|0|2,3:0|0:0|0:2,0:0:0:0:
217,217,256928,1,0,0:0:0:0:
405,326,257009,2,0,L|397:221,1,62.9999980773926,8|0,0:0|0:0,0:0:0:0:
257,189,257172,2,0,L|248:101,1,62.9999980773926,2|0,0:2|0:0,0:0:0:0:
90,96,257336,5,0,3:0:0:0:
247,71,257417,2,0,L|344:72,2,62.9999980773926,0|2|0,0:0|0:2|0:0,0:0:0:0:
406,215,257662,2,0,L|312:213,2,62.9999980773926,8|0|2,0:0|0:0|0:2,0:0:0:0:
214,266,257907,1,0,0:0:0:0:
24,177,257989,6,0,L|123:174,1,62.9999980773926,0|0,3:0|0:0,0:0:0:0:
253,141,258152,2,0,L|347:141,1,62.9999980773926,2|0,0:2|0:0,0:0:0:0:
474,238,258315,1,8,0:0:0:0:
316,324,258397,2,0,L|241:324,2,62.9999980773926,0|2|0,0:0|3:2|0:0,0:0:0:0:
160,216,258641,6,0,L|94:216,2,62.9999980773926,0|0|2,3:0|0:0|0:2,0:0:0:0:
312,207,258886,1,0,0:0:0:0:
75,330,258968,2,0,L|85:228,1,62.9999980773926,8|0,0:0|0:0,0:0:0:0:
228,343,259131,2,0,L|341:343,1,62.9999980773926,2|0,0:2|0:0,0:0:0:0:
133,237,259294,5,0,3:0:0:0:
291,162,259376,2,0,L|373:160,2,62.9999980773926,0|2|0,0:0|0:2|0:0,0:0:0:0:
132,79,259621,2,0,L|219:72,2,62.9999980773926,8|0|2,0:0|0:0|0:2,0:0:0:0:
354,87,259866,1,0,0:0:0:0:
166,344,259947,6,0,L|178:251,1,62.9999980773926,0|0,3:0|0:0,0:0:0:0:
339,264,260110,2,0,L|261:258,1,62.9999980773926,2|0,0:2|0:0,0:0:0:0:
61,198,260274,1,8,0:0:0:0:
211,143,260355,2,0,L|308:145,2,62.9999980773926,0|2|0,0:0|0:2|0:0,0:0:0:0:
351,99,260600,5,0,3:0:0:0:
496,86,260682,1,0,3:0:0:0:
351,99,260763,1,2,3:2:0:0:
193,114,260845,1,0,0:0:0:0:
351,99,260926,2,0,L|359:166,1,62.9999980773926,8|0,0:0|0:0,0:0:0:0:
192,245,261090,2,0,L|299:254,1,62.9999980773926,2|0,3:2|0:0,0:0:0:0:
64,339,261253,6,0,L|52:273,1,62.9999980773926,4|0,3:0|0:0,0:0:0:0:
129,253,261416,2,0,L|134:182,1,62.9999980773926,2|0,0:2|0:0,0:0:0:0:
57,160,261579,2,0,L|126:155,1,62.9999980773926,8|0,0:0|0:0,0:0:0:0:
286,219,261743,2,0,L|304:124,1,62.9999980773926,2|0,0:2|0:0,0:0:0:0:
132,140,261906,6,0,L|60:137,1,62.9999980773926,0|0,3:0|0:0,0:0:0:0:
132,140,262069,2,0,L|237:145,1,62.9999980773926,2|0,0:2|0:0,0:0:0:0:
119,212,262232,2,0,L|109:277,1,62.9999980773926,8|0,0:0|0:0,0:0:0:0:
173,291,262395,2,0,L|282:292,1,62.9999980773926,2|0,0:2|0:0,0:0:0:0:
431,217,262559,6,0,L|440:304,1,62.9999980773926,8|8,3:3|0:3,0:0:0:0:
362,278,262722,2,0,L|368:345,1,62.9999980773926,10|8,0:3|0:3,0:0:0:0:
444,74,262885,2,0,L|453:161,1,62.9999980773926,8|8,0:3|0:3,0:0:0:0:
261,140,263048,2,0,L|267:207,1,62.9999980773926,10|8,0:3|0:3,0:0:0:0:
433,210,263212,6,0,L|420:149,1,62.9999980773926,8|8,3:3|0:3,0:0:0:0:
338,161,263375,2,0,L|328:98,1,62.9999980773926,10|8,0:3|0:3,0:0:0:0:
411,319,263538,2,0,L|398:258,1,62.9999980773926,8|8,0:3|0:3,0:0:0:0:
233,286,263701,2,0,L|223:223,1,62.9999980773926,10|8,3:3|0:3,0:0:0:0:
413,156,263864,6,0,L|351:115,1,62.9999980773926,8|8,3:3|0:3,0:0:0:0:
283,103,264028,2,0,L|216:73,1,62.9999980773926,10|8,0:3|0:3,0:0:0:0:
35,274,264191,2,0,L|97:233,1,62.9999980773926,8|8,0:3|0:3,0:0:0:0:
165,221,264355,2,0,L|232:191,1,62.9999980773926,10|8,0:3|0:3,0:0:0:0:
411,293,264517,6,0,L|322:290,3,62.9999980773926,8|8|10|8,3:3|0:3|0:3|0:3,0:0:0:0:
156,191,264844,2,0,L|249:179,3,62.9999980773926,8|8|10|8,0:3|0:3|0:3|0:3,0:0:0:0:
409,183,265170,6,0,L|435:96,1,62.9999980773926,0|0,3:0|0:0,0:0:0:0:
351,114,265333,2,0,L|331:38,1,62.9999980773926
411,45,265497,2,0,L|483:47,1,62.9999980773926
309,195,265660,2,0,L|238:197,1,62.9999980773926,2|0,0:0|0:0,0:0:0:0:
410,324,265823,6,0,L|486:325,2,62.9999980773926,2|0|0,0:0|0:0|0:0,0:0:0:0:
246,267,266068,1,2,0:0:0:0:
183,267,266149,1,0,0:0:0:0:
120,267,266231,1,0,0:0:0:0:
286,342,266313,2,0,L|185:342,1,62.9999980773926,2|0,0:0|0:0,0:0:0:0:
46,188,266476,6,0,L|41:23,1,125.999996154785,6|2,0:0|0:0,0:0:0:0:
205,149,266721,1,2,0:0:0:0:
42,222,266802,1,8,0:0:0:0:
37,284,266883,1,2,0:0:0:0:
203,258,266966,2,0,L|206:337,1,62.9999980773926,2|0,0:0|0:0,0:0:0:0:
396,279,267129,6,0,L|498:278,2,62.9999980773926,2|0|2,3:1|0:0|0:0,0:0:0:0:
231,184,267374,1,2,0:0:0:0:
381,160,267455,2,0,L|280:160,1,62.9999980773926,8|2,0:0|0:0,0:0:0:0:
466,91,267619,2,0,L|379:95,1,62.9999980773926,2|0,0:0|0:0,0:0:0:0:
247,315,267782,6,0,L|238:168,1,125.999996154785,2|2,3:1|0:0,0:0:0:0:
385,132,268027,1,2,0:0:0:0:
239,189,268108,2,0,L|149:190,1,62.9999980773926,8|0,0:0|0:0,0:0:0:0:
364,249,268271,2,0,L|480:254,1,62.9999980773926,2|0,0:0|0:0,0:0:0:0:
235,293,268435,5,2,3:1:0:0:
172,290,268516,1,0,0:0:0:0:
109,287,268598,1,2,0:0:0:0:
272,204,268679,2,0,L|185:200,1,62.9999980773926,2|8,0:0|0:0,0:0:0:0:
42,351,268843,1,2,0:0:0:0:
231,348,268924,2,0,L|338:349,1,62.9999980773926,2|0,0:0|0:0,0:0:0:0:
70,253,269088,6,0,L|62:99,1,125.999996154785,2|2,3:1|0:0,0:0:0:0:
126,120,269332,1,2,0:0:0:0:
291,137,269414,2,0,L|297:52,1,62.9999980773926,8|2,0:0|0:0,0:0:0:0:
468,161,269577,2,0,L|476:80,1,62.9999980773926,2|0,0:0|0:0,0:0:0:0:
297,245,269740,6,0,L|207:244,2,62.9999980773926,2|0|2,3:1|0:0|0:0,0:0:0:0:
461,332,269985,1,2,0:0:0:0:
398,334,270066,1,8,0:0:0:0:
335,337,270148,1,2,0:0:0:0:
158,283,270230,2,0,L|156:197,1,62.9999980773926,2|0,0:0|0:0,0:0:0:0:
365,161,270393,6,0,L|494:147,1,125.999996154785,2|2,3:1|0:0,0:0:0:0:
427,116,270638,1,2,0:0:0:0:
237,221,270720,2,0,L|244:135,1,62.9999980773926,8|2,0:0|0:0,0:0:0:0:
407,353,270883,2,0,L|398:273,1,62.9999980773926,2|0,0:0|0:0,0:0:0:0:
210,298,271046,6,0,L|101:291,1,62.9999980773926,2|0,3:1|3:0,0:0:0:0:
363,218,271209,2,0,L|276:215,1,62.9999980773926,10|0,3:0|0:0,0:0:0:0:
81,199,271373,2,0,L|76:117,1,62.9999980773926,10|0,0:0|0:0,0:0:0:0:
255,92,271536,2,0,L|261:27,1,62.9999980773926,2|0,3:1|0:0,0:0:0:0:
451,155,271699,6,0,L|463:75,1,62.9999980773926,2|0,3:1|0:0,0:0:0:0:
384,200,271862,2,0,L|470:200,1,62.9999980773926,2|2,0:0|0:0,0:0:0:0:
266,286,272026,1,8,0:0:0:0:
203,280,272107,1,2,0:0:0:0:
140,274,272189,1,2,0:0:0:0:
203,280,272270,1,0,0:0:0:0:
38,223,272352,6,0,L|31:123,1,62.9999980773926,2|0,3:1|0:0,0:0:0:0:
97,136,272515,1,2,0:0:0:0:
261,126,272597,2,0,L|357:119,2,62.9999980773926,2|8|2,0:0|0:0|0:0,0:0:0:0:
427,254,272842,2,0,L|504:245,1,62.9999980773926,2|0,0:0|0:0,0:0:0:0:
287,232,273005,6,0,L|429:221,1,125.999996154785,2|2,3:1|0:0,0:0:0:0:
349,187,273250,1,2,0:0:0:0:
185,148,273331,2,0,L|71:138,1,62.9999980773926,8|2,0:0|0:0,0:0:0:0:
288,287,273494,2,0,L|216:280,1,62.9999980773926,2|0,0:0|0:0,0:0:0:0:
45,274,273658,5,2,3:1:0:0:
34,214,273739,1,0,0:0:0:0:
78,173,273821,1,2,0:0:0:0:
268,137,273903,1,2,0:0:0:0:
205,133,273984,1,8,0:0:0:0:
142,129,274066,1,2,0:0:0:0:
299,209,274147,2,0,L|225:211,1,62.9999980773926,2|0,0:0|0:0,0:0:0:0:
432,318,274311,6,0,L|443:159,1,125.999996154785,2|2,3:1|0:0,0:0:0:0:
277,140,274555,1,2,0:0:0:0:
442,82,274637,2,0,L|363:80,1,62.9999980773926,8|2,0:0|0:0,0:0:0:0:
214,234,274800,2,0,L|136:237,1,62.9999980773926,2|0,0:0|0:0,0:0:0:0:
329,310,274963,6,0,L|246:308,2,62.9999980773926,2|0|2,3:1|0:0|0:0,0:0:0:0:
487,225,275208,1,2,0:0:0:0:
296,190,275290,2,0,L|211:185,1,62.9999980773926,8|2,0:0|0:0,0:0:0:0:
400,165,275453,2,0,L|307:159,1,62.9999980773926,2|0,0:0|0:0,0:0:0:0:
145,125,275616,6,0,P|105:177|142:231,1,125.999996154785,2|2,0:0|0:0,0:0:0:0:
310,253,275861,1,2,0:0:0:0:
247,254,275942,1,8,0:0:0:0:
184,255,276024,1,2,0:0:0:0:
348,350,276106,2,0,L|430:346,1,62.9999980773926,2|0,0:0|0:0,0:0:0:0:
120,296,276269,5,2,3:1:0:0:
297,284,276351,1,0,3:0:0:0:
472,273,276432,1,0,3:0:0:0:
297,284,276514,1,2,0:0:0:0:
120,296,276596,2,0,L|120:220,1,62.9999980773926,10|0,0:0|0:0,0:0:0:0:
329,184,276759,1,2,3:1:0:0:
77,104,276922,6,0,L|66:245,1,125.999996154785,6|2,3:1|0:0,0:0:0:0:
131,232,277167,1,2,0:0:0:0:
289,298,277249,2,0,L|298:202,1,62.9999980773926,8|2,0:0|0:0,0:0:0:0:
453,329,277412,2,0,L|451:232,1,62.9999980773926,2|0,0:0|0:0,0:0:0:0:
287,206,277575,6,0,L|214:202,2,62.9999980773926,2|0|2,3:1|0:0|0:0,0:0:0:0:
432,115,277820,1,2,0:0:0:0:
148,99,277901,2,0,L|71:98,1,62.9999980773926,8|2,0:0|0:0,0:0:0:0:
252,47,278065,2,0,L|256:120,1,62.9999980773926,2|0,0:0|0:0,0:0:0:0:
78,204,278228,6,0,L|237:203,1,125.999996154785,2|2,3:1|0:0,0:0:0:0:
268,206,278473,1,2,0:0:0:0:
104,356,278554,2,0,L|107:280,1,62.9999980773926,8|2,0:0|0:0,0:0:0:0:
265,257,278718,2,0,L|290:159,1,62.9999980773926,2|0,0:0|0:0,0:0:0:0:
458,151,278881,5,2,3:1:0:0:
395,148,278962,1,0,0:0:0:0:
332,146,279044,1,2,0:0:0:0:
174,328,279126,1,2,0:0:0:0:
236,325,279207,1,8,0:0:0:0:
299,322,279289,1,2,0:0:0:0:
136,232,279370,2,0,L|66:225,1,62.9999980773926,2|0,0:0|0:0,0:0:0:0:
246,173,279534,6,0,L|400:168,1,125.999996154785,2|2,3:1|0:0,0:0:0:0:
310,211,279778,1,2,0:0:0:0:
468,268,279860,2,0,L|392:270,1,62.9999980773926,8|2,0:0|0:0,0:0:0:0:
246,335,280023,2,0,L|164:341,1,62.9999980773926,2|0,0:0|0:0,0:0:0:0:
350,279,280187,5,2,3:1:0:0:
287,279,280268,1,0,0:0:0:0:
224,280,280350,1,2,0:0:0:0:
387,207,280431,2,0,L|270:202,2,62.9999980773926,2|8|2,0:0|0:0|0:0,0:0:0:0:
196,248,280676,2,0,L|187:160,1,62.9999980773926,2|0,0:0|0:0,0:0:0:0:
354,143,280839,6,0,L|513:142,1,125.999996154785,2|2,3:1|0:0,0:0:0:0:
417,175,281084,1,2,0:0:0:0:
251,244,281166,2,0,L|332:235,1,62.9999980773926,8|2,0:0|0:0,0:0:0:0:
149,333,281329,2,0,L|242:326,1,62.9999980773926,2|0,0:0|0:0,0:0:0:0:
371,327,281492,6,0,L|312:280,1,62.9999980773926,2|0,3:1|3:0,0:0:0:0:
98,225,281656,2,0,L|81:145,1,62.9999980773926,10|0,3:0|0:0,0:0:0:0:
287,146,281819,2,0,L|287:74,1,62.9999980773926,10|0,0:0|0:0,0:0:0:0:
458,339,281982,2,0,L|463:254,1,62.9999980773926,2|0,3:1|0:0,0:0:0:0:
272,266,282145,6,0,L|118:262,1,125.999996154785,2|2,3:1|0:0,0:0:0:0:
83,294,282390,1,2,0:0:0:0:
311,194,282472,1,8,0:0:0:0:
248,191,282553,1,2,0:0:0:0:
185,189,282635,1,2,0:0:0:0:
248,191,282716,1,0,0:0:0:0:
413,313,282798,5,2,3:1:0:0:
350,309,282879,1,0,0:0:0:0:
287,305,282961,1,2,0:0:0:0:
446,229,283043,2,0,L|525:227,2,62.9999980773926,2|8|2,0:0|0:0|0:0,0:0:0:0:
288,111,283288,2,0,L|206:109,1,62.9999980773926,2|0,0:0|0:0,0:0:0:0:
383,67,283451,6,0,L|533:67,1,125.999996154785,2|2,3:1|0:0,0:0:0:0:
344,194,283696,1,2,0:0:0:0:
407,194,283777,1,8,0:0:0:0:
470,194,283859,1,2,0:0:0:0:
277,287,283941,2,0,L|367:286,1,62.9999980773926,2|0,0:0|0:0,0:0:0:0:
150,165,284104,6,0,L|56:165,2,62.9999980773926,2|0|2,3:1|0:0|0:0,0:0:0:0:
308,79,284349,2,0,L|218:79,2,62.9999980773926,2|8|2,0:0|0:0|0:0,0:0:0:0:
473,73,284594,2,0,L|473:140,1,62.9999980773926,2|0,0:0|0:0,0:0:0:0:
273,251,284757,6,0,L|134:249,1,125.999996154785,2|2,3:1|0:0,0:0:0:0:
84,242,285002,1,2,0:0:0:0:
259,162,285083,2,0,L|188:158,1,62.9999980773926,8|2,0:0|0:0,0:0:0:0:
361,109,285246,2,0,L|469:102,1,62.9999980773926,2|0,0:0|0:0,0:0:0:0:
231,291,285410,5,2,3:1:0:0:
293,289,285491,1,0,0:0:0:0:
356,288,285573,1,2,0:0:0:0:
181,227,285654,1,2,0:0:0:0:
358,192,285736,2,0,L|254:183,1,62.9999980773926,8|2,0:0|0:0,0:0:0:0:
104,207,285899,2,0,L|183:202,1,62.9999980773926,2|0,0:0|0:0,0:0:0:0:
331,352,286063,6,0,L|461:351,1,125.999996154785,2|2,3:1|0:0,0:0:0:0:
393,343,286307,1,2,0:0:0:0:
229,270,286389,1,8,0:0:0:0:
166,268,286470,1,2,0:0:0:0:
356,232,286552,2,0,L|274:232,1,62.9999980773926,2|0,0:0|0:0,0:0:0:0:
103,216,286715,5,2,3:1:0:0:
102,153,286796,1,0,3:0:0:0:
267,132,286878,1,0,3:0:0:0:
77,67,286960,1,2,0:0:0:0:
13,131,287041,1,10,0:0:0:0:
76,192,287123,1,0,0:0:0:0:
267,261,287205,2,0,L|186:258,1,62.9999980773926,2|0,3:1|0:0,0:0:0:0:
394,184,287368,6,0,L|492:184,1,62.9999980773926,2|0,3:1|0:0,0:0:0:0:
381,234,287531,2,0,L|474:237,1,62.9999980773926,2|2,0:0|0:0,0:0:0:0:
251,345,287695,2,0,L|163:343,1,62.9999980773926,8|2,0:0|0:0,0:0:0:0:
264,298,287858,2,0,L|164:298,1,62.9999980773926,2|0,0:0|0:0,0:0:0:0:
360,267,288021,6,0,L|487:270,1,125.999996154785,2|2,3:1|0:0,0:0:0:0:
422,239,288266,1,2,0:0:0:0:
232,221,288348,2,0,L|230:127,1,62.9999980773926,8|2,0:0|0:0,0:0:0:0:
66,309,288511,2,0,L|63:227,1,62.9999980773926,2|0,0:0|0:0,0:0:0:0:
254,288,288674,6,0,L|263:141,1,125.999996154785,2|2,3:1|0:0,0:0:0:0:
96,91,288919,2,0,L|170:86,1,62.9999980773926,2|8,0:0|0:0,0:0:0:0:
324,132,289082,1,2,0:0:0:0:
137,222,289163,2,0,L|21:227,1,62.9999980773926,2|0,0:0|0:0,0:0:0:0:
266,266,289327,5,2,3:1:0:0:
329,263,289408,1,0,0:0:0:0:
392,260,289490,1,2,0:0:0:0:
229,177,289571,2,0,L|316:173,1,62.9999980773926,2|8,0:0|0:0,0:0:0:0:
459,324,289735,1,2,0:0:0:0:
270,321,289816,2,0,L|163:322,1,62.9999980773926,2|0,0:0|0:0,0:0:0:0:
431,226,289980,6,0,L|439:72,1,125.999996154785,2|2,3:1|0:0,0:0:0:0:
375,93,290224,1,2,0:0:0:0:
210,110,290306,2,0,L|204:25,1,62.9999980773926,8|2,0:0|0:0,0:0:0:0:
33,134,290469,2,0,L|25:53,1,62.9999980773926,2|0,0:0|0:0,0:0:0:0:
204,218,290632,6,0,L|294:217,2,62.9999980773926,2|0|2,3:1|0:0|0:0,0:0:0:0:
40,305,290877,1,2,0:0:0:0:
103,307,290958,1,8,0:0:0:0:
166,310,291040,1,2,0:0:0:0:
343,256,291122,2,0,L|345:170,1,62.9999980773926,2|0,0:0|0:0,0:0:0:0:
136,134,291285,6,0,L|7:120,1,125.999996154785,2|2,3:1|0:0,0:0:0:0:
74,89,291530,1,2,0:0:0:0:
264,194,291612,2,0,L|257:108,1,62.9999980773926,8|2,0:0|0:0,0:0:0:0:
94,326,291775,2,0,L|103:246,1,62.9999980773926,2|0,0:0|0:0,0:0:0:0:
278,270,291938,6,0,L|387:263,1,62.9999980773926,2|0,3:1|3:0,0:0:0:0:
132,198,292101,2,0,L|219:195,1,62.9999980773926,10|0,3:0|0:0,0:0:0:0:
420,172,292265,2,0,L|425:90,1,62.9999980773926,10|0,0:0|0:0,0:0:0:0:
246,65,292428,2,0,L|240:0,1,62.9999980773926,2|0,3:1|0:0,0:0:0:0:
50,128,292591,6,0,L|38:48,1,62.9999980773926,2|0,3:1|0:0,0:0:0:0:
117,173,292754,2,0,L|31:173,1,62.9999980773926,2|2,0:0|0:0,0:0:0:0:
235,259,292918,1,8,0:0:0:0:
298,253,292999,1,2,0:0:0:0:
361,247,293081,1,2,0:0:0:0:
298,253,293162,1,0,0:0:0:0:
463,196,293244,6,0,L|470:96,1,62.9999980773926,2|0,3:1|0:0,0:0:0:0:
404,109,293407,1,2,0:0:0:0:
240,99,293489,2,0,L|144:92,2,62.9999980773926,2|8|2,0:0|0:0|0:0,0:0:0:0:
74,227,293734,2,0,L|-3:218,1,62.9999980773926,2|0,0:0|0:0,0:0:0:0:
214,205,293897,6,0,L|72:194,1,125.999996154785,2|2,3:1|0:0,0:0:0:0:
152,160,294142,1,2,0:0:0:0:
316,121,294223,2,0,L|430:111,1,62.9999980773926,8|2,0:0|0:0,0:0:0:0:
213,260,294386,2,0,L|285:253,1,62.9999980773926,2|0,0:0|0:0,0:0:0:0:
468,287,294550,5,2,3:1:0:0:
477,226,294631,1,0,0:0:0:0:
436,182,294713,1,2,0:0:0:0:
259,169,294795,1,2,0:0:0:0:
321,164,294876,1,8,0:0:0:0:
384,159,294958,1,2,0:0:0:0:
207,250,295040,2,0,L|312:241,1,62.9999980773926,2|0,0:0|0:0,0:0:0:0:
69,291,295203,6,0,L|58:132,1,125.999996154785,2|2,3:1|0:0,0:0:0:0:
224,113,295447,1,2,0:0:0:0:
59,55,295529,2,0,L|138:53,1,62.9999980773926,8|2,0:0|0:0,0:0:0:0:
287,207,295692,2,0,L|365:210,1,62.9999980773926,2|0,0:0|0:0,0:0:0:0:
172,283,295855,6,0,L|255:281,2,62.9999980773926,2|0|2,3:1|0:0|0:0,0:0:0:0:
16,198,296100,1,2,0:0:0:0:
205,163,296182,2,0,L|290:158,1,62.9999980773926,8|2,0:0|0:0,0:0:0:0:
101,138,296345,2,0,L|194:132,1,62.9999980773926,2|0,0:0|0:0,0:0:0:0:
355,100,296508,6,0,L|451:100,2,62.9999980773926,2|0|2,3:1|0:0|0:0,0:0:0:0:
191,226,296753,1,2,0:0:0:0:
254,227,296834,1,8,0:0:0:0:
317,228,296916,1,2,0:0:0:0:
153,323,296998,2,0,L|71:319,1,62.9999980773926,2|0,0:0|0:0,0:0:0:0:
381,269,297161,5,2,3:1:0:0:
204,257,297243,1,0,3:0:0:0:
29,246,297324,1,0,3:0:0:0:
204,257,297406,1,2,0:0:0:0:
381,269,297488,2,0,L|381:193,1,62.9999980773926,10|0,0:0|0:0,0:0:0:0:
172,157,297651,1,2,3:1:0:0:
448,100,297814,6,0,L|459:241,1,125.999996154785,2|2,3:1|0:0,0:0:0:0:
394,228,298059,1,2,0:0:0:0:
236,294,298141,2,0,L|227:198,1,62.9999980773926,8|2,0:0|0:0,0:0:0:0:
72,325,298304,2,0,L|74:228,1,62.9999980773926,2|0,0:0|0:0,0:0:0:0:
263,211,298467,6,0,L|351:209,2,62.9999980773926,2|0|2,3:1|0:0|0:0,0:0:0:0:
118,98,298712,1,2,0:0:0:0:
377,95,298793,2,0,L|454:94,1,62.9999980773926,8|2,0:0|0:0,0:0:0:0:
273,43,298957,2,0,L|269:116,1,62.9999980773926,2|0,0:0|0:0,0:0:0:0:
447,200,299120,6,0,L|288:199,1,125.999996154785,2|2,3:1|0:0,0:0:0:0:
257,202,299365,1,2,0:0:0:0:
421,352,299446,2,0,L|418:276,1,62.9999980773926,8|2,0:0|0:0,0:0:0:0:
260,253,299610,2,0,L|235:155,1,62.9999980773926,2|0,0:0|0:0,0:0:0:0:
67,147,299773,5,2,3:1:0:0:
130,144,299854,1,0,0:0:0:0:
193,142,299936,1,2,0:0:0:0:
351,324,300018,1,2,0:0:0:0:
289,321,300099,1,8,0:0:0:0:
226,318,300181,1,2,0:0:0:0:
389,228,300262,2,0,L|459:221,1,62.9999980773926,2|0,0:0|0:0,0:0:0:0:
279,169,300426,6,0,L|125:164,1,125.999996154785,2|2,3:1|0:0,0:0:0:0:
215,207,300670,1,2,0:0:0:0:
57,264,300752,2,0,L|133:266,1,62.9999980773926,8|2,0:0|0:0,0:0:0:0:
279,331,300915,2,0,L|361:337,1,62.9999980773926,2|0,0:0|0:0,0:0:0:0:
175,275,301079,5,2,3:1:0:0:
238,275,301160,1,0,0:0:0:0:
301,276,301242,1,2,0:0:0:0:
138,203,301323,2,0,L|65:201,2,62.9999980773926,2|8|2,0:0|0:0|0:0,0:0:0:0:
329,244,301568,2,0,L|338:156,1,62.9999980773926,2|0,0:0|0:0,0:0:0:0:
171,139,301731,6,0,L|12:138,1,125.999996154785,2|2,3:1|0:0,0:0:0:0:
108,171,301976,1,2,0:0:0:0:
274,240,302058,2,0,L|193:231,1,62.9999980773926,8|2,0:0|0:0,0:0:0:0:
376,329,302221,2,0,L|283:322,1,62.9999980773926,2|0,0:0|0:0,0:0:0:0:
154,323,302384,6,0,L|213:276,1,62.9999980773926,2|0,3:1|3:0,0:0:0:0:
410,206,302548,2,0,L|439:103,1,62.9999980773926,10|0,3:0|0:0,0:0:0:0:
225,142,302711,2,0,L|225:70,1,62.9999980773926,10|0,0:0|0:0,0:0:0:0:
67,335,302874,2,0,L|62:250,1,62.9999980773926,2|0,3:1|0:0,0:0:0:0:
253,262,303037,6,0,L|407:258,1,125.999996154785,2|2,3:1|0:0,0:0:0:0:
442,290,303282,1,2,0:0:0:0:
214,190,303364,1,8,0:0:0:0:
277,187,303445,1,2,0:0:0:0:
340,185,303527,1,2,0:0:0:0:
277,187,303608,1,0,0:0:0:0:
112,309,303690,5,2,3:1:0:0:
175,305,303771,1,0,0:0:0:0:
238,301,303853,1,2,0:0:0:0:
79,225,303935,2,0,L|0:223,2,62.9999980773926,2|8|2,0:0|0:0|0:0,0:0:0:0:
237,107,304180,2,0,L|319:105,1,62.9999980773926,2|0,0:0|0:0,0:0:0:0:
142,63,304343,6,0,L|-8:63,1,125.999996154785,2|2,3:1|0:0,0:0:0:0:
181,190,304588,1,2,0:0:0:0:
118,190,304669,1,8,0:0:0:0:
55,190,304751,1,2,0:0:0:0:
248,283,304833,2,0,L|158:282,1,62.9999980773926,2|0,0:0|0:0,0:0:0:0:
375,212,304996,6,0,L|456:212,2,62.9999980773926,2|0|2,3:1|0:0|0:0,0:0:0:0:
217,127,305241,2,0,L|337:128,2,62.9999980773926,2|8|2,0:0|0:0|0:0,0:0:0:0:
59,345,305486,2,0,L|59:246,1,62.9999980773926,2|0,0:0|0:0,0:0:0:0:
252,247,305649,6,0,L|391:245,1,125.999996154785,2|2,3:1|0:0,0:0:0:0:
441,238,305894,1,2,0:0:0:0:
266,158,305975,2,0,L|337:154,1,62.9999980773926,8|2,0:0|0:0,0:0:0:0:
164,105,306138,2,0,L|56:98,1,62.9999980773926,2|0,0:0|0:0,0:0:0:0:
294,287,306302,5,2,3:1:0:0:
232,285,306383,1,0,0:0:0:0:
169,284,306465,1,2,0:0:0:0:
344,223,306546,1,2,0:0:0:0:
167,188,306628,2,0,L|271:179,1,62.9999980773926,8|2,0:0|0:0,0:0:0:0:
421,203,306792,2,0,L|337:207,1,62.9999980773926,2|0,0:0|0:0,0:0:0:0:
194,348,306955,6,0,L|64:347,1,125.999996154785,2|2,3:1|0:0,0:0:0:0:
132,339,307199,1,2,0:0:0:0:
296,266,307281,1,8,0:0:0:0:
359,264,307362,1,2,0:0:0:0:
169,228,307444,2,0,L|169:153,1,62.9999980773926,2|0,0:0|0:0,0:0:0:0:
395,216,307608,6,0,L|475:216,1,62.9999980773926,2|0,3:1|3:0,0:0:0:0:
239,134,307770,1,0,3:0:0:0:
409,62,307852,2,0,L|486:61,1,62.9999980773926,2|8,0:0|0:0,0:0:0:0:
251,185,308015,1,0,0:0:0:0:
441,301,308097,2,0,L|360:298,1,62.9999980773926,2|0,3:1|0:0,0:0:0:0:
121,337,308261,5,6,3:1:0:0:
66,312,308342,1,0,0:0:0:0:
65,252,308424,1,2,0:2:0:0:
118,225,308505,1,2,0:0:0:0:
308,188,308587,2,0,L|374:183,1,62.9999980773926,8|0,0:0|0:0,0:0:0:0:
308,188,308750,2,0,L|211:187,1,62.9999980773926,2|0,0:2|0:0,0:0:0:0:
435,283,308913,6,0,L|511:283,2,62.9999980773926,2|0|2,3:1|0:0|0:2,0:0:0:0:
246,292,309158,2,0,L|330:287,1,62.9999980773926,2|8,0:0|0:0,0:0:0:0:
474,191,309321,1,0,0:0:0:0:
309,145,309403,2,0,L|187:139,1,62.9999980773926,2|0,0:2|0:0,0:0:0:0:
437,69,309566,5,2,3:1:0:0:
374,65,309647,1,0,0:0:0:0:
311,61,309729,1,2,0:2:0:0:
475,243,309811,1,2,0:0:0:0:
253,325,309893,1,8,0:0:0:0:
315,326,309974,1,0,0:0:0:0:
378,327,310056,1,2,0:2:0:0:
315,326,310138,1,0,0:0:0:0:
128,243,310219,6,0,L|48:237,2,62.9999980773926,2|0|2,3:1|0:0|0:2,0:0:0:0:
318,215,310464,1,2,0:0:0:0:
380,213,310545,1,8,0:0:0:0:
443,212,310627,1,0,0:0:0:0:
253,121,310709,2,0,L|169:116,1,62.9999980773926,2|0,0:2|0:0,0:0:0:0:
391,337,310872,5,2,3:1:0:0:
446,312,310953,1,0,0:0:0:0:
447,252,311035,1,2,0:2:0:0:
394,225,311116,1,2,0:0:0:0:
201,200,311199,2,0,L|109:204,1,62.9999980773926,8|0,0:0|0:0,0:0:0:0:
316,304,311362,2,0,L|231:304,1,62.9999980773926,2|0,0:2|0:0,0:0:0:0:
90,232,311525,6,0,L|11:236,2,62.9999980773926,2|0|2,3:1|0:0|0:2,0:0:0:0:
242,233,311770,1,2,0:0:0:0:
393,133,311851,2,0,L|495:136,1,62.9999980773926,8|0,0:0|0:0,0:0:0:0:
225,98,312015,2,0,L|114:93,1,62.9999980773926,2|0,0:2|0:0,0:0:0:0:
340,67,312178,5,2,3:1:0:0:
277,64,312259,1,0,0:0:0:0:
214,62,312341,1,2,0:2:0:0:
379,180,312423,1,2,0:0:0:0:
191,302,312504,2,0,L|168:216,1,62.9999980773926,8|0,0:0|0:0,0:0:0:0:
341,211,312668,2,0,L|354:136,1,62.9999980773926,2|0,0:2|0:0,0:0:0:0:
96,149,312831,6,0,L|82:75,1,62.9999980773926,2|0,3:1|3:0,0:0:0:0:
249,52,312994,2,0,L|262:-9,1,62.9999980773926,2|0,3:1|0:0,0:0:0:0:
452,153,313157,2,0,L|448:83,1,62.9999980773926,10|0,0:0|0:0,0:0:0:0:
284,303,313320,2,0,L|279:233,1,62.9999980773926,2|0,3:2|0:0,0:0:0:0:
472,252,313484,5,2,3:1:0:0:
409,249,313565,1,0,0:0:0:0:
346,246,313647,1,2,0:2:0:0:
183,302,313728,1,2,0:0:0:0:
348,187,313810,2,0,L|236:187,1,62.9999980773926,8|0,0:0|0:0,0:0:0:0:
450,109,313973,2,0,L|343:108,1,62.9999980773926,2|0,0:2|0:0,0:0:0:0:
224,182,314136,6,0,L|129:180,2,62.9999980773926,2|0|2,3:1|0:0|0:2,0:0:0:0:
389,330,314381,1,2,0:0:0:0:
200,329,314463,2,0,L|174:232,1,62.9999980773926,8|0,0:0|0:0,0:0:0:0:
349,243,314626,2,0,L|250:242,1,62.9999980773926,2|0,0:2|0:0,0:0:0:0:
64,267,314789,5,2,3:1:0:0:
42,209,314870,1,0,0:0:0:0:
63,151,314952,1,2,0:2:0:0:
118,122,315033,1,2,0:0:0:0:
297,128,315116,2,0,L|209:124,1,62.9999980773926,8|0,0:0|0:0,0:0:0:0:
411,227,315279,2,0,L|336:223,1,62.9999980773926,2|0,0:2|0:0,0:0:0:0:
158,331,315442,5,2,3:1:0:0:
220,330,315523,1,0,0:0:0:0:
283,330,315605,1,2,0:2:0:0:
119,235,315687,1,2,0:0:0:0:
309,186,315769,1,8,0:0:0:0:
246,187,315850,1,0,0:0:0:0:
88,109,315932,1,2,0:2:0:0:
25,110,316013,1,0,0:0:0:0:
291,92,316095,5,2,3:1:0:0:
310,150,316176,1,0,0:0:0:0:
288,207,316258,1,2,0:2:0:0:
233,236,316339,1,2,0:0:0:0:
67,339,316422,2,0,L|190:347,1,62.9999980773926,8|0,0:0|0:0,0:0:0:0:
294,302,316585,2,0,L|370:300,1,62.9999980773926,2|0,0:2|0:0,0:0:0:0:
191,264,316748,6,0,L|120:260,1,62.9999980773926,2|0,3:1|0:0,0:0:0:0:
293,205,316911,1,2,0:2:0:0:
458,198,316993,1,2,0:0:0:0:
293,205,317074,2,0,L|388:198,1,62.9999980773926,8|0,0:0|0:0,0:0:0:0:
189,138,317238,2,0,L|105:124,1,62.9999980773926,2|0,0:2|0:0,0:0:0:0:
336,83,317401,5,0,3:1:0:0:
398,79,317482,1,0,0:0:0:0:
461,75,317564,1,2,0:2:0:0:
233,192,317646,2,0,L|352:190,2,62.9999980773926,2|8|0,0:0|0:0|0:0,0:0:0:0:
37,328,317891,2,0,L|29:220,1,62.9999980773926,2|0,0:2|0:0,0:0:0:0:
261,275,318054,6,0,L|359:265,1,62.9999980773926,2|0,3:1|3:0,0:0:0:0:
133,222,318217,1,0,3:0:0:0:
306,202,318299,1,2,0:0:0:0:
476,210,318380,2,0,L|481:116,1,62.9999980773926,10|0,0:0|0:0,0:0:0:0:
289,181,318543,2,0,L|291:114,1,62.9999980773926,2|0,3:2|0:0,0:0:0:0:
483,345,318707,5,6,3:1:0:0:
482,282,318788,1,0,0:0:0:0:
456,225,318870,1,2,0:2:0:0:
408,185,318951,1,2,0:0:0:0:
200,198,319033,2,0,L|134:193,1,62.9999980773926,8|0,0:0|0:0,0:0:0:0:
200,198,319196,2,0,L|297:197,1,62.9999980773926,2|0,0:2|0:0,0:0:0:0:
73,293,319359,6,0,L|-3:293,2,62.9999980773926,2|0|2,3:1|0:0|0:2,0:0:0:0:
262,302,319604,2,0,L|178:297,1,62.9999980773926,2|8,0:0|0:0,0:0:0:0:
34,201,319767,1,0,0:0:0:0:
199,155,319849,2,0,L|321:149,1,62.9999980773926,2|0,0:2|0:0,0:0:0:0:
71,79,320012,5,2,3:1:0:0:
134,75,320093,1,0,0:0:0:0:
197,71,320175,1,2,0:2:0:0:
33,253,320257,1,2,0:0:0:0:
255,335,320339,1,8,0:0:0:0:
193,336,320420,1,0,0:0:0:0:
130,337,320502,1,2,0:2:0:0:
193,336,320584,1,0,0:0:0:0:
380,253,320665,6,0,L|460:247,2,62.9999980773926,2|0|2,3:1|0:0|0:2,0:0:0:0:
190,225,320910,1,2,0:0:0:0:
128,223,320991,1,8,0:0:0:0:
65,222,321073,1,0,0:0:0:0:
255,131,321155,2,0,L|339:126,1,62.9999980773926,2|0,0:2|0:0,0:0:0:0:
117,347,321318,5,2,3:1:0:0:
62,322,321399,1,0,0:0:0:0:
61,262,321481,1,2,0:2:0:0:
114,235,321562,1,2,0:0:0:0:
307,210,321645,2,0,L|399:214,1,62.9999980773926,8|0,0:0|0:0,0:0:0:0:
192,314,321808,2,0,L|277:314,1,62.9999980773926,2|0,0:2|0:0,0:0:0:0:
419,274,321971,6,0,L|499:273,2,62.9999980773926,2|0|2,3:1|0:0|0:2,0:0:0:0:
273,225,322216,1,2,0:0:0:0:
121,169,322298,2,0,L|19:172,1,62.9999980773926,8|0,0:0|0:0,0:0:0:0:
283,108,322461,2,0,L|394:103,1,62.9999980773926,2|0,0:2|0:0,0:0:0:0:
168,77,322624,5,2,3:1:0:0:
231,74,322705,1,0,0:0:0:0:
294,72,322787,1,2,0:2:0:0:
129,190,322869,1,2,0:0:0:0:
317,312,322950,2,0,L|340:226,1,62.9999980773926,8|0,0:0|0:0,0:0:0:0:
167,221,323114,2,0,L|154:146,1,62.9999980773926,2|0,0:2|0:0,0:0:0:0:
412,159,323277,6,0,L|426:85,1,62.9999980773926,2|0,3:1|3:0,0:0:0:0:
259,62,323440,2,0,L|246:1,1,62.9999980773926,2|0,3:1|0:0,0:0:0:0:
56,163,323603,2,0,L|60:93,1,62.9999980773926,10|0,0:0|0:0,0:0:0:0:
224,313,323766,2,0,L|229:243,1,62.9999980773926,2|0,3:2|0:0,0:0:0:0:
36,262,323930,5,2,3:1:0:0:
99,259,324011,1,0,0:0:0:0:
162,256,324093,1,2,0:2:0:0:
325,312,324174,1,2,0:0:0:0:
160,193,324256,2,0,L|266:193,1,62.9999980773926,8|0,0:0|0:0,0:0:0:0:
58,98,324419,2,0,L|161:95,1,62.9999980773926,2|0,0:2|0:0,0:0:0:0:
284,192,324582,6,0,L|379:190,2,62.9999980773926,2|0|2,3:1|0:0|0:2,0:0:0:0:
119,340,324827,1,2,0:0:0:0:
308,339,324909,2,0,L|334:242,1,62.9999980773926,8|0,0:0|0:0,0:0:0:0:
159,253,325072,2,0,L|258:252,1,62.9999980773926,2|0,0:2|0:0,0:0:0:0:
444,277,325235,5,2,3:1:0:0:
466,219,325316,1,0,0:0:0:0:
445,161,325398,1,2,0:2:0:0:
390,132,325479,1,2,0:0:0:0:
211,138,325562,2,0,L|299:134,1,62.9999980773926,8|0,0:0|0:0,0:0:0:0:
97,237,325725,2,0,L|172:233,1,62.9999980773926,2|0,0:2|0:0,0:0:0:0:
350,341,325888,5,2,3:1:0:0:
288,340,325969,1,0,0:0:0:0:
225,340,326051,1,2,0:2:0:0:
389,245,326133,1,2,0:0:0:0:
199,196,326215,1,8,0:0:0:0:
262,197,326296,1,0,0:0:0:0:
420,119,326378,1,2,0:2:0:0:
483,120,326459,1,0,0:0:0:0:
217,102,326541,5,2,3:1:0:0:
198,160,326622,1,0,0:0:0:0:
220,217,326704,1,2,0:2:0:0:
275,246,326785,1,2,0:0:0:0:
441,349,326868,2,0,L|318:357,1,62.9999980773926,8|0,0:0|0:0,0:0:0:0:
214,312,327031,2,0,L|138:310,1,62.9999980773926,2|0,0:2|0:0,0:0:0:0:
317,274,327194,6,0,L|388:270,1,62.9999980773926,2|0,3:1|0:0,0:0:0:0:
215,215,327357,1,2,0:2:0:0:
50,208,327439,1,2,0:0:0:0:
215,215,327520,2,0,L|120:208,1,62.9999980773926,8|0,0:0|0:0,0:0:0:0:
319,148,327684,2,0,L|403:134,1,62.9999980773926,2|0,0:2|0:0,0:0:0:0:
172,93,327847,5,0,3:1:0:0:
110,89,327928,1,0,0:0:0:0:
47,85,328010,1,2,0:2:0:0:
275,202,328092,2,0,L|156:200,2,62.9999980773926,0|8|0,0:0|0:0|0:0,0:0:0:0:
471,338,328337,2,0,L|479:230,1,62.9999980773926,2|0,0:2|0:0,0:0:0:0:
286,243,328500,6,0,L|393:248,1,62.9999980773926,2|0,3:1|3:0,0:0:0:0:
159,314,328663,2,0,L|225:317,1,62.9999980773926,0|2,3:0|0:0,0:0:0:0:
32,220,328826,2,0,L|27:126,1,62.9999980773926,10|0,0:0|0:0,0:0:0:0:
219,121,328989,2,0,L|217:54,1,62.9999980773926,2|0,3:2|0:0,0:0:0:0:
25,322,329153,6,0,L|90:308,1,62.9999980773926,6|0,3:1|0:0,0:0:0:0:
264,285,329316,2,0,L|351:283,1,62.9999980773926,2|2,0:2|0:0,0:0:0:0:
492,215,329479,2,0,L|417:205,1,62.9999980773926,8|0,0:0|0:0,0:0:0:0:
265,208,329642,2,0,L|374:202,1,62.9999980773926,2|0,0:2|0:0,0:0:0:0:
161,140,329806,5,2,3:1:0:0:
98,140,329887,1,0,0:0:0:0:
35,141,329969,1,2,0:2:0:0:
200,78,330051,1,2,0:0:0:0:
37,279,330132,1,8,0:0:0:0:
99,277,330213,1,0,0:0:0:0:
264,232,330295,1,2,0:2:0:0:
200,233,330377,1,0,0:0:0:0:
416,176,330459,6,0,L|486:171,1,62.9999980773926,2|0,3:1|0:0,0:0:0:0:
287,199,330622,1,2,0:2:0:0:
462,319,330703,2,0,L|373:317,2,62.9999980773926,2|8|0,0:0|0:0|0:0,0:0:0:0:
285,130,330948,2,0,L|204:127,1,62.9999980773926,2|0,0:2|0:0,0:0:0:0:
387,253,331111,5,2,3:1:0:0:
324,251,331192,1,0,0:0:0:0:
261,250,331274,1,2,0:2:0:0:
425,328,331356,1,2,0:0:0:0:
248,348,331438,2,0,L|361:353,1,62.9999980773926,8|0,0:0|0:0,0:0:0:0:
146,239,331601,2,0,L|55:236,1,62.9999980773926,2|0,0:2|0:0,0:0:0:0:
314,158,331764,5,2,3:1:0:0:
251,156,331845,1,0,0:0:0:0:
188,154,331927,1,2,0:2:0:0:
26,292,332008,1,2,0:0:0:0:
206,273,332091,2,0,L|327:274,1,62.9999980773926,8|0,0:0|0:0,0:0:0:0:
104,348,332254,2,0,L|194:348,1,62.9999980773926,2|0,0:2|0:0,0:0:0:0:
356,321,332417,6,0,L|446:321,2,62.9999980773926,2|0|2,3:1|0:0|0:2,0:0:0:0:
204,255,332662,1,2,0:0:0:0:
461,218,332744,2,0,L|459:154,1,62.9999980773926,8|0,0:0|0:0,0:0:0:0:
269,135,332907,2,0,L|357:136,1,62.9999980773926,2|0,0:2|0:0,0:0:0:0:
142,239,333070,6,0,L|35:246,2,62.9999980773926,2|0|2,3:1|0:0|0:2,0:0:0:0:
306,277,333315,1,2,0:0:0:0:
141,350,333397,2,0,L|249:348,1,62.9999980773926,8|0,0:0|0:0,0:0:0:0:
45,281,333560,2,0,L|41:203,1,62.9999980773926,2|0,0:2|0:0,0:0:0:0:
200,163,333723,6,0,L|101:164,1,62.9999980773926,2|0,3:1|3:0,0:0:0:0:
295,86,333886,2,0,L|189:84,1,62.9999980773926,2|0,3:1|0:0,0:0:0:0:
391,227,334049,2,0,L|284:225,1,62.9999980773926,10|0,0:0|0:0,0:0:0:0:
489,307,334213,2,0,L|411:305,1,62.9999980773926,2|0,3:2|0:0,0:0:0:0:
236,320,334376,5,2,3:1:0:0:
198,272,334457,1,0,0:0:0:0:
216,215,334539,1,2,0:2:0:0:
274,197,334620,1,2,0:0:0:0:
439,164,334702,2,0,L|509:161,1,62.9999980773926,8|0,0:0|0:0,0:0:0:0:
439,164,334866,2,0,L|334:155,1,62.9999980773926,2|0,0:2|0:0,0:0:0:0:
199,98,335029,6,0,L|306:93,2,62.9999980773926,2|0|2,3:1|0:0|0:2,0:0:0:0:
47,255,335274,1,2,0:0:0:0:
257,237,335355,2,0,L|353:231,1,62.9999980773926,8|0,0:0|0:0,0:0:0:0:
155,171,335518,2,0,L|271:159,1,62.9999980773926,2|0,0:2|0:0,0:0:0:0:
449,172,335682,5,2,3:1:0:0:
467,229,335763,1,0,0:0:0:0:
430,277,335845,1,2,0:2:0:0:
267,316,335926,1,2,0:0:0:0:
77,263,336008,2,0,L|172:268,1,62.9999980773926,8|0,0:0|0:0,0:0:0:0:
330,174,336171,2,0,L|431:184,1,62.9999980773926,2|0,0:2|0:0,0:0:0:0:
221,111,336335,5,2,3:1:0:0:
284,111,336416,1,0,0:0:0:0:
347,111,336498,1,2,0:2:0:0:
193,220,336579,1,2,0:0:0:0:
41,339,336661,2,0,L|24:229,1,62.9999980773926,8|0,0:0|0:0,0:0:0:0:
197,228,336824,2,0,L|206:136,1,62.9999980773926,2|0,0:2|0:0,0:0:0:0:
436,160,336987,5,2,3:1:0:0:
463,215,337068,1,0,0:0:0:0:
446,274,337150,1,2,0:2:0:0:
271,322,337231,1,2,0:0:0:0:
439,346,337314,2,0,L|452:270,1,62.9999980773926,8|0,0:0|0:0,0:0:0:0:
272,197,337477,2,0,L|256:93,1,62.9999980773926,2|0,0:2|0:0,0:0:0:0:
440,75,337640,6,0,L|339:74,1,62.9999980773926,2|0,3:1|0:0,0:0:0:0:
217,100,337804,1,2,0:2:0:0:
61,157,337885,1,2,0:0:0:0:
251,258,337967,2,0,L|248:150,1,62.9999980773926,8|0,0:0|0:0,0:0:0:0:
59,208,338130,1,2,0:2:0:0:
224,184,338212,1,0,0:0:0:0:
386,176,338293,6,0,L|461:177,2,62.9999980773926,0|0|2,3:1|0:0|0:2,0:0:0:0:
196,301,338538,1,2,0:0:0:0:
258,301,338619,1,8,0:0:0:0:
321,302,338701,1,0,0:0:0:0:
132,217,338783,2,0,L|43:217,1,62.9999980773926,2|0,0:2|0:0,0:0:0:0:
260,133,338946,6,0,L|161:132,1,62.9999980773926,2|0,3:1|3:0,0:0:0:0:
388,77,339109,2,0,L|300:78,1,62.9999980773926,0|2,3:0|0:0,0:0:0:0:
133,226,339273,2,0,L|218:223,1,62.9999980773926,10|0,0:0|0:0,0:0:0:0:
32,139,339436,2,0,L|114:140,1,62.9999980773926,2|0,3:2|0:0,0:0:0:0:
487,322,339599,6,0,L|422:308,1,62.9999980773926,6|0,3:1|0:0,0:0:0:0:
248,285,339762,2,0,L|161:283,1,62.9999980773926,2|2,0:2|0:0,0:0:0:0:
20,215,339925,2,0,L|95:205,1,62.9999980773926,8|0,0:0|0:0,0:0:0:0:
247,208,340088,2,0,L|138:202,1,62.9999980773926,2|0,0:2|0:0,0:0:0:0:
351,140,340252,5,2,3:1:0:0:
414,140,340333,1,0,0:0:0:0:
477,141,340415,1,2,0:2:0:0:
312,78,340497,1,2,0:0:0:0:
126,303,340578,2,0,L|124:218,1,62.9999980773926,8|0,0:0|0:0,0:0:0:0:
317,203,340742,2,0,L|322:108,1,62.9999980773926,2|0,0:2|0:0,0:0:0:0:
96,176,340905,6,0,L|26:171,1,62.9999980773926,2|0,3:1|0:0,0:0:0:0:
225,199,341068,1,2,0:2:0:0:
50,319,341149,2,0,L|139:317,2,62.9999980773926,2|8|0,0:0|0:0|0:0,0:0:0:0:
227,130,341394,2,0,L|308:127,1,62.9999980773926,2|0,0:2|0:0,0:0:0:0:
125,253,341557,5,2,3:1:0:0:
188,251,341638,1,0,0:0:0:0:
251,250,341720,1,2,0:2:0:0:
87,328,341802,1,2,0:0:0:0:
264,348,341884,2,0,L|151:353,1,62.9999980773926,8|0,0:0|0:0,0:0:0:0:
366,239,342047,2,0,L|457:236,1,62.9999980773926,2|0,0:2|0:0,0:0:0:0:
198,158,342210,5,2,3:1:0:0:
261,156,342291,1,0,0:0:0:0:
324,154,342373,1,2,0:2:0:0:
486,292,342454,1,2,0:0:0:0:
306,273,342537,2,0,L|185:274,1,62.9999980773926,8|0,0:0|0:0,0:0:0:0:
408,348,342700,2,0,L|318:348,1,62.9999980773926,2|0,0:2|0:0,0:0:0:0:
124,344,342863,6,0,L|19:345,2,62.9999980773926,2|0|2,3:1|0:0|0:2,0:0:0:0:
270,235,343108,1,2,0:0:0:0:
51,218,343190,2,0,L|53:154,1,62.9999980773926,8|0,0:0|0:0,0:0:0:0:
243,135,343353,2,0,L|155:136,1,62.9999980773926,2|0,0:2|0:0,0:0:0:0:
370,239,343516,6,0,L|477:246,2,62.9999980773926,2|0|2,3:1|0:0|0:2,0:0:0:0:
206,277,343761,1,2,0:0:0:0:
371,350,343843,2,0,L|263:348,1,62.9999980773926,8|0,0:0|0:0,0:0:0:0:
467,281,344006,2,0,L|471:203,1,62.9999980773926,2|0,0:2|0:0,0:0:0:0:
299,169,344169,6,0,L|302:99,1,62.9999980773926,2|0,3:1|3:0,0:0:0:0:
111,303,344332,2,0,L|86:213,1,62.9999980773926,2|0,3:1|0:0,0:0:0:0:
261,336,344496,2,0,L|268:253,1,62.9999980773926,10|0,0:0|0:0,0:0:0:0:
445,220,344659,2,0,L|455:144,1,62.9999980773926,2|0,3:2|0:0,0:0:0:0:
263,91,344822,6,0,L|177:91,1,62.9999980773926,2|0,3:1|0:0,0:0:0:0:
263,91,344985,2,0,L|362:91,1,62.9999980773926,2|2,0:2|0:0,0:0:0:0:
161,247,345148,2,0,L|66:245,1,62.9999980773926,8|0,0:0|0:0,0:0:0:0:
271,314,345312,2,0,L|202:314,1,62.9999980773926,2|0,0:2|0:0,0:0:0:0:
31,351,345475,5,2,3:1:0:0:
26,289,345556,1,0,0:0:0:0:
66,243,345638,1,2,0:2:0:0:
231,205,345720,1,2,0:0:0:0:
394,169,345801,2,0,L|319:164,1,62.9999980773926,8|0,0:0|0:0,0:0:0:0:
165,276,345965,1,2,0:2:0:0:
323,165,346046,1,0,0:0:0:0:
487,115,346128,6,0,L|482:193,1,62.9999980773926,2|0,3:1|0:0,0:0:0:0:
318,242,346291,1,2,0:2:0:0:
482,277,346373,1,2,0:0:0:0:
419,277,346454,1,8,0:0:0:0:
255,272,346536,1,0,0:0:0:0:
92,341,346617,2,0,L|165:343,1,62.9999980773926,2|0,0:2|0:0,0:0:0:0:
348,226,346781,6,0,L|444:227,2,62.9999980773926,2|0|2,3:1|0:0|0:2,0:0:0:0:
158,170,347026,2,0,L|233:163,1,62.9999980773926,2|8,0:0|0:0,0:0:0:0:
398,154,347189,1,0,0:0:0:0:
160,334,347270,2,0,L|40:329,1,62.9999980773926,2|0,0:2|0:0,0:0:0:0:
257,283,347434,5,2,0:0:0:0:
414,279,347515,1,0,0:0:0:0:
257,283,347597,1,2,0:0:0:0:
100,283,347678,1,2,0:0:0:0:
249,162,347760,2,0,L|157:161,1,62.9999980773926,8|0,0:0|0:0,0:0:0:0:
409,218,347923,2,0,L|322:214,1,62.9999980773926,2|0,0:2|0:0,0:0:0:0:
181,317,348086,5,2,3:1:0:0:
16,342,348168,1,0,0:0:0:0:
181,317,348250,1,2,0:2:0:0:
344,304,348331,1,2,0:0:0:0:
179,222,348413,2,0,L|280:224,1,62.9999980773926,8|0,0:0|0:0,0:0:0:0:
52,134,348576,2,0,L|130:134,1,62.9999980773926,2|0,0:2|0:0,0:0:0:0:
420,213,348739,5,6,3:1:0:0:
400,168,349882,1,2,0:0:0:0:
100,276,350045,5,6,3:1:0:0:
236,253,350208,1,2,0:2:0:0:
16,189,350371,1,8,0:0:0:0:
16,189,350534,1,2,0:2:0:0:
174,168,350698,1,0,3:0:0:0:
38,266,350861,1,2,0:2:0:0:
300,276,351024,1,8,0:0:0:0:
300,276,351187,1,2,0:2:0:0:
142,321,351351,5,2,3:1:0:0:
268,344,351514,1,2,0:2:0:0:
488,335,351677,1,8,0:0:0:0:
488,335,351840,1,2,0:2:0:0:
352,278,352003,1,0,3:0:0:0:
194,263,352167,1,2,0:2:0:0:
414,202,352330,1,8,0:0:0:0:
257,167,352493,1,2,3:2:0:0:
372,110,352656,5,2,3:1:0:0:
372,110,352820,1,2,0:2:0:0:
152,293,352983,1,8,0:0:0:0:
47,285,353146,1,2,0:2:0:0:
204,206,353309,1,0,3:0:0:0:
204,206,353472,1,2,0:2:0:0:
426,258,353636,1,8,0:0:0:0:
426,258,353799,1,2,0:2:0:0:
269,307,353962,5,2,3:1:0:0:
405,338,354125,1,2,0:2:0:0:
173,245,354289,1,8,0:0:0:0:
173,245,354452,1,2,0:2:0:0:
309,218,354615,2,0,L|411:212,1,62.9999980773926,0|0,3:0|3:0,0:0:0:0:
442,270,354778,1,2,3:2:0:0:
222,333,354941,1,8,0:0:0:0:
359,345,355105,1,2,3:2:0:0:
86,287,355268,5,6,3:1:0:0:
86,287,355431,1,2,0:2:0:0:
306,217,355594,1,8,0:0:0:0:
200,211,355758,1,2,0:2:0:0:
336,252,355921,1,0,3:0:0:0:
346,356,356084,1,2,0:2:0:0:
104,245,356247,1,8,0:0:0:0:
209,181,356410,1,2,0:2:0:0:
104,245,356574,5,2,3:1:0:0:
83,353,356737,1,2,0:2:0:0:
324,341,356900,1,8,0:0:0:0:
188,278,357063,1,2,0:2:0:0:
188,278,357226,1,0,3:0:0:0:
51,247,357390,1,2,0:2:0:0:
313,210,357553,1,8,0:0:0:0:
177,204,357716,1,2,3:2:0:0:
408,174,357879,5,2,3:1:0:0:
461,285,358043,1,2,0:2:0:0:
199,304,358206,1,8,0:0:0:0:
325,296,358369,1,2,0:2:0:0:
325,296,358532,1,0,3:0:0:0:
451,223,358695,1,2,0:2:0:0:
218,112,358859,1,8,0:0:0:0:
218,112,359022,1,2,0:2:0:0:
343,158,359185,5,2,3:1:0:0:
186,109,359348,1,2,0:2:0:0:
480,346,359512,1,8,0:0:0:0:
480,346,359675,1,2,0:2:0:0:
227,272,359838,6,0,L|226:195,1,62.9999980773926
387,327,360002,2,0,L|385:225,1,62.9999980773926
158,338,360164,1,8,0:0:0:0:
32,339,360328,1,0,3:0:0:0:
452,328,360491,6,0,L|453:186,1,105,6|2,3:1|0:2,0:0:0:0:
222,187,360817,2,0,L|221:52,1,105,8|2,0:0|0:2,0:0:0:0:
379,228,361144,2,0,L|246:227,1,105,0|2,3:0|0:2,0:0:0:0:
54,327,361470,2,0,L|55:174,1,105,8|2,0:0|0:2,0:0:0:0:
192,191,361797,6,0,L|69:190,1,105,2|2,3:1|0:2,0:0:0:0:
328,323,362123,2,0,L|460:323,1,105,8|2,0:0|0:2,0:0:0:0:
275,266,362450,2,0,L|275:142,1,105,0|2,3:0|0:2,0:0:0:0:
495,105,362776,2,0,L|346:104,1,105,8|2,0:0|3:2,0:0:0:0:
149,191,363102,6,0,L|30:192,1,105,2|2,3:1|0:2,0:0:0:0:
287,230,363429,2,0,L|286:358,1,105,8|2,0:0|0:2,0:0:0:0:
129,338,363755,2,0,L|246:339,1,105,0|2,3:0|0:2,0:0:0:0:
456,261,364082,2,0,L|458:127,1,105,8|2,0:0|0:2,0:0:0:0:
300,318,364408,6,0,L|451:320,1,105,2|2,3:1|0:2,0:0:0:0:
110,254,364735,2,0,L|101:138,1,105,8|2,0:0|0:2,0:0:0:0:
259,124,365061,1,0,3:0:0:0:
206,124,365142,1,0,3:0:0:0:
154,124,365224,1,2,3:2:0:0:
376,234,365388,1,8,0:0:0:0:
219,218,365551,1,2,3:2:0:0:
450,335,365714,5,6,3:1:0:0:
450,335,365878,1,2,0:2:0:0:
230,322,366041,2,0,L|94:312,1,105,8|2,0:0|0:2,0:0:0:0:
230,322,366367,1,0,3:0:0:0:
73,249,366530,1,2,0:2:0:0:
295,150,366694,2,0,L|294:302,1,105,8|2,0:0|0:2,0:0:0:0:
137,259,367020,6,0,L|293:258,1,105,2|2,3:1|0:2,0:0:0:0:
464,283,367347,2,0,L|469:134,1,105,8|2,0:0|0:2,0:0:0:0:
310,129,367673,2,0,L|307:12,1,105,0|2,3:0|0:2,0:0:0:0:
77,243,367999,2,0,L|229:234,1,105,8|2,0:0|3:2,0:0:0:0:
340,272,368326,5,2,3:1:0:0:
184,315,368489,1,2,0:2:0:0:
425,247,368652,2,0,L|431:97,1,105,8|2,0:0|0:2,0:0:0:0:
366,130,368897,1,0,0:0:0:0:
302,125,368979,1,0,3:0:0:0:
459,68,369142,1,2,0:2:0:0:
228,81,369305,2,0,L|78:77,1,105,8|2,0:0|0:2,0:0:0:0:
282,136,369632,6,0,L|273:278,1,105,2|2,3:1|0:2,0:0:0:0:
47,325,369958,2,0,L|203:313,1,105,8|2,0:0|0:2,0:0:0:0:
310,278,370284,2,0,L|312:147,1,105,0|0,3:0|3:0,0:0:0:0:
376,161,370529,1,0,3:0:0:0:
191,125,370611,1,8,0:0:0:0:
317,187,370774,2,0,L|237:185,1,52.5,0|0,3:0|0:0,0:0:0:0:
70,330,370937,6,0,P|49:267|201:398,1,735,6|0,3:1|0:0,0:0:0:0:
58,354,372243,6,0,B|52:229|108:55|259:25|259:25|289:174|289:174|184:310,1,735,2|0,3:1|0:0,0:0:0:0:
346,347,373549,6,0,P|434:302|147:133,1,735,2|0,3:1|0:0,0:0:0:0:
308,197,374855,6,0,B|491:190|491:190|385:79|210:44|101:173|230:368,1,735,2|0,3:1|0:0,0:0:0:0:
475,311,376160,6,0,B|476:73|476:73|271:71|271:71|436:127|449:268|371:283,1,735,6|0,3:1|0:0,0:0:0:0:
227,321,377466,6,0,P|114:305|343:172,1,735,2|0,3:1|0:0,0:0:0:0:
183,233,378772,6,0,B|178:102|178:102|323:74|323:74|127:73|127:73|-7:173|133:336,1,735,2|0,3:1|0:0,0:0:0:0:
263,335,380078,6,0,P|386:298|116:146,1,735,2|0,3:1|0:0,0:0:0:0:
348,181,381384,6,0,P|355:270|252:98,1,735,6|0,3:1|0:0,0:0:0:0:
385,57,382689,6,0,P|411:60|322:72,1,735,2|0,3:1|0:0,0:0:0:0:
116,133,383995,6,0,P|128:250|149:86,1,735,2|0,3:1|0:0,0:0:0:0:
307,122,385301,6,0,P|325:196|245:68,1,735,2|0,3:1|0:0,0:0:0:0:
475,55,386607,6,0,L|446:122,1,52.5,6|0,3:1|0:0,0:0:0:0:
401,122,386770,2,0,L|315:123,1,52.5
412,213,386933,2,0,L|410:276,1,52.5,8|0,0:0|0:0,0:0:0:0:
357,283,387096,2,0,L|291:287,1,52.5
241,329,387259,6,0,L|229:240,1,52.5
287,246,387423,2,0,L|300:191,1,52.5
236,170,387586,2,0,L|155:165,1,52.5,8|0,0:0|0:0,0:0:0:0:
236,170,387749,2,0,L|323:172,1,52.5
447,253,387912,6,0,L|458:192,1,52.5,10|8,3:0|0:3,0:0:0:0:
376,174,388076,2,0,L|365:108,1,52.5,8|8,0:3|0:3,0:0:0:0:
447,88,388239,2,0,L|376:82,1,52.5,8|8,0:0|0:3,0:0:0:0:
315,77,388402,2,0,L|244:78,1,52.5,8|8,0:3|0:3,0:0:0:0:
342,122,388565,6,0,L|347:182,1,52.5,8|8,0:3|0:3,0:0:0:0:
267,181,388728,2,0,L|257:263,1,52.5,8|8,0:3|0:3,0:0:0:0:
341,282,388892,2,0,L|276:287,1,52.5,8|8,0:0|0:3,0:0:0:0:
209,299,389055,2,0,L|152:299,1,52.5,8|8,0:3|0:3,0:0:0:0:
17,342,389218,6,0,L|37:262,1,52.5,10|8,3:0|0:3,0:0:0:0:
111,288,389381,2,0,L|128:236,1,52.5,8|8,0:3|0:3,0:0:0:0:
47,203,389545,2,0,L|67:145,1,52.5,8|8,0:0|0:3,0:0:0:0:
222,126,389708,2,0,L|284:104,1,52.5,8|8,0:3|0:3,0:0:0:0:
113,100,389871,6,0,L|163:79,1,52.5,8|8,0:3|0:3,0:0:0:0:
319,151,390034,2,0,L|373:147,1,52.5,8|8,0:3|0:3,0:0:0:0:
160,198,390197,1,8,0:3:0:0:
319,193,390279,1,8,0:3:0:0:
477,186,390361,1,8,0:3:0:0:
319,193,390442,1,8,0:3:0:0:
55,335,390524,5,6,3:1:0:0:
256,192,390687,12,0,392809,0:0:0:0:
