osu file format v14

[General]
AudioFilename: audio.mp3
AudioLeadIn: 0
PreviewTime: -1
Countdown: 0
SampleSet: Soft
StackLeniency: 0.7
Mode: 3
LetterboxInBreaks: 0
SpecialStyle: 0
WidescreenStoryboard: 0

[Editor]
DistanceSpacing: 0.3
BeatDivisor: 4
GridSize: 4
TimelineZoom: 2.4

[Metadata]
Title:Mmmmmmm
TitleUnicode:Mmmmmmm
Artist:DJ SHARPNEL
ArtistUnicode:DJ SHARPNEL
Creator:DarkSider2442
Version:Extra
Source:
Tags:
BeatmapID:993607
BeatmapSetID:464036

[Difficulty]
HPDrainRate:8
CircleSize:7
OverallDifficulty:8
ApproachRate:5
SliderMultiplier:1.4
SliderTickRate:1

[Events]
//Background and Video events
0,0,"mmm_28.jpg",0,0
//Break Periods
//Storyboard Layer 0 (Background)
//Storyboard Layer 1 (Fail)
//Storyboard Layer 2 (Pass)
//Storyboard Layer 3 (Foreground)
//Storyboard Sound Samples

[TimingPoints]
2488,311.04199066874,4,2,0,0,1,0

[HitObjects]
182,192,2488,128,0,2643:0:0:0:0:
329,192,2488,1,0,0:0:0:0:
475,192,2488,1,0,0:0:0:0:
402,192,2643,1,0,0:0:0:0:
109,192,2643,1,0,0:0:0:0:
256,192,2799,128,0,2954:0:0:0:0:
36,192,2799,1,0,0:0:0:0:
329,192,2799,1,0,0:0:0:0:
475,192,2954,1,0,0:0:0:0:
182,192,2954,1,0,0:0:0:0:
402,192,3032,1,0,0:0:0:0:
329,192,3110,128,0,3265:0:0:0:0:
109,192,3110,1,0,0:0:0:0:
36,192,3110,1,0,0:0:0:0:
182,192,3265,1,0,0:0:0:0:
475,192,3265,1,0,0:0:0:0:
109,192,3421,128,0,3576:0:0:0:0:
402,192,3421,1,0,0:0:0:0:
329,192,3421,1,0,0:0:0:0:
256,192,3576,128,0,3732:0:0:0:0:
475,192,3576,1,0,0:0:0:0:
36,192,3576,1,0,0:0:0:0:
402,192,3732,128,0,3887:0:0:0:0:
329,192,3732,1,0,0:0:0:0:
109,192,3732,1,0,0:0:0:0:
256,192,3887,128,0,4043:0:0:0:0:
36,192,3887,1,0,0:0:0:0:
182,192,3887,1,0,0:0:0:0:
109,192,4043,128,0,4198:0:0:0:0:
329,192,4043,1,0,0:0:0:0:
475,192,4043,1,0,0:0:0:0:
256,192,4198,128,0,4354:0:0:0:0:
402,192,4198,1,0,0:0:0:0:
36,192,4198,1,0,0:0:0:0:
109,192,4276,1,0,0:0:0:0:
182,192,4354,1,0,0:0:0:0:
329,192,4354,1,0,0:0:0:0:
475,192,4509,128,0,4665:0:0:0:0:
109,192,4509,1,0,0:0:0:0:
402,192,4509,1,0,0:0:0:0:
329,192,4665,128,0,4820:0:0:0:0:
36,192,4665,1,0,0:0:0:0:
256,192,4665,1,0,0:0:0:0:
109,192,4743,1,0,0:0:0:0:
182,192,4820,128,0,4976:0:0:0:0:
402,192,4820,1,0,0:0:0:0:
475,192,4820,1,0,0:0:0:0:
36,192,4976,128,0,5131:0:0:0:0:
256,192,4976,1,0,0:0:0:0:
329,192,4976,1,0,0:0:0:0:
402,192,5131,1,0,0:0:0:0:
182,192,5131,1,0,0:0:0:0:
256,192,5287,128,0,5442:0:0:0:0:
109,192,5287,1,0,0:0:0:0:
475,192,5287,1,0,0:0:0:0:
36,192,5442,1,0,0:0:0:0:
402,192,5442,1,0,0:0:0:0:
475,192,5598,128,0,5753:0:0:0:0:
109,192,5598,1,0,0:0:0:0:
329,192,5598,1,0,0:0:0:0:
182,192,5753,128,0,5909:0:0:0:0:
36,192,5753,1,0,0:0:0:0:
256,192,5753,1,0,0:0:0:0:
329,192,5909,128,0,6064:0:0:0:0:
109,192,5909,1,0,0:0:0:0:
402,192,5909,1,0,0:0:0:0:
182,192,6064,1,0,0:0:0:0:
475,192,6064,1,0,0:0:0:0:
109,192,6142,1,0,0:0:0:0:
329,192,6220,128,0,6376:0:0:0:0:
36,192,6220,1,0,0:0:0:0:
402,192,6220,1,0,0:0:0:0:
109,192,6298,1,0,0:0:0:0:
36,192,6376,128,0,6531:0:0:0:0:
182,192,6376,1,0,0:0:0:0:
475,192,6376,1,0,0:0:0:0:
256,192,6453,1,0,0:0:0:0:
402,192,6531,128,0,6687:0:0:0:0:
329,192,6531,1,0,0:0:0:0:
109,192,6531,1,0,0:0:0:0:
256,192,6609,1,0,0:0:0:0:
109,192,6687,128,0,6842:0:0:0:0:
182,192,6687,1,0,0:0:0:0:
475,192,6687,1,0,0:0:0:0:
256,192,6764,1,0,0:0:0:0:
36,192,6842,1,0,0:0:0:0:
329,192,6842,1,0,0:0:0:0:
402,192,6920,1,0,0:0:0:0:
109,192,6920,1,0,0:0:0:0:
256,192,6998,128,0,7153:0:0:0:0:
475,192,6998,1,0,0:0:0:0:
182,192,6998,1,0,0:0:0:0:
402,192,7075,1,0,0:0:0:0:
109,192,7075,1,0,0:0:0:0:
329,192,7153,128,0,7309:0:0:0:0:
36,192,7153,1,0,0:0:0:0:
402,192,7309,128,0,7464:0:0:0:0:
182,192,7309,1,0,0:0:0:0:
109,192,7386,1,0,0:0:0:0:
256,192,7386,1,0,0:0:0:0:
475,192,7464,128,0,7620:0:0:0:0:
329,192,7464,1,0,0:0:0:0:
36,192,7464,1,0,0:0:0:0:
182,192,7620,1,0,0:0:0:0:
402,192,7620,1,0,0:0:0:0:
256,192,7775,128,0,7931:0:0:0:0:
475,192,7775,1,0,0:0:0:0:
109,192,7775,1,0,0:0:0:0:
36,192,7931,1,0,0:0:0:0:
329,192,7931,1,0,0:0:0:0:
36,192,8086,128,0,8242:0:0:0:0:
182,192,8086,1,0,0:0:0:0:
402,192,8086,1,0,0:0:0:0:
329,192,8242,128,0,8397:0:0:0:0:
109,192,8242,1,0,0:0:0:0:
475,192,8242,1,0,0:0:0:0:
182,192,8397,128,0,8553:0:0:0:0:
36,192,8397,1,0,0:0:0:0:
402,192,8397,1,0,0:0:0:0:
256,192,8553,1,0,0:0:0:0:
475,192,8553,1,0,0:0:0:0:
329,192,8708,128,0,8864:0:0:0:0:
36,192,8708,1,0,0:0:0:0:
182,192,8708,1,0,0:0:0:0:
475,192,8864,128,0,9019:0:0:0:0:
402,192,8864,1,0,0:0:0:0:
256,192,8864,1,0,0:0:0:0:
36,192,9019,128,0,9175:0:0:0:0:
329,192,9019,1,0,0:0:0:0:
109,192,9019,1,0,0:0:0:0:
182,192,9175,128,0,9330:0:0:0:0:
475,192,9175,1,0,0:0:0:0:
256,192,9175,1,0,0:0:0:0:
402,192,9253,1,0,0:0:0:0:
329,192,9330,1,0,0:0:0:0:
109,192,9330,1,0,0:0:0:0:
402,192,9486,128,0,9641:0:0:0:0:
36,192,9486,1,0,0:0:0:0:
256,192,9486,1,0,0:0:0:0:
109,192,9641,128,0,9797:0:0:0:0:
182,192,9641,1,0,0:0:0:0:
475,192,9641,1,0,0:0:0:0:
329,192,9719,1,0,0:0:0:0:
256,192,9797,1,0,0:0:0:0:
402,192,9797,1,0,0:0:0:0:
36,192,9953,128,0,10186:0:0:0:0:
109,192,9953,128,0,10186:0:0:0:0:
329,192,9953,128,0,10186:0:0:0:0:
402,192,9953,128,0,10186:0:0:0:0:
182,192,9953,1,0,0:0:0:0:
109,192,10264,128,0,11041:0:0:0:0:
182,192,10264,128,0,11041:0:0:0:0:
402,192,10264,128,0,11041:0:0:0:0:
475,192,10264,128,0,11041:0:0:0:0:
329,192,10264,1,0,0:0:0:0:
256,192,10575,1,0,0:0:0:0:
329,192,10886,1,0,0:0:0:0:
36,192,11197,1,0,0:0:0:0:
329,192,11197,1,0,0:0:0:0:
109,192,11274,1,0,0:0:0:0:
402,192,11274,1,0,0:0:0:0:
182,192,11352,1,0,0:0:0:0:
475,192,11352,1,0,0:0:0:0:
36,192,11430,1,0,0:0:0:0:
475,192,11508,1,0,0:0:0:0:
182,192,11508,1,0,0:0:0:0:
402,192,11585,1,0,0:0:0:0:
109,192,11585,1,0,0:0:0:0:
329,192,11663,1,0,0:0:0:0:
36,192,11663,1,0,0:0:0:0:
475,192,11741,1,0,0:0:0:0:
36,192,11819,1,0,0:0:0:0:
109,192,11845,1,0,0:0:0:0:
182,192,11871,1,0,0:0:0:0:
329,192,11897,1,0,0:0:0:0:
402,192,11922,1,0,0:0:0:0:
475,192,11948,1,0,0:0:0:0:
109,192,11974,1,0,0:0:0:0:
182,192,12000,1,0,0:0:0:0:
256,192,12026,1,0,0:0:0:0:
329,192,12052,1,0,0:0:0:0:
402,192,12078,1,0,0:0:0:0:
182,192,12104,1,0,0:0:0:0:
109,192,12130,1,0,0:0:0:0:
36,192,12156,1,0,0:0:0:0:
475,192,12182,1,0,0:0:0:0:
402,192,12208,1,0,0:0:0:0:
329,192,12233,1,0,0:0:0:0:
36,192,12311,1,0,0:0:0:0:
109,192,12337,1,0,0:0:0:0:
182,192,12363,1,0,0:0:0:0:
329,192,12389,1,0,0:0:0:0:
402,192,12415,1,0,0:0:0:0:
475,192,12441,1,0,0:0:0:0:
36,192,12441,1,0,0:0:0:0:
109,192,12519,1,0,0:0:0:0:
182,192,12596,1,0,0:0:0:0:
329,192,12596,1,0,0:0:0:0:
109,192,12674,1,0,0:0:0:0:
36,192,12752,1,0,0:0:0:0:
256,192,12752,1,0,0:0:0:0:
475,192,12752,1,0,0:0:0:0:
182,192,12830,1,0,0:0:0:0:
109,192,12907,1,0,0:0:0:0:
329,192,12907,1,0,0:0:0:0:
182,192,12985,1,0,0:0:0:0:
256,192,13063,1,0,0:0:0:0:
402,192,13063,1,0,0:0:0:0:
36,192,13063,1,0,0:0:0:0:
475,192,13141,1,0,0:0:0:0:
402,192,13218,1,0,0:0:0:0:
109,192,13218,1,0,0:0:0:0:
329,192,13296,1,0,0:0:0:0:
182,192,13374,1,0,0:0:0:0:
475,192,13374,1,0,0:0:0:0:
36,192,13374,1,0,0:0:0:0:
256,192,13452,1,0,0:0:0:0:
329,192,13529,1,0,0:0:0:0:
109,192,13529,1,0,0:0:0:0:
182,192,13607,1,0,0:0:0:0:
256,192,13685,1,0,0:0:0:0:
475,192,13685,1,0,0:0:0:0:
36,192,13685,1,0,0:0:0:0:
329,192,13763,1,0,0:0:0:0:
256,192,13841,1,0,0:0:0:0:
402,192,13841,1,0,0:0:0:0:
182,192,13918,1,0,0:0:0:0:
109,192,13996,1,0,0:0:0:0:
329,192,13996,1,0,0:0:0:0:
475,192,13996,1,0,0:0:0:0:
256,192,14074,1,0,0:0:0:0:
182,192,14152,1,0,0:0:0:0:
402,192,14152,1,0,0:0:0:0:
329,192,14229,1,0,0:0:0:0:
402,192,14307,1,0,0:0:0:0:
256,192,14307,1,0,0:0:0:0:
36,192,14307,1,0,0:0:0:0:
109,192,14385,1,0,0:0:0:0:
329,192,14463,1,0,0:0:0:0:
36,192,14463,1,0,0:0:0:0:
182,192,14540,1,0,0:0:0:0:
109,192,14618,1,0,0:0:0:0:
256,192,14618,1,0,0:0:0:0:
475,192,14618,1,0,0:0:0:0:
329,192,14696,1,0,0:0:0:0:
475,192,14774,1,0,0:0:0:0:
36,192,14774,1,0,0:0:0:0:
182,192,14774,1,0,0:0:0:0:
256,192,14851,1,0,0:0:0:0:
109,192,14929,1,0,0:0:0:0:
475,192,14929,1,0,0:0:0:0:
329,192,14929,1,0,0:0:0:0:
182,192,15007,1,0,0:0:0:0:
36,192,15085,1,0,0:0:0:0:
402,192,15085,1,0,0:0:0:0:
109,192,15162,1,0,0:0:0:0:
182,192,15240,1,0,0:0:0:0:
329,192,15240,1,0,0:0:0:0:
256,192,15240,1,0,0:0:0:0:
109,192,15318,1,0,0:0:0:0:
36,192,15396,1,0,0:0:0:0:
402,192,15396,1,0,0:0:0:0:
329,192,15474,1,0,0:0:0:0:
256,192,15551,1,0,0:0:0:0:
475,192,15551,1,0,0:0:0:0:
109,192,15551,1,0,0:0:0:0:
402,192,15629,1,0,0:0:0:0:
329,192,15707,1,0,0:0:0:0:
182,192,15707,1,0,0:0:0:0:
256,192,15785,1,0,0:0:0:0:
109,192,15862,1,0,0:0:0:0:
402,192,15862,1,0,0:0:0:0:
475,192,15862,1,0,0:0:0:0:
182,192,15940,1,0,0:0:0:0:
36,192,16018,1,0,0:0:0:0:
329,192,16018,1,0,0:0:0:0:
109,192,16096,1,0,0:0:0:0:
256,192,16173,1,0,0:0:0:0:
402,192,16173,1,0,0:0:0:0:
36,192,16173,1,0,0:0:0:0:
182,192,16251,1,0,0:0:0:0:
329,192,16329,1,0,0:0:0:0:
109,192,16329,1,0,0:0:0:0:
402,192,16407,1,0,0:0:0:0:
329,192,16484,1,0,0:0:0:0:
182,192,16484,1,0,0:0:0:0:
36,192,16484,1,0,0:0:0:0:
256,192,16562,1,0,0:0:0:0:
109,192,16640,1,0,0:0:0:0:
402,192,16640,1,0,0:0:0:0:
475,192,16718,1,0,0:0:0:0:
182,192,16795,1,0,0:0:0:0:
36,192,16795,1,0,0:0:0:0:
329,192,16795,1,0,0:0:0:0:
109,192,16873,1,0,0:0:0:0:
402,192,16873,1,0,0:0:0:0:
256,192,16873,1,0,0:0:0:0:
182,192,16951,1,0,0:0:0:0:
36,192,16951,1,0,0:0:0:0:
329,192,16951,1,0,0:0:0:0:
402,192,17029,1,0,0:0:0:0:
109,192,17029,1,0,0:0:0:0:
256,192,17029,1,0,0:0:0:0:
36,192,17106,1,0,0:0:0:0:
182,192,17106,1,0,0:0:0:0:
329,192,17106,1,0,0:0:0:0:
402,192,17262,1,0,0:0:0:0:
256,192,17262,1,0,0:0:0:0:
109,192,17262,1,0,0:0:0:0:
182,192,17340,1,0,0:0:0:0:
475,192,17340,1,0,0:0:0:0:
329,192,17340,1,0,0:0:0:0:
256,192,17418,1,0,0:0:0:0:
109,192,17418,1,0,0:0:0:0:
402,192,17418,1,0,0:0:0:0:
182,192,17495,1,0,0:0:0:0:
475,192,17573,1,0,0:0:0:0:
36,192,17573,1,0,0:0:0:0:
182,192,17651,1,0,0:0:0:0:
402,192,17729,1,0,0:0:0:0:
256,192,17729,1,0,0:0:0:0:
36,192,17729,1,0,0:0:0:0:
109,192,17806,1,0,0:0:0:0:
329,192,17884,1,0,0:0:0:0:
475,192,17884,1,0,0:0:0:0:
36,192,17962,1,0,0:0:0:0:
475,192,18040,1,0,0:0:0:0:
256,192,18040,1,0,0:0:0:0:
109,192,18040,1,0,0:0:0:0:
182,192,18117,1,0,0:0:0:0:
402,192,18195,1,0,0:0:0:0:
36,192,18195,1,0,0:0:0:0:
109,192,18273,1,0,0:0:0:0:
329,192,18351,1,0,0:0:0:0:
182,192,18351,1,0,0:0:0:0:
475,192,18351,1,0,0:0:0:0:
36,192,18428,1,0,0:0:0:0:
402,192,18506,1,0,0:0:0:0:
256,192,18506,1,0,0:0:0:0:
109,192,18584,1,0,0:0:0:0:
475,192,18662,1,0,0:0:0:0:
329,192,18662,1,0,0:0:0:0:
36,192,18662,1,0,0:0:0:0:
182,192,18739,1,0,0:0:0:0:
402,192,18817,1,0,0:0:0:0:
256,192,18817,1,0,0:0:0:0:
36,192,18895,1,0,0:0:0:0:
329,192,18973,1,0,0:0:0:0:
182,192,18973,1,0,0:0:0:0:
475,192,18973,1,0,0:0:0:0:
109,192,19050,1,0,0:0:0:0:
402,192,19128,1,0,0:0:0:0:
256,192,19128,1,0,0:0:0:0:
182,192,19206,1,0,0:0:0:0:
475,192,19284,1,0,0:0:0:0:
36,192,19284,1,0,0:0:0:0:
329,192,19284,1,0,0:0:0:0:
109,192,19362,1,0,0:0:0:0:
329,192,19439,1,0,0:0:0:0:
182,192,19439,1,0,0:0:0:0:
36,192,19517,1,0,0:0:0:0:
402,192,19595,1,0,0:0:0:0:
256,192,19595,1,0,0:0:0:0:
109,192,19595,1,0,0:0:0:0:
182,192,19673,1,0,0:0:0:0:
475,192,19750,1,0,0:0:0:0:
329,192,19750,1,0,0:0:0:0:
36,192,19750,1,0,0:0:0:0:
109,192,19828,1,0,0:0:0:0:
182,192,19906,1,0,0:0:0:0:
475,192,19906,128,0,20139:0:0:0:0:
402,192,19906,128,0,20139:0:0:0:0:
329,192,19906,128,0,20139:0:0:0:0:
256,192,19906,128,0,20139:0:0:0:0:
402,192,20217,128,0,20994:0:0:0:0:
329,192,20217,128,0,20994:0:0:0:0:
256,192,20217,128,0,20994:0:0:0:0:
182,192,20217,128,0,20994:0:0:0:0:
109,192,20217,1,0,0:0:0:0:
36,192,20528,1,0,0:0:0:0:
109,192,20839,1,0,0:0:0:0:
36,192,21150,1,0,0:0:0:0:
475,192,21150,1,0,0:0:0:0:
109,192,21228,1,0,0:0:0:0:
402,192,21228,1,0,0:0:0:0:
182,192,21306,1,0,0:0:0:0:
329,192,21306,1,0,0:0:0:0:
256,192,21383,1,0,0:0:0:0:
109,192,21461,1,0,0:0:0:0:
402,192,21461,1,0,0:0:0:0:
182,192,21539,1,0,0:0:0:0:
329,192,21539,1,0,0:0:0:0:
36,192,21617,1,0,0:0:0:0:
475,192,21617,1,0,0:0:0:0:
256,192,21694,1,0,0:0:0:0:
182,192,21772,1,0,0:0:0:0:
109,192,21798,1,0,0:0:0:0:
36,192,21824,1,0,0:0:0:0:
475,192,21850,1,0,0:0:0:0:
402,192,21876,1,0,0:0:0:0:
329,192,21902,1,0,0:0:0:0:
256,192,21928,1,0,0:0:0:0:
182,192,21954,1,0,0:0:0:0:
109,192,21979,1,0,0:0:0:0:
36,192,22005,1,0,0:0:0:0:
329,192,22031,1,0,0:0:0:0:
402,192,22057,1,0,0:0:0:0:
475,192,22083,1,0,0:0:0:0:
256,192,22109,1,0,0:0:0:0:
182,192,22135,1,0,0:0:0:0:
109,192,22161,1,0,0:0:0:0:
36,192,22187,1,0,0:0:0:0:
329,192,22265,1,0,0:0:0:0:
402,192,22291,1,0,0:0:0:0:
475,192,22316,1,0,0:0:0:0:
36,192,22342,1,0,0:0:0:0:
109,192,22368,1,0,0:0:0:0:
182,192,22394,1,0,0:0:0:0:
329,192,22394,128,0,22550:0:0:0:0:
256,192,22394,1,0,0:0:0:0:
36,192,22472,1,0,0:0:0:0:
475,192,22550,128,0,22705:0:0:0:0:
109,192,22550,1,0,0:0:0:0:
182,192,22627,1,0,0:0:0:0:
256,192,22705,128,0,22861:0:0:0:0:
402,192,22705,1,0,0:0:0:0:
329,192,22705,1,0,0:0:0:0:
36,192,22705,1,0,0:0:0:0:
109,192,22783,1,0,0:0:0:0:
402,192,22861,128,0,23016:0:0:0:0:
182,192,22861,1,0,0:0:0:0:
256,192,22939,1,0,0:0:0:0:
182,192,23016,128,0,23172:0:0:0:0:
36,192,23016,1,0,0:0:0:0:
329,192,23016,1,0,0:0:0:0:
402,192,23094,1,0,0:0:0:0:
329,192,23172,128,0,23327:0:0:0:0:
475,192,23172,1,0,0:0:0:0:
256,192,23250,1,0,0:0:0:0:
109,192,23327,128,0,23483:0:0:0:0:
182,192,23327,1,0,0:0:0:0:
36,192,23327,1,0,0:0:0:0:
402,192,23327,1,0,0:0:0:0:
256,192,23405,1,0,0:0:0:0:
402,192,23483,128,0,23638:0:0:0:0:
329,192,23483,1,0,0:0:0:0:
256,192,23561,1,0,0:0:0:0:
36,192,23638,128,0,23794:0:0:0:0:
182,192,23638,1,0,0:0:0:0:
109,192,23638,1,0,0:0:0:0:
402,192,23716,1,0,0:0:0:0:
475,192,23794,128,0,23949:0:0:0:0:
329,192,23794,1,0,0:0:0:0:
256,192,23872,1,0,0:0:0:0:
182,192,23949,128,0,24105:0:0:0:0:
36,192,23949,1,0,0:0:0:0:
402,192,23949,1,0,0:0:0:0:
109,192,23949,1,0,0:0:0:0:
329,192,24027,1,0,0:0:0:0:
402,192,24105,128,0,24260:0:0:0:0:
256,192,24105,1,0,0:0:0:0:
182,192,24183,1,0,0:0:0:0:
109,192,24260,128,0,24416:0:0:0:0:
329,192,24260,1,0,0:0:0:0:
475,192,24260,1,0,0:0:0:0:
402,192,24338,1,0,0:0:0:0:
329,192,24416,128,0,24571:0:0:0:0:
36,192,24416,1,0,0:0:0:0:
182,192,24494,1,0,0:0:0:0:
36,192,24571,128,0,24727:0:0:0:0:
109,192,24571,1,0,0:0:0:0:
402,192,24571,1,0,0:0:0:0:
475,192,24571,1,0,0:0:0:0:
256,192,24649,1,0,0:0:0:0:
182,192,24727,128,0,24883:0:0:0:0:
475,192,24727,1,0,0:0:0:0:
402,192,24727,1,0,0:0:0:0:
329,192,24805,1,0,0:0:0:0:
109,192,24883,128,0,25038:0:0:0:0:
475,192,24883,1,0,0:0:0:0:
256,192,24883,1,0,0:0:0:0:
182,192,24960,1,0,0:0:0:0:
329,192,25038,128,0,25194:0:0:0:0:
36,192,25038,1,0,0:0:0:0:
109,192,25116,1,0,0:0:0:0:
256,192,25194,128,0,25349:0:0:0:0:
182,192,25194,1,0,0:0:0:0:
402,192,25194,1,0,0:0:0:0:
475,192,25194,1,0,0:0:0:0:
109,192,25271,1,0,0:0:0:0:
475,192,25349,128,0,25505:0:0:0:0:
36,192,25349,1,0,0:0:0:0:
182,192,25427,1,0,0:0:0:0:
402,192,25505,128,0,25660:0:0:0:0:
109,192,25505,1,0,0:0:0:0:
329,192,25505,1,0,0:0:0:0:
36,192,25582,1,0,0:0:0:0:
256,192,25660,128,0,25816:0:0:0:0:
182,192,25660,1,0,0:0:0:0:
36,192,25738,1,0,0:0:0:0:
109,192,25816,128,0,25971:0:0:0:0:
329,192,25816,1,0,0:0:0:0:
402,192,25816,1,0,0:0:0:0:
475,192,25816,1,0,0:0:0:0:
256,192,25893,1,0,0:0:0:0:
36,192,25971,128,0,26127:0:0:0:0:
182,192,25971,1,0,0:0:0:0:
475,192,25971,1,0,0:0:0:0:
109,192,26049,1,0,0:0:0:0:
475,192,26127,128,0,26282:0:0:0:0:
256,192,26127,1,0,0:0:0:0:
402,192,26127,1,0,0:0:0:0:
329,192,26204,1,0,0:0:0:0:
402,192,26282,128,0,26438:0:0:0:0:
182,192,26282,1,0,0:0:0:0:
256,192,26360,1,0,0:0:0:0:
329,192,26438,128,0,26593:0:0:0:0:
109,192,26438,1,0,0:0:0:0:
475,192,26438,1,0,0:0:0:0:
182,192,26515,1,0,0:0:0:0:
256,192,26593,128,0,26749:0:0:0:0:
36,192,26593,1,0,0:0:0:0:
402,192,26593,1,0,0:0:0:0:
109,192,26671,1,0,0:0:0:0:
182,192,26749,128,0,26904:0:0:0:0:
329,192,26749,1,0,0:0:0:0:
475,192,26749,1,0,0:0:0:0:
36,192,26827,1,0,0:0:0:0:
402,192,26827,1,0,0:0:0:0:
109,192,26904,128,0,27060:0:0:0:0:
256,192,26904,1,0,0:0:0:0:
329,192,26904,1,0,0:0:0:0:
402,192,26982,1,0,0:0:0:0:
36,192,27060,128,0,27215:0:0:0:0:
182,192,27060,1,0,0:0:0:0:
256,192,27060,1,0,0:0:0:0:
475,192,27060,1,0,0:0:0:0:
402,192,27138,1,0,0:0:0:0:
475,192,27215,128,0,27371:0:0:0:0:
109,192,27215,1,0,0:0:0:0:
182,192,27215,1,0,0:0:0:0:
329,192,27293,1,0,0:0:0:0:
402,192,27371,1,0,0:0:0:0:
109,192,27371,1,0,0:0:0:0:
36,192,27371,128,0,27526:0:0:0:0:
256,192,27449,1,0,0:0:0:0:
182,192,27526,128,0,27682:0:0:0:0:
402,192,27526,1,0,0:0:0:0:
109,192,27604,1,0,0:0:0:0:
329,192,27682,128,0,27837:0:0:0:0:
256,192,27682,1,0,0:0:0:0:
36,192,27682,1,0,0:0:0:0:
475,192,27682,1,0,0:0:0:0:
402,192,27760,1,0,0:0:0:0:
182,192,27837,128,0,27993:0:0:0:0:
475,192,27837,1,0,0:0:0:0:
402,192,27915,1,0,0:0:0:0:
36,192,27993,128,0,28148:0:0:0:0:
329,192,27993,1,0,0:0:0:0:
109,192,27993,1,0,0:0:0:0:
402,192,28071,1,0,0:0:0:0:
182,192,28148,128,0,28304:0:0:0:0:
475,192,28148,1,0,0:0:0:0:
402,192,28226,1,0,0:0:0:0:
329,192,28304,128,0,28460:0:0:0:0:
256,192,28304,1,0,0:0:0:0:
36,192,28304,1,0,0:0:0:0:
109,192,28304,1,0,0:0:0:0:
402,192,28382,1,0,0:0:0:0:
109,192,28460,128,0,28615:0:0:0:0:
475,192,28460,1,0,0:0:0:0:
402,192,28537,1,0,0:0:0:0:
256,192,28615,128,0,28771:0:0:0:0:
329,192,28615,1,0,0:0:0:0:
36,192,28615,1,0,0:0:0:0:
109,192,28693,1,0,0:0:0:0:
402,192,28771,128,0,28926:0:0:0:0:
182,192,28771,1,0,0:0:0:0:
109,192,28848,1,0,0:0:0:0:
256,192,28926,128,0,29082:0:0:0:0:
36,192,28926,1,0,0:0:0:0:
329,192,28926,1,0,0:0:0:0:
475,192,28926,1,0,0:0:0:0:
182,192,29004,1,0,0:0:0:0:
109,192,29082,128,0,29237:0:0:0:0:
402,192,29082,1,0,0:0:0:0:
329,192,29159,1,0,0:0:0:0:
256,192,29237,128,0,29393:0:0:0:0:
182,192,29237,1,0,0:0:0:0:
36,192,29237,1,0,0:0:0:0:
109,192,29315,1,0,0:0:0:0:
402,192,29393,128,0,29548:0:0:0:0:
36,192,29393,1,0,0:0:0:0:
109,192,29470,1,0,0:0:0:0:
182,192,29548,128,0,29704:0:0:0:0:
256,192,29548,1,0,0:0:0:0:
475,192,29548,1,0,0:0:0:0:
329,192,29548,1,0,0:0:0:0:
109,192,29626,1,0,0:0:0:0:
329,192,29704,128,0,29859:0:0:0:0:
36,192,29704,1,0,0:0:0:0:
402,192,29704,1,0,0:0:0:0:
182,192,29781,1,0,0:0:0:0:
475,192,29859,128,0,30015:0:0:0:0:
256,192,29859,1,0,0:0:0:0:
109,192,29859,1,0,0:0:0:0:
402,192,29937,1,0,0:0:0:0:
329,192,30015,128,0,30170:0:0:0:0:
36,192,30015,1,0,0:0:0:0:
109,192,30092,1,0,0:0:0:0:
182,192,30170,128,0,30326:0:0:0:0:
402,192,30170,1,0,0:0:0:0:
475,192,30170,1,0,0:0:0:0:
256,192,30170,1,0,0:0:0:0:
36,192,30248,1,0,0:0:0:0:
329,192,30326,128,0,30481:0:0:0:0:
109,192,30326,1,0,0:0:0:0:
182,192,30404,1,0,0:0:0:0:
475,192,30481,128,0,30637:0:0:0:0:
256,192,30481,1,0,0:0:0:0:
36,192,30481,1,0,0:0:0:0:
329,192,30559,1,0,0:0:0:0:
36,192,30637,128,0,30792:0:0:0:0:
402,192,30637,1,0,0:0:0:0:
475,192,30715,1,0,0:0:0:0:
256,192,30792,128,0,30948:0:0:0:0:
109,192,30792,1,0,0:0:0:0:
329,192,30792,1,0,0:0:0:0:
182,192,30792,1,0,0:0:0:0:
402,192,30870,1,0,0:0:0:0:
475,192,30948,128,0,31103:0:0:0:0:
182,192,31026,1,0,0:0:0:0:
256,192,31103,128,0,31259:0:0:0:0:
36,192,31103,1,0,0:0:0:0:
109,192,31103,1,0,0:0:0:0:
329,192,31181,1,0,0:0:0:0:
36,192,31259,128,0,31414:0:0:0:0:
402,192,31259,1,0,0:0:0:0:
475,192,31337,1,0,0:0:0:0:
256,192,31414,128,0,31570:0:0:0:0:
109,192,31414,1,0,0:0:0:0:
182,192,31414,1,0,0:0:0:0:
329,192,31414,1,0,0:0:0:0:
402,192,31492,1,0,0:0:0:0:
475,192,31570,128,0,31725:0:0:0:0:
36,192,31570,1,0,0:0:0:0:
256,192,31648,1,0,0:0:0:0:
329,192,31725,1,0,0:0:0:0:
109,192,31751,1,0,0:0:0:0:
402,192,31777,1,0,0:0:0:0:
182,192,31803,1,0,0:0:0:0:
475,192,31829,1,0,0:0:0:0:
256,192,31855,1,0,0:0:0:0:
36,192,31881,1,0,0:0:0:0:
329,192,31907,1,0,0:0:0:0:
109,192,31933,1,0,0:0:0:0:
402,192,31959,1,0,0:0:0:0:
182,192,31985,1,0,0:0:0:0:
475,192,32011,1,0,0:0:0:0:
256,192,32036,1,0,0:0:0:0:
329,192,32036,1,0,0:0:0:0:
36,192,32036,1,0,0:0:0:0:
36,192,32348,1,0,0:0:0:0:
109,192,32348,1,0,0:0:0:0:
256,192,32348,1,0,0:0:0:0:
402,192,32348,1,0,0:0:0:0:
475,192,32348,1,0,0:0:0:0:
329,192,32659,1,0,0:0:0:0:
475,192,32659,1,0,0:0:0:0:
182,192,32659,1,0,0:0:0:0:
36,192,32659,1,0,0:0:0:0:
109,192,32659,1,0,0:0:0:0:
402,192,32970,1,0,0:0:0:0:
256,192,32970,1,0,0:0:0:0:
109,192,32970,1,0,0:0:0:0:
182,192,32970,1,0,0:0:0:0:
36,192,32970,1,0,0:0:0:0:
109,192,33281,1,0,0:0:0:0:
182,192,33281,1,0,0:0:0:0:
329,192,33281,1,0,0:0:0:0:
402,192,33281,1,0,0:0:0:0:
475,192,33281,1,0,0:0:0:0:
36,192,33592,1,0,0:0:0:0:
182,192,33592,1,0,0:0:0:0:
256,192,33592,1,0,0:0:0:0:
402,192,33592,1,0,0:0:0:0:
475,192,33592,1,0,0:0:0:0:
402,192,33903,1,0,0:0:0:0:
329,192,33903,1,0,0:0:0:0:
182,192,33903,1,0,0:0:0:0:
109,192,33903,1,0,0:0:0:0:
36,192,33903,1,0,0:0:0:0:
475,192,34214,1,0,0:0:0:0:
329,192,34214,1,0,0:0:0:0:
256,192,34214,1,0,0:0:0:0:
109,192,34214,1,0,0:0:0:0:
36,192,34214,1,0,0:0:0:0:
402,192,34525,1,0,0:0:0:0:
329,192,34525,1,0,0:0:0:0:
256,192,34525,1,0,0:0:0:0:
109,192,34525,1,0,0:0:0:0:
36,192,34525,1,0,0:0:0:0:
109,192,34680,1,0,0:0:0:0:
182,192,34680,1,0,0:0:0:0:
256,192,34680,1,0,0:0:0:0:
402,192,34680,1,0,0:0:0:0:
475,192,34680,1,0,0:0:0:0:
402,192,34836,1,0,0:0:0:0:
329,192,34836,1,0,0:0:0:0:
256,192,34836,1,0,0:0:0:0:
109,192,34836,1,0,0:0:0:0:
36,192,34836,1,0,0:0:0:0:
475,192,35147,1,0,0:0:0:0:
329,192,35147,1,0,0:0:0:0:
182,192,35147,1,0,0:0:0:0:
109,192,35147,1,0,0:0:0:0:
36,192,35147,1,0,0:0:0:0:
109,192,35458,1,0,0:0:0:0:
182,192,35458,1,0,0:0:0:0:
256,192,35458,1,0,0:0:0:0:
402,192,35458,1,0,0:0:0:0:
475,192,35458,1,0,0:0:0:0:
475,192,35769,1,0,0:0:0:0:
402,192,35769,1,0,0:0:0:0:
329,192,35769,1,0,0:0:0:0:
182,192,35769,1,0,0:0:0:0:
36,192,35769,1,0,0:0:0:0:
475,192,36080,1,0,0:0:0:0:
329,192,36080,1,0,0:0:0:0:
256,192,36080,1,0,0:0:0:0:
109,192,36080,1,0,0:0:0:0:
36,192,36080,1,0,0:0:0:0:
475,192,36391,1,0,0:0:0:0:
402,192,36391,1,0,0:0:0:0:
256,192,36391,1,0,0:0:0:0:
182,192,36391,1,0,0:0:0:0:
36,192,36391,1,0,0:0:0:0:
475,192,36702,1,0,0:0:0:0:
402,192,36702,1,0,0:0:0:0:
256,192,36702,1,0,0:0:0:0:
109,192,36702,1,0,0:0:0:0:
36,192,36702,1,0,0:0:0:0:
182,192,36780,1,0,0:0:0:0:
329,192,36780,1,0,0:0:0:0:
256,192,36858,1,0,0:0:0:0:
109,192,36858,1,0,0:0:0:0:
36,192,36858,1,0,0:0:0:0:
402,192,36858,1,0,0:0:0:0:
475,192,36858,1,0,0:0:0:0:
182,192,36935,1,0,0:0:0:0:
329,192,36935,1,0,0:0:0:0:
109,192,37013,1,0,0:0:0:0:
36,192,37013,1,0,0:0:0:0:
256,192,37013,1,0,0:0:0:0:
402,192,37013,1,0,0:0:0:0:
475,192,37013,1,0,0:0:0:0:
36,192,37169,1,0,0:0:0:0:
475,192,37169,1,0,0:0:0:0:
182,192,37169,1,0,0:0:0:0:
256,192,37169,1,0,0:0:0:0:
329,192,37169,1,0,0:0:0:0:
402,192,37246,1,0,0:0:0:0:
109,192,37246,1,0,0:0:0:0:
182,192,37324,1,0,0:0:0:0:
256,192,37324,1,0,0:0:0:0:
329,192,37324,1,0,0:0:0:0:
475,192,37324,1,0,0:0:0:0:
36,192,37324,1,0,0:0:0:0:
109,192,37480,1,0,0:0:0:0:
36,192,37635,1,0,0:0:0:0:
182,192,37635,1,0,0:0:0:0:
256,192,37635,1,0,0:0:0:0:
329,192,37635,1,0,0:0:0:0:
475,192,37635,1,0,0:0:0:0:
182,192,37791,1,0,0:0:0:0:
109,192,37946,1,0,0:0:0:0:
36,192,37946,1,0,0:0:0:0:
256,192,37946,1,0,0:0:0:0:
329,192,37946,1,0,0:0:0:0:
402,192,37946,1,0,0:0:0:0:
402,192,38102,1,0,0:0:0:0:
36,192,38257,1,0,0:0:0:0:
182,192,38257,1,0,0:0:0:0:
256,192,38257,1,0,0:0:0:0:
329,192,38257,1,0,0:0:0:0:
475,192,38257,1,0,0:0:0:0:
329,192,38413,1,0,0:0:0:0:
475,192,38568,1,0,0:0:0:0:
402,192,38568,1,0,0:0:0:0:
256,192,38568,1,0,0:0:0:0:
182,192,38568,1,0,0:0:0:0:
109,192,38568,1,0,0:0:0:0:
182,192,38724,1,0,0:0:0:0:
36,192,38879,1,0,0:0:0:0:
109,192,38879,1,0,0:0:0:0:
256,192,38879,1,0,0:0:0:0:
402,192,38879,1,0,0:0:0:0:
475,192,38879,1,0,0:0:0:0:
109,192,39035,1,0,0:0:0:0:
36,192,39190,1,0,0:0:0:0:
182,192,39190,1,0,0:0:0:0:
329,192,39190,1,0,0:0:0:0:
402,192,39190,1,0,0:0:0:0:
475,192,39190,1,0,0:0:0:0:
36,192,39346,1,0,0:0:0:0:
109,192,39501,1,0,0:0:0:0:
256,192,39501,1,0,0:0:0:0:
329,192,39501,1,0,0:0:0:0:
402,192,39501,1,0,0:0:0:0:
475,192,39501,1,0,0:0:0:0:
475,192,39657,1,0,0:0:0:0:
256,192,39813,1,0,0:0:0:0:
475,192,39813,1,0,0:0:0:0:
36,192,39813,1,0,0:0:0:0:
109,192,39813,1,0,0:0:0:0:
182,192,39813,1,0,0:0:0:0:
329,192,39890,1,0,0:0:0:0:
402,192,39968,1,0,0:0:0:0:
329,192,40046,1,0,0:0:0:0:
256,192,40124,1,0,0:0:0:0:
36,192,40124,1,0,0:0:0:0:
475,192,40124,1,0,0:0:0:0:
109,192,40124,1,0,0:0:0:0:
182,192,40124,1,0,0:0:0:0:
402,192,40201,1,0,0:0:0:0:
329,192,40279,1,0,0:0:0:0:
256,192,40357,1,0,0:0:0:0:
182,192,40435,1,0,0:0:0:0:
36,192,40435,1,0,0:0:0:0:
109,192,40435,1,0,0:0:0:0:
402,192,40435,1,0,0:0:0:0:
475,192,40435,1,0,0:0:0:0:
329,192,40512,1,0,0:0:0:0:
182,192,40590,1,0,0:0:0:0:
329,192,40668,1,0,0:0:0:0:
36,192,40746,1,0,0:0:0:0:
402,192,40746,1,0,0:0:0:0:
475,192,40746,1,0,0:0:0:0:
256,192,40746,1,0,0:0:0:0:
182,192,40746,1,0,0:0:0:0:
109,192,40823,1,0,0:0:0:0:
402,192,40901,1,0,0:0:0:0:
109,192,40979,1,0,0:0:0:0:
475,192,41057,1,0,0:0:0:0:
329,192,41057,1,0,0:0:0:0:
256,192,41057,1,0,0:0:0:0:
182,192,41057,1,0,0:0:0:0:
402,192,41057,1,0,0:0:0:0:
36,192,41134,1,0,0:0:0:0:
475,192,41212,1,0,0:0:0:0:
36,192,41290,1,0,0:0:0:0:
109,192,41368,1,0,0:0:0:0:
182,192,41368,1,0,0:0:0:0:
256,192,41368,1,0,0:0:0:0:
402,192,41368,1,0,0:0:0:0:
329,192,41368,1,0,0:0:0:0:
475,192,41446,1,0,0:0:0:0:
256,192,41523,1,0,0:0:0:0:
36,192,41601,1,0,0:0:0:0:
329,192,41679,1,0,0:0:0:0:
182,192,41705,1,0,0:0:0:0:
402,192,41731,1,0,0:0:0:0:
109,192,41757,1,0,0:0:0:0:
475,192,41782,1,0,0:0:0:0:
36,192,41808,1,0,0:0:0:0:
329,192,41834,1,0,0:0:0:0:
182,192,41860,1,0,0:0:0:0:
402,192,41886,1,0,0:0:0:0:
256,192,41912,1,0,0:0:0:0:
475,192,41938,1,0,0:0:0:0:
329,192,41964,1,0,0:0:0:0:
182,192,41990,1,0,0:0:0:0:
36,192,42068,1,0,0:0:0:0:
256,192,42145,1,0,0:0:0:0:
109,192,42223,1,0,0:0:0:0:
329,192,42301,128,0,42456:0:0:0:0:
475,192,42301,128,0,42456:0:0:0:0:
182,192,42301,1,0,0:0:0:0:
402,192,42301,1,0,0:0:0:0:
36,192,42379,1,0,0:0:0:0:
109,192,42456,1,0,0:0:0:0:
329,192,42534,128,0,42690:0:0:0:0:
475,192,42534,128,0,42690:0:0:0:0:
402,192,42534,1,0,0:0:0:0:
36,192,42612,1,0,0:0:0:0:
256,192,42612,1,0,0:0:0:0:
475,192,42767,128,0,42923:0:0:0:0:
329,192,42767,128,0,42923:0:0:0:0:
109,192,42767,1,0,0:0:0:0:
402,192,42767,1,0,0:0:0:0:
36,192,42923,1,0,0:0:0:0:
182,192,42923,1,0,0:0:0:0:
256,192,43001,1,0,0:0:0:0:
109,192,43078,128,0,43234:0:0:0:0:
402,192,43078,1,0,0:0:0:0:
256,192,43234,128,0,43390:0:0:0:0:
329,192,43234,1,0,0:0:0:0:
475,192,43234,1,0,0:0:0:0:
36,192,43234,1,0,0:0:0:0:
402,192,43390,128,0,43545:0:0:0:0:
182,192,43390,1,0,0:0:0:0:
36,192,43545,128,0,43701:0:0:0:0:
182,192,43545,128,0,43701:0:0:0:0:
109,192,43545,1,0,0:0:0:0:
329,192,43545,1,0,0:0:0:0:
402,192,43701,1,0,0:0:0:0:
182,192,43778,128,0,43934:0:0:0:0:
36,192,43778,128,0,43934:0:0:0:0:
109,192,43778,1,0,0:0:0:0:
329,192,43856,1,0,0:0:0:0:
475,192,43856,1,0,0:0:0:0:
36,192,44012,128,0,44167:0:0:0:0:
182,192,44012,128,0,44167:0:0:0:0:
109,192,44012,1,0,0:0:0:0:
402,192,44012,1,0,0:0:0:0:
256,192,44167,1,0,0:0:0:0:
475,192,44167,1,0,0:0:0:0:
329,192,44245,1,0,0:0:0:0:
475,192,44323,128,0,44478:0:0:0:0:
182,192,44323,1,0,0:0:0:0:
109,192,44400,1,0,0:0:0:0:
329,192,44478,128,0,44634:0:0:0:0:
36,192,44478,1,0,0:0:0:0:
256,192,44478,1,0,0:0:0:0:
402,192,44478,1,0,0:0:0:0:
182,192,44634,128,0,44945:0:0:0:0:
36,192,44634,1,0,0:0:0:0:
475,192,44634,1,0,0:0:0:0:
402,192,44711,1,0,0:0:0:0:
36,192,44789,1,0,0:0:0:0:
329,192,44789,1,0,0:0:0:0:
402,192,44945,128,0,45256:0:0:0:0:
109,192,44945,1,0,0:0:0:0:
182,192,45022,1,0,0:0:0:0:
256,192,45100,1,0,0:0:0:0:
36,192,45100,1,0,0:0:0:0:
475,192,45100,1,0,0:0:0:0:
109,192,45256,128,0,45567:0:0:0:0:
182,192,45256,1,0,0:0:0:0:
329,192,45256,1,0,0:0:0:0:
402,192,45334,1,0,0:0:0:0:
475,192,45411,1,0,0:0:0:0:
182,192,45411,1,0,0:0:0:0:
256,192,45489,1,0,0:0:0:0:
329,192,45567,128,0,45878:0:0:0:0:
36,192,45567,1,0,0:0:0:0:
109,192,45722,1,0,0:0:0:0:
256,192,45722,1,0,0:0:0:0:
475,192,45722,1,0,0:0:0:0:
36,192,45878,128,0,46189:0:0:0:0:
182,192,45878,1,0,0:0:0:0:
329,192,45956,1,0,0:0:0:0:
256,192,46033,1,0,0:0:0:0:
475,192,46033,1,0,0:0:0:0:
402,192,46189,128,0,46500:0:0:0:0:
182,192,46189,1,0,0:0:0:0:
256,192,46267,1,0,0:0:0:0:
36,192,46344,1,0,0:0:0:0:
329,192,46344,1,0,0:0:0:0:
475,192,46344,1,0,0:0:0:0:
109,192,46500,128,0,46811:0:0:0:0:
256,192,46500,1,0,0:0:0:0:
329,192,46578,1,0,0:0:0:0:
402,192,46655,1,0,0:0:0:0:
182,192,46655,1,0,0:0:0:0:
256,192,46733,1,0,0:0:0:0:
36,192,46733,1,0,0:0:0:0:
475,192,46811,128,0,47122:0:0:0:0:
182,192,46811,1,0,0:0:0:0:
329,192,46811,1,0,0:0:0:0:
256,192,46889,1,0,0:0:0:0:
402,192,46889,1,0,0:0:0:0:
36,192,46967,1,0,0:0:0:0:
329,192,46967,1,0,0:0:0:0:
256,192,47122,128,0,47433:0:0:0:0:
109,192,47122,1,0,0:0:0:0:
402,192,47122,1,0,0:0:0:0:
182,192,47200,1,0,0:0:0:0:
329,192,47200,1,0,0:0:0:0:
36,192,47278,1,0,0:0:0:0:
475,192,47278,1,0,0:0:0:0:
109,192,47433,1,0,0:0:0:0:
256,192,47511,128,0,47666:0:0:0:0:
402,192,47511,1,0,0:0:0:0:
36,192,47589,1,0,0:0:0:0:
475,192,47589,1,0,0:0:0:0:
182,192,47589,1,0,0:0:0:0:
256,192,47744,128,0,47900:0:0:0:0:
109,192,47744,1,0,0:0:0:0:
36,192,47900,1,0,0:0:0:0:
402,192,47900,1,0,0:0:0:0:
475,192,47977,1,0,0:0:0:0:
329,192,48055,128,0,48211:0:0:0:0:
109,192,48055,1,0,0:0:0:0:
182,192,48133,1,0,0:0:0:0:
256,192,48211,128,0,48366:0:0:0:0:
36,192,48211,1,0,0:0:0:0:
475,192,48211,1,0,0:0:0:0:
402,192,48211,1,0,0:0:0:0:
182,192,48366,128,0,48677:0:0:0:0:
329,192,48366,1,0,0:0:0:0:
36,192,48522,1,0,0:0:0:0:
475,192,48522,1,0,0:0:0:0:
402,192,48599,1,0,0:0:0:0:
329,192,48677,128,0,48988:0:0:0:0:
109,192,48677,1,0,0:0:0:0:
36,192,48833,1,0,0:0:0:0:
256,192,48833,1,0,0:0:0:0:
475,192,48833,1,0,0:0:0:0:
109,192,48988,128,0,49299:0:0:0:0:
182,192,48988,1,0,0:0:0:0:
256,192,49144,1,0,0:0:0:0:
475,192,49144,1,0,0:0:0:0:
329,192,49222,1,0,0:0:0:0:
402,192,49299,128,0,49610:0:0:0:0:
182,192,49299,1,0,0:0:0:0:
109,192,49455,1,0,0:0:0:0:
256,192,49455,1,0,0:0:0:0:
475,192,49455,1,0,0:0:0:0:
36,192,49610,128,0,49921:0:0:0:0:
182,192,49610,128,0,49921:0:0:0:0:
475,192,49610,1,0,0:0:0:0:
329,192,49610,1,0,0:0:0:0:
475,192,49766,1,0,0:0:0:0:
402,192,49766,1,0,0:0:0:0:
256,192,49844,1,0,0:0:0:0:
329,192,49921,1,0,0:0:0:0:
36,192,49999,128,0,50155:0:0:0:0:
182,192,49999,128,0,50155:0:0:0:0:
109,192,49999,1,0,0:0:0:0:
402,192,50077,1,0,0:0:0:0:
256,192,50077,1,0,0:0:0:0:
36,192,50232,128,0,50388:0:0:0:0:
182,192,50232,128,0,50388:0:0:0:0:
109,192,50232,1,0,0:0:0:0:
329,192,50232,1,0,0:0:0:0:
256,192,50310,1,0,0:0:0:0:
402,192,50388,1,0,0:0:0:0:
475,192,50388,1,0,0:0:0:0:
329,192,50466,1,0,0:0:0:0:
256,192,50543,128,0,50699:0:0:0:0:
109,192,50543,1,0,0:0:0:0:
329,192,50699,128,0,50855:0:0:0:0:
36,192,50699,1,0,0:0:0:0:
182,192,50699,1,0,0:0:0:0:
475,192,50699,1,0,0:0:0:0:
402,192,50855,128,0,51010:0:0:0:0:
109,192,50855,1,0,0:0:0:0:
36,192,51010,1,0,0:0:0:0:
182,192,51010,1,0,0:0:0:0:
256,192,51166,128,0,51321:0:0:0:0:
402,192,51166,1,0,0:0:0:0:
329,192,51321,1,0,0:0:0:0:
475,192,51321,1,0,0:0:0:0:
109,192,51321,1,0,0:0:0:0:
109,192,51477,128,0,51632:0:0:0:0:
256,192,51477,1,0,0:0:0:0:
329,192,51554,1,0,0:0:0:0:
402,192,51632,1,0,0:0:0:0:
36,192,51632,1,0,0:0:0:0:
182,192,51710,1,0,0:0:0:0:
475,192,51710,1,0,0:0:0:0:
402,192,51788,128,0,51943:0:0:0:0:
256,192,51788,1,0,0:0:0:0:
36,192,51788,1,0,0:0:0:0:
329,192,51865,1,0,0:0:0:0:
109,192,51865,1,0,0:0:0:0:
182,192,51943,1,0,0:0:0:0:
475,192,51943,1,0,0:0:0:0:
256,192,51943,1,0,0:0:0:0:
256,192,52099,128,0,53343:0:0:0:0:
36,192,52099,1,0,0:0:0:0:
182,192,52176,1,0,0:0:0:0:
329,192,52254,1,0,0:0:0:0:
402,192,52280,1,0,0:0:0:0:
475,192,52306,1,0,0:0:0:0:
36,192,52332,1,0,0:0:0:0:
109,192,52358,1,0,0:0:0:0:
182,192,52384,1,0,0:0:0:0:
329,192,52410,1,0,0:0:0:0:
402,192,52436,1,0,0:0:0:0:
36,192,52462,1,0,0:0:0:0:
475,192,52462,1,0,0:0:0:0:
109,192,52487,1,0,0:0:0:0:
182,192,52513,1,0,0:0:0:0:
329,192,52539,1,0,0:0:0:0:
402,192,52565,1,0,0:0:0:0:
475,192,52565,128,0,52721:0:0:0:0:
36,192,52643,1,0,0:0:0:0:
329,192,52721,128,0,52876:0:0:0:0:
109,192,52721,1,0,0:0:0:0:
402,192,52799,1,0,0:0:0:0:
182,192,52876,128,0,53032:0:0:0:0:
475,192,52876,1,0,0:0:0:0:
109,192,52954,1,0,0:0:0:0:
36,192,53032,128,0,53187:0:0:0:0:
475,192,53032,1,0,0:0:0:0:
329,192,53110,1,0,0:0:0:0:
182,192,53187,1,0,0:0:0:0:
36,192,53265,1,0,0:0:0:0:
329,192,53265,1,0,0:0:0:0:
475,192,53343,128,0,53498:0:0:0:0:
402,192,53343,128,0,53498:0:0:0:0:
182,192,53343,1,0,0:0:0:0:
256,192,53421,1,0,0:0:0:0:
109,192,53421,1,0,0:0:0:0:
36,192,53498,1,0,0:0:0:0:
329,192,53498,1,0,0:0:0:0:
182,192,53576,1,0,0:0:0:0:
475,192,53654,128,0,53809:0:0:0:0:
402,192,53654,128,0,53809:0:0:0:0:
36,192,53654,1,0,0:0:0:0:
109,192,53680,1,0,0:0:0:0:
182,192,53706,1,0,0:0:0:0:
256,192,53732,1,0,0:0:0:0:
329,192,53758,1,0,0:0:0:0:
36,192,53784,1,0,0:0:0:0:
109,192,53809,1,0,0:0:0:0:
256,192,53887,1,0,0:0:0:0:
475,192,53965,128,0,54043:0:0:0:0:
402,192,53965,128,0,54043:0:0:0:0:
182,192,53965,1,0,0:0:0:0:
36,192,53965,1,0,0:0:0:0:
109,192,54043,1,0,0:0:0:0:
402,192,54120,128,0,54276:0:0:0:0:
475,192,54120,128,0,54276:0:0:0:0:
329,192,54120,1,0,0:0:0:0:
256,192,54146,1,0,0:0:0:0:
182,192,54172,1,0,0:0:0:0:
109,192,54198,1,0,0:0:0:0:
36,192,54224,1,0,0:0:0:0:
329,192,54250,1,0,0:0:0:0:
256,192,54276,1,0,0:0:0:0:
109,192,54354,1,0,0:0:0:0:
475,192,54432,1,0,0:0:0:0:
402,192,54457,1,0,0:0:0:0:
329,192,54483,1,0,0:0:0:0:
182,192,54509,1,0,0:0:0:0:
109,192,54535,1,0,0:0:0:0:
36,192,54561,1,0,0:0:0:0:
256,192,54587,1,0,0:0:0:0:
329,192,54606,1,0,0:0:0:0:
402,192,54626,1,0,0:0:0:0:
475,192,54645,1,0,0:0:0:0:
36,192,54665,1,0,0:0:0:0:
109,192,54684,1,0,0:0:0:0:
182,192,54704,1,0,0:0:0:0:
256,192,54723,1,0,0:0:0:0:
329,192,54743,1,0,0:0:0:0:
402,192,54768,1,0,0:0:0:0:
475,192,54794,1,0,0:0:0:0:
182,192,54820,1,0,0:0:0:0:
109,192,54846,1,0,0:0:0:0:
36,192,54872,1,0,0:0:0:0:
256,192,54898,1,0,0:0:0:0:
329,192,54924,1,0,0:0:0:0:
402,192,54950,1,0,0:0:0:0:
475,192,54976,1,0,0:0:0:0:
182,192,55002,1,0,0:0:0:0:
109,192,55028,1,0,0:0:0:0:
36,192,55054,1,0,0:0:0:0:
329,192,55054,1,0,0:0:0:0:
256,192,55054,1,0,0:0:0:0:
475,192,55209,1,0,0:0:0:0:
402,192,55209,1,0,0:0:0:0:
256,192,55209,1,0,0:0:0:0:
109,192,55209,1,0,0:0:0:0:
36,192,55365,1,0,0:0:0:0:
182,192,55365,1,0,0:0:0:0:
329,192,55365,1,0,0:0:0:0:
475,192,55365,1,0,0:0:0:0:
402,192,55520,1,0,0:0:0:0:
256,192,55520,1,0,0:0:0:0:
109,192,55520,1,0,0:0:0:0:
36,192,55520,1,0,0:0:0:0:
182,192,55676,1,0,0:0:0:0:
329,192,55676,1,0,0:0:0:0:
36,192,55753,1,0,0:0:0:0:
256,192,55753,1,0,0:0:0:0:
475,192,55753,1,0,0:0:0:0:
109,192,55831,1,0,0:0:0:0:
402,192,55831,1,0,0:0:0:0:
182,192,55909,1,0,0:0:0:0:
329,192,55909,1,0,0:0:0:0:
256,192,55987,1,0,0:0:0:0:
36,192,56064,1,0,0:0:0:0:
329,192,56142,1,0,0:0:0:0:
109,192,56168,1,0,0:0:0:0:
402,192,56194,1,0,0:0:0:0:
182,192,56220,1,0,0:0:0:0:
475,192,56246,1,0,0:0:0:0:
256,192,56272,1,0,0:0:0:0:
36,192,56298,1,0,0:0:0:0:
329,192,56376,1,0,0:0:0:0:
109,192,56453,1,0,0:0:0:0:
402,192,56453,1,0,0:0:0:0:
475,192,56531,1,0,0:0:0:0:
182,192,56609,1,0,0:0:0:0:
402,192,56635,1,0,0:0:0:0:
109,192,56661,1,0,0:0:0:0:
329,192,56687,1,0,0:0:0:0:
36,192,56712,1,0,0:0:0:0:
256,192,56738,1,0,0:0:0:0:
475,192,56764,1,0,0:0:0:0:
402,192,56842,1,0,0:0:0:0:
36,192,56920,1,0,0:0:0:0:
109,192,56946,1,0,0:0:0:0:
182,192,56972,1,0,0:0:0:0:
256,192,56998,1,0,0:0:0:0:
402,192,57024,1,0,0:0:0:0:
475,192,57049,1,0,0:0:0:0:
109,192,57075,1,0,0:0:0:0:
182,192,57095,1,0,0:0:0:0:
329,192,57114,1,0,0:0:0:0:
402,192,57134,1,0,0:0:0:0:
475,192,57153,1,0,0:0:0:0:
36,192,57231,1,0,0:0:0:0:
182,192,57231,1,0,0:0:0:0:
109,192,57231,1,0,0:0:0:0:
256,192,57231,1,0,0:0:0:0:
329,192,57231,1,0,0:0:0:0:
109,192,57542,1,0,0:0:0:0:
182,192,57542,1,0,0:0:0:0:
256,192,57542,1,0,0:0:0:0:
402,192,57542,1,0,0:0:0:0:
329,192,57542,1,0,0:0:0:0:
475,192,57853,128,0,58086:0:0:0:0:
182,192,57853,128,0,58086:0:0:0:0:
329,192,57853,128,0,58086:0:0:0:0:
402,192,57853,128,0,58086:0:0:0:0:
256,192,57853,128,0,58086:0:0:0:0:
36,192,58164,128,0,58242:0:0:0:0:
256,192,58164,128,0,58242:0:0:0:0:
475,192,58164,128,0,58242:0:0:0:0:
256,192,58281,128,0,58358:0:0:0:0:
475,192,58281,128,0,58358:0:0:0:0:
36,192,58281,128,0,58358:0:0:0:0:
256,192,58397,128,0,58475:0:0:0:0:
36,192,58397,128,0,58475:0:0:0:0:
475,192,58397,128,0,58475:0:0:0:0:
109,192,58475,1,0,0:0:0:0:
182,192,58475,1,0,0:0:0:0:
402,192,58475,1,0,0:0:0:0:
329,192,58475,1,0,0:0:0:0:
109,192,58631,1,0,0:0:0:0:
329,192,58631,1,0,0:0:0:0:
109,192,58786,1,0,0:0:0:0:
475,192,58786,1,0,0:0:0:0:
36,192,58786,1,0,0:0:0:0:
402,192,58786,1,0,0:0:0:0:
256,192,58786,1,0,0:0:0:0:
182,192,58942,1,0,0:0:0:0:
402,192,58942,1,0,0:0:0:0:
36,192,59097,1,0,0:0:0:0:
109,192,59097,1,0,0:0:0:0:
256,192,59097,1,0,0:0:0:0:
402,192,59097,1,0,0:0:0:0:
329,192,59097,1,0,0:0:0:0:
256,192,59253,1,0,0:0:0:0:
475,192,59253,1,0,0:0:0:0:
36,192,59408,1,0,0:0:0:0:
256,192,59408,1,0,0:0:0:0:
402,192,59408,1,0,0:0:0:0:
329,192,59408,1,0,0:0:0:0:
475,192,59408,1,0,0:0:0:0:
109,192,59408,1,0,0:0:0:0:
182,192,59564,1,0,0:0:0:0:
402,192,59564,1,0,0:0:0:0:
182,192,59719,1,0,0:0:0:0:
256,192,59719,1,0,0:0:0:0:
475,192,59719,1,0,0:0:0:0:
402,192,59719,1,0,0:0:0:0:
36,192,59719,1,0,0:0:0:0:
109,192,59875,1,0,0:0:0:0:
329,192,59875,1,0,0:0:0:0:
36,192,60030,1,0,0:0:0:0:
182,192,60030,1,0,0:0:0:0:
256,192,60030,1,0,0:0:0:0:
402,192,60030,1,0,0:0:0:0:
475,192,60030,1,0,0:0:0:0:
329,192,60030,1,0,0:0:0:0:
109,192,60186,1,0,0:0:0:0:
329,192,60186,1,0,0:0:0:0:
36,192,60341,1,0,0:0:0:0:
256,192,60341,1,0,0:0:0:0:
402,192,60341,1,0,0:0:0:0:
109,192,60341,1,0,0:0:0:0:
329,192,60341,1,0,0:0:0:0:
182,192,60497,1,0,0:0:0:0:
402,192,60497,1,0,0:0:0:0:
256,192,60652,1,0,0:0:0:0:
329,192,60652,1,0,0:0:0:0:
36,192,60652,1,0,0:0:0:0:
109,192,60652,1,0,0:0:0:0:
182,192,60652,1,0,0:0:0:0:
475,192,60652,1,0,0:0:0:0:
182,192,60808,1,0,0:0:0:0:
36,192,60808,1,0,0:0:0:0:
109,192,60963,1,0,0:0:0:0:
182,192,60963,1,0,0:0:0:0:
329,192,60963,1,0,0:0:0:0:
256,192,60963,1,0,0:0:0:0:
402,192,60963,1,0,0:0:0:0:
475,192,60963,1,0,0:0:0:0:
329,192,61119,1,0,0:0:0:0:
182,192,61119,1,0,0:0:0:0:
36,192,61274,1,0,0:0:0:0:
109,192,61274,1,0,0:0:0:0:
256,192,61274,1,0,0:0:0:0:
329,192,61274,1,0,0:0:0:0:
402,192,61274,1,0,0:0:0:0:
475,192,61274,1,0,0:0:0:0:
329,192,61430,1,0,0:0:0:0:
475,192,61430,1,0,0:0:0:0:
182,192,61430,1,0,0:0:0:0:
36,192,61585,1,0,0:0:0:0:
182,192,61585,1,0,0:0:0:0:
256,192,61585,1,0,0:0:0:0:
329,192,61585,1,0,0:0:0:0:
402,192,61585,1,0,0:0:0:0:
475,192,61585,1,0,0:0:0:0:
36,192,61741,1,0,0:0:0:0:
182,192,61741,1,0,0:0:0:0:
329,192,61741,1,0,0:0:0:0:
109,192,61897,1,0,0:0:0:0:
36,192,61897,1,0,0:0:0:0:
256,192,61897,1,0,0:0:0:0:
329,192,61897,1,0,0:0:0:0:
402,192,61897,1,0,0:0:0:0:
475,192,61897,1,0,0:0:0:0:
109,192,62052,1,0,0:0:0:0:
256,192,62052,1,0,0:0:0:0:
402,192,62052,1,0,0:0:0:0:
36,192,62208,1,0,0:0:0:0:
182,192,62208,1,0,0:0:0:0:
256,192,62208,1,0,0:0:0:0:
329,192,62208,1,0,0:0:0:0:
402,192,62208,1,0,0:0:0:0:
475,192,62208,1,0,0:0:0:0:
36,192,62363,1,0,0:0:0:0:
256,192,62363,1,0,0:0:0:0:
475,192,62363,1,0,0:0:0:0:
36,192,62519,1,0,0:0:0:0:
109,192,62519,1,0,0:0:0:0:
182,192,62519,1,0,0:0:0:0:
329,192,62519,1,0,0:0:0:0:
402,192,62519,1,0,0:0:0:0:
475,192,62519,1,0,0:0:0:0:
109,192,62674,1,0,0:0:0:0:
256,192,62674,1,0,0:0:0:0:
402,192,62674,1,0,0:0:0:0:
36,192,62830,1,0,0:0:0:0:
182,192,62830,1,0,0:0:0:0:
329,192,62830,1,0,0:0:0:0:
109,192,62830,1,0,0:0:0:0:
402,192,62830,1,0,0:0:0:0:
475,192,62830,1,0,0:0:0:0:
256,192,62907,1,0,0:0:0:0:
36,192,62985,1,0,0:0:0:0:
475,192,62985,1,0,0:0:0:0:
256,192,63063,1,0,0:0:0:0:
109,192,63141,1,0,0:0:0:0:
182,192,63141,1,0,0:0:0:0:
329,192,63141,1,0,0:0:0:0:
402,192,63141,1,0,0:0:0:0:
182,192,63296,1,0,0:0:0:0:
109,192,63296,1,0,0:0:0:0:
36,192,63296,1,0,0:0:0:0:
329,192,63296,1,0,0:0:0:0:
402,192,63296,1,0,0:0:0:0:
475,192,63296,1,0,0:0:0:0:
182,192,63452,1,0,0:0:0:0:
36,192,63452,1,0,0:0:0:0:
256,192,63452,1,0,0:0:0:0:
329,192,63452,1,0,0:0:0:0:
475,192,63452,1,0,0:0:0:0:
182,192,63607,1,0,0:0:0:0:
402,192,63607,1,0,0:0:0:0:
256,192,63763,1,0,0:0:0:0:
182,192,63763,1,0,0:0:0:0:
329,192,63763,1,0,0:0:0:0:
475,192,63763,1,0,0:0:0:0:
36,192,63763,1,0,0:0:0:0:
109,192,63763,1,0,0:0:0:0:
329,192,63918,1,0,0:0:0:0:
256,192,63918,1,0,0:0:0:0:
36,192,64074,1,0,0:0:0:0:
182,192,64074,1,0,0:0:0:0:
402,192,64074,1,0,0:0:0:0:
475,192,64074,1,0,0:0:0:0:
329,192,64074,1,0,0:0:0:0:
36,192,64229,1,0,0:0:0:0:
256,192,64229,1,0,0:0:0:0:
182,192,64385,1,0,0:0:0:0:
36,192,64385,1,0,0:0:0:0:
256,192,64385,1,0,0:0:0:0:
475,192,64385,1,0,0:0:0:0:
402,192,64385,1,0,0:0:0:0:
329,192,64385,1,0,0:0:0:0:
109,192,64540,1,0,0:0:0:0:
182,192,64540,1,0,0:0:0:0:
256,192,64696,1,0,0:0:0:0:
36,192,64696,1,0,0:0:0:0:
109,192,64696,1,0,0:0:0:0:
475,192,64696,1,0,0:0:0:0:
402,192,64696,1,0,0:0:0:0:
329,192,64851,1,0,0:0:0:0:
182,192,64851,1,0,0:0:0:0:
256,192,65007,1,0,0:0:0:0:
109,192,65007,1,0,0:0:0:0:
36,192,65007,1,0,0:0:0:0:
402,192,65007,1,0,0:0:0:0:
475,192,65007,1,0,0:0:0:0:
182,192,65007,1,0,0:0:0:0:
329,192,65162,1,0,0:0:0:0:
182,192,65162,1,0,0:0:0:0:
36,192,65318,1,0,0:0:0:0:
109,192,65318,1,0,0:0:0:0:
256,192,65318,1,0,0:0:0:0:
402,192,65318,1,0,0:0:0:0:
329,192,65318,1,0,0:0:0:0:
475,192,65318,1,0,0:0:0:0:
182,192,65474,1,0,0:0:0:0:
329,192,65474,1,0,0:0:0:0:
402,192,65474,1,0,0:0:0:0:
36,192,65629,1,0,0:0:0:0:
182,192,65629,1,0,0:0:0:0:
256,192,65629,1,0,0:0:0:0:
402,192,65629,1,0,0:0:0:0:
475,192,65629,1,0,0:0:0:0:
109,192,65629,1,0,0:0:0:0:
256,192,65785,1,0,0:0:0:0:
402,192,65785,1,0,0:0:0:0:
475,192,65785,1,0,0:0:0:0:
36,192,65940,1,0,0:0:0:0:
182,192,65940,1,0,0:0:0:0:
402,192,65940,1,0,0:0:0:0:
329,192,65940,1,0,0:0:0:0:
109,192,65940,1,0,0:0:0:0:
475,192,65940,1,0,0:0:0:0:
182,192,66096,1,0,0:0:0:0:
109,192,66096,1,0,0:0:0:0:
36,192,66251,1,0,0:0:0:0:
256,192,66251,1,0,0:0:0:0:
182,192,66251,1,0,0:0:0:0:
329,192,66251,1,0,0:0:0:0:
402,192,66251,1,0,0:0:0:0:
475,192,66251,1,0,0:0:0:0:
329,192,66407,1,0,0:0:0:0:
256,192,66407,1,0,0:0:0:0:
109,192,66407,1,0,0:0:0:0:
36,192,66562,1,0,0:0:0:0:
109,192,66562,1,0,0:0:0:0:
256,192,66562,1,0,0:0:0:0:
329,192,66562,1,0,0:0:0:0:
182,192,66562,1,0,0:0:0:0:
475,192,66562,1,0,0:0:0:0:
182,192,66718,1,0,0:0:0:0:
329,192,66718,1,0,0:0:0:0:
402,192,66718,1,0,0:0:0:0:
36,192,66873,1,0,0:0:0:0:
182,192,66873,1,0,0:0:0:0:
329,192,66873,1,0,0:0:0:0:
256,192,66873,1,0,0:0:0:0:
475,192,66873,1,0,0:0:0:0:
402,192,66873,1,0,0:0:0:0:
256,192,67029,1,0,0:0:0:0:
402,192,67029,1,0,0:0:0:0:
475,192,67029,1,0,0:0:0:0:
36,192,67184,1,0,0:0:0:0:
182,192,67184,1,0,0:0:0:0:
109,192,67184,1,0,0:0:0:0:
402,192,67184,1,0,0:0:0:0:
329,192,67184,1,0,0:0:0:0:
475,192,67184,1,0,0:0:0:0:
36,192,67340,1,0,0:0:0:0:
256,192,67340,1,0,0:0:0:0:
475,192,67340,1,0,0:0:0:0:
109,192,67495,1,0,0:0:0:0:
182,192,67495,1,0,0:0:0:0:
329,192,67495,1,0,0:0:0:0:
402,192,67495,1,0,0:0:0:0:
36,192,67495,1,0,0:0:0:0:
475,192,67495,1,0,0:0:0:0:
36,192,67651,1,0,0:0:0:0:
256,192,67651,1,0,0:0:0:0:
475,192,67651,1,0,0:0:0:0:
182,192,67729,1,0,0:0:0:0:
329,192,67729,1,0,0:0:0:0:
36,192,67806,1,0,0:0:0:0:
475,192,67806,1,0,0:0:0:0:
109,192,67884,1,0,0:0:0:0:
402,192,67884,1,0,0:0:0:0:
329,192,67962,1,0,0:0:0:0:
182,192,67962,1,0,0:0:0:0:
256,192,68040,1,0,0:0:0:0:
329,192,68117,1,0,0:0:0:0:
475,192,68143,1,0,0:0:0:0:
36,192,68169,1,0,0:0:0:0:
182,192,68195,1,0,0:0:0:0:
329,192,68221,1,0,0:0:0:0:
475,192,68247,1,0,0:0:0:0:
36,192,68273,1,0,0:0:0:0:
182,192,68299,1,0,0:0:0:0:
329,192,68325,1,0,0:0:0:0:
475,192,68351,1,0,0:0:0:0:
36,192,68351,1,0,0:0:0:0:
182,192,68402,1,0,0:0:0:0:
329,192,68428,1,0,0:0:0:0:
475,192,68428,128,0,69362:0:0:0:0:
402,192,68428,128,0,68584:0:0:0:0:
256,192,68584,128,0,68739:0:0:0:0:
109,192,68584,1,0,0:0:0:0:
329,192,68739,128,0,68895:0:0:0:0:
36,192,68739,1,0,0:0:0:0:
182,192,68739,1,0,0:0:0:0:
402,192,68739,1,0,0:0:0:0:
182,192,68895,128,0,69050:0:0:0:0:
109,192,68895,1,0,0:0:0:0:
256,192,69050,128,0,69206:0:0:0:0:
36,192,69050,1,0,0:0:0:0:
329,192,69050,1,0,0:0:0:0:
109,192,69206,128,0,69362:0:0:0:0:
402,192,69206,1,0,0:0:0:0:
182,192,69362,128,0,69517:0:0:0:0:
329,192,69362,1,0,0:0:0:0:
36,192,69362,1,0,0:0:0:0:
402,192,69362,1,0,0:0:0:0:
36,192,69517,128,0,69673:0:0:0:0:
475,192,69517,1,0,0:0:0:0:
475,192,69673,128,0,69984:0:0:0:0:
256,192,69673,128,0,70917:0:0:0:0:
402,192,69673,1,0,0:0:0:0:
109,192,69673,1,0,0:0:0:0:
329,192,69828,1,0,0:0:0:0:
329,192,69984,128,0,70295:0:0:0:0:
36,192,69984,1,0,0:0:0:0:
402,192,69984,1,0,0:0:0:0:
109,192,69984,1,0,0:0:0:0:
182,192,70139,1,0,0:0:0:0:
182,192,70295,128,0,70606:0:0:0:0:
475,192,70295,1,0,0:0:0:0:
36,192,70295,1,0,0:0:0:0:
109,192,70372,1,0,0:0:0:0:
36,192,70450,1,0,0:0:0:0:
36,192,70606,128,0,70917:0:0:0:0:
109,192,70606,1,0,0:0:0:0:
329,192,70606,1,0,0:0:0:0:
475,192,70606,1,0,0:0:0:0:
182,192,70761,1,0,0:0:0:0:
475,192,70917,128,0,71383:0:0:0:0:
402,192,70917,128,0,71383:0:0:0:0:
109,192,70917,1,0,0:0:0:0:
329,192,70917,1,0,0:0:0:0:
182,192,71072,1,0,0:0:0:0:
36,192,71228,1,0,0:0:0:0:
256,192,71228,1,0,0:0:0:0:
329,192,71228,1,0,0:0:0:0:
182,192,71383,128,0,71850:0:0:0:0:
256,192,71383,128,0,71850:0:0:0:0:
109,192,71383,1,0,0:0:0:0:
36,192,71461,1,0,0:0:0:0:
109,192,71539,1,0,0:0:0:0:
402,192,71539,1,0,0:0:0:0:
475,192,71617,1,0,0:0:0:0:
402,192,71694,1,0,0:0:0:0:
329,192,71850,128,0,72161:0:0:0:0:
475,192,71850,128,0,72161:0:0:0:0:
36,192,71850,1,0,0:0:0:0:
109,192,71850,1,0,0:0:0:0:
402,192,71850,1,0,0:0:0:0:
256,192,72005,1,0,0:0:0:0:
182,192,72083,1,0,0:0:0:0:
256,192,72161,128,0,72550:0:0:0:0:
109,192,72161,128,0,72550:0:0:0:0:
36,192,72161,1,0,0:0:0:0:
402,192,72161,1,0,0:0:0:0:
182,192,72316,1,0,0:0:0:0:
36,192,72472,1,0,0:0:0:0:
329,192,72472,1,0,0:0:0:0:
475,192,72472,1,0,0:0:0:0:
109,192,72627,128,0,72705:0:0:0:0:
182,192,72627,128,0,72705:0:0:0:0:
402,192,72627,1,0,0:0:0:0:
329,192,72705,1,0,0:0:0:0:
36,192,72783,128,0,73094:0:0:0:0:
182,192,72783,128,0,73094:0:0:0:0:
256,192,72783,1,0,0:0:0:0:
109,192,72783,1,0,0:0:0:0:
475,192,72783,1,0,0:0:0:0:
402,192,72861,1,0,0:0:0:0:
329,192,72939,1,0,0:0:0:0:
109,192,72939,1,0,0:0:0:0:
402,192,73016,1,0,0:0:0:0:
475,192,73094,1,0,0:0:0:0:
256,192,73094,1,0,0:0:0:0:
109,192,73094,1,0,0:0:0:0:
402,192,73250,1,0,0:0:0:0:
182,192,73250,1,0,0:0:0:0:
109,192,73327,1,0,0:0:0:0:
329,192,73327,1,0,0:0:0:0:
36,192,73405,128,0,73483:0:0:0:0:
256,192,73405,128,0,73483:0:0:0:0:
475,192,73405,128,0,73483:0:0:0:0:
36,192,73716,128,0,73872:0:0:0:0:
256,192,73716,128,0,73872:0:0:0:0:
475,192,73716,128,0,73872:0:0:0:0:
109,192,73716,1,0,0:0:0:0:
402,192,73716,1,0,0:0:0:0:
402,192,73872,128,0,74027:0:0:0:0:
109,192,73872,128,0,74027:0:0:0:0:
329,192,73872,1,0,0:0:0:0:
182,192,73872,1,0,0:0:0:0:
182,192,74027,128,0,74183:0:0:0:0:
329,192,74027,128,0,74183:0:0:0:0:
256,192,74027,1,0,0:0:0:0:
36,192,74027,1,0,0:0:0:0:
475,192,74027,1,0,0:0:0:0:
475,192,74183,128,0,74338:0:0:0:0:
36,192,74183,128,0,74338:0:0:0:0:
402,192,74183,1,0,0:0:0:0:
109,192,74183,1,0,0:0:0:0:
329,192,74338,128,0,74494:0:0:0:0:
182,192,74338,128,0,74494:0:0:0:0:
109,192,74338,1,0,0:0:0:0:
256,192,74338,1,0,0:0:0:0:
402,192,74338,1,0,0:0:0:0:
109,192,74494,128,0,74649:0:0:0:0:
402,192,74494,128,0,74649:0:0:0:0:
36,192,74494,1,0,0:0:0:0:
475,192,74494,1,0,0:0:0:0:
475,192,74649,128,0,74805:0:0:0:0:
36,192,74649,128,0,74805:0:0:0:0:
182,192,74649,1,0,0:0:0:0:
329,192,74649,1,0,0:0:0:0:
256,192,74805,128,0,74960:0:0:0:0:
402,192,74805,1,0,0:0:0:0:
109,192,74805,1,0,0:0:0:0:
36,192,74960,128,0,75116:0:0:0:0:
475,192,74960,128,0,75116:0:0:0:0:
182,192,74960,1,0,0:0:0:0:
329,192,74960,1,0,0:0:0:0:
256,192,75116,128,0,75271:0:0:0:0:
402,192,75116,1,0,0:0:0:0:
109,192,75116,1,0,0:0:0:0:
109,192,75427,1,0,0:0:0:0:
182,192,75427,1,0,0:0:0:0:
256,192,75427,1,0,0:0:0:0:
36,192,75427,128,0,76204:0:0:0:0:
182,192,75582,1,0,0:0:0:0:
256,192,75582,1,0,0:0:0:0:
329,192,75582,1,0,0:0:0:0:
109,192,75582,128,0,76049:0:0:0:0:
329,192,75738,1,0,0:0:0:0:
256,192,75738,1,0,0:0:0:0:
402,192,75738,1,0,0:0:0:0:
182,192,75738,128,0,75893:0:0:0:0:
402,192,75893,1,0,0:0:0:0:
329,192,75893,1,0,0:0:0:0:
475,192,75893,1,0,0:0:0:0:
256,192,75893,1,0,0:0:0:0:
475,192,76049,128,0,76827:0:0:0:0:
329,192,76049,1,0,0:0:0:0:
256,192,76049,1,0,0:0:0:0:
402,192,76049,1,0,0:0:0:0:
182,192,76049,1,0,0:0:0:0:
402,192,76204,128,0,76671:0:0:0:0:
329,192,76204,1,0,0:0:0:0:
256,192,76204,1,0,0:0:0:0:
182,192,76204,1,0,0:0:0:0:
109,192,76204,1,0,0:0:0:0:
329,192,76360,128,0,76515:0:0:0:0:
109,192,76360,1,0,0:0:0:0:
182,192,76360,1,0,0:0:0:0:
36,192,76360,1,0,0:0:0:0:
36,192,76515,128,0,77138:0:0:0:0:
109,192,76515,1,0,0:0:0:0:
182,192,76515,1,0,0:0:0:0:
256,192,76515,1,0,0:0:0:0:
109,192,76671,128,0,77138:0:0:0:0:
182,192,76671,1,0,0:0:0:0:
329,192,76671,1,0,0:0:0:0:
256,192,76671,1,0,0:0:0:0:
182,192,76827,128,0,77138:0:0:0:0:
256,192,76827,1,0,0:0:0:0:
329,192,76827,1,0,0:0:0:0:
402,192,76827,1,0,0:0:0:0:
256,192,76982,128,0,77138:0:0:0:0:
329,192,76982,1,0,0:0:0:0:
402,192,76982,1,0,0:0:0:0:
475,192,76982,1,0,0:0:0:0:
475,192,77138,1,0,0:0:0:0:
402,192,77176,1,0,0:0:0:0:
329,192,77215,1,0,0:0:0:0:
182,192,77254,1,0,0:0:0:0:
109,192,77293,1,0,0:0:0:0:
36,192,77332,1,0,0:0:0:0:
402,192,77371,1,0,0:0:0:0:
329,192,77410,1,0,0:0:0:0:
182,192,77449,1,0,0:0:0:0:
109,192,77487,1,0,0:0:0:0:
36,192,77760,1,0,0:0:0:0:
475,192,77760,1,0,0:0:0:0:
256,192,77760,1,0,0:0:0:0:
402,192,77837,1,0,0:0:0:0:
109,192,77915,1,0,0:0:0:0:
256,192,77993,1,0,0:0:0:0:
475,192,78071,1,0,0:0:0:0:
329,192,78097,1,0,0:0:0:0:
182,192,78123,1,0,0:0:0:0:
36,192,78148,1,0,0:0:0:0:
402,192,78174,1,0,0:0:0:0:
256,192,78200,1,0,0:0:0:0:
109,192,78226,1,0,0:0:0:0:
475,192,78252,1,0,0:0:0:0:
329,192,78278,1,0,0:0:0:0:
182,192,78304,1,0,0:0:0:0:
36,192,78330,1,0,0:0:0:0:
402,192,78356,1,0,0:0:0:0:
256,192,78382,1,0,0:0:0:0:
109,192,78382,1,0,0:0:0:0:
475,192,78382,1,0,0:0:0:0:
329,192,78460,1,0,0:0:0:0:
182,192,78537,1,0,0:0:0:0:
402,192,78537,1,0,0:0:0:0:
109,192,78615,1,0,0:0:0:0:
256,192,78693,1,0,0:0:0:0:
36,192,78693,1,0,0:0:0:0:
329,192,78693,1,0,0:0:0:0:
402,192,78771,1,0,0:0:0:0:
182,192,78848,1,0,0:0:0:0:
475,192,78848,1,0,0:0:0:0:
109,192,78926,1,0,0:0:0:0:
36,192,79004,1,0,0:0:0:0:
329,192,79004,1,0,0:0:0:0:
402,192,79004,1,0,0:0:0:0:
256,192,79082,1,0,0:0:0:0:
182,192,79159,1,0,0:0:0:0:
475,192,79159,1,0,0:0:0:0:
256,192,79237,1,0,0:0:0:0:
329,192,79315,1,0,0:0:0:0:
109,192,79315,1,0,0:0:0:0:
402,192,79315,1,0,0:0:0:0:
182,192,79393,1,0,0:0:0:0:
256,192,79470,1,0,0:0:0:0:
36,192,79470,1,0,0:0:0:0:
402,192,79548,1,0,0:0:0:0:
182,192,79626,1,0,0:0:0:0:
329,192,79626,1,0,0:0:0:0:
475,192,79626,1,0,0:0:0:0:
256,192,79704,1,0,0:0:0:0:
36,192,79781,1,0,0:0:0:0:
182,192,79781,1,0,0:0:0:0:
109,192,79859,1,0,0:0:0:0:
256,192,79937,1,0,0:0:0:0:
402,192,79937,1,0,0:0:0:0:
475,192,79937,1,0,0:0:0:0:
182,192,80015,1,0,0:0:0:0:
256,192,80092,1,0,0:0:0:0:
36,192,80092,1,0,0:0:0:0:
329,192,80170,1,0,0:0:0:0:
109,192,80248,1,0,0:0:0:0:
402,192,80248,1,0,0:0:0:0:
182,192,80248,1,0,0:0:0:0:
256,192,80326,1,0,0:0:0:0:
329,192,80404,1,0,0:0:0:0:
36,192,80404,1,0,0:0:0:0:
402,192,80481,1,0,0:0:0:0:
329,192,80559,1,0,0:0:0:0:
109,192,80559,1,0,0:0:0:0:
475,192,80559,1,0,0:0:0:0:
182,192,80637,1,0,0:0:0:0:
109,192,80715,1,0,0:0:0:0:
256,192,80715,1,0,0:0:0:0:
402,192,80715,1,0,0:0:0:0:
36,192,80792,1,0,0:0:0:0:
109,192,80870,1,0,0:0:0:0:
329,192,80870,1,0,0:0:0:0:
475,192,80870,1,0,0:0:0:0:
256,192,80948,1,0,0:0:0:0:
182,192,81026,1,0,0:0:0:0:
36,192,81026,1,0,0:0:0:0:
109,192,81103,1,0,0:0:0:0:
36,192,81181,1,0,0:0:0:0:
182,192,81181,1,0,0:0:0:0:
402,192,81181,1,0,0:0:0:0:
329,192,81259,1,0,0:0:0:0:
256,192,81337,1,0,0:0:0:0:
475,192,81337,1,0,0:0:0:0:
329,192,81414,1,0,0:0:0:0:
402,192,81492,1,0,0:0:0:0:
182,192,81492,1,0,0:0:0:0:
109,192,81492,1,0,0:0:0:0:
256,192,81570,1,0,0:0:0:0:
329,192,81648,1,0,0:0:0:0:
36,192,81648,1,0,0:0:0:0:
256,192,81725,1,0,0:0:0:0:
182,192,81803,1,0,0:0:0:0:
109,192,81803,1,0,0:0:0:0:
329,192,81881,1,0,0:0:0:0:
475,192,81959,1,0,0:0:0:0:
36,192,81959,1,0,0:0:0:0:
182,192,82036,1,0,0:0:0:0:
256,192,82114,1,0,0:0:0:0:
402,192,82114,1,0,0:0:0:0:
109,192,82114,1,0,0:0:0:0:
329,192,82192,1,0,0:0:0:0:
182,192,82270,1,0,0:0:0:0:
475,192,82270,1,0,0:0:0:0:
109,192,82348,1,0,0:0:0:0:
36,192,82425,1,0,0:0:0:0:
256,192,82425,1,0,0:0:0:0:
402,192,82425,1,0,0:0:0:0:
329,192,82503,1,0,0:0:0:0:
182,192,82581,1,0,0:0:0:0:
475,192,82581,1,0,0:0:0:0:
329,192,82659,1,0,0:0:0:0:
109,192,82736,1,0,0:0:0:0:
36,192,82736,1,0,0:0:0:0:
402,192,82736,1,0,0:0:0:0:
182,192,82814,1,0,0:0:0:0:
256,192,82814,1,0,0:0:0:0:
475,192,82814,1,0,0:0:0:0:
109,192,82892,1,0,0:0:0:0:
36,192,82892,1,0,0:0:0:0:
402,192,82892,1,0,0:0:0:0:
256,192,82970,1,0,0:0:0:0:
182,192,82970,1,0,0:0:0:0:
475,192,82970,1,0,0:0:0:0:
109,192,83047,1,0,0:0:0:0:
36,192,83047,1,0,0:0:0:0:
402,192,83047,1,0,0:0:0:0:
182,192,83203,1,0,0:0:0:0:
256,192,83203,1,0,0:0:0:0:
402,192,83203,1,0,0:0:0:0:
109,192,83281,1,0,0:0:0:0:
36,192,83281,1,0,0:0:0:0:
329,192,83281,1,0,0:0:0:0:
256,192,83358,1,0,0:0:0:0:
182,192,83358,1,0,0:0:0:0:
402,192,83358,1,0,0:0:0:0:
475,192,83436,1,0,0:0:0:0:
36,192,83514,1,0,0:0:0:0:
182,192,83514,1,0,0:0:0:0:
256,192,83592,1,0,0:0:0:0:
329,192,83669,1,0,0:0:0:0:
475,192,83669,1,0,0:0:0:0:
109,192,83669,1,0,0:0:0:0:
402,192,83669,1,0,0:0:0:0:
256,192,83747,1,0,0:0:0:0:
182,192,83825,1,0,0:0:0:0:
36,192,83825,1,0,0:0:0:0:
256,192,83903,1,0,0:0:0:0:
329,192,83981,1,0,0:0:0:0:
475,192,83981,1,0,0:0:0:0:
109,192,83981,1,0,0:0:0:0:
36,192,84058,1,0,0:0:0:0:
109,192,84136,1,0,0:0:0:0:
329,192,84136,1,0,0:0:0:0:
256,192,84214,1,0,0:0:0:0:
182,192,84292,1,0,0:0:0:0:
402,192,84292,1,0,0:0:0:0:
475,192,84292,1,0,0:0:0:0:
36,192,84369,1,0,0:0:0:0:
109,192,84447,1,0,0:0:0:0:
329,192,84447,1,0,0:0:0:0:
36,192,84525,1,0,0:0:0:0:
256,192,84603,1,0,0:0:0:0:
402,192,84603,1,0,0:0:0:0:
182,192,84603,1,0,0:0:0:0:
475,192,84680,1,0,0:0:0:0:
329,192,84758,1,0,0:0:0:0:
109,192,84758,1,0,0:0:0:0:
402,192,84836,1,0,0:0:0:0:
256,192,84914,1,0,0:0:0:0:
36,192,84914,1,0,0:0:0:0:
182,192,84914,1,0,0:0:0:0:
475,192,84914,1,0,0:0:0:0:
329,192,84991,1,0,0:0:0:0:
402,192,85069,1,0,0:0:0:0:
475,192,85069,1,0,0:0:0:0:
256,192,85147,1,0,0:0:0:0:
109,192,85225,1,0,0:0:0:0:
329,192,85225,1,0,0:0:0:0:
36,192,85225,1,0,0:0:0:0:
475,192,85225,1,0,0:0:0:0:
182,192,85302,1,0,0:0:0:0:
329,192,85380,1,0,0:0:0:0:
402,192,85380,1,0,0:0:0:0:
182,192,85458,1,0,0:0:0:0:
36,192,85536,1,0,0:0:0:0:
256,192,85536,1,0,0:0:0:0:
475,192,85536,1,0,0:0:0:0:
402,192,85536,1,0,0:0:0:0:
109,192,85613,1,0,0:0:0:0:
329,192,85691,1,0,0:0:0:0:
475,192,85691,1,0,0:0:0:0:
256,192,85691,1,0,0:0:0:0:
182,192,85769,1,0,0:0:0:0:
36,192,85847,128,0,86391:0:0:0:0:
109,192,85847,128,0,86080:0:0:0:0:
402,192,85847,128,0,86080:0:0:0:0:
475,192,85847,128,0,86391:0:0:0:0:
256,192,85847,1,0,0:0:0:0:
109,192,86158,128,0,86935:0:0:0:0:
402,192,86158,128,0,86935:0:0:0:0:
329,192,86158,128,0,86935:0:0:0:0:
182,192,86158,128,0,86935:0:0:0:0:
36,192,86469,1,0,0:0:0:0:
475,192,86469,1,0,0:0:0:0:
256,192,86780,1,0,0:0:0:0:
475,192,86780,1,0,0:0:0:0:
36,192,87091,1,0,0:0:0:0:
109,192,87091,1,0,0:0:0:0:
182,192,87169,1,0,0:0:0:0:
256,192,87169,1,0,0:0:0:0:
402,192,87246,1,0,0:0:0:0:
329,192,87246,1,0,0:0:0:0:
36,192,87324,1,0,0:0:0:0:
475,192,87402,1,0,0:0:0:0:
402,192,87402,1,0,0:0:0:0:
329,192,87480,1,0,0:0:0:0:
256,192,87480,1,0,0:0:0:0:
109,192,87557,1,0,0:0:0:0:
182,192,87557,1,0,0:0:0:0:
475,192,87635,1,0,0:0:0:0:
36,192,87713,1,0,0:0:0:0:
109,192,87739,1,0,0:0:0:0:
256,192,87765,1,0,0:0:0:0:
329,192,87791,1,0,0:0:0:0:
402,192,87817,1,0,0:0:0:0:
475,192,87843,1,0,0:0:0:0:
36,192,87843,1,0,0:0:0:0:
109,192,87869,1,0,0:0:0:0:
182,192,87894,1,0,0:0:0:0:
329,192,87920,1,0,0:0:0:0:
402,192,87946,1,0,0:0:0:0:
475,192,87972,1,0,0:0:0:0:
36,192,87998,1,0,0:0:0:0:
109,192,88024,1,0,0:0:0:0:
182,192,88050,1,0,0:0:0:0:
256,192,88076,1,0,0:0:0:0:
402,192,88102,1,0,0:0:0:0:
475,192,88128,1,0,0:0:0:0:
36,192,88205,1,0,0:0:0:0:
109,192,88231,1,0,0:0:0:0:
182,192,88257,1,0,0:0:0:0:
256,192,88283,1,0,0:0:0:0:
329,192,88309,1,0,0:0:0:0:
475,192,88335,1,0,0:0:0:0:
109,192,88335,1,0,0:0:0:0:
36,192,88335,1,0,0:0:0:0:
182,192,88413,1,0,0:0:0:0:
256,192,88491,1,0,0:0:0:0:
329,192,88491,1,0,0:0:0:0:
36,192,88568,1,0,0:0:0:0:
109,192,88646,1,0,0:0:0:0:
182,192,88646,1,0,0:0:0:0:
402,192,88646,1,0,0:0:0:0:
329,192,88724,1,0,0:0:0:0:
256,192,88802,1,0,0:0:0:0:
36,192,88802,1,0,0:0:0:0:
109,192,88879,1,0,0:0:0:0:
182,192,88957,1,0,0:0:0:0:
329,192,88957,1,0,0:0:0:0:
402,192,88957,1,0,0:0:0:0:
256,192,89035,1,0,0:0:0:0:
182,192,89113,1,0,0:0:0:0:
475,192,89113,1,0,0:0:0:0:
109,192,89190,1,0,0:0:0:0:
36,192,89268,1,0,0:0:0:0:
329,192,89268,1,0,0:0:0:0:
256,192,89268,1,0,0:0:0:0:
402,192,89346,1,0,0:0:0:0:
475,192,89424,1,0,0:0:0:0:
182,192,89424,1,0,0:0:0:0:
256,192,89501,1,0,0:0:0:0:
329,192,89579,1,0,0:0:0:0:
402,192,89579,1,0,0:0:0:0:
109,192,89579,1,0,0:0:0:0:
36,192,89657,1,0,0:0:0:0:
182,192,89735,1,0,0:0:0:0:
256,192,89735,1,0,0:0:0:0:
329,192,89813,1,0,0:0:0:0:
402,192,89890,1,0,0:0:0:0:
475,192,89890,1,0,0:0:0:0:
109,192,89890,1,0,0:0:0:0:
182,192,89968,1,0,0:0:0:0:
256,192,90046,1,0,0:0:0:0:
329,192,90046,1,0,0:0:0:0:
182,192,90124,1,0,0:0:0:0:
109,192,90201,1,0,0:0:0:0:
36,192,90201,1,0,0:0:0:0:
402,192,90201,1,0,0:0:0:0:
329,192,90279,1,0,0:0:0:0:
256,192,90357,1,0,0:0:0:0:
475,192,90357,1,0,0:0:0:0:
402,192,90435,1,0,0:0:0:0:
329,192,90512,1,0,0:0:0:0:
36,192,90512,1,0,0:0:0:0:
182,192,90512,1,0,0:0:0:0:
109,192,90590,1,0,0:0:0:0:
182,192,90668,1,0,0:0:0:0:
402,192,90668,1,0,0:0:0:0:
329,192,90668,1,0,0:0:0:0:
256,192,90746,1,0,0:0:0:0:
182,192,90823,1,0,0:0:0:0:
402,192,90823,1,0,0:0:0:0:
475,192,90823,1,0,0:0:0:0:
109,192,90901,1,0,0:0:0:0:
36,192,90979,1,0,0:0:0:0:
329,192,90979,1,0,0:0:0:0:
256,192,91057,1,0,0:0:0:0:
182,192,91134,1,0,0:0:0:0:
109,192,91134,1,0,0:0:0:0:
402,192,91134,1,0,0:0:0:0:
329,192,91212,1,0,0:0:0:0:
402,192,91290,1,0,0:0:0:0:
475,192,91290,1,0,0:0:0:0:
256,192,91368,1,0,0:0:0:0:
109,192,91446,1,0,0:0:0:0:
36,192,91446,1,0,0:0:0:0:
329,192,91446,1,0,0:0:0:0:
256,192,91523,1,0,0:0:0:0:
182,192,91601,1,0,0:0:0:0:
109,192,91601,1,0,0:0:0:0:
329,192,91679,1,0,0:0:0:0:
256,192,91757,1,0,0:0:0:0:
182,192,91757,1,0,0:0:0:0:
402,192,91757,1,0,0:0:0:0:
475,192,91834,1,0,0:0:0:0:
329,192,91912,1,0,0:0:0:0:
36,192,91912,1,0,0:0:0:0:
109,192,91990,1,0,0:0:0:0:
182,192,92068,1,0,0:0:0:0:
402,192,92068,1,0,0:0:0:0:
475,192,92068,1,0,0:0:0:0:
329,192,92145,1,0,0:0:0:0:
256,192,92223,1,0,0:0:0:0:
36,192,92223,1,0,0:0:0:0:
109,192,92301,1,0,0:0:0:0:
182,192,92379,1,0,0:0:0:0:
402,192,92379,1,0,0:0:0:0:
329,192,92379,1,0,0:0:0:0:
36,192,92456,1,0,0:0:0:0:
109,192,92534,1,0,0:0:0:0:
256,192,92534,1,0,0:0:0:0:
402,192,92612,1,0,0:0:0:0:
182,192,92690,1,0,0:0:0:0:
36,192,92690,1,0,0:0:0:0:
329,192,92690,1,0,0:0:0:0:
109,192,92767,1,0,0:0:0:0:
256,192,92767,1,0,0:0:0:0:
475,192,92767,1,0,0:0:0:0:
182,192,92845,1,0,0:0:0:0:
329,192,92845,1,0,0:0:0:0:
36,192,92845,1,0,0:0:0:0:
256,192,92923,1,0,0:0:0:0:
109,192,92923,1,0,0:0:0:0:
475,192,92923,1,0,0:0:0:0:
329,192,93001,1,0,0:0:0:0:
182,192,93001,1,0,0:0:0:0:
36,192,93001,1,0,0:0:0:0:
182,192,93156,1,0,0:0:0:0:
329,192,93156,1,0,0:0:0:0:
475,192,93156,1,0,0:0:0:0:
402,192,93234,1,0,0:0:0:0:
256,192,93234,1,0,0:0:0:0:
36,192,93234,1,0,0:0:0:0:
182,192,93312,1,0,0:0:0:0:
475,192,93312,1,0,0:0:0:0:
329,192,93312,1,0,0:0:0:0:
36,192,93390,1,0,0:0:0:0:
109,192,93467,1,0,0:0:0:0:
182,192,93467,1,0,0:0:0:0:
402,192,93545,1,0,0:0:0:0:
329,192,93623,1,0,0:0:0:0:
256,192,93623,1,0,0:0:0:0:
36,192,93623,1,0,0:0:0:0:
109,192,93701,1,0,0:0:0:0:
182,192,93778,1,0,0:0:0:0:
402,192,93778,1,0,0:0:0:0:
329,192,93856,1,0,0:0:0:0:
256,192,93934,1,0,0:0:0:0:
109,192,93934,1,0,0:0:0:0:
475,192,93934,1,0,0:0:0:0:
36,192,94012,1,0,0:0:0:0:
109,192,94089,1,0,0:0:0:0:
182,192,94089,1,0,0:0:0:0:
329,192,94167,1,0,0:0:0:0:
475,192,94245,1,0,0:0:0:0:
256,192,94245,1,0,0:0:0:0:
182,192,94245,1,0,0:0:0:0:
402,192,94323,1,0,0:0:0:0:
329,192,94400,1,0,0:0:0:0:
109,192,94400,1,0,0:0:0:0:
36,192,94478,1,0,0:0:0:0:
109,192,94556,1,0,0:0:0:0:
182,192,94556,1,0,0:0:0:0:
402,192,94556,1,0,0:0:0:0:
329,192,94634,1,0,0:0:0:0:
256,192,94711,1,0,0:0:0:0:
475,192,94711,1,0,0:0:0:0:
402,192,94789,1,0,0:0:0:0:
329,192,94867,1,0,0:0:0:0:
182,192,94867,1,0,0:0:0:0:
36,192,94867,1,0,0:0:0:0:
109,192,94945,1,0,0:0:0:0:
256,192,95022,1,0,0:0:0:0:
402,192,95022,1,0,0:0:0:0:
109,192,95100,1,0,0:0:0:0:
36,192,95178,1,0,0:0:0:0:
182,192,95178,1,0,0:0:0:0:
329,192,95178,1,0,0:0:0:0:
109,192,95256,1,0,0:0:0:0:
256,192,95334,1,0,0:0:0:0:
475,192,95334,1,0,0:0:0:0:
402,192,95411,1,0,0:0:0:0:
329,192,95489,1,0,0:0:0:0:
182,192,95489,1,0,0:0:0:0:
109,192,95489,1,0,0:0:0:0:
402,192,95567,1,0,0:0:0:0:
475,192,95645,1,0,0:0:0:0:
36,192,95645,1,0,0:0:0:0:
329,192,95722,1,0,0:0:0:0:
256,192,95800,1,0,0:0:0:0:
182,192,95800,1,0,0:0:0:0:
109,192,95800,128,0,96111:0:0:0:0:
36,192,95800,128,0,96033:0:0:0:0:
475,192,95800,128,0,96033:0:0:0:0:
402,192,95800,128,0,96111:0:0:0:0:
329,192,95878,1,0,0:0:0:0:
256,192,95956,1,0,0:0:0:0:
182,192,96033,1,0,0:0:0:0:
36,192,96111,128,0,96889:0:0:0:0:
475,192,96111,128,0,96889:0:0:0:0:
329,192,96111,1,0,0:0:0:0:
256,192,96111,1,0,0:0:0:0:
182,192,96189,1,0,0:0:0:0:
329,192,96267,1,0,0:0:0:0:
109,192,96344,1,0,0:0:0:0:
402,192,96422,1,0,0:0:0:0:
256,192,96422,1,0,0:0:0:0:
109,192,96500,1,0,0:0:0:0:
329,192,96578,1,0,0:0:0:0:
182,192,96655,1,0,0:0:0:0:
402,192,96733,1,0,0:0:0:0:
256,192,96733,1,0,0:0:0:0:
109,192,96811,1,0,0:0:0:0:
329,192,96889,1,0,0:0:0:0:
182,192,96967,1,0,0:0:0:0:
402,192,97044,1,0,0:0:0:0:
475,192,97044,1,0,0:0:0:0:
182,192,97122,1,0,0:0:0:0:
36,192,97122,1,0,0:0:0:0:
329,192,97200,1,0,0:0:0:0:
475,192,97200,1,0,0:0:0:0:
109,192,97278,1,0,0:0:0:0:
36,192,97278,1,0,0:0:0:0:
256,192,97355,1,0,0:0:0:0:
329,192,97355,1,0,0:0:0:0:
182,192,97433,1,0,0:0:0:0:
36,192,97433,1,0,0:0:0:0:
329,192,97511,1,0,0:0:0:0:
475,192,97511,1,0,0:0:0:0:
182,192,97589,1,0,0:0:0:0:
109,192,97589,1,0,0:0:0:0:
329,192,97666,1,0,0:0:0:0:
402,192,97666,1,0,0:0:0:0:
36,192,97692,1,0,0:0:0:0:
109,192,97718,1,0,0:0:0:0:
182,192,97744,1,0,0:0:0:0:
256,192,97770,1,0,0:0:0:0:
329,192,97796,1,0,0:0:0:0:
402,192,97822,1,0,0:0:0:0:
475,192,97848,1,0,0:0:0:0:
36,192,97874,1,0,0:0:0:0:
109,192,97900,1,0,0:0:0:0:
182,192,97926,1,0,0:0:0:0:
256,192,97951,1,0,0:0:0:0:
36,192,97977,1,0,0:0:0:0:
329,192,97977,1,0,0:0:0:0:
475,192,97977,1,0,0:0:0:0:
402,192,98055,1,0,0:0:0:0:
256,192,98055,1,0,0:0:0:0:
109,192,98055,1,0,0:0:0:0:
182,192,98133,1,0,0:0:0:0:
36,192,98133,1,0,0:0:0:0:
329,192,98133,1,0,0:0:0:0:
475,192,98133,1,0,0:0:0:0:
402,192,98211,1,0,0:0:0:0:
256,192,98211,1,0,0:0:0:0:
109,192,98211,1,0,0:0:0:0:
182,192,98288,128,0,102799:0:0:0:0:
329,192,98288,128,0,102799:0:0:0:0:
475,192,98288,128,0,101710:0:0:0:0:
36,192,98288,128,0,102176:0:0:0:0:
402,192,101710,128,0,103265:0:0:0:0:
109,192,102176,128,0,103265:0:0:0:0:
256,192,102799,128,0,105442:0:0:0:0:
36,192,103265,128,0,105442:0:0:0:0:
475,192,103265,128,0,105442:0:0:0:0:
36,192,105753,1,0,0:0:0:0:
329,192,105831,1,0,0:0:0:0:
109,192,105909,1,0,0:0:0:0:
402,192,105987,1,0,0:0:0:0:
182,192,106064,1,0,0:0:0:0:
475,192,106142,1,0,0:0:0:0:
256,192,106220,1,0,0:0:0:0:
36,192,106298,1,0,0:0:0:0:
329,192,106376,1,0,0:0:0:0:
109,192,106453,1,0,0:0:0:0:
402,192,106531,1,0,0:0:0:0:
182,192,106609,1,0,0:0:0:0:
475,192,106687,1,0,0:0:0:0:
329,192,106687,1,0,0:0:0:0:
256,192,106764,1,0,0:0:0:0:
109,192,106764,1,0,0:0:0:0:
475,192,106842,1,0,0:0:0:0:
329,192,106842,1,0,0:0:0:0:
36,192,106920,1,0,0:0:0:0:
182,192,106920,1,0,0:0:0:0:
256,192,106998,1,0,0:0:0:0:
402,192,106998,1,0,0:0:0:0:
182,192,107075,1,0,0:0:0:0:
36,192,107075,1,0,0:0:0:0:
329,192,107153,1,0,0:0:0:0:
475,192,107153,1,0,0:0:0:0:
256,192,107231,1,0,0:0:0:0:
109,192,107231,1,0,0:0:0:0:
329,192,107309,1,0,0:0:0:0:
402,192,107309,1,0,0:0:0:0:
475,192,107309,1,0,0:0:0:0:
182,192,107386,1,0,0:0:0:0:
109,192,107386,1,0,0:0:0:0:
36,192,107386,1,0,0:0:0:0:
256,192,107464,1,0,0:0:0:0:
329,192,107464,1,0,0:0:0:0:
402,192,107464,1,0,0:0:0:0:
182,192,107542,1,0,0:0:0:0:
109,192,107542,1,0,0:0:0:0:
36,192,107542,1,0,0:0:0:0:
329,192,107620,1,0,0:0:0:0:
402,192,107620,1,0,0:0:0:0:
475,192,107620,1,0,0:0:0:0:
256,192,107697,1,0,0:0:0:0:
182,192,107697,1,0,0:0:0:0:
109,192,107697,1,0,0:0:0:0:
329,192,107775,1,0,0:0:0:0:
402,192,107775,1,0,0:0:0:0:
475,192,107775,1,0,0:0:0:0:
182,192,107853,1,0,0:0:0:0:
109,192,107853,1,0,0:0:0:0:
36,192,107853,1,0,0:0:0:0:
256,192,107931,1,0,0:0:0:0:
329,192,107931,1,0,0:0:0:0:
402,192,107931,1,0,0:0:0:0:
182,192,108008,1,0,0:0:0:0:
109,192,108008,1,0,0:0:0:0:
36,192,108008,1,0,0:0:0:0:
402,192,108086,1,0,0:0:0:0:
329,192,108086,1,0,0:0:0:0:
475,192,108086,1,0,0:0:0:0:
256,192,108164,1,0,0:0:0:0:
182,192,108164,1,0,0:0:0:0:
109,192,108164,1,0,0:0:0:0:
36,192,108242,1,0,0:0:0:0:
329,192,108242,1,0,0:0:0:0:
402,192,108242,1,0,0:0:0:0:
475,192,108242,1,0,0:0:0:0:
36,192,108475,1,0,0:0:0:0:
256,192,108475,1,0,0:0:0:0:
475,192,108475,1,0,0:0:0:0:
402,192,108708,1,0,0:0:0:0:
109,192,108708,1,0,0:0:0:0:
182,192,108942,1,0,0:0:0:0:
329,192,108942,1,0,0:0:0:0:
256,192,109175,1,0,0:0:0:0:
36,192,109253,1,0,0:0:0:0:
475,192,109253,1,0,0:0:0:0:
182,192,109330,1,0,0:0:0:0:
329,192,109330,1,0,0:0:0:0:
109,192,109486,1,0,0:0:0:0:
402,192,109486,1,0,0:0:0:0:
256,192,109719,1,0,0:0:0:0:
36,192,109953,1,0,0:0:0:0:
475,192,109953,1,0,0:0:0:0:
109,192,110186,1,0,0:0:0:0:
402,192,110186,1,0,0:0:0:0:
182,192,110419,1,0,0:0:0:0:
329,192,110419,1,0,0:0:0:0:
256,192,110575,1,0,0:0:0:0:
329,192,110652,1,0,0:0:0:0:
182,192,110652,1,0,0:0:0:0:
109,192,110730,1,0,0:0:0:0:
402,192,110730,1,0,0:0:0:0:
36,192,110963,1,0,0:0:0:0:
475,192,110963,1,0,0:0:0:0:
182,192,111197,1,0,0:0:0:0:
329,192,111197,1,0,0:0:0:0:
109,192,111430,1,0,0:0:0:0:
402,192,111430,1,0,0:0:0:0:
475,192,111663,1,0,0:0:0:0:
36,192,111663,1,0,0:0:0:0:
329,192,111819,1,0,0:0:0:0:
182,192,111819,1,0,0:0:0:0:
256,192,111897,1,0,0:0:0:0:
109,192,111974,1,0,0:0:0:0:
402,192,111974,1,0,0:0:0:0:
36,192,112208,1,0,0:0:0:0:
329,192,112208,1,0,0:0:0:0:
182,192,112441,1,0,0:0:0:0:
475,192,112441,1,0,0:0:0:0:
256,192,112674,1,0,0:0:0:0:
402,192,112674,1,0,0:0:0:0:
109,192,112907,1,0,0:0:0:0:
256,192,112907,1,0,0:0:0:0:
329,192,113063,1,0,0:0:0:0:
475,192,113063,1,0,0:0:0:0:
256,192,113141,1,0,0:0:0:0:
182,192,113218,1,0,0:0:0:0:
36,192,113218,1,0,0:0:0:0:
109,192,113452,1,0,0:0:0:0:
402,192,113452,1,0,0:0:0:0:
182,192,113685,1,0,0:0:0:0:
329,192,113685,1,0,0:0:0:0:
256,192,113918,1,0,0:0:0:0:
475,192,113918,1,0,0:0:0:0:
402,192,114152,1,0,0:0:0:0:
182,192,114152,1,0,0:0:0:0:
329,192,114307,1,0,0:0:0:0:
109,192,114307,1,0,0:0:0:0:
182,192,114385,1,0,0:0:0:0:
36,192,114463,1,0,0:0:0:0:
256,192,114463,1,0,0:0:0:0:
182,192,114696,1,0,0:0:0:0:
402,192,114696,1,0,0:0:0:0:
36,192,114929,1,0,0:0:0:0:
256,192,114929,1,0,0:0:0:0:
475,192,115162,1,0,0:0:0:0:
329,192,115162,1,0,0:0:0:0:
109,192,115396,1,0,0:0:0:0:
402,192,115396,1,0,0:0:0:0:
36,192,115551,1,0,0:0:0:0:
182,192,115551,1,0,0:0:0:0:
475,192,115629,1,0,0:0:0:0:
402,192,115707,1,0,0:0:0:0:
256,192,115707,1,0,0:0:0:0:
36,192,115940,1,0,0:0:0:0:
329,192,115940,1,0,0:0:0:0:
109,192,116173,1,0,0:0:0:0:
402,192,116173,1,0,0:0:0:0:
182,192,116407,1,0,0:0:0:0:
475,192,116407,1,0,0:0:0:0:
36,192,116640,1,0,0:0:0:0:
329,192,116640,1,0,0:0:0:0:
182,192,116795,1,0,0:0:0:0:
475,192,116795,1,0,0:0:0:0:
256,192,116873,1,0,0:0:0:0:
36,192,116951,1,0,0:0:0:0:
329,192,116951,1,0,0:0:0:0:
109,192,117184,1,0,0:0:0:0:
256,192,117184,1,0,0:0:0:0:
182,192,117418,1,0,0:0:0:0:
402,192,117418,1,0,0:0:0:0:
256,192,117651,1,0,0:0:0:0:
36,192,117651,1,0,0:0:0:0:
109,192,117729,1,0,0:0:0:0:
475,192,117729,1,0,0:0:0:0:
182,192,117806,1,0,0:0:0:0:
402,192,117806,1,0,0:0:0:0:
256,192,117884,1,0,0:0:0:0:
329,192,117884,1,0,0:0:0:0:
36,192,117962,1,0,0:0:0:0:
402,192,117962,1,0,0:0:0:0:
109,192,118040,1,0,0:0:0:0:
329,192,118040,1,0,0:0:0:0:
182,192,118117,1,0,0:0:0:0:
256,192,118117,1,0,0:0:0:0:
109,192,118195,1,0,0:0:0:0:
402,192,118195,1,0,0:0:0:0:
475,192,118195,1,0,0:0:0:0:
182,192,118428,1,0,0:0:0:0:
329,192,118428,1,0,0:0:0:0:
475,192,118506,1,0,0:0:0:0:
256,192,118662,1,0,0:0:0:0:
109,192,118662,1,0,0:0:0:0:
475,192,118817,1,0,0:0:0:0:
36,192,118895,1,0,0:0:0:0:
182,192,118895,1,0,0:0:0:0:
475,192,119128,1,0,0:0:0:0:
256,192,119128,1,0,0:0:0:0:
109,192,119128,1,0,0:0:0:0:
182,192,119284,1,0,0:0:0:0:
329,192,119284,1,0,0:0:0:0:
36,192,119362,1,0,0:0:0:0:
109,192,119439,1,0,0:0:0:0:
256,192,119439,1,0,0:0:0:0:
402,192,119439,1,0,0:0:0:0:
475,192,119673,1,0,0:0:0:0:
402,192,119673,1,0,0:0:0:0:
109,192,119750,1,0,0:0:0:0:
402,192,119906,1,0,0:0:0:0:
329,192,119906,1,0,0:0:0:0:
109,192,120061,1,0,0:0:0:0:
329,192,120139,1,0,0:0:0:0:
256,192,120139,1,0,0:0:0:0:
109,192,120372,1,0,0:0:0:0:
329,192,120372,1,0,0:0:0:0:
402,192,120372,1,0,0:0:0:0:
329,192,120528,1,0,0:0:0:0:
256,192,120528,1,0,0:0:0:0:
36,192,120606,1,0,0:0:0:0:
402,192,120683,1,0,0:0:0:0:
182,192,120683,1,0,0:0:0:0:
256,192,120683,1,0,0:0:0:0:
329,192,120917,1,0,0:0:0:0:
109,192,120917,1,0,0:0:0:0:
402,192,120994,1,0,0:0:0:0:
256,192,121150,1,0,0:0:0:0:
36,192,121150,1,0,0:0:0:0:
402,192,121306,1,0,0:0:0:0:
475,192,121383,1,0,0:0:0:0:
182,192,121383,1,0,0:0:0:0:
402,192,121617,1,0,0:0:0:0:
256,192,121617,1,0,0:0:0:0:
36,192,121617,1,0,0:0:0:0:
182,192,121772,1,0,0:0:0:0:
475,192,121772,1,0,0:0:0:0:
329,192,121850,1,0,0:0:0:0:
36,192,121928,1,0,0:0:0:0:
256,192,121928,1,0,0:0:0:0:
402,192,121928,1,0,0:0:0:0:
182,192,122161,1,0,0:0:0:0:
475,192,122161,1,0,0:0:0:0:
36,192,122239,1,0,0:0:0:0:
402,192,122394,1,0,0:0:0:0:
256,192,122394,1,0,0:0:0:0:
36,192,122550,1,0,0:0:0:0:
329,192,122627,1,0,0:0:0:0:
182,192,122627,1,0,0:0:0:0:
36,192,122861,1,0,0:0:0:0:
256,192,122861,1,0,0:0:0:0:
402,192,122861,1,0,0:0:0:0:
109,192,123016,1,0,0:0:0:0:
475,192,123016,1,0,0:0:0:0:
256,192,123094,1,0,0:0:0:0:
329,192,123172,1,0,0:0:0:0:
182,192,123172,1,0,0:0:0:0:
36,192,123172,1,0,0:0:0:0:
402,192,123172,1,0,0:0:0:0:
109,192,123405,1,0,0:0:0:0:
36,192,123405,1,0,0:0:0:0:
329,192,123483,1,0,0:0:0:0:
402,192,123638,1,0,0:0:0:0:
475,192,123638,1,0,0:0:0:0:
329,192,123794,1,0,0:0:0:0:
182,192,123872,1,0,0:0:0:0:
109,192,123872,1,0,0:0:0:0:
329,192,124105,1,0,0:0:0:0:
402,192,124105,1,0,0:0:0:0:
36,192,124105,1,0,0:0:0:0:
256,192,124260,1,0,0:0:0:0:
109,192,124260,1,0,0:0:0:0:
329,192,124338,1,0,0:0:0:0:
182,192,124416,1,0,0:0:0:0:
402,192,124416,1,0,0:0:0:0:
475,192,124416,1,0,0:0:0:0:
36,192,124649,1,0,0:0:0:0:
329,192,124649,1,0,0:0:0:0:
182,192,124727,1,0,0:0:0:0:
256,192,124883,1,0,0:0:0:0:
475,192,124883,1,0,0:0:0:0:
182,192,125038,1,0,0:0:0:0:
36,192,125116,1,0,0:0:0:0:
329,192,125116,1,0,0:0:0:0:
182,192,125349,1,0,0:0:0:0:
475,192,125349,1,0,0:0:0:0:
256,192,125349,1,0,0:0:0:0:
182,192,125505,1,0,0:0:0:0:
109,192,125505,1,0,0:0:0:0:
402,192,125582,1,0,0:0:0:0:
256,192,125660,1,0,0:0:0:0:
109,192,125660,1,0,0:0:0:0:
36,192,125660,1,0,0:0:0:0:
329,192,125893,1,0,0:0:0:0:
475,192,125893,1,0,0:0:0:0:
256,192,125971,1,0,0:0:0:0:
182,192,126127,1,0,0:0:0:0:
36,192,126127,1,0,0:0:0:0:
256,192,126282,1,0,0:0:0:0:
329,192,126360,1,0,0:0:0:0:
475,192,126360,1,0,0:0:0:0:
256,192,126593,1,0,0:0:0:0:
182,192,126593,1,0,0:0:0:0:
36,192,126593,1,0,0:0:0:0:
329,192,126749,1,0,0:0:0:0:
402,192,126749,1,0,0:0:0:0:
256,192,126827,1,0,0:0:0:0:
475,192,126904,1,0,0:0:0:0:
182,192,126904,1,0,0:0:0:0:
109,192,126904,1,0,0:0:0:0:
256,192,127138,1,0,0:0:0:0:
36,192,127138,1,0,0:0:0:0:
475,192,127215,1,0,0:0:0:0:
109,192,127371,1,0,0:0:0:0:
329,192,127371,1,0,0:0:0:0:
475,192,127526,1,0,0:0:0:0:
182,192,127604,1,0,0:0:0:0:
402,192,127604,1,0,0:0:0:0:
475,192,127837,1,0,0:0:0:0:
329,192,127837,1,0,0:0:0:0:
109,192,127837,1,0,0:0:0:0:
256,192,127993,1,0,0:0:0:0:
36,192,127993,1,0,0:0:0:0:
182,192,128071,1,0,0:0:0:0:
475,192,128148,1,0,0:0:0:0:
109,192,128148,1,0,0:0:0:0:
329,192,128148,1,0,0:0:0:0:
402,192,128148,1,0,0:0:0:0:
36,192,130015,1,0,0:0:0:0:
109,192,130092,1,0,0:0:0:0:
182,192,130170,1,0,0:0:0:0:
256,192,130248,1,0,0:0:0:0:
329,192,130326,1,0,0:0:0:0:
36,192,130326,1,0,0:0:0:0:
109,192,130404,1,0,0:0:0:0:
402,192,130404,1,0,0:0:0:0:
475,192,130481,1,0,0:0:0:0:
182,192,130481,1,0,0:0:0:0:
36,192,130559,1,0,0:0:0:0:
256,192,130559,1,0,0:0:0:0:
329,192,130637,1,0,0:0:0:0:
109,192,130637,1,0,0:0:0:0:
402,192,130637,1,0,0:0:0:0:
475,192,130637,1,0,0:0:0:0:
256,192,130715,1,0,0:0:0:0:
182,192,130792,1,0,0:0:0:0:
36,192,130792,1,0,0:0:0:0:
329,192,130870,1,0,0:0:0:0:
109,192,130870,1,0,0:0:0:0:
475,192,130870,1,0,0:0:0:0:
256,192,130948,1,0,0:0:0:0:
36,192,130948,1,0,0:0:0:0:
402,192,130948,1,0,0:0:0:0:
182,192,131026,1,0,0:0:0:0:
36,192,131103,1,0,0:0:0:0:
109,192,131103,1,0,0:0:0:0:
329,192,131103,1,0,0:0:0:0:
475,192,131103,1,0,0:0:0:0:
256,192,131181,1,0,0:0:0:0:
182,192,131259,1,0,0:0:0:0:
402,192,131259,1,0,0:0:0:0:
36,192,131337,1,0,0:0:0:0:
109,192,131337,1,0,0:0:0:0:
329,192,131337,1,0,0:0:0:0:
256,192,131414,1,0,0:0:0:0:
475,192,131414,1,0,0:0:0:0:
182,192,131492,1,0,0:0:0:0:
109,192,131570,1,0,0:0:0:0:
36,192,131570,1,0,0:0:0:0:
402,192,131570,1,0,0:0:0:0:
475,192,131570,1,0,0:0:0:0:
329,192,131570,1,0,0:0:0:0:
256,192,131648,1,0,0:0:0:0:
475,192,131725,1,0,0:0:0:0:
36,192,131725,1,0,0:0:0:0:
182,192,131725,1,0,0:0:0:0:
402,192,131725,1,0,0:0:0:0:
329,192,131803,1,0,0:0:0:0:
109,192,131803,1,0,0:0:0:0:
36,192,131881,1,0,0:0:0:0:
256,192,131881,1,0,0:0:0:0:
402,192,131881,1,0,0:0:0:0:
475,192,131881,1,0,0:0:0:0:
109,192,131959,1,0,0:0:0:0:
182,192,132036,1,0,0:0:0:0:
402,192,132036,1,0,0:0:0:0:
256,192,132114,1,0,0:0:0:0:
475,192,132114,1,0,0:0:0:0:
36,192,132114,1,0,0:0:0:0:
329,192,132192,1,0,0:0:0:0:
109,192,132192,1,0,0:0:0:0:
182,192,132192,1,0,0:0:0:0:
402,192,132270,1,0,0:0:0:0:
256,192,132348,1,0,0:0:0:0:
475,192,132348,1,0,0:0:0:0:
36,192,132348,1,0,0:0:0:0:
109,192,132348,1,0,0:0:0:0:
329,192,132425,1,0,0:0:0:0:
402,192,132503,1,0,0:0:0:0:
182,192,132503,1,0,0:0:0:0:
256,192,132581,1,0,0:0:0:0:
475,192,132581,1,0,0:0:0:0:
36,192,132581,1,0,0:0:0:0:
109,192,132659,1,0,0:0:0:0:
329,192,132659,1,0,0:0:0:0:
182,192,132736,1,0,0:0:0:0:
256,192,132814,1,0,0:0:0:0:
402,192,132814,1,0,0:0:0:0:
475,192,132814,1,0,0:0:0:0:
36,192,132814,1,0,0:0:0:0:
109,192,132814,1,0,0:0:0:0:
329,192,132892,1,0,0:0:0:0:
182,192,132970,1,0,0:0:0:0:
402,192,132970,1,0,0:0:0:0:
109,192,132970,1,0,0:0:0:0:
36,192,132970,1,0,0:0:0:0:
329,192,133047,1,0,0:0:0:0:
475,192,133047,1,0,0:0:0:0:
182,192,133125,1,0,0:0:0:0:
256,192,133125,1,0,0:0:0:0:
109,192,133125,1,0,0:0:0:0:
36,192,133125,1,0,0:0:0:0:
402,192,133203,1,0,0:0:0:0:
329,192,133281,1,0,0:0:0:0:
475,192,133281,1,0,0:0:0:0:
36,192,133358,1,0,0:0:0:0:
182,192,133358,1,0,0:0:0:0:
256,192,133358,1,0,0:0:0:0:
329,192,133436,1,0,0:0:0:0:
402,192,133436,1,0,0:0:0:0:
475,192,133436,1,0,0:0:0:0:
109,192,133514,1,0,0:0:0:0:
182,192,133592,1,0,0:0:0:0:
256,192,133592,1,0,0:0:0:0:
402,192,133592,1,0,0:0:0:0:
475,192,133592,1,0,0:0:0:0:
36,192,133669,1,0,0:0:0:0:
109,192,133747,1,0,0:0:0:0:
329,192,133747,1,0,0:0:0:0:
182,192,133825,1,0,0:0:0:0:
402,192,133825,1,0,0:0:0:0:
475,192,133825,1,0,0:0:0:0:
109,192,133903,1,0,0:0:0:0:
329,192,133903,1,0,0:0:0:0:
256,192,133981,1,0,0:0:0:0:
182,192,134058,1,0,0:0:0:0:
329,192,134058,1,0,0:0:0:0:
402,192,134058,1,0,0:0:0:0:
475,192,134058,1,0,0:0:0:0:
36,192,134058,1,0,0:0:0:0:
109,192,134136,1,0,0:0:0:0:
182,192,134214,1,0,0:0:0:0:
256,192,134214,1,0,0:0:0:0:
329,192,134214,1,0,0:0:0:0:
475,192,134214,1,0,0:0:0:0:
402,192,134292,1,0,0:0:0:0:
109,192,134292,1,0,0:0:0:0:
256,192,134369,1,0,0:0:0:0:
329,192,134369,1,0,0:0:0:0:
182,192,134369,1,0,0:0:0:0:
36,192,134369,1,0,0:0:0:0:
475,192,134447,1,0,0:0:0:0:
402,192,134525,1,0,0:0:0:0:
182,192,134525,1,0,0:0:0:0:
329,192,134603,1,0,0:0:0:0:
36,192,134603,1,0,0:0:0:0:
109,192,134603,1,0,0:0:0:0:
256,192,134680,1,0,0:0:0:0:
475,192,134680,1,0,0:0:0:0:
402,192,134680,1,0,0:0:0:0:
329,192,134758,1,0,0:0:0:0:
402,192,134836,1,0,0:0:0:0:
182,192,134836,1,0,0:0:0:0:
36,192,134836,1,0,0:0:0:0:
475,192,134914,1,0,0:0:0:0:
256,192,134914,1,0,0:0:0:0:
109,192,134991,1,0,0:0:0:0:
402,192,134991,1,0,0:0:0:0:
36,192,135069,1,0,0:0:0:0:
182,192,135069,1,0,0:0:0:0:
475,192,135069,1,0,0:0:0:0:
329,192,135069,1,0,0:0:0:0:
402,192,135147,1,0,0:0:0:0:
256,192,135147,1,0,0:0:0:0:
109,192,135147,1,0,0:0:0:0:
182,192,135225,1,0,0:0:0:0:
329,192,135225,1,0,0:0:0:0:
256,192,135302,1,0,0:0:0:0:
36,192,135302,1,0,0:0:0:0:
109,192,135302,1,0,0:0:0:0:
402,192,135302,1,0,0:0:0:0:
475,192,135302,1,0,0:0:0:0:
182,192,135380,1,0,0:0:0:0:
36,192,135458,1,0,0:0:0:0:
109,192,135458,1,0,0:0:0:0:
402,192,135458,1,0,0:0:0:0:
475,192,135458,1,0,0:0:0:0:
329,192,135458,1,0,0:0:0:0:
256,192,135536,1,0,0:0:0:0:
182,192,135536,1,0,0:0:0:0:
329,192,135613,1,0,0:0:0:0:
402,192,135613,1,0,0:0:0:0:
475,192,135613,1,0,0:0:0:0:
36,192,135613,1,0,0:0:0:0:
109,192,135691,1,0,0:0:0:0:
182,192,135769,1,0,0:0:0:0:
329,192,135769,1,0,0:0:0:0:
475,192,135847,1,0,0:0:0:0:
36,192,135847,1,0,0:0:0:0:
256,192,135847,1,0,0:0:0:0:
109,192,135925,1,0,0:0:0:0:
402,192,135925,1,0,0:0:0:0:
329,192,135925,1,0,0:0:0:0:
182,192,136002,1,0,0:0:0:0:
329,192,136080,1,0,0:0:0:0:
256,192,136080,1,0,0:0:0:0:
36,192,136080,1,0,0:0:0:0:
475,192,136080,1,0,0:0:0:0:
182,192,136158,1,0,0:0:0:0:
109,192,136236,1,0,0:0:0:0:
402,192,136236,1,0,0:0:0:0:
36,192,136313,1,0,0:0:0:0:
256,192,136313,1,0,0:0:0:0:
475,192,136313,1,0,0:0:0:0:
402,192,136391,1,0,0:0:0:0:
182,192,136391,1,0,0:0:0:0:
329,192,136469,1,0,0:0:0:0:
475,192,136547,1,0,0:0:0:0:
36,192,136547,1,0,0:0:0:0:
109,192,136547,1,0,0:0:0:0:
256,192,136547,1,0,0:0:0:0:
182,192,136547,1,0,0:0:0:0:
402,192,136624,1,0,0:0:0:0:
329,192,136702,1,0,0:0:0:0:
256,192,136702,1,0,0:0:0:0:
36,192,136702,1,0,0:0:0:0:
109,192,136702,1,0,0:0:0:0:
402,192,136780,1,0,0:0:0:0:
475,192,136780,1,0,0:0:0:0:
329,192,136858,1,0,0:0:0:0:
182,192,136858,1,0,0:0:0:0:
109,192,136858,1,0,0:0:0:0:
36,192,136858,1,0,0:0:0:0:
256,192,136935,1,0,0:0:0:0:
402,192,137013,1,0,0:0:0:0:
475,192,137013,1,0,0:0:0:0:
36,192,137091,1,0,0:0:0:0:
109,192,137091,1,0,0:0:0:0:
182,192,137091,1,0,0:0:0:0:
256,192,137169,1,0,0:0:0:0:
329,192,137169,1,0,0:0:0:0:
402,192,137169,1,0,0:0:0:0:
36,192,137246,1,0,0:0:0:0:
109,192,137324,1,0,0:0:0:0:
256,192,137324,1,0,0:0:0:0:
475,192,137324,1,0,0:0:0:0:
402,192,137324,1,0,0:0:0:0:
182,192,137402,1,0,0:0:0:0:
36,192,137480,1,0,0:0:0:0:
329,192,137480,1,0,0:0:0:0:
109,192,137557,1,0,0:0:0:0:
256,192,137557,1,0,0:0:0:0:
475,192,137557,1,0,0:0:0:0:
182,192,137635,1,0,0:0:0:0:
402,192,137635,1,0,0:0:0:0:
475,192,137713,1,0,0:0:0:0:
329,192,137791,1,0,0:0:0:0:
256,192,137791,1,0,0:0:0:0:
109,192,137791,1,0,0:0:0:0:
36,192,137791,1,0,0:0:0:0:
182,192,137791,1,0,0:0:0:0:
402,192,137869,1,0,0:0:0:0:
475,192,137946,1,0,0:0:0:0:
36,192,137946,1,0,0:0:0:0:
182,192,137946,1,0,0:0:0:0:
329,192,137946,1,0,0:0:0:0:
402,192,138024,1,0,0:0:0:0:
329,192,138102,1,0,0:0:0:0:
109,192,138102,1,0,0:0:0:0:
182,192,138102,1,0,0:0:0:0:
36,192,138102,1,0,0:0:0:0:
475,192,138180,1,0,0:0:0:0:
256,192,138257,1,0,0:0:0:0:
402,192,138257,1,0,0:0:0:0:
36,192,138335,1,0,0:0:0:0:
109,192,138335,1,0,0:0:0:0:
329,192,138335,1,0,0:0:0:0:
182,192,138413,1,0,0:0:0:0:
402,192,138413,1,0,0:0:0:0:
475,192,138413,1,0,0:0:0:0:
256,192,138491,1,0,0:0:0:0:
329,192,138568,1,0,0:0:0:0:
402,192,138568,1,0,0:0:0:0:
36,192,138568,1,0,0:0:0:0:
109,192,138568,1,0,0:0:0:0:
182,192,138646,1,0,0:0:0:0:
402,192,138724,1,0,0:0:0:0:
475,192,138724,1,0,0:0:0:0:
256,192,138802,1,0,0:0:0:0:
36,192,138802,1,0,0:0:0:0:
329,192,138802,1,0,0:0:0:0:
109,192,138879,1,0,0:0:0:0:
402,192,138879,1,0,0:0:0:0:
182,192,138957,1,0,0:0:0:0:
329,192,139035,1,0,0:0:0:0:
475,192,139035,1,0,0:0:0:0:
256,192,139035,1,0,0:0:0:0:
36,192,139035,1,0,0:0:0:0:
402,192,139035,1,0,0:0:0:0:
182,192,139113,1,0,0:0:0:0:
109,192,139190,1,0,0:0:0:0:
36,192,139190,1,0,0:0:0:0:
329,192,139190,1,0,0:0:0:0:
475,192,139190,1,0,0:0:0:0:
256,192,139268,1,0,0:0:0:0:
402,192,139268,1,0,0:0:0:0:
182,192,139346,1,0,0:0:0:0:
109,192,139346,1,0,0:0:0:0:
36,192,139346,1,0,0:0:0:0:
329,192,139346,1,0,0:0:0:0:
475,192,139424,1,0,0:0:0:0:
402,192,139424,1,0,0:0:0:0:
109,192,139501,1,0,0:0:0:0:
182,192,139501,1,0,0:0:0:0:
256,192,139501,1,0,0:0:0:0:
329,192,139579,1,0,0:0:0:0:
402,192,139579,1,0,0:0:0:0:
475,192,139579,1,0,0:0:0:0:
182,192,139657,1,0,0:0:0:0:
109,192,139657,1,0,0:0:0:0:
36,192,139657,1,0,0:0:0:0:
256,192,139735,1,0,0:0:0:0:
329,192,139735,1,0,0:0:0:0:
475,192,139813,1,0,0:0:0:0:
182,192,139813,1,0,0:0:0:0:
109,192,139813,1,0,0:0:0:0:
36,192,139813,1,0,0:0:0:0:
402,192,139813,1,0,0:0:0:0:
256,192,139890,1,0,0:0:0:0:
402,192,139968,1,0,0:0:0:0:
475,192,139968,1,0,0:0:0:0:
329,192,139968,1,0,0:0:0:0:
256,192,140046,1,0,0:0:0:0:
182,192,140046,1,0,0:0:0:0:
109,192,140046,1,0,0:0:0:0:
36,192,140046,1,0,0:0:0:0:
329,192,140124,1,0,0:0:0:0:
402,192,140124,1,0,0:0:0:0:
475,192,140124,1,0,0:0:0:0:
256,192,140201,1,0,0:0:0:0:
182,192,140279,1,0,0:0:0:0:
109,192,140279,1,0,0:0:0:0:
36,192,140279,1,0,0:0:0:0:
402,192,140279,1,0,0:0:0:0:
475,192,140279,1,0,0:0:0:0:
329,192,140357,1,0,0:0:0:0:
256,192,140357,1,0,0:0:0:0:
402,192,140435,1,0,0:0:0:0:
475,192,140435,1,0,0:0:0:0:
182,192,140435,1,0,0:0:0:0:
109,192,140435,1,0,0:0:0:0:
36,192,140435,1,0,0:0:0:0:
329,192,140512,1,0,0:0:0:0:
256,192,140512,1,0,0:0:0:0:
182,192,140590,1,0,0:0:0:0:
109,192,140590,1,0,0:0:0:0:
36,192,140590,1,0,0:0:0:0:
402,192,140590,1,0,0:0:0:0:
475,192,140590,1,0,0:0:0:0:
329,192,140668,1,0,0:0:0:0:
256,192,140746,1,0,0:0:0:0:
36,192,140746,1,0,0:0:0:0:
109,192,140823,1,0,0:0:0:0:
402,192,140823,1,0,0:0:0:0:
475,192,140823,1,0,0:0:0:0:
329,192,140901,1,0,0:0:0:0:
182,192,140901,1,0,0:0:0:0:
256,192,140901,1,0,0:0:0:0:
36,192,140979,1,0,0:0:0:0:
182,192,141057,1,0,0:0:0:0:
329,192,141057,1,0,0:0:0:0:
402,192,141057,1,0,0:0:0:0:
109,192,141057,1,0,0:0:0:0:
475,192,141134,1,0,0:0:0:0:
36,192,141212,1,0,0:0:0:0:
256,192,141212,1,0,0:0:0:0:
109,192,141290,1,0,0:0:0:0:
329,192,141290,1,0,0:0:0:0:
475,192,141290,1,0,0:0:0:0:
182,192,141368,1,0,0:0:0:0:
402,192,141368,1,0,0:0:0:0:
256,192,141446,1,0,0:0:0:0:
36,192,141523,1,0,0:0:0:0:
109,192,141523,1,0,0:0:0:0:
402,192,141523,1,0,0:0:0:0:
329,192,141523,1,0,0:0:0:0:
182,192,141523,1,0,0:0:0:0:
256,192,141601,1,0,0:0:0:0:
182,192,141679,1,0,0:0:0:0:
36,192,141679,1,0,0:0:0:0:
402,192,141679,1,0,0:0:0:0:
475,192,141679,1,0,0:0:0:0:
109,192,141757,1,0,0:0:0:0:
329,192,141757,1,0,0:0:0:0:
36,192,141834,1,0,0:0:0:0:
256,192,141834,1,0,0:0:0:0:
402,192,141834,1,0,0:0:0:0:
475,192,141834,1,0,0:0:0:0:
329,192,141912,1,0,0:0:0:0:
402,192,141990,1,0,0:0:0:0:
475,192,141990,1,0,0:0:0:0:
182,192,141990,1,0,0:0:0:0:
36,192,141990,1,0,0:0:0:0:
256,192,142068,1,0,0:0:0:0:
329,192,142145,1,0,0:0:0:0:
475,192,142145,1,0,0:0:0:0:
182,192,142145,1,0,0:0:0:0:
109,192,142145,1,0,0:0:0:0:
36,192,142145,1,0,0:0:0:0:
402,192,142223,1,0,0:0:0:0:
256,192,142223,1,0,0:0:0:0:
109,192,142223,1,0,0:0:0:0:
475,192,142301,1,0,0:0:0:0:
329,192,142301,1,0,0:0:0:0:
182,192,142301,1,0,0:0:0:0:
36,192,142301,1,0,0:0:0:0:
109,192,142379,1,0,0:0:0:0:
36,192,142456,1,0,0:0:0:0:
256,192,142456,1,0,0:0:0:0:
402,192,142456,1,0,0:0:0:0:
329,192,142456,1,0,0:0:0:0:
182,192,142534,1,0,0:0:0:0:
109,192,142612,1,0,0:0:0:0:
36,192,142612,1,0,0:0:0:0:
402,192,142612,1,0,0:0:0:0:
475,192,142612,1,0,0:0:0:0:
329,192,142690,1,0,0:0:0:0:
182,192,142767,1,0,0:0:0:0:
109,192,142767,1,0,0:0:0:0:
36,192,142767,1,0,0:0:0:0:
475,192,142767,1,0,0:0:0:0:
402,192,142767,1,0,0:0:0:0:
256,192,142845,1,0,0:0:0:0:
182,192,142923,1,0,0:0:0:0:
109,192,142923,1,0,0:0:0:0:
36,192,142923,1,0,0:0:0:0:
402,192,142923,1,0,0:0:0:0:
475,192,143001,1,0,0:0:0:0:
329,192,143001,1,0,0:0:0:0:
256,192,143078,1,0,0:0:0:0:
182,192,143078,1,0,0:0:0:0:
36,192,143078,1,0,0:0:0:0:
402,192,143078,1,0,0:0:0:0:
329,192,143156,1,0,0:0:0:0:
109,192,143234,1,0,0:0:0:0:
475,192,143234,1,0,0:0:0:0:
36,192,143312,1,0,0:0:0:0:
402,192,143312,1,0,0:0:0:0:
182,192,143312,1,0,0:0:0:0:
256,192,143390,1,0,0:0:0:0:
329,192,143390,1,0,0:0:0:0:
475,192,143390,1,0,0:0:0:0:
109,192,143467,1,0,0:0:0:0:
182,192,143545,1,0,0:0:0:0:
329,192,143545,1,0,0:0:0:0:
402,192,143545,1,0,0:0:0:0:
36,192,143545,1,0,0:0:0:0:
256,192,143623,1,0,0:0:0:0:
475,192,143701,1,0,0:0:0:0:
402,192,143701,1,0,0:0:0:0:
182,192,143778,1,0,0:0:0:0:
329,192,143778,1,0,0:0:0:0:
36,192,143778,1,0,0:0:0:0:
109,192,143856,1,0,0:0:0:0:
256,192,143856,1,0,0:0:0:0:
182,192,143934,1,0,0:0:0:0:
109,192,144012,1,0,0:0:0:0:
36,192,144012,1,0,0:0:0:0:
329,192,144012,1,0,0:0:0:0:
402,192,144012,1,0,0:0:0:0:
475,192,144012,1,0,0:0:0:0:
256,192,144089,1,0,0:0:0:0:
182,192,144167,1,0,0:0:0:0:
109,192,144167,1,0,0:0:0:0:
36,192,144167,1,0,0:0:0:0:
402,192,144167,1,0,0:0:0:0:
329,192,144245,1,0,0:0:0:0:
475,192,144245,1,0,0:0:0:0:
256,192,144323,1,0,0:0:0:0:
182,192,144323,1,0,0:0:0:0:
109,192,144323,1,0,0:0:0:0:
36,192,144323,1,0,0:0:0:0:
402,192,144400,1,0,0:0:0:0:
329,192,144478,1,0,0:0:0:0:
475,192,144478,1,0,0:0:0:0:
36,192,144556,1,0,0:0:0:0:
182,192,144556,1,0,0:0:0:0:
256,192,144556,1,0,0:0:0:0:
475,192,144634,1,0,0:0:0:0:
402,192,144634,1,0,0:0:0:0:
109,192,144634,1,0,0:0:0:0:
329,192,144711,1,0,0:0:0:0:
256,192,144789,1,0,0:0:0:0:
182,192,144789,1,0,0:0:0:0:
36,192,144789,1,0,0:0:0:0:
402,192,144789,1,0,0:0:0:0:
329,192,144867,1,0,0:0:0:0:
402,192,144945,1,0,0:0:0:0:
475,192,144945,1,0,0:0:0:0:
36,192,145022,1,0,0:0:0:0:
109,192,145022,1,0,0:0:0:0:
182,192,145022,1,0,0:0:0:0:
256,192,145022,1,0,0:0:0:0:
329,192,145100,1,0,0:0:0:0:
402,192,145100,1,0,0:0:0:0:
475,192,145100,1,0,0:0:0:0:
36,192,145178,1,0,0:0:0:0:
109,192,145178,1,0,0:0:0:0:
182,192,145256,1,0,0:0:0:0:
256,192,145256,1,0,0:0:0:0:
329,192,145256,1,0,0:0:0:0:
475,192,145256,1,0,0:0:0:0:
402,192,145256,1,0,0:0:0:0:
36,192,145334,1,0,0:0:0:0:
109,192,145411,1,0,0:0:0:0:
182,192,145411,1,0,0:0:0:0:
475,192,145411,1,0,0:0:0:0:
402,192,145411,1,0,0:0:0:0:
329,192,145411,1,0,0:0:0:0:
36,192,145489,1,0,0:0:0:0:
256,192,145489,1,0,0:0:0:0:
182,192,145567,1,0,0:0:0:0:
109,192,145567,1,0,0:0:0:0:
329,192,145567,1,0,0:0:0:0:
475,192,145567,1,0,0:0:0:0:
36,192,145645,1,0,0:0:0:0:
256,192,145722,1,0,0:0:0:0:
402,192,145722,1,0,0:0:0:0:
109,192,145800,1,0,0:0:0:0:
329,192,145800,1,0,0:0:0:0:
475,192,145800,1,0,0:0:0:0:
182,192,145878,1,0,0:0:0:0:
402,192,145878,1,0,0:0:0:0:
36,192,145878,1,0,0:0:0:0:
256,192,145956,1,0,0:0:0:0:
329,192,146033,1,0,0:0:0:0:
475,192,146033,1,0,0:0:0:0:
109,192,146033,1,0,0:0:0:0:
36,192,146033,1,0,0:0:0:0:
182,192,146111,1,0,0:0:0:0:
256,192,146189,1,0,0:0:0:0:
475,192,146189,1,0,0:0:0:0:
36,192,146267,1,0,0:0:0:0:
109,192,146267,1,0,0:0:0:0:
329,192,146267,1,0,0:0:0:0:
256,192,146344,1,0,0:0:0:0:
475,192,146344,1,0,0:0:0:0:
182,192,146422,1,0,0:0:0:0:
109,192,146500,1,0,0:0:0:0:
36,192,146500,1,0,0:0:0:0:
402,192,146500,1,0,0:0:0:0:
329,192,146500,1,0,0:0:0:0:
475,192,146500,1,0,0:0:0:0:
256,192,146578,1,0,0:0:0:0:
182,192,146655,1,0,0:0:0:0:
36,192,146655,1,0,0:0:0:0:
402,192,146655,1,0,0:0:0:0:
109,192,146655,1,0,0:0:0:0:
329,192,146733,1,0,0:0:0:0:
475,192,146733,1,0,0:0:0:0:
36,192,146811,1,0,0:0:0:0:
182,192,146811,1,0,0:0:0:0:
109,192,146811,1,0,0:0:0:0:
256,192,146811,1,0,0:0:0:0:
402,192,146889,1,0,0:0:0:0:
329,192,146967,1,0,0:0:0:0:
109,192,146967,1,0,0:0:0:0:
256,192,146967,1,0,0:0:0:0:
182,192,146967,1,0,0:0:0:0:
475,192,147044,1,0,0:0:0:0:
402,192,147122,1,0,0:0:0:0:
329,192,147122,1,0,0:0:0:0:
256,192,147122,1,0,0:0:0:0:
182,192,147122,1,0,0:0:0:0:
36,192,147122,1,0,0:0:0:0:
109,192,147200,1,0,0:0:0:0:
475,192,147200,1,0,0:0:0:0:
329,192,147200,1,0,0:0:0:0:
402,192,147278,1,0,0:0:0:0:
256,192,147278,1,0,0:0:0:0:
182,192,147278,1,0,0:0:0:0:
36,192,147278,1,0,0:0:0:0:
109,192,147355,1,0,0:0:0:0:
36,192,147433,1,0,0:0:0:0:
402,192,147433,1,0,0:0:0:0:
475,192,147433,1,0,0:0:0:0:
256,192,147433,1,0,0:0:0:0:
182,192,147511,1,0,0:0:0:0:
109,192,147589,1,0,0:0:0:0:
256,192,147589,1,0,0:0:0:0:
329,192,147589,1,0,0:0:0:0:
475,192,147589,1,0,0:0:0:0:
36,192,147666,1,0,0:0:0:0:
109,192,147744,1,0,0:0:0:0:
182,192,147744,1,0,0:0:0:0:
329,192,147744,1,0,0:0:0:0:
402,192,147744,1,0,0:0:0:0:
475,192,147744,1,0,0:0:0:0:
36,192,147822,1,0,0:0:0:0:
182,192,147900,1,0,0:0:0:0:
256,192,147900,1,0,0:0:0:0:
329,192,147900,1,0,0:0:0:0:
475,192,147900,1,0,0:0:0:0:
109,192,147977,1,0,0:0:0:0:
36,192,147977,1,0,0:0:0:0:
329,192,148055,1,0,0:0:0:0:
256,192,148055,1,0,0:0:0:0:
402,192,148055,1,0,0:0:0:0:
475,192,148055,1,0,0:0:0:0:
182,192,148133,1,0,0:0:0:0:
109,192,148211,1,0,0:0:0:0:
36,192,148211,1,0,0:0:0:0:
475,192,148288,1,0,0:0:0:0:
256,192,148288,1,0,0:0:0:0:
402,192,148288,1,0,0:0:0:0:
182,192,148366,1,0,0:0:0:0:
36,192,148366,1,0,0:0:0:0:
329,192,148366,1,0,0:0:0:0:
109,192,148444,1,0,0:0:0:0:
256,192,148522,1,0,0:0:0:0:
36,192,148522,1,0,0:0:0:0:
402,192,148522,1,0,0:0:0:0:
475,192,148522,1,0,0:0:0:0:
182,192,148599,1,0,0:0:0:0:
109,192,148677,1,0,0:0:0:0:
329,192,148677,1,0,0:0:0:0:
256,192,148755,1,0,0:0:0:0:
475,192,148755,1,0,0:0:0:0:
36,192,148755,1,0,0:0:0:0:
402,192,148833,1,0,0:0:0:0:
182,192,148833,1,0,0:0:0:0:
109,192,148911,1,0,0:0:0:0:
475,192,148988,1,0,0:0:0:0:
36,192,148988,1,0,0:0:0:0:
256,192,148988,1,0,0:0:0:0:
182,192,148988,1,0,0:0:0:0:
329,192,148988,1,0,0:0:0:0:
402,192,149066,1,0,0:0:0:0:
36,192,149144,1,0,0:0:0:0:
182,192,149144,1,0,0:0:0:0:
329,192,149144,1,0,0:0:0:0:
109,192,149144,1,0,0:0:0:0:
402,192,149222,1,0,0:0:0:0:
256,192,149222,1,0,0:0:0:0:
329,192,149299,1,0,0:0:0:0:
475,192,149299,1,0,0:0:0:0:
182,192,149377,1,0,0:0:0:0:
36,192,149377,1,0,0:0:0:0:
329,192,149455,1,0,0:0:0:0:
475,192,149455,1,0,0:0:0:0:
256,192,149533,1,0,0:0:0:0:
36,192,149610,1,0,0:0:0:0:
182,192,149610,1,0,0:0:0:0:
475,192,149688,1,0,0:0:0:0:
329,192,149688,1,0,0:0:0:0:
182,192,149766,1,0,0:0:0:0:
36,192,149766,1,0,0:0:0:0:
256,192,149844,1,0,0:0:0:0:
475,192,149921,1,0,0:0:0:0:
329,192,149921,1,0,0:0:0:0:
109,192,149999,1,0,0:0:0:0:
256,192,149999,1,0,0:0:0:0:
36,192,150077,1,0,0:0:0:0:
329,192,150103,1,0,0:0:0:0:
109,192,150129,1,0,0:0:0:0:
402,192,150155,1,0,0:0:0:0:
182,192,150181,1,0,0:0:0:0:
475,192,150207,1,0,0:0:0:0:
256,192,150232,1,0,0:0:0:0:
36,192,150258,1,0,0:0:0:0:
329,192,150284,1,0,0:0:0:0:
109,192,150310,1,0,0:0:0:0:
402,192,150336,1,0,0:0:0:0:
182,192,150362,1,0,0:0:0:0:
475,192,150388,1,0,0:0:0:0:
256,192,150414,1,0,0:0:0:0:
36,192,150440,1,0,0:0:0:0:
329,192,150466,1,0,0:0:0:0:
109,192,150492,1,0,0:0:0:0:
402,192,150518,1,0,0:0:0:0:
475,192,150543,1,0,0:0:0:0:
182,192,150543,1,0,0:0:0:0:
256,192,150543,1,0,0:0:0:0:
36,192,150621,1,0,0:0:0:0:
329,192,150699,1,0,0:0:0:0:
109,192,150699,1,0,0:0:0:0:
256,192,150777,1,0,0:0:0:0:
402,192,150777,1,0,0:0:0:0:
36,192,150777,1,0,0:0:0:0:
475,192,150855,1,0,0:0:0:0:
329,192,150855,1,0,0:0:0:0:
182,192,150855,1,0,0:0:0:0:
256,192,150932,1,0,0:0:0:0:
329,192,151010,1,0,0:0:0:0:
182,192,151010,1,0,0:0:0:0:
36,192,151010,1,0,0:0:0:0:
109,192,151088,1,0,0:0:0:0:
256,192,151088,1,0,0:0:0:0:
475,192,151166,1,0,0:0:0:0:
182,192,151166,1,0,0:0:0:0:
402,192,151166,1,0,0:0:0:0:
329,192,151243,1,0,0:0:0:0:
36,192,151243,1,0,0:0:0:0:
109,192,151321,1,0,0:0:0:0:
256,192,151321,1,0,0:0:0:0:
475,192,151321,1,0,0:0:0:0:
182,192,151399,1,0,0:0:0:0:
475,192,151477,1,0,0:0:0:0:
329,192,151477,1,0,0:0:0:0:
402,192,151477,1,0,0:0:0:0:
109,192,151477,1,0,0:0:0:0:
36,192,151477,1,0,0:0:0:0:
256,192,151554,1,0,0:0:0:0:
475,192,151632,1,0,0:0:0:0:
402,192,151632,1,0,0:0:0:0:
36,192,151632,1,0,0:0:0:0:
182,192,151632,1,0,0:0:0:0:
329,192,151710,1,0,0:0:0:0:
109,192,151710,1,0,0:0:0:0:
256,192,151788,1,0,0:0:0:0:
36,192,151788,1,0,0:0:0:0:
475,192,151788,1,0,0:0:0:0:
182,192,151788,1,0,0:0:0:0:
402,192,151865,1,0,0:0:0:0:
329,192,151943,1,0,0:0:0:0:
475,192,151943,1,0,0:0:0:0:
182,192,151943,1,0,0:0:0:0:
109,192,151943,1,0,0:0:0:0:
402,192,152021,1,0,0:0:0:0:
109,192,152099,1,0,0:0:0:0:
36,192,152099,1,0,0:0:0:0:
475,192,152099,1,0,0:0:0:0:
256,192,152099,1,0,0:0:0:0:
329,192,152099,1,0,0:0:0:0:
182,192,152176,1,0,0:0:0:0:
402,192,152176,1,0,0:0:0:0:
36,192,152176,1,0,0:0:0:0:
109,192,152254,1,0,0:0:0:0:
256,192,152254,1,0,0:0:0:0:
329,192,152254,1,0,0:0:0:0:
475,192,152254,1,0,0:0:0:0:
182,192,152332,1,0,0:0:0:0:
256,192,152410,1,0,0:0:0:0:
402,192,152410,1,0,0:0:0:0:
475,192,152410,1,0,0:0:0:0:
109,192,152410,1,0,0:0:0:0:
36,192,152487,1,0,0:0:0:0:
182,192,152565,1,0,0:0:0:0:
256,192,152565,1,0,0:0:0:0:
329,192,152565,1,0,0:0:0:0:
402,192,152565,1,0,0:0:0:0:
109,192,152643,1,0,0:0:0:0:
36,192,152721,1,0,0:0:0:0:
256,192,152721,1,0,0:0:0:0:
329,192,152721,1,0,0:0:0:0:
402,192,152721,1,0,0:0:0:0:
475,192,152721,1,0,0:0:0:0:
109,192,152799,1,0,0:0:0:0:
182,192,152876,1,0,0:0:0:0:
329,192,152876,1,0,0:0:0:0:
402,192,152876,1,0,0:0:0:0:
475,192,152876,1,0,0:0:0:0:
109,192,152954,1,0,0:0:0:0:
256,192,152954,1,0,0:0:0:0:
36,192,153032,1,0,0:0:0:0:
182,192,153032,1,0,0:0:0:0:
475,192,153032,1,0,0:0:0:0:
402,192,153032,1,0,0:0:0:0:
109,192,153110,1,0,0:0:0:0:
402,192,153187,1,0,0:0:0:0:
329,192,153187,1,0,0:0:0:0:
36,192,153265,1,0,0:0:0:0:
182,192,153265,1,0,0:0:0:0:
475,192,153265,1,0,0:0:0:0:
256,192,153343,1,0,0:0:0:0:
329,192,153343,1,0,0:0:0:0:
109,192,153343,1,0,0:0:0:0:
402,192,153421,1,0,0:0:0:0:
182,192,153498,1,0,0:0:0:0:
475,192,153498,1,0,0:0:0:0:
36,192,153498,1,0,0:0:0:0:
256,192,153576,1,0,0:0:0:0:
109,192,153576,1,0,0:0:0:0:
182,192,153654,1,0,0:0:0:0:
329,192,153654,1,0,0:0:0:0:
475,192,153654,1,0,0:0:0:0:
109,192,153732,1,0,0:0:0:0:
256,192,153732,1,0,0:0:0:0:
182,192,153809,1,0,0:0:0:0:
475,192,153809,1,0,0:0:0:0:
36,192,153809,1,0,0:0:0:0:
329,192,153887,1,0,0:0:0:0:
36,192,153965,1,0,0:0:0:0:
109,192,153965,1,0,0:0:0:0:
182,192,153965,1,0,0:0:0:0:
402,192,153965,1,0,0:0:0:0:
475,192,153965,1,0,0:0:0:0:
256,192,154043,1,0,0:0:0:0:
329,192,154120,1,0,0:0:0:0:
475,192,154120,1,0,0:0:0:0:
109,192,154120,1,0,0:0:0:0:
36,192,154120,1,0,0:0:0:0:
182,192,154198,1,0,0:0:0:0:
402,192,154198,1,0,0:0:0:0:
256,192,154276,1,0,0:0:0:0:
475,192,154276,1,0,0:0:0:0:
109,192,154276,1,0,0:0:0:0:
36,192,154276,1,0,0:0:0:0:
329,192,154354,1,0,0:0:0:0:
109,192,154432,1,0,0:0:0:0:
182,192,154432,1,0,0:0:0:0:
402,192,154432,1,0,0:0:0:0:
475,192,154432,1,0,0:0:0:0:
329,192,154509,1,0,0:0:0:0:
109,192,154587,1,0,0:0:0:0:
36,192,154587,1,0,0:0:0:0:
256,192,154587,1,0,0:0:0:0:
475,192,154587,1,0,0:0:0:0:
402,192,154587,1,0,0:0:0:0:
182,192,154665,1,0,0:0:0:0:
36,192,154665,1,0,0:0:0:0:
329,192,154665,1,0,0:0:0:0:
109,192,154743,1,0,0:0:0:0:
256,192,154743,1,0,0:0:0:0:
402,192,154743,1,0,0:0:0:0:
475,192,154743,1,0,0:0:0:0:
182,192,154820,1,0,0:0:0:0:
36,192,154898,1,0,0:0:0:0:
109,192,154898,1,0,0:0:0:0:
475,192,154898,1,0,0:0:0:0:
402,192,154898,1,0,0:0:0:0:
256,192,154976,1,0,0:0:0:0:
329,192,154976,1,0,0:0:0:0:
182,192,154976,1,0,0:0:0:0:
36,192,155054,1,0,0:0:0:0:
109,192,155054,1,0,0:0:0:0:
402,192,155054,1,0,0:0:0:0:
475,192,155054,1,0,0:0:0:0:
329,192,155131,1,0,0:0:0:0:
256,192,155131,1,0,0:0:0:0:
109,192,155209,1,0,0:0:0:0:
402,192,155209,1,0,0:0:0:0:
475,192,155209,1,0,0:0:0:0:
182,192,155209,1,0,0:0:0:0:
36,192,155209,1,0,0:0:0:0:
329,192,155287,1,0,0:0:0:0:
36,192,155365,1,0,0:0:0:0:
402,192,155365,1,0,0:0:0:0:
256,192,155365,1,0,0:0:0:0:
109,192,155365,1,0,0:0:0:0:
475,192,155365,1,0,0:0:0:0:
182,192,155442,1,0,0:0:0:0:
329,192,155442,1,0,0:0:0:0:
36,192,155520,1,0,0:0:0:0:
109,192,155520,1,0,0:0:0:0:
402,192,155520,1,0,0:0:0:0:
256,192,155520,1,0,0:0:0:0:
475,192,155520,1,0,0:0:0:0:
182,192,155598,1,0,0:0:0:0:
329,192,155676,1,0,0:0:0:0:
36,192,155676,1,0,0:0:0:0:
109,192,155753,1,0,0:0:0:0:
256,192,155753,1,0,0:0:0:0:
475,192,155753,1,0,0:0:0:0:
182,192,155831,1,0,0:0:0:0:
402,192,155831,1,0,0:0:0:0:
329,192,155831,1,0,0:0:0:0:
109,192,155909,1,0,0:0:0:0:
36,192,155987,1,0,0:0:0:0:
256,192,155987,1,0,0:0:0:0:
329,192,155987,1,0,0:0:0:0:
402,192,156064,1,0,0:0:0:0:
109,192,156064,1,0,0:0:0:0:
182,192,156142,1,0,0:0:0:0:
475,192,156142,1,0,0:0:0:0:
256,192,156142,1,0,0:0:0:0:
402,192,156220,1,0,0:0:0:0:
109,192,156220,1,0,0:0:0:0:
36,192,156298,1,0,0:0:0:0:
329,192,156298,1,0,0:0:0:0:
256,192,156298,1,0,0:0:0:0:
182,192,156376,1,0,0:0:0:0:
109,192,156453,1,0,0:0:0:0:
36,192,156453,1,0,0:0:0:0:
329,192,156453,1,0,0:0:0:0:
402,192,156453,1,0,0:0:0:0:
475,192,156453,1,0,0:0:0:0:
256,192,156531,1,0,0:0:0:0:
182,192,156609,1,0,0:0:0:0:
109,192,156609,1,0,0:0:0:0:
36,192,156609,1,0,0:0:0:0:
329,192,156609,1,0,0:0:0:0:
256,192,156687,1,0,0:0:0:0:
402,192,156687,1,0,0:0:0:0:
329,192,156764,1,0,0:0:0:0:
475,192,156764,1,0,0:0:0:0:
182,192,156764,1,0,0:0:0:0:
36,192,156764,1,0,0:0:0:0:
402,192,156842,1,0,0:0:0:0:
256,192,156920,1,0,0:0:0:0:
36,192,156920,1,0,0:0:0:0:
475,192,156920,1,0,0:0:0:0:
109,192,156920,1,0,0:0:0:0:
182,192,156998,1,0,0:0:0:0:
109,192,157075,1,0,0:0:0:0:
256,192,157075,1,0,0:0:0:0:
402,192,157075,1,0,0:0:0:0:
475,192,157075,1,0,0:0:0:0:
36,192,157075,1,0,0:0:0:0:
182,192,157153,1,0,0:0:0:0:
329,192,157153,1,0,0:0:0:0:
475,192,157153,1,0,0:0:0:0:
36,192,157231,1,0,0:0:0:0:
256,192,157231,1,0,0:0:0:0:
402,192,157231,1,0,0:0:0:0:
109,192,157231,1,0,0:0:0:0:
329,192,157309,1,0,0:0:0:0:
182,192,157386,1,0,0:0:0:0:
36,192,157386,1,0,0:0:0:0:
402,192,157386,1,0,0:0:0:0:
475,192,157386,1,0,0:0:0:0:
109,192,157464,1,0,0:0:0:0:
36,192,157542,1,0,0:0:0:0:
182,192,157542,1,0,0:0:0:0:
329,192,157542,1,0,0:0:0:0:
402,192,157542,1,0,0:0:0:0:
256,192,157620,1,0,0:0:0:0:
109,192,157697,1,0,0:0:0:0:
36,192,157697,1,0,0:0:0:0:
402,192,157697,1,0,0:0:0:0:
475,192,157697,1,0,0:0:0:0:
182,192,157697,1,0,0:0:0:0:
329,192,157775,1,0,0:0:0:0:
256,192,157853,1,0,0:0:0:0:
36,192,157853,1,0,0:0:0:0:
475,192,157853,1,0,0:0:0:0:
182,192,157853,1,0,0:0:0:0:
402,192,157931,1,0,0:0:0:0:
109,192,157931,1,0,0:0:0:0:
36,192,158008,1,0,0:0:0:0:
329,192,158008,1,0,0:0:0:0:
256,192,158008,1,0,0:0:0:0:
475,192,158008,1,0,0:0:0:0:
109,192,158086,1,0,0:0:0:0:
256,192,158164,1,0,0:0:0:0:
182,192,158164,1,0,0:0:0:0:
402,192,158242,1,0,0:0:0:0:
475,192,158242,1,0,0:0:0:0:
36,192,158242,1,0,0:0:0:0:
256,192,158320,1,0,0:0:0:0:
329,192,158320,1,0,0:0:0:0:
109,192,158320,1,0,0:0:0:0:
36,192,158397,1,0,0:0:0:0:
109,192,158475,1,0,0:0:0:0:
329,192,158475,1,0,0:0:0:0:
475,192,158475,1,0,0:0:0:0:
402,192,158553,1,0,0:0:0:0:
256,192,158553,1,0,0:0:0:0:
329,192,158631,1,0,0:0:0:0:
36,192,158631,1,0,0:0:0:0:
182,192,158631,1,0,0:0:0:0:
256,192,158708,1,0,0:0:0:0:
402,192,158708,1,0,0:0:0:0:
109,192,158786,1,0,0:0:0:0:
329,192,158786,1,0,0:0:0:0:
475,192,158786,1,0,0:0:0:0:
182,192,158864,1,0,0:0:0:0:
36,192,158942,1,0,0:0:0:0:
329,192,158942,1,0,0:0:0:0:
402,192,158942,1,0,0:0:0:0:
475,192,158942,1,0,0:0:0:0:
109,192,158942,1,0,0:0:0:0:
256,192,159019,1,0,0:0:0:0:
182,192,159097,1,0,0:0:0:0:
36,192,159097,1,0,0:0:0:0:
402,192,159097,1,0,0:0:0:0:
475,192,159097,1,0,0:0:0:0:
256,192,159175,1,0,0:0:0:0:
109,192,159175,1,0,0:0:0:0:
182,192,159253,1,0,0:0:0:0:
329,192,159253,1,0,0:0:0:0:
475,192,159253,1,0,0:0:0:0:
36,192,159253,1,0,0:0:0:0:
256,192,159330,1,0,0:0:0:0:
402,192,159330,1,0,0:0:0:0:
329,192,159408,1,0,0:0:0:0:
475,192,159408,1,0,0:0:0:0:
109,192,159408,1,0,0:0:0:0:
36,192,159408,1,0,0:0:0:0:
182,192,159408,1,0,0:0:0:0:
256,192,159486,1,0,0:0:0:0:
182,192,159564,1,0,0:0:0:0:
109,192,159564,1,0,0:0:0:0:
36,192,159564,1,0,0:0:0:0:
402,192,159564,1,0,0:0:0:0:
475,192,159564,1,0,0:0:0:0:
256,192,159641,1,0,0:0:0:0:
329,192,159641,1,0,0:0:0:0:
182,192,159719,1,0,0:0:0:0:
109,192,159719,1,0,0:0:0:0:
36,192,159719,1,0,0:0:0:0:
402,192,159719,1,0,0:0:0:0:
475,192,159719,1,0,0:0:0:0:
329,192,159797,1,0,0:0:0:0:
256,192,159875,1,0,0:0:0:0:
475,192,159875,1,0,0:0:0:0:
36,192,159875,1,0,0:0:0:0:
109,192,159875,1,0,0:0:0:0:
402,192,159875,1,0,0:0:0:0:
329,192,159953,1,0,0:0:0:0:
182,192,159953,1,0,0:0:0:0:
256,192,160030,1,0,0:0:0:0:
109,192,160030,1,0,0:0:0:0:
36,192,160030,1,0,0:0:0:0:
402,192,160030,1,0,0:0:0:0:
475,192,160030,1,0,0:0:0:0:
182,192,160108,1,0,0:0:0:0:
329,192,160186,1,0,0:0:0:0:
402,192,160212,1,0,0:0:0:0:
475,192,160238,1,0,0:0:0:0:
36,192,160264,1,0,0:0:0:0:
109,192,160289,1,0,0:0:0:0:
182,192,160315,1,0,0:0:0:0:
256,192,160341,1,0,0:0:0:0:
329,192,160367,1,0,0:0:0:0:
402,192,160393,1,0,0:0:0:0:
475,192,160419,1,0,0:0:0:0:
36,192,160445,1,0,0:0:0:0:
109,192,160471,1,0,0:0:0:0:
182,192,160497,1,0,0:0:0:0:
329,192,160497,1,0,0:0:0:0:
256,192,160497,1,0,0:0:0:0:
109,192,160575,1,0,0:0:0:0:
36,192,160652,1,0,0:0:0:0:
402,192,160652,1,0,0:0:0:0:
475,192,160652,1,0,0:0:0:0:
182,192,160730,1,0,0:0:0:0:
256,192,160730,1,0,0:0:0:0:
329,192,160730,1,0,0:0:0:0:
36,192,160808,1,0,0:0:0:0:
402,192,160808,1,0,0:0:0:0:
475,192,160808,1,0,0:0:0:0:
109,192,160886,1,0,0:0:0:0:
36,192,160963,1,0,0:0:0:0:
182,192,160963,1,0,0:0:0:0:
329,192,160963,1,0,0:0:0:0:
475,192,160963,1,0,0:0:0:0:
109,192,161041,1,0,0:0:0:0:
402,192,161041,1,0,0:0:0:0:
36,192,161119,1,0,0:0:0:0:
256,192,161119,1,0,0:0:0:0:
475,192,161119,1,0,0:0:0:0:
182,192,161197,1,0,0:0:0:0:
329,192,161197,1,0,0:0:0:0:
36,192,161274,1,0,0:0:0:0:
256,192,161274,1,0,0:0:0:0:
402,192,161274,1,0,0:0:0:0:
475,192,161274,1,0,0:0:0:0:
109,192,161352,1,0,0:0:0:0:
36,192,161430,1,0,0:0:0:0:
256,192,161430,1,0,0:0:0:0:
329,192,161430,1,0,0:0:0:0:
475,192,161430,1,0,0:0:0:0:
182,192,161430,1,0,0:0:0:0:
109,192,161508,1,0,0:0:0:0:
36,192,161585,1,0,0:0:0:0:
329,192,161585,1,0,0:0:0:0:
256,192,161585,1,0,0:0:0:0:
475,192,161585,1,0,0:0:0:0:
182,192,161585,1,0,0:0:0:0:
109,192,161663,1,0,0:0:0:0:
402,192,161663,1,0,0:0:0:0:
36,192,161741,1,0,0:0:0:0:
329,192,161741,1,0,0:0:0:0:
475,192,161741,1,0,0:0:0:0:
182,192,161741,1,0,0:0:0:0:
256,192,161819,1,0,0:0:0:0:
36,192,161897,1,0,0:0:0:0:
182,192,161897,1,0,0:0:0:0:
329,192,161897,1,0,0:0:0:0:
402,192,161897,1,0,0:0:0:0:
475,192,161897,1,0,0:0:0:0:
109,192,161974,1,0,0:0:0:0:
36,192,162052,1,0,0:0:0:0:
256,192,162052,1,0,0:0:0:0:
329,192,162052,1,0,0:0:0:0:
402,192,162052,1,0,0:0:0:0:
475,192,162052,1,0,0:0:0:0:
109,192,162130,1,0,0:0:0:0:
182,192,162130,1,0,0:0:0:0:
36,192,162208,1,0,0:0:0:0:
256,192,162208,1,0,0:0:0:0:
329,192,162208,1,0,0:0:0:0:
402,192,162208,1,0,0:0:0:0:
475,192,162208,1,0,0:0:0:0:
109,192,162285,1,0,0:0:0:0:
36,192,162363,1,0,0:0:0:0:
182,192,162363,1,0,0:0:0:0:
329,192,162363,1,0,0:0:0:0:
475,192,162363,1,0,0:0:0:0:
402,192,162441,1,0,0:0:0:0:
36,192,162519,1,0,0:0:0:0:
329,192,162519,1,0,0:0:0:0:
256,192,162519,1,0,0:0:0:0:
109,192,162519,1,0,0:0:0:0:
475,192,162519,1,0,0:0:0:0:
402,192,162596,1,0,0:0:0:0:
36,192,162674,1,0,0:0:0:0:
475,192,162674,1,0,0:0:0:0:
329,192,162674,1,0,0:0:0:0:
182,192,162674,1,0,0:0:0:0:
256,192,162674,1,0,0:0:0:0:
402,192,162752,1,0,0:0:0:0:
36,192,162830,1,0,0:0:0:0:
109,192,162830,1,0,0:0:0:0:
475,192,162830,1,0,0:0:0:0:
256,192,162830,1,0,0:0:0:0:
329,192,162830,1,0,0:0:0:0:
402,192,162907,1,0,0:0:0:0:
182,192,162907,1,0,0:0:0:0:
36,192,162985,1,0,0:0:0:0:
475,192,162985,1,0,0:0:0:0:
256,192,162985,1,0,0:0:0:0:
109,192,162985,1,0,0:0:0:0:
329,192,162985,1,0,0:0:0:0:
36,192,163218,1,0,0:0:0:0:
329,192,163218,1,0,0:0:0:0:
256,192,163218,1,0,0:0:0:0:
475,192,163218,1,0,0:0:0:0:
182,192,163218,1,0,0:0:0:0:
36,192,163452,1,0,0:0:0:0:
109,192,163452,1,0,0:0:0:0:
256,192,163452,1,0,0:0:0:0:
402,192,163452,1,0,0:0:0:0:
475,192,163452,1,0,0:0:0:0:
36,192,163685,1,0,0:0:0:0:
182,192,163685,1,0,0:0:0:0:
329,192,163685,1,0,0:0:0:0:
475,192,163685,1,0,0:0:0:0:
36,192,163918,1,0,0:0:0:0:
475,192,163918,1,0,0:0:0:0:
109,192,163918,1,0,0:0:0:0:
402,192,163918,1,0,0:0:0:0:
256,192,163918,1,0,0:0:0:0:
182,192,163996,1,0,0:0:0:0:
329,192,163996,1,0,0:0:0:0:
402,192,164074,1,0,0:0:0:0:
475,192,164074,1,0,0:0:0:0:
36,192,164074,1,0,0:0:0:0:
109,192,164074,1,0,0:0:0:0:
256,192,164074,1,0,0:0:0:0:
182,192,164152,1,0,0:0:0:0:
329,192,164152,1,0,0:0:0:0:
256,192,164229,1,0,0:0:0:0:
329,192,164255,1,0,0:0:0:0:
402,192,164281,1,0,0:0:0:0:
475,192,164307,1,0,0:0:0:0:
402,192,164333,1,0,0:0:0:0:
329,192,164359,1,0,0:0:0:0:
256,192,164385,1,0,0:0:0:0:
182,192,164411,1,0,0:0:0:0:
109,192,164437,1,0,0:0:0:0:
36,192,164463,1,0,0:0:0:0:
109,192,164489,1,0,0:0:0:0:
182,192,164514,1,0,0:0:0:0:
256,192,164540,1,0,0:0:0:0:
329,192,164566,1,0,0:0:0:0:
402,192,164592,1,0,0:0:0:0:
475,192,164618,1,0,0:0:0:0:
402,192,164644,1,0,0:0:0:0:
329,192,164670,1,0,0:0:0:0:
256,192,164696,1,0,0:0:0:0:
182,192,164722,1,0,0:0:0:0:
109,192,164748,1,0,0:0:0:0:
36,192,164774,1,0,0:0:0:0:
109,192,164800,1,0,0:0:0:0:
182,192,164825,1,0,0:0:0:0:
256,192,164851,1,0,0:0:0:0:
329,192,164877,1,0,0:0:0:0:
402,192,164903,1,0,0:0:0:0:
475,192,164929,1,0,0:0:0:0:
402,192,164955,1,0,0:0:0:0:
329,192,164981,1,0,0:0:0:0:
256,192,165007,1,0,0:0:0:0:
182,192,165033,1,0,0:0:0:0:
109,192,165059,1,0,0:0:0:0:
36,192,165085,1,0,0:0:0:0:
109,192,165111,1,0,0:0:0:0:
182,192,165137,1,0,0:0:0:0:
256,192,165162,1,0,0:0:0:0:
329,192,165188,1,0,0:0:0:0:
402,192,165214,1,0,0:0:0:0:
475,192,165240,1,0,0:0:0:0:
402,192,165266,1,0,0:0:0:0:
329,192,165292,1,0,0:0:0:0:
256,192,165318,1,0,0:0:0:0:
182,192,165344,1,0,0:0:0:0:
109,192,165370,1,0,0:0:0:0:
36,192,165396,1,0,0:0:0:0:
109,192,165422,1,0,0:0:0:0:
182,192,165448,1,0,0:0:0:0:
475,192,165474,1,0,0:0:0:0:
256,192,165474,1,0,0:0:0:0:
402,192,165785,1,0,0:0:0:0:
182,192,166096,1,0,0:0:0:0:
329,192,166407,1,0,0:0:0:0:
109,192,166718,1,0,0:0:0:0:
475,192,166873,1,0,0:0:0:0:
329,192,167029,1,0,0:0:0:0:
36,192,167106,1,0,0:0:0:0:
182,192,167184,1,0,0:0:0:0:
329,192,167340,1,0,0:0:0:0:
402,192,167495,1,0,0:0:0:0:
475,192,167651,1,0,0:0:0:0:
36,192,167962,1,0,0:0:0:0:
256,192,167962,1,0,0:0:0:0:
109,192,168040,1,0,0:0:0:0:
182,192,168117,1,0,0:0:0:0:
256,192,168195,1,0,0:0:0:0:
329,192,168273,1,0,0:0:0:0:
36,192,168273,1,0,0:0:0:0:
256,192,168351,1,0,0:0:0:0:
182,192,168428,1,0,0:0:0:0:
109,192,168506,1,0,0:0:0:0:
36,192,168584,1,0,0:0:0:0:
475,192,168584,1,0,0:0:0:0:
256,192,168584,1,0,0:0:0:0:
402,192,168662,1,0,0:0:0:0:
329,192,168739,1,0,0:0:0:0:
256,192,168817,1,0,0:0:0:0:
182,192,168895,1,0,0:0:0:0:
475,192,168895,1,0,0:0:0:0:
256,192,168973,1,0,0:0:0:0:
329,192,169050,1,0,0:0:0:0:
402,192,169128,1,0,0:0:0:0:
475,192,169206,1,0,0:0:0:0:
329,192,169206,1,0,0:0:0:0:
182,192,169206,1,0,0:0:0:0:
402,192,169284,1,0,0:0:0:0:
109,192,169284,1,0,0:0:0:0:
256,192,169284,1,0,0:0:0:0:
329,192,169362,1,0,0:0:0:0:
182,192,169362,1,0,0:0:0:0:
36,192,169362,1,0,0:0:0:0:
256,192,169439,1,0,0:0:0:0:
109,192,169439,1,0,0:0:0:0:
475,192,169439,1,0,0:0:0:0:
182,192,169517,1,0,0:0:0:0:
36,192,169517,1,0,0:0:0:0:
402,192,169517,1,0,0:0:0:0:
109,192,169595,1,0,0:0:0:0:
329,192,169595,1,0,0:0:0:0:
475,192,169595,1,0,0:0:0:0:
36,192,169673,1,0,0:0:0:0:
402,192,169673,1,0,0:0:0:0:
256,192,169673,1,0,0:0:0:0:
329,192,169750,1,0,0:0:0:0:
182,192,169750,1,0,0:0:0:0:
475,192,169750,1,0,0:0:0:0:
402,192,169828,1,0,0:0:0:0:
256,192,169828,1,0,0:0:0:0:
109,192,169828,1,0,0:0:0:0:
329,192,169906,1,0,0:0:0:0:
182,192,169906,1,0,0:0:0:0:
36,192,169906,1,0,0:0:0:0:
256,192,169984,1,0,0:0:0:0:
109,192,169984,1,0,0:0:0:0:
475,192,169984,1,0,0:0:0:0:
182,192,170061,1,0,0:0:0:0:
36,192,170061,1,0,0:0:0:0:
402,192,170061,1,0,0:0:0:0:
109,192,170139,1,0,0:0:0:0:
329,192,170139,1,0,0:0:0:0:
475,192,170139,1,0,0:0:0:0:
36,192,170217,1,0,0:0:0:0:
256,192,170217,1,0,0:0:0:0:
402,192,170217,1,0,0:0:0:0:
329,192,170295,1,0,0:0:0:0:
182,192,170295,1,0,0:0:0:0:
475,192,170295,1,0,0:0:0:0:
402,192,170372,1,0,0:0:0:0:
256,192,170372,1,0,0:0:0:0:
109,192,170372,1,0,0:0:0:0:
36,192,170450,1,0,0:0:0:0:
182,192,170450,1,0,0:0:0:0:
475,192,170450,1,0,0:0:0:0:
36,192,171694,1,0,0:0:0:0:
109,192,171694,1,0,0:0:0:0:
256,192,171694,1,0,0:0:0:0:
329,192,171694,1,0,0:0:0:0:
475,192,171694,1,0,0:0:0:0:
402,192,171694,1,0,0:0:0:0:
475,192,172005,1,0,0:0:0:0:
402,192,172005,1,0,0:0:0:0:
256,192,172005,1,0,0:0:0:0:
182,192,172005,1,0,0:0:0:0:
109,192,172005,1,0,0:0:0:0:
36,192,172005,1,0,0:0:0:0:
36,192,172161,1,0,0:0:0:0:
182,192,172161,1,0,0:0:0:0:
256,192,172161,1,0,0:0:0:0:
329,192,172161,1,0,0:0:0:0:
402,192,172161,1,0,0:0:0:0:
475,192,172161,1,0,0:0:0:0:
475,192,172316,1,0,0:0:0:0:
329,192,172316,1,0,0:0:0:0:
256,192,172316,1,0,0:0:0:0:
182,192,172316,1,0,0:0:0:0:
109,192,172316,1,0,0:0:0:0:
36,192,172316,1,0,0:0:0:0:
36,192,172472,1,0,0:0:0:0:
109,192,172472,1,0,0:0:0:0:
256,192,172472,1,0,0:0:0:0:
329,192,172472,1,0,0:0:0:0:
402,192,172472,1,0,0:0:0:0:
475,192,172472,1,0,0:0:0:0:
402,192,172627,1,0,0:0:0:0:
329,192,172627,1,0,0:0:0:0:
256,192,172627,1,0,0:0:0:0:
36,192,172627,1,0,0:0:0:0:
109,192,172627,1,0,0:0:0:0:
182,192,172627,1,0,0:0:0:0:
36,192,172783,1,0,0:0:0:0:
109,192,172783,1,0,0:0:0:0:
182,192,172783,1,0,0:0:0:0:
329,192,172783,1,0,0:0:0:0:
402,192,172783,1,0,0:0:0:0:
475,192,172783,1,0,0:0:0:0:
256,192,172939,1,0,0:0:0:0:
329,192,172939,1,0,0:0:0:0:
402,192,172939,1,0,0:0:0:0:
475,192,172939,1,0,0:0:0:0:
109,192,172939,1,0,0:0:0:0:
182,192,172939,1,0,0:0:0:0:
109,192,173094,1,0,0:0:0:0:
36,192,173094,1,0,0:0:0:0:
256,192,173094,1,0,0:0:0:0:
329,192,173094,1,0,0:0:0:0:
402,192,173094,1,0,0:0:0:0:
475,192,173094,1,0,0:0:0:0:
475,192,173250,1,0,0:0:0:0:
402,192,173250,1,0,0:0:0:0:
256,192,173250,1,0,0:0:0:0:
182,192,173250,1,0,0:0:0:0:
109,192,173250,1,0,0:0:0:0:
36,192,173250,1,0,0:0:0:0:
36,192,173405,1,0,0:0:0:0:
109,192,173405,1,0,0:0:0:0:
256,192,173405,1,0,0:0:0:0:
182,192,173405,1,0,0:0:0:0:
329,192,173405,1,0,0:0:0:0:
402,192,173405,1,0,0:0:0:0:
36,192,173716,1,0,0:0:0:0:
256,192,173716,1,0,0:0:0:0:
109,192,173716,1,0,0:0:0:0:
329,192,173716,1,0,0:0:0:0:
402,192,173716,1,0,0:0:0:0:
182,192,173716,1,0,0:0:0:0:
329,192,173872,1,0,0:0:0:0:
256,192,173872,1,0,0:0:0:0:
182,192,173872,1,0,0:0:0:0:
36,192,173872,1,0,0:0:0:0:
109,192,173872,1,0,0:0:0:0:
36,192,174027,1,0,0:0:0:0:
182,192,174027,1,0,0:0:0:0:
256,192,174027,1,0,0:0:0:0:
109,192,174027,1,0,0:0:0:0:
182,192,174183,1,0,0:0:0:0:
109,192,174183,1,0,0:0:0:0:
36,192,174183,1,0,0:0:0:0:
329,192,174183,1,0,0:0:0:0:
402,192,174183,1,0,0:0:0:0:
475,192,174183,1,0,0:0:0:0:
256,192,174338,1,0,0:0:0:0:
475,192,174338,1,0,0:0:0:0:
475,192,174494,1,0,0:0:0:0:
402,192,174494,1,0,0:0:0:0:
329,192,174494,1,0,0:0:0:0:
182,192,174494,1,0,0:0:0:0:
109,192,174494,1,0,0:0:0:0:
36,192,174494,1,0,0:0:0:0:
36,192,174649,1,0,0:0:0:0:
256,192,174649,1,0,0:0:0:0:
36,192,174805,1,0,0:0:0:0:
109,192,174805,1,0,0:0:0:0:
182,192,174805,1,0,0:0:0:0:
402,192,174805,1,0,0:0:0:0:
329,192,174805,1,0,0:0:0:0:
475,192,174805,1,0,0:0:0:0:
256,192,174960,1,0,0:0:0:0:
402,192,174960,1,0,0:0:0:0:
36,192,175116,1,0,0:0:0:0:
182,192,175116,1,0,0:0:0:0:
109,192,175116,1,0,0:0:0:0:
329,192,175116,1,0,0:0:0:0:
475,192,175116,1,0,0:0:0:0:
402,192,175116,1,0,0:0:0:0:
256,192,175271,1,0,0:0:0:0:
109,192,175271,1,0,0:0:0:0:
329,192,175427,1,0,0:0:0:0:
475,192,175466,1,0,0:0:0:0:
182,192,175505,1,0,0:0:0:0:
36,192,175543,1,0,0:0:0:0:
329,192,175582,1,0,0:0:0:0:
475,192,175621,1,0,0:0:0:0:
182,192,175660,1,0,0:0:0:0:
36,192,175699,1,0,0:0:0:0:
256,192,175738,1,0,0:0:0:0:
402,192,175738,1,0,0:0:0:0:
475,192,175816,1,0,0:0:0:0:
256,192,175893,1,0,0:0:0:0:
109,192,175893,1,0,0:0:0:0:
36,192,175971,1,0,0:0:0:0:
256,192,176049,1,0,0:0:0:0:
402,192,176049,1,0,0:0:0:0:
182,192,176127,1,0,0:0:0:0:
109,192,176204,1,0,0:0:0:0:
329,192,176204,1,0,0:0:0:0:
475,192,176282,1,0,0:0:0:0:
36,192,176360,1,0,0:0:0:0:
256,192,176360,1,0,0:0:0:0:
109,192,176438,1,0,0:0:0:0:
329,192,176438,1,0,0:0:0:0:
475,192,176515,1,0,0:0:0:0:
182,192,176593,1,0,0:0:0:0:
402,192,176593,1,0,0:0:0:0:
36,192,176671,1,0,0:0:0:0:
256,192,176671,1,0,0:0:0:0:
475,192,176671,1,0,0:0:0:0:
182,192,176749,1,0,0:0:0:0:
109,192,176827,1,0,0:0:0:0:
402,192,176827,1,0,0:0:0:0:
329,192,176904,1,0,0:0:0:0:
256,192,176982,1,0,0:0:0:0:
36,192,176982,1,0,0:0:0:0:
475,192,176982,1,0,0:0:0:0:
109,192,177060,1,0,0:0:0:0:
36,192,177138,1,0,0:0:0:0:
329,192,177138,1,0,0:0:0:0:
256,192,177215,1,0,0:0:0:0:
329,192,177293,1,0,0:0:0:0:
182,192,177293,1,0,0:0:0:0:
475,192,177293,1,0,0:0:0:0:
109,192,177371,1,0,0:0:0:0:
36,192,177449,1,0,0:0:0:0:
256,192,177449,1,0,0:0:0:0:
329,192,177604,1,0,0:0:0:0:
402,192,177604,1,0,0:0:0:0:
109,192,177604,1,0,0:0:0:0:
182,192,177682,1,0,0:0:0:0:
256,192,177760,1,0,0:0:0:0:
475,192,177760,1,0,0:0:0:0:
182,192,177837,1,0,0:0:0:0:
36,192,177915,1,0,0:0:0:0:
402,192,177915,1,0,0:0:0:0:
109,192,177915,1,0,0:0:0:0:
329,192,177993,1,0,0:0:0:0:
256,192,178071,1,0,0:0:0:0:
36,192,178071,1,0,0:0:0:0:
109,192,178148,1,0,0:0:0:0:
182,192,178226,1,0,0:0:0:0:
402,192,178226,1,0,0:0:0:0:
475,192,178226,1,0,0:0:0:0:
329,192,178226,1,0,0:0:0:0:
109,192,178304,1,0,0:0:0:0:
256,192,178382,1,0,0:0:0:0:
36,192,178382,1,0,0:0:0:0:
329,192,178460,1,0,0:0:0:0:
182,192,178537,1,0,0:0:0:0:
402,192,178537,1,0,0:0:0:0:
475,192,178537,1,0,0:0:0:0:
109,192,178537,1,0,0:0:0:0:
36,192,178615,1,0,0:0:0:0:
256,192,178693,1,0,0:0:0:0:
329,192,178693,1,0,0:0:0:0:
182,192,178771,1,0,0:0:0:0:
36,192,178848,1,0,0:0:0:0:
109,192,178848,1,0,0:0:0:0:
402,192,178848,1,0,0:0:0:0:
475,192,178848,1,0,0:0:0:0:
329,192,178926,1,0,0:0:0:0:
256,192,179004,1,0,0:0:0:0:
36,192,179004,1,0,0:0:0:0:
475,192,179004,1,0,0:0:0:0:
182,192,179082,1,0,0:0:0:0:
109,192,179159,1,0,0:0:0:0:
36,192,179159,1,0,0:0:0:0:
402,192,179159,1,0,0:0:0:0:
475,192,179159,1,0,0:0:0:0:
256,192,179237,1,0,0:0:0:0:
329,192,179315,1,0,0:0:0:0:
109,192,179315,1,0,0:0:0:0:
182,192,179393,1,0,0:0:0:0:
256,192,179470,1,0,0:0:0:0:
402,192,179470,1,0,0:0:0:0:
36,192,179470,1,0,0:0:0:0:
475,192,179470,1,0,0:0:0:0:
182,192,179548,1,0,0:0:0:0:
109,192,179626,1,0,0:0:0:0:
329,192,179626,1,0,0:0:0:0:
475,192,179704,1,0,0:0:0:0:
256,192,179781,1,0,0:0:0:0:
36,192,179781,1,0,0:0:0:0:
402,192,179781,1,0,0:0:0:0:
182,192,179781,1,0,0:0:0:0:
329,192,179859,1,0,0:0:0:0:
402,192,179937,1,0,0:0:0:0:
109,192,179937,1,0,0:0:0:0:
182,192,180015,1,0,0:0:0:0:
256,192,180092,1,0,0:0:0:0:
329,192,180092,1,0,0:0:0:0:
475,192,180092,1,0,0:0:0:0:
36,192,180092,1,0,0:0:0:0:
182,192,180170,1,0,0:0:0:0:
109,192,180248,1,0,0:0:0:0:
402,192,180248,1,0,0:0:0:0:
329,192,180326,1,0,0:0:0:0:
256,192,180404,1,0,0:0:0:0:
36,192,180404,1,0,0:0:0:0:
182,192,180404,1,0,0:0:0:0:
475,192,180404,1,0,0:0:0:0:
402,192,180481,1,0,0:0:0:0:
329,192,180559,1,0,0:0:0:0:
109,192,180559,1,0,0:0:0:0:
402,192,180637,1,0,0:0:0:0:
475,192,180715,1,0,0:0:0:0:
182,192,180715,1,0,0:0:0:0:
36,192,180715,1,0,0:0:0:0:
256,192,180715,1,0,0:0:0:0:
329,192,180792,1,0,0:0:0:0:
402,192,180870,1,0,0:0:0:0:
109,192,180870,1,0,0:0:0:0:
475,192,180948,1,0,0:0:0:0:
182,192,180948,1,0,0:0:0:0:
329,192,181026,1,0,0:0:0:0:
402,192,181026,1,0,0:0:0:0:
256,192,181026,1,0,0:0:0:0:
182,192,181103,1,0,0:0:0:0:
109,192,181103,1,0,0:0:0:0:
36,192,181103,1,0,0:0:0:0:
329,192,181181,1,0,0:0:0:0:
475,192,181181,1,0,0:0:0:0:
402,192,181181,1,0,0:0:0:0:
256,192,181259,1,0,0:0:0:0:
182,192,181259,1,0,0:0:0:0:
109,192,181259,1,0,0:0:0:0:
329,192,181337,1,0,0:0:0:0:
402,192,181337,1,0,0:0:0:0:
475,192,181337,1,0,0:0:0:0:
36,192,181492,1,0,0:0:0:0:
109,192,181492,1,0,0:0:0:0:
182,192,181492,1,0,0:0:0:0:
329,192,181570,1,0,0:0:0:0:
402,192,181570,1,0,0:0:0:0:
475,192,181570,1,0,0:0:0:0:
256,192,181648,1,0,0:0:0:0:
182,192,181648,1,0,0:0:0:0:
109,192,181648,1,0,0:0:0:0:
402,192,181725,1,0,0:0:0:0:
36,192,181803,1,0,0:0:0:0:
329,192,181803,1,0,0:0:0:0:
109,192,181881,1,0,0:0:0:0:
182,192,181959,1,0,0:0:0:0:
256,192,181959,1,0,0:0:0:0:
402,192,181959,1,0,0:0:0:0:
475,192,181959,1,0,0:0:0:0:
36,192,182036,1,0,0:0:0:0:
109,192,182114,1,0,0:0:0:0:
329,192,182114,1,0,0:0:0:0:
402,192,182192,1,0,0:0:0:0:
182,192,182270,1,0,0:0:0:0:
36,192,182270,1,0,0:0:0:0:
475,192,182270,1,0,0:0:0:0:
329,192,182270,1,0,0:0:0:0:
109,192,182348,1,0,0:0:0:0:
36,192,182425,1,0,0:0:0:0:
256,192,182425,1,0,0:0:0:0:
329,192,182503,1,0,0:0:0:0:
402,192,182581,1,0,0:0:0:0:
182,192,182581,1,0,0:0:0:0:
475,192,182581,1,0,0:0:0:0:
109,192,182581,1,0,0:0:0:0:
256,192,182659,1,0,0:0:0:0:
36,192,182736,1,0,0:0:0:0:
329,192,182736,1,0,0:0:0:0:
475,192,182814,1,0,0:0:0:0:
402,192,182892,1,0,0:0:0:0:
182,192,182892,1,0,0:0:0:0:
109,192,182892,1,0,0:0:0:0:
36,192,182892,1,0,0:0:0:0:
329,192,182970,1,0,0:0:0:0:
475,192,183047,1,0,0:0:0:0:
36,192,183047,1,0,0:0:0:0:
109,192,183125,1,0,0:0:0:0:
182,192,183203,1,0,0:0:0:0:
329,192,183203,1,0,0:0:0:0:
402,192,183203,1,0,0:0:0:0:
36,192,183203,1,0,0:0:0:0:
109,192,183281,1,0,0:0:0:0:
36,192,183358,1,0,0:0:0:0:
256,192,183358,1,0,0:0:0:0:
475,192,183436,1,0,0:0:0:0:
402,192,183514,1,0,0:0:0:0:
329,192,183514,1,0,0:0:0:0:
182,192,183514,1,0,0:0:0:0:
109,192,183514,1,0,0:0:0:0:
36,192,183592,1,0,0:0:0:0:
256,192,183669,1,0,0:0:0:0:
475,192,183669,1,0,0:0:0:0:
182,192,183747,1,0,0:0:0:0:
109,192,183825,1,0,0:0:0:0:
402,192,183825,1,0,0:0:0:0:
329,192,183825,1,0,0:0:0:0:
36,192,183825,1,0,0:0:0:0:
256,192,183903,1,0,0:0:0:0:
182,192,183981,1,0,0:0:0:0:
475,192,183981,1,0,0:0:0:0:
36,192,183981,1,0,0:0:0:0:
256,192,184058,1,0,0:0:0:0:
402,192,184136,1,0,0:0:0:0:
36,192,184136,128,0,185225:0:0:0:0:
329,192,184136,128,0,185225:0:0:0:0:
109,192,184136,1,0,0:0:0:0:
182,192,184447,128,0,185225:0:0:0:0:
475,192,184447,128,0,185225:0:0:0:0:
256,192,184447,1,0,0:0:0:0:
402,192,184447,1,0,0:0:0:0:
109,192,184758,1,0,0:0:0:0:
256,192,184758,1,0,0:0:0:0:
256,192,185069,1,0,0:0:0:0:
402,192,185069,1,0,0:0:0:0:
36,192,185380,1,0,0:0:0:0:
109,192,185380,1,0,0:0:0:0:
329,192,185458,1,0,0:0:0:0:
402,192,185458,1,0,0:0:0:0:
256,192,185536,1,0,0:0:0:0:
182,192,185536,1,0,0:0:0:0:
36,192,185613,1,0,0:0:0:0:
475,192,185691,1,0,0:0:0:0:
402,192,185691,1,0,0:0:0:0:
182,192,185769,1,0,0:0:0:0:
109,192,185769,1,0,0:0:0:0:
256,192,185847,1,0,0:0:0:0:
329,192,185847,1,0,0:0:0:0:
475,192,185925,1,0,0:0:0:0:
36,192,186002,1,0,0:0:0:0:
109,192,186028,1,0,0:0:0:0:
182,192,186054,1,0,0:0:0:0:
475,192,186080,1,0,0:0:0:0:
402,192,186106,1,0,0:0:0:0:
329,192,186132,1,0,0:0:0:0:
36,192,186158,1,0,0:0:0:0:
109,192,186184,1,0,0:0:0:0:
182,192,186210,1,0,0:0:0:0:
475,192,186236,1,0,0:0:0:0:
402,192,186261,1,0,0:0:0:0:
329,192,186287,1,0,0:0:0:0:
36,192,186313,1,0,0:0:0:0:
109,192,186339,1,0,0:0:0:0:
182,192,186365,1,0,0:0:0:0:
475,192,186391,1,0,0:0:0:0:
329,192,186417,1,0,0:0:0:0:
256,192,186495,1,0,0:0:0:0:
36,192,186521,1,0,0:0:0:0:
329,192,186547,1,0,0:0:0:0:
109,192,186573,1,0,0:0:0:0:
402,192,186598,1,0,0:0:0:0:
182,192,186624,1,0,0:0:0:0:
256,192,186624,128,0,186780:0:0:0:0:
329,192,186702,1,0,0:0:0:0:
402,192,186780,128,0,186935:0:0:0:0:
36,192,186780,1,0,0:0:0:0:
109,192,186858,1,0,0:0:0:0:
182,192,186935,128,0,187091:0:0:0:0:
256,192,186935,1,0,0:0:0:0:
475,192,186935,1,0,0:0:0:0:
36,192,186935,1,0,0:0:0:0:
402,192,187013,1,0,0:0:0:0:
329,192,187091,128,0,187246:0:0:0:0:
109,192,187091,1,0,0:0:0:0:
402,192,187169,1,0,0:0:0:0:
256,192,187246,128,0,187402:0:0:0:0:
475,192,187246,1,0,0:0:0:0:
182,192,187246,1,0,0:0:0:0:
36,192,187324,1,0,0:0:0:0:
109,192,187402,128,0,187557:0:0:0:0:
329,192,187402,1,0,0:0:0:0:
402,192,187480,1,0,0:0:0:0:
329,192,187557,128,0,187713:0:0:0:0:
182,192,187557,1,0,0:0:0:0:
36,192,187557,1,0,0:0:0:0:
475,192,187557,1,0,0:0:0:0:
256,192,187635,1,0,0:0:0:0:
182,192,187713,128,0,187869:0:0:0:0:
402,192,187713,1,0,0:0:0:0:
329,192,187791,1,0,0:0:0:0:
475,192,187869,128,0,188024:0:0:0:0:
256,192,187869,1,0,0:0:0:0:
36,192,187869,1,0,0:0:0:0:
109,192,187946,1,0,0:0:0:0:
36,192,188024,128,0,188180:0:0:0:0:
182,192,188024,1,0,0:0:0:0:
256,192,188102,1,0,0:0:0:0:
475,192,188180,128,0,188335:0:0:0:0:
402,192,188180,1,0,0:0:0:0:
109,192,188180,1,0,0:0:0:0:
329,192,188180,1,0,0:0:0:0:
182,192,188257,1,0,0:0:0:0:
36,192,188335,128,0,188491:0:0:0:0:
256,192,188335,1,0,0:0:0:0:
329,192,188413,1,0,0:0:0:0:
402,192,188491,128,0,188646:0:0:0:0:
475,192,188491,1,0,0:0:0:0:
182,192,188491,1,0,0:0:0:0:
256,192,188568,1,0,0:0:0:0:
329,192,188646,128,0,188802:0:0:0:0:
36,192,188646,1,0,0:0:0:0:
109,192,188724,1,0,0:0:0:0:
182,192,188802,128,0,188957:0:0:0:0:
256,192,188802,1,0,0:0:0:0:
402,192,188802,1,0,0:0:0:0:
475,192,188802,1,0,0:0:0:0:
329,192,188879,1,0,0:0:0:0:
109,192,188957,128,0,189113:0:0:0:0:
475,192,188957,1,0,0:0:0:0:
36,192,188957,1,0,0:0:0:0:
329,192,189035,1,0,0:0:0:0:
256,192,189113,128,0,189268:0:0:0:0:
475,192,189113,1,0,0:0:0:0:
182,192,189113,1,0,0:0:0:0:
109,192,189190,1,0,0:0:0:0:
36,192,189268,128,0,189424:0:0:0:0:
329,192,189268,1,0,0:0:0:0:
256,192,189346,1,0,0:0:0:0:
182,192,189424,128,0,189579:0:0:0:0:
402,192,189424,1,0,0:0:0:0:
475,192,189424,1,0,0:0:0:0:
109,192,189424,1,0,0:0:0:0:
329,192,189501,1,0,0:0:0:0:
36,192,189579,128,0,189735:0:0:0:0:
256,192,189579,1,0,0:0:0:0:
182,192,189657,1,0,0:0:0:0:
256,192,189735,128,0,189890:0:0:0:0:
109,192,189735,1,0,0:0:0:0:
329,192,189735,1,0,0:0:0:0:
402,192,189813,1,0,0:0:0:0:
475,192,189890,128,0,190046:0:0:0:0:
182,192,189890,1,0,0:0:0:0:
109,192,189968,1,0,0:0:0:0:
329,192,190046,128,0,190201:0:0:0:0:
36,192,190046,1,0,0:0:0:0:
256,192,190046,1,0,0:0:0:0:
402,192,190046,1,0,0:0:0:0:
182,192,190124,1,0,0:0:0:0:
475,192,190201,128,0,190357:0:0:0:0:
36,192,190201,1,0,0:0:0:0:
109,192,190279,1,0,0:0:0:0:
36,192,190357,128,0,190512:0:0:0:0:
256,192,190357,1,0,0:0:0:0:
402,192,190357,1,0,0:0:0:0:
182,192,190435,1,0,0:0:0:0:
109,192,190512,128,0,190668:0:0:0:0:
329,192,190512,1,0,0:0:0:0:
256,192,190590,1,0,0:0:0:0:
182,192,190668,128,0,190823:0:0:0:0:
402,192,190668,1,0,0:0:0:0:
36,192,190668,1,0,0:0:0:0:
329,192,190746,1,0,0:0:0:0:
256,192,190823,128,0,190979:0:0:0:0:
475,192,190823,1,0,0:0:0:0:
109,192,190823,1,0,0:0:0:0:
402,192,190901,1,0,0:0:0:0:
329,192,190979,128,0,191134:0:0:0:0:
182,192,190979,1,0,0:0:0:0:
36,192,190979,1,0,0:0:0:0:
475,192,191057,1,0,0:0:0:0:
109,192,191057,1,0,0:0:0:0:
402,192,191134,128,0,191290:0:0:0:0:
256,192,191134,1,0,0:0:0:0:
182,192,191134,1,0,0:0:0:0:
36,192,191212,1,0,0:0:0:0:
475,192,191290,128,0,191446:0:0:0:0:
329,192,191290,1,0,0:0:0:0:
109,192,191290,1,0,0:0:0:0:
182,192,191290,1,0,0:0:0:0:
36,192,191368,1,0,0:0:0:0:
256,192,191446,128,0,191601:0:0:0:0:
402,192,191446,1,0,0:0:0:0:
182,192,191446,1,0,0:0:0:0:
329,192,191523,1,0,0:0:0:0:
475,192,191523,1,0,0:0:0:0:
36,192,191601,128,0,191757:0:0:0:0:
109,192,191601,1,0,0:0:0:0:
402,192,191601,1,0,0:0:0:0:
475,192,191679,1,0,0:0:0:0:
182,192,191757,128,0,191912:0:0:0:0:
256,192,191757,1,0,0:0:0:0:
402,192,191834,1,0,0:0:0:0:
329,192,191912,128,0,192068:0:0:0:0:
475,192,191912,1,0,0:0:0:0:
109,192,191912,1,0,0:0:0:0:
36,192,191912,1,0,0:0:0:0:
182,192,191990,1,0,0:0:0:0:
256,192,192068,128,0,192223:0:0:0:0:
475,192,192068,1,0,0:0:0:0:
402,192,192145,1,0,0:0:0:0:
109,192,192223,128,0,192379:0:0:0:0:
329,192,192223,1,0,0:0:0:0:
182,192,192223,1,0,0:0:0:0:
256,192,192301,1,0,0:0:0:0:
402,192,192379,128,0,192534:0:0:0:0:
329,192,192379,1,0,0:0:0:0:
182,192,192456,1,0,0:0:0:0:
256,192,192534,128,0,192690:0:0:0:0:
36,192,192534,1,0,0:0:0:0:
475,192,192534,1,0,0:0:0:0:
109,192,192534,1,0,0:0:0:0:
402,192,192612,1,0,0:0:0:0:
182,192,192690,128,0,192845:0:0:0:0:
329,192,192690,1,0,0:0:0:0:
402,192,192767,1,0,0:0:0:0:
329,192,192845,128,0,193001:0:0:0:0:
475,192,192845,1,0,0:0:0:0:
36,192,192845,1,0,0:0:0:0:
109,192,192845,1,0,0:0:0:0:
182,192,192923,1,0,0:0:0:0:
475,192,193001,128,0,193156:0:0:0:0:
256,192,193001,1,0,0:0:0:0:
329,192,193078,1,0,0:0:0:0:
402,192,193156,1,0,0:0:0:0:
182,192,193156,1,0,0:0:0:0:
109,192,193156,128,0,193312:0:0:0:0:
36,192,193156,1,0,0:0:0:0:
329,192,193234,1,0,0:0:0:0:
256,192,193312,128,0,193467:0:0:0:0:
475,192,193312,1,0,0:0:0:0:
329,192,193390,1,0,0:0:0:0:
402,192,193467,128,0,193623:0:0:0:0:
182,192,193467,1,0,0:0:0:0:
36,192,193467,1,0,0:0:0:0:
109,192,193545,1,0,0:0:0:0:
36,192,193623,128,0,193778:0:0:0:0:
182,192,193623,1,0,0:0:0:0:
256,192,193701,1,0,0:0:0:0:
182,192,193778,128,0,193934:0:0:0:0:
329,192,193778,1,0,0:0:0:0:
475,192,193778,1,0,0:0:0:0:
109,192,193778,1,0,0:0:0:0:
402,192,193856,1,0,0:0:0:0:
329,192,193934,128,0,194089:0:0:0:0:
36,192,193934,1,0,0:0:0:0:
475,192,193934,1,0,0:0:0:0:
256,192,194012,1,0,0:0:0:0:
109,192,194089,128,0,194245:0:0:0:0:
475,192,194089,1,0,0:0:0:0:
182,192,194089,1,0,0:0:0:0:
329,192,194167,1,0,0:0:0:0:
402,192,194245,128,0,194400:0:0:0:0:
256,192,194245,1,0,0:0:0:0:
109,192,194323,1,0,0:0:0:0:
182,192,194400,128,0,194556:0:0:0:0:
36,192,194400,1,0,0:0:0:0:
329,192,194400,1,0,0:0:0:0:
475,192,194400,1,0,0:0:0:0:
402,192,194478,1,0,0:0:0:0:
475,192,194556,128,0,194711:0:0:0:0:
109,192,194556,1,0,0:0:0:0:
182,192,194634,1,0,0:0:0:0:
256,192,194711,128,0,194867:0:0:0:0:
329,192,194711,1,0,0:0:0:0:
36,192,194711,1,0,0:0:0:0:
109,192,194789,1,0,0:0:0:0:
36,192,194867,128,0,195022:0:0:0:0:
182,192,194867,1,0,0:0:0:0:
256,192,194945,1,0,0:0:0:0:
329,192,195022,128,0,195178:0:0:0:0:
402,192,195022,1,0,0:0:0:0:
109,192,195022,1,0,0:0:0:0:
475,192,195022,1,0,0:0:0:0:
182,192,195100,1,0,0:0:0:0:
109,192,195178,128,0,195334:0:0:0:0:
256,192,195178,1,0,0:0:0:0:
329,192,195256,1,0,0:0:0:0:
402,192,195334,128,0,195489:0:0:0:0:
182,192,195334,1,0,0:0:0:0:
475,192,195334,1,0,0:0:0:0:
36,192,195334,1,0,0:0:0:0:
256,192,195411,1,0,0:0:0:0:
109,192,195411,1,0,0:0:0:0:
182,192,195489,128,0,195645:0:0:0:0:
329,192,195489,1,0,0:0:0:0:
36,192,195567,1,0,0:0:0:0:
475,192,195645,128,0,195800:0:0:0:0:
256,192,195645,1,0,0:0:0:0:
402,192,195645,1,0,0:0:0:0:
182,192,195722,1,0,0:0:0:0:
329,192,195722,1,0,0:0:0:0:
256,192,195800,128,0,195956:0:0:0:0:
109,192,195800,1,0,0:0:0:0:
36,192,195956,1,0,0:0:0:0:
109,192,195982,1,0,0:0:0:0:
182,192,196007,1,0,0:0:0:0:
256,192,196033,1,0,0:0:0:0:
329,192,196059,1,0,0:0:0:0:
402,192,196085,1,0,0:0:0:0:
475,192,196111,1,0,0:0:0:0:
36,192,196137,1,0,0:0:0:0:
109,192,196163,1,0,0:0:0:0:
182,192,196189,1,0,0:0:0:0:
256,192,196215,1,0,0:0:0:0:
329,192,196241,1,0,0:0:0:0:
475,192,196267,1,0,0:0:0:0:
402,192,196267,1,0,0:0:0:0:
36,192,196293,1,0,0:0:0:0:
109,192,196319,1,0,0:0:0:0:
182,192,196344,1,0,0:0:0:0:
256,192,196370,1,0,0:0:0:0:
329,192,196448,1,0,0:0:0:0:
475,192,196474,1,0,0:0:0:0:
256,192,196500,1,0,0:0:0:0:
402,192,196526,1,0,0:0:0:0:
182,192,196552,1,0,0:0:0:0:
329,192,196578,1,0,0:0:0:0:
36,192,196578,1,0,0:0:0:0:
182,192,196733,1,0,0:0:0:0:
475,192,196733,1,0,0:0:0:0:
109,192,196811,1,0,0:0:0:0:
36,192,196889,1,0,0:0:0:0:
182,192,196889,1,0,0:0:0:0:
402,192,196889,1,0,0:0:0:0:
256,192,196889,1,0,0:0:0:0:
475,192,196889,1,0,0:0:0:0:
109,192,197044,1,0,0:0:0:0:
182,192,197044,1,0,0:0:0:0:
329,192,197044,1,0,0:0:0:0:
109,192,197200,1,0,0:0:0:0:
36,192,197200,1,0,0:0:0:0:
256,192,197200,1,0,0:0:0:0:
329,192,197278,1,0,0:0:0:0:
402,192,197355,1,0,0:0:0:0:
256,192,197355,1,0,0:0:0:0:
182,192,197355,1,0,0:0:0:0:
36,192,197355,1,0,0:0:0:0:
475,192,197355,1,0,0:0:0:0:
109,192,197433,1,0,0:0:0:0:
36,192,197511,1,0,0:0:0:0:
256,192,197511,1,0,0:0:0:0:
402,192,197511,1,0,0:0:0:0:
329,192,197511,1,0,0:0:0:0:
182,192,197589,1,0,0:0:0:0:
329,192,197666,1,0,0:0:0:0:
36,192,197666,1,0,0:0:0:0:
109,192,197666,1,0,0:0:0:0:
475,192,197666,1,0,0:0:0:0:
402,192,197666,1,0,0:0:0:0:
256,192,197744,1,0,0:0:0:0:
182,192,197822,1,0,0:0:0:0:
36,192,197822,1,0,0:0:0:0:
475,192,197822,1,0,0:0:0:0:
329,192,197822,1,0,0:0:0:0:
109,192,197977,1,0,0:0:0:0:
256,192,197977,1,0,0:0:0:0:
402,192,197977,1,0,0:0:0:0:
36,192,198133,1,0,0:0:0:0:
182,192,198133,1,0,0:0:0:0:
329,192,198133,1,0,0:0:0:0:
475,192,198133,1,0,0:0:0:0:
109,192,198211,1,0,0:0:0:0:
402,192,198211,1,0,0:0:0:0:
329,192,198288,1,0,0:0:0:0:
36,192,198288,1,0,0:0:0:0:
182,192,198288,1,0,0:0:0:0:
256,192,198288,1,0,0:0:0:0:
475,192,198288,1,0,0:0:0:0:
402,192,198366,1,0,0:0:0:0:
109,192,198366,1,0,0:0:0:0:
182,192,198444,1,0,0:0:0:0:
329,192,198444,1,0,0:0:0:0:
256,192,198522,1,0,0:0:0:0:
182,192,198599,1,0,0:0:0:0:
109,192,198599,1,0,0:0:0:0:
36,192,198599,1,0,0:0:0:0:
329,192,198599,1,0,0:0:0:0:
402,192,198599,1,0,0:0:0:0:
475,192,198599,1,0,0:0:0:0:
256,192,198677,1,0,0:0:0:0:
36,192,198755,1,0,0:0:0:0:
182,192,198755,1,0,0:0:0:0:
402,192,198755,1,0,0:0:0:0:
475,192,198755,1,0,0:0:0:0:
329,192,198833,1,0,0:0:0:0:
109,192,198911,1,0,0:0:0:0:
36,192,198911,1,0,0:0:0:0:
256,192,198911,1,0,0:0:0:0:
402,192,198911,1,0,0:0:0:0:
329,192,198988,1,0,0:0:0:0:
402,192,199066,1,0,0:0:0:0:
475,192,199066,1,0,0:0:0:0:
182,192,199066,1,0,0:0:0:0:
36,192,199066,1,0,0:0:0:0:
256,192,199222,1,0,0:0:0:0:
329,192,199222,1,0,0:0:0:0:
109,192,199222,1,0,0:0:0:0:
182,192,199299,1,0,0:0:0:0:
402,192,199299,1,0,0:0:0:0:
256,192,199377,1,0,0:0:0:0:
329,192,199377,1,0,0:0:0:0:
475,192,199377,1,0,0:0:0:0:
36,192,199377,1,0,0:0:0:0:
182,192,199533,1,0,0:0:0:0:
256,192,199533,1,0,0:0:0:0:
402,192,199533,1,0,0:0:0:0:
36,192,199533,1,0,0:0:0:0:
475,192,199533,1,0,0:0:0:0:
109,192,199610,1,0,0:0:0:0:
36,192,199688,1,0,0:0:0:0:
329,192,199688,1,0,0:0:0:0:
475,192,199688,1,0,0:0:0:0:
182,192,199688,1,0,0:0:0:0:
109,192,199766,1,0,0:0:0:0:
402,192,199766,1,0,0:0:0:0:
256,192,199766,1,0,0:0:0:0:
36,192,199844,1,0,0:0:0:0:
329,192,199844,1,0,0:0:0:0:
182,192,199844,1,0,0:0:0:0:
475,192,199844,1,0,0:0:0:0:
256,192,199921,1,0,0:0:0:0:
402,192,199921,1,0,0:0:0:0:
36,192,199999,1,0,0:0:0:0:
182,192,199999,1,0,0:0:0:0:
329,192,199999,1,0,0:0:0:0:
475,192,199999,1,0,0:0:0:0:
109,192,199999,1,0,0:0:0:0:
256,192,200077,1,0,0:0:0:0:
36,192,200155,1,0,0:0:0:0:
182,192,200155,1,0,0:0:0:0:
402,192,200155,1,0,0:0:0:0:
475,192,200155,1,0,0:0:0:0:
329,192,200232,1,0,0:0:0:0:
36,192,200310,128,0,201554:0:0:0:0:
109,192,200310,1,0,0:0:0:0:
256,192,200310,1,0,0:0:0:0:
402,192,200310,1,0,0:0:0:0:
256,192,200466,1,0,0:0:0:0:
109,192,200621,128,0,201554:0:0:0:0:
182,192,200621,1,0,0:0:0:0:
329,192,200621,1,0,0:0:0:0:
475,192,200621,1,0,0:0:0:0:
329,192,200777,1,0,0:0:0:0:
182,192,200932,128,0,201554:0:0:0:0:
256,192,200932,1,0,0:0:0:0:
402,192,200932,1,0,0:0:0:0:
475,192,200932,1,0,0:0:0:0:
402,192,201088,1,0,0:0:0:0:
256,192,201243,128,0,201554:0:0:0:0:
329,192,201243,1,0,0:0:0:0:
475,192,201243,1,0,0:0:0:0:
402,192,201399,1,0,0:0:0:0:
329,192,201554,1,0,0:0:0:0:
475,192,201554,1,0,0:0:0:0:
36,192,201710,1,0,0:0:0:0:
182,192,201710,1,0,0:0:0:0:
402,192,201710,1,0,0:0:0:0:
329,192,201788,1,0,0:0:0:0:
109,192,201788,1,0,0:0:0:0:
36,192,201865,1,0,0:0:0:0:
256,192,201865,1,0,0:0:0:0:
402,192,201865,1,0,0:0:0:0:
475,192,201865,1,0,0:0:0:0:
182,192,201865,1,0,0:0:0:0:
109,192,201943,1,0,0:0:0:0:
329,192,202021,1,0,0:0:0:0:
256,192,202021,1,0,0:0:0:0:
475,192,202021,1,0,0:0:0:0:
36,192,202021,1,0,0:0:0:0:
329,192,202176,1,0,0:0:0:0:
402,192,202176,1,0,0:0:0:0:
182,192,202176,1,0,0:0:0:0:
109,192,202254,1,0,0:0:0:0:
36,192,202332,1,0,0:0:0:0:
182,192,202332,1,0,0:0:0:0:
402,192,202332,1,0,0:0:0:0:
475,192,202332,1,0,0:0:0:0:
475,192,202487,1,0,0:0:0:0:
256,192,202487,1,0,0:0:0:0:
329,192,202487,1,0,0:0:0:0:
36,192,202487,1,0,0:0:0:0:
109,192,202565,1,0,0:0:0:0:
36,192,202643,1,0,0:0:0:0:
182,192,202643,1,0,0:0:0:0:
256,192,202643,1,0,0:0:0:0:
475,192,202643,1,0,0:0:0:0:
402,192,202643,1,0,0:0:0:0:
329,192,202721,1,0,0:0:0:0:
109,192,202721,1,0,0:0:0:0:
36,192,202799,1,0,0:0:0:0:
256,192,202799,1,0,0:0:0:0:
475,192,202799,1,0,0:0:0:0:
402,192,202799,1,0,0:0:0:0:
182,192,202954,1,0,0:0:0:0:
329,192,202954,1,0,0:0:0:0:
109,192,202954,1,0,0:0:0:0:
36,192,203110,1,0,0:0:0:0:
182,192,203110,1,0,0:0:0:0:
256,192,203110,1,0,0:0:0:0:
402,192,203110,1,0,0:0:0:0:
475,192,203187,1,0,0:0:0:0:
109,192,203265,1,0,0:0:0:0:
36,192,203265,1,0,0:0:0:0:
329,192,203265,1,0,0:0:0:0:
256,192,203265,1,0,0:0:0:0:
475,192,203343,1,0,0:0:0:0:
402,192,203421,1,0,0:0:0:0:
182,192,203421,1,0,0:0:0:0:
36,192,203421,1,0,0:0:0:0:
329,192,203421,1,0,0:0:0:0:
256,192,203498,1,0,0:0:0:0:
109,192,203498,1,0,0:0:0:0:
182,192,203576,1,0,0:0:0:0:
36,192,203576,1,0,0:0:0:0:
329,192,203576,1,0,0:0:0:0:
475,192,203576,1,0,0:0:0:0:
402,192,203654,1,0,0:0:0:0:
256,192,203732,1,0,0:0:0:0:
109,192,203732,1,0,0:0:0:0:
36,192,203732,1,0,0:0:0:0:
475,192,203732,1,0,0:0:0:0:
329,192,203732,1,0,0:0:0:0:
182,192,203809,1,0,0:0:0:0:
36,192,203887,1,0,0:0:0:0:
256,192,203887,1,0,0:0:0:0:
402,192,203887,1,0,0:0:0:0:
475,192,203887,1,0,0:0:0:0:
329,192,203887,1,0,0:0:0:0:
109,192,203965,1,0,0:0:0:0:
182,192,204043,1,0,0:0:0:0:
402,192,204043,1,0,0:0:0:0:
475,192,204120,1,0,0:0:0:0:
256,192,204120,1,0,0:0:0:0:
109,192,204198,1,0,0:0:0:0:
329,192,204198,1,0,0:0:0:0:
36,192,204276,1,0,0:0:0:0:
402,192,204276,1,0,0:0:0:0:
182,192,204354,1,0,0:0:0:0:
475,192,204354,1,0,0:0:0:0:
109,192,204432,1,0,0:0:0:0:
329,192,204432,1,0,0:0:0:0:
402,192,204509,1,0,0:0:0:0:
256,192,204509,1,0,0:0:0:0:
182,192,204587,1,0,0:0:0:0:
475,192,204587,1,0,0:0:0:0:
36,192,204665,1,0,0:0:0:0:
329,192,204665,1,0,0:0:0:0:
402,192,204743,1,0,0:0:0:0:
109,192,204743,1,0,0:0:0:0:
182,192,204820,1,0,0:0:0:0:
475,192,204820,1,0,0:0:0:0:
36,192,204898,1,0,0:0:0:0:
402,192,204898,1,0,0:0:0:0:
109,192,204976,1,0,0:0:0:0:
329,192,204976,1,0,0:0:0:0:
182,192,205054,1,0,0:0:0:0:
475,192,205054,1,0,0:0:0:0:
109,192,205131,1,0,0:0:0:0:
402,192,205131,1,0,0:0:0:0:
36,192,205209,1,0,0:0:0:0:
329,192,205209,1,0,0:0:0:0:
402,192,205287,1,0,0:0:0:0:
182,192,205287,1,0,0:0:0:0:
475,192,205365,1,0,0:0:0:0:
109,192,205365,1,0,0:0:0:0:
36,192,205442,1,0,0:0:0:0:
256,192,205442,1,0,0:0:0:0:
329,192,205520,1,0,0:0:0:0:
109,192,205520,1,0,0:0:0:0:
182,192,205598,1,0,0:0:0:0:
402,192,205598,1,0,0:0:0:0:
256,192,205676,1,0,0:0:0:0:
475,192,205676,1,0,0:0:0:0:
182,192,205753,1,0,0:0:0:0:
402,192,205753,1,0,0:0:0:0:
109,192,205831,1,0,0:0:0:0:
329,192,205831,1,0,0:0:0:0:
36,192,205909,1,0,0:0:0:0:
256,192,205909,1,0,0:0:0:0:
182,192,205987,1,0,0:0:0:0:
475,192,205987,1,0,0:0:0:0:
402,192,206064,1,0,0:0:0:0:
109,192,206064,1,0,0:0:0:0:
36,192,206142,1,0,0:0:0:0:
329,192,206142,1,0,0:0:0:0:
402,192,206220,1,0,0:0:0:0:
109,192,206220,1,0,0:0:0:0:
182,192,206298,1,0,0:0:0:0:
475,192,206298,1,0,0:0:0:0:
256,192,206376,1,0,0:0:0:0:
36,192,206376,1,0,0:0:0:0:
109,192,206453,1,0,0:0:0:0:
329,192,206453,1,0,0:0:0:0:
182,192,206531,1,0,0:0:0:0:
402,192,206531,1,0,0:0:0:0:
475,192,206531,128,0,207153:0:0:0:0:
36,192,206531,128,0,206998:0:0:0:0:
256,192,206687,1,0,0:0:0:0:
109,192,206842,1,0,0:0:0:0:
329,192,206842,1,0,0:0:0:0:
402,192,206842,1,0,0:0:0:0:
256,192,206998,1,0,0:0:0:0:
182,192,207153,128,0,207775:0:0:0:0:
36,192,207153,1,0,0:0:0:0:
402,192,207153,1,0,0:0:0:0:
475,192,207309,128,0,207464:0:0:0:0:
329,192,207309,1,0,0:0:0:0:
402,192,207464,128,0,207620:0:0:0:0:
36,192,207464,1,0,0:0:0:0:
256,192,207464,1,0,0:0:0:0:
109,192,207464,1,0,0:0:0:0:
329,192,207620,128,0,208242:0:0:0:0:
475,192,207620,1,0,0:0:0:0:
36,192,207775,128,0,208397:0:0:0:0:
402,192,207775,1,0,0:0:0:0:
256,192,207775,1,0,0:0:0:0:
475,192,207931,1,0,0:0:0:0:
256,192,208086,1,0,0:0:0:0:
109,192,208086,1,0,0:0:0:0:
182,192,208086,1,0,0:0:0:0:
402,192,208242,1,0,0:0:0:0:
182,192,208397,128,0,209019:0:0:0:0:
475,192,208397,1,0,0:0:0:0:
256,192,208397,1,0,0:0:0:0:
329,192,208553,1,0,0:0:0:0:
475,192,208708,1,0,0:0:0:0:
256,192,208708,1,0,0:0:0:0:
109,192,208708,1,0,0:0:0:0:
36,192,208708,128,0,208864:0:0:0:0:
475,192,208864,128,0,209175:0:0:0:0:
256,192,208864,1,0,0:0:0:0:
402,192,208864,1,0,0:0:0:0:
329,192,209019,128,0,209641:0:0:0:0:
256,192,209019,1,0,0:0:0:0:
36,192,209019,1,0,0:0:0:0:
109,192,209175,128,0,209486:0:0:0:0:
182,192,209175,1,0,0:0:0:0:
36,192,209330,1,0,0:0:0:0:
256,192,209330,1,0,0:0:0:0:
475,192,209330,1,0,0:0:0:0:
182,192,209486,128,0,209797:0:0:0:0:
475,192,209641,128,0,210264:0:0:0:0:
402,192,209641,1,0,0:0:0:0:
109,192,209641,1,0,0:0:0:0:
256,192,209797,128,0,210108:0:0:0:0:
329,192,209797,1,0,0:0:0:0:
36,192,209953,1,0,0:0:0:0:
182,192,209953,1,0,0:0:0:0:
402,192,209953,1,0,0:0:0:0:
329,192,210108,128,0,210419:0:0:0:0:
109,192,210108,1,0,0:0:0:0:
182,192,210264,128,0,210886:0:0:0:0:
36,192,210264,1,0,0:0:0:0:
256,192,210264,1,0,0:0:0:0:
402,192,210419,128,0,210730:0:0:0:0:
109,192,210419,1,0,0:0:0:0:
256,192,210575,1,0,0:0:0:0:
329,192,210575,1,0,0:0:0:0:
36,192,210575,1,0,0:0:0:0:
475,192,210730,128,0,211041:0:0:0:0:
109,192,210730,1,0,0:0:0:0:
329,192,210886,128,0,211508:0:0:0:0:
256,192,210886,1,0,0:0:0:0:
402,192,210886,1,0,0:0:0:0:
182,192,210963,1,0,0:0:0:0:
36,192,211041,128,0,211352:0:0:0:0:
109,192,211041,1,0,0:0:0:0:
256,192,211119,1,0,0:0:0:0:
182,192,211197,1,0,0:0:0:0:
402,192,211197,1,0,0:0:0:0:
475,192,211197,1,0,0:0:0:0:
109,192,211352,128,0,211974:0:0:0:0:
256,192,211352,1,0,0:0:0:0:
36,192,211508,1,0,0:0:0:0:
182,192,211508,1,0,0:0:0:0:
475,192,211508,1,0,0:0:0:0:
402,192,211508,1,0,0:0:0:0:
329,192,211585,1,0,0:0:0:0:
256,192,211663,1,0,0:0:0:0:
475,192,211663,1,0,0:0:0:0:
402,192,211741,1,0,0:0:0:0:
329,192,211819,1,0,0:0:0:0:
182,192,211819,1,0,0:0:0:0:
36,192,211819,1,0,0:0:0:0:
475,192,211819,1,0,0:0:0:0:
402,192,211897,1,0,0:0:0:0:
475,192,211974,1,0,0:0:0:0:
256,192,211974,1,0,0:0:0:0:
329,192,212052,1,0,0:0:0:0:
402,192,212130,1,0,0:0:0:0:
36,192,212130,1,0,0:0:0:0:
182,192,212130,1,0,0:0:0:0:
256,192,212208,1,0,0:0:0:0:
109,192,212285,128,0,212441:0:0:0:0:
329,192,212285,1,0,0:0:0:0:
475,192,212285,1,0,0:0:0:0:
256,192,212363,1,0,0:0:0:0:
402,192,212441,128,0,212596:0:0:0:0:
182,192,212441,1,0,0:0:0:0:
36,192,212441,1,0,0:0:0:0:
475,192,212441,1,0,0:0:0:0:
329,192,212441,1,0,0:0:0:0:
109,192,212519,1,0,0:0:0:0:
475,192,212596,1,0,0:0:0:0:
256,192,212596,128,0,212907:0:0:0:0:
36,192,212596,1,0,0:0:0:0:
182,192,212674,1,0,0:0:0:0:
109,192,212752,1,0,0:0:0:0:
329,192,212907,128,0,213218:0:0:0:0:
36,192,212907,1,0,0:0:0:0:
109,192,213063,1,0,0:0:0:0:
256,192,213063,1,0,0:0:0:0:
475,192,213063,1,0,0:0:0:0:
182,192,213218,128,0,213529:0:0:0:0:
402,192,213218,1,0,0:0:0:0:
329,192,213374,1,0,0:0:0:0:
36,192,213374,1,0,0:0:0:0:
402,192,213529,128,0,213841:0:0:0:0:
256,192,213529,1,0,0:0:0:0:
36,192,213685,1,0,0:0:0:0:
182,192,213685,1,0,0:0:0:0:
475,192,213685,1,0,0:0:0:0:
109,192,213841,128,0,214463:0:0:0:0:
475,192,213841,1,0,0:0:0:0:
256,192,213841,1,0,0:0:0:0:
475,192,213996,1,0,0:0:0:0:
329,192,213996,1,0,0:0:0:0:
256,192,214074,1,0,0:0:0:0:
182,192,214152,1,0,0:0:0:0:
402,192,214152,1,0,0:0:0:0:
329,192,214229,1,0,0:0:0:0:
256,192,214307,1,0,0:0:0:0:
36,192,214307,1,0,0:0:0:0:
475,192,214307,1,0,0:0:0:0:
402,192,214307,1,0,0:0:0:0:
182,192,214385,1,0,0:0:0:0:
329,192,214463,1,0,0:0:0:0:
475,192,214463,1,0,0:0:0:0:
256,192,214540,1,0,0:0:0:0:
182,192,214618,1,0,0:0:0:0:
36,192,214618,1,0,0:0:0:0:
402,192,214618,1,0,0:0:0:0:
256,192,214696,1,0,0:0:0:0:
182,192,214774,128,0,214929:0:0:0:0:
109,192,214774,1,0,0:0:0:0:
329,192,214774,1,0,0:0:0:0:
402,192,214851,1,0,0:0:0:0:
109,192,214929,128,0,215085:0:0:0:0:
36,192,214929,1,0,0:0:0:0:
256,192,214929,1,0,0:0:0:0:
475,192,214929,1,0,0:0:0:0:
329,192,215007,1,0,0:0:0:0:
36,192,215085,128,0,215240:0:0:0:0:
402,192,215085,1,0,0:0:0:0:
182,192,215085,1,0,0:0:0:0:
256,192,215162,1,0,0:0:0:0:
329,192,215240,1,0,0:0:0:0:
109,192,215240,1,0,0:0:0:0:
475,192,215240,128,0,216484:0:0:0:0:
182,192,215396,128,0,215551:0:0:0:0:
256,192,215396,1,0,0:0:0:0:
36,192,215551,1,0,0:0:0:0:
402,192,215551,1,0,0:0:0:0:
109,192,215551,1,0,0:0:0:0:
329,192,215707,128,0,215862:0:0:0:0:
182,192,215707,1,0,0:0:0:0:
36,192,215862,1,0,0:0:0:0:
109,192,215888,1,0,0:0:0:0:
182,192,215914,1,0,0:0:0:0:
256,192,215940,1,0,0:0:0:0:
329,192,215966,1,0,0:0:0:0:
402,192,215992,1,0,0:0:0:0:
36,192,216018,128,0,216173:0:0:0:0:
109,192,216018,1,0,0:0:0:0:
182,192,216044,1,0,0:0:0:0:
256,192,216070,1,0,0:0:0:0:
329,192,216096,1,0,0:0:0:0:
402,192,216122,1,0,0:0:0:0:
109,192,216147,1,0,0:0:0:0:
182,192,216173,1,0,0:0:0:0:
256,192,216173,1,0,0:0:0:0:
256,192,216329,128,0,217573:0:0:0:0:
329,192,216484,1,0,0:0:0:0:
36,192,216510,1,0,0:0:0:0:
402,192,216536,1,0,0:0:0:0:
109,192,216562,1,0,0:0:0:0:
475,192,216588,1,0,0:0:0:0:
182,192,216614,1,0,0:0:0:0:
329,192,216640,1,0,0:0:0:0:
36,192,216666,1,0,0:0:0:0:
402,192,216692,1,0,0:0:0:0:
109,192,216718,1,0,0:0:0:0:
475,192,216744,1,0,0:0:0:0:
182,192,216770,1,0,0:0:0:0:
329,192,216795,1,0,0:0:0:0:
36,192,216795,1,0,0:0:0:0:
36,192,216951,1,0,0:0:0:0:
402,192,216951,1,0,0:0:0:0:
109,192,216951,1,0,0:0:0:0:
109,192,217106,1,0,0:0:0:0:
182,192,217106,1,0,0:0:0:0:
475,192,217106,1,0,0:0:0:0:
402,192,217262,1,0,0:0:0:0:
36,192,217262,1,0,0:0:0:0:
329,192,217262,1,0,0:0:0:0:
402,192,217418,1,0,0:0:0:0:
475,192,217418,1,0,0:0:0:0:
109,192,217418,1,0,0:0:0:0:
182,192,217418,1,0,0:0:0:0:
329,192,217573,1,0,0:0:0:0:
36,192,217573,128,0,217729:0:0:0:0:
475,192,217573,128,0,217729:0:0:0:0:
182,192,217651,1,0,0:0:0:0:
109,192,217651,1,0,0:0:0:0:
329,192,217729,1,0,0:0:0:0:
402,192,217729,1,0,0:0:0:0:
256,192,217806,1,0,0:0:0:0:
475,192,217884,128,0,218040:0:0:0:0:
36,192,217884,128,0,218040:0:0:0:0:
109,192,217910,1,0,0:0:0:0:
182,192,217936,1,0,0:0:0:0:
256,192,217962,1,0,0:0:0:0:
329,192,217988,1,0,0:0:0:0:
402,192,218014,1,0,0:0:0:0:
329,192,218117,1,0,0:0:0:0:
36,192,218195,128,0,218273:0:0:0:0:
475,192,218195,128,0,218273:0:0:0:0:
109,192,218195,1,0,0:0:0:0:
182,192,218195,1,0,0:0:0:0:
256,192,218273,1,0,0:0:0:0:
36,192,218351,128,0,218506:0:0:0:0:
475,192,218351,128,0,218506:0:0:0:0:
402,192,218377,1,0,0:0:0:0:
329,192,218402,1,0,0:0:0:0:
256,192,218428,1,0,0:0:0:0:
182,192,218454,1,0,0:0:0:0:
109,192,218480,1,0,0:0:0:0:
475,192,218662,1,0,0:0:0:0:
402,192,218688,1,0,0:0:0:0:
329,192,218714,1,0,0:0:0:0:
256,192,218739,1,0,0:0:0:0:
182,192,218765,1,0,0:0:0:0:
109,192,218791,1,0,0:0:0:0:
36,192,218817,1,0,0:0:0:0:
256,192,218837,1,0,0:0:0:0:
329,192,218856,1,0,0:0:0:0:
402,192,218876,1,0,0:0:0:0:
475,192,218895,1,0,0:0:0:0:
36,192,218914,1,0,0:0:0:0:
109,192,218934,1,0,0:0:0:0:
182,192,218953,1,0,0:0:0:0:
329,192,218973,1,0,0:0:0:0:
402,192,218999,1,0,0:0:0:0:
475,192,219025,1,0,0:0:0:0:
256,192,219050,1,0,0:0:0:0:
182,192,219076,1,0,0:0:0:0:
109,192,219102,1,0,0:0:0:0:
36,192,219128,1,0,0:0:0:0:
475,192,219154,1,0,0:0:0:0:
402,192,219180,1,0,0:0:0:0:
329,192,219206,1,0,0:0:0:0:
182,192,219232,1,0,0:0:0:0:
109,192,219258,1,0,0:0:0:0:
36,192,219284,1,0,0:0:0:0:
256,192,219284,1,0,0:0:0:0:
402,192,219284,1,0,0:0:0:0:
475,192,219284,1,0,0:0:0:0:
402,192,219439,1,0,0:0:0:0:
329,192,219439,1,0,0:0:0:0:
182,192,219439,1,0,0:0:0:0:
109,192,219439,1,0,0:0:0:0:
329,192,219595,1,0,0:0:0:0:
256,192,219595,1,0,0:0:0:0:
109,192,219595,1,0,0:0:0:0:
36,192,219595,1,0,0:0:0:0:
256,192,219750,1,0,0:0:0:0:
182,192,219750,1,0,0:0:0:0:
36,192,219750,1,0,0:0:0:0:
475,192,219750,1,0,0:0:0:0:
36,192,219906,1,0,0:0:0:0:
329,192,219906,1,0,0:0:0:0:
109,192,219984,1,0,0:0:0:0:
402,192,219984,1,0,0:0:0:0:
256,192,219984,1,0,0:0:0:0:
182,192,220061,1,0,0:0:0:0:
475,192,220061,1,0,0:0:0:0:
109,192,220139,1,0,0:0:0:0:
402,192,220139,1,0,0:0:0:0:
256,192,220139,1,0,0:0:0:0:
329,192,220217,1,0,0:0:0:0:
36,192,220217,1,0,0:0:0:0:
182,192,220217,1,0,0:0:0:0:
475,192,220372,1,0,0:0:0:0:
182,192,220398,1,0,0:0:0:0:
402,192,220424,1,0,0:0:0:0:
109,192,220450,1,0,0:0:0:0:
329,192,220476,1,0,0:0:0:0:
36,192,220502,1,0,0:0:0:0:
109,192,220683,1,0,0:0:0:0:
256,192,220683,1,0,0:0:0:0:
402,192,220683,1,0,0:0:0:0:
36,192,220839,1,0,0:0:0:0:
329,192,220865,1,0,0:0:0:0:
109,192,220891,1,0,0:0:0:0:
402,192,220917,1,0,0:0:0:0:
182,192,220943,1,0,0:0:0:0:
475,192,220969,1,0,0:0:0:0:
36,192,221150,1,0,0:0:0:0:
109,192,221176,1,0,0:0:0:0:
182,192,221202,1,0,0:0:0:0:
329,192,221228,1,0,0:0:0:0:
402,192,221254,1,0,0:0:0:0:
475,192,221280,1,0,0:0:0:0:
36,192,221306,1,0,0:0:0:0:
109,192,221325,1,0,0:0:0:0:
182,192,221344,1,0,0:0:0:0:
329,192,221364,1,0,0:0:0:0:
402,192,221383,1,0,0:0:0:0:
475,192,221403,1,0,0:0:0:0:
36,192,221422,1,0,0:0:0:0:
109,192,221442,1,0,0:0:0:0:
182,192,221461,1,0,0:0:0:0:
329,192,221461,1,0,0:0:0:0:
256,192,221461,1,0,0:0:0:0:
109,192,221772,1,0,0:0:0:0:
256,192,221772,1,0,0:0:0:0:
182,192,221772,1,0,0:0:0:0:
329,192,221772,1,0,0:0:0:0:
402,192,221772,1,0,0:0:0:0:
36,192,222083,1,0,0:0:0:0:
109,192,222083,1,0,0:0:0:0:
182,192,222083,1,0,0:0:0:0:
329,192,222083,1,0,0:0:0:0:
402,192,222083,1,0,0:0:0:0:
475,192,222083,1,0,0:0:0:0:
36,192,222394,128,0,222472:0:0:0:0:
182,192,222394,128,0,222472:0:0:0:0:
109,192,222394,128,0,222472:0:0:0:0:
256,192,222394,128,0,222472:0:0:0:0:
329,192,222394,128,0,222472:0:0:0:0:
402,192,222511,128,0,222589:0:0:0:0:
329,192,222511,128,0,222589:0:0:0:0:
256,192,222511,128,0,222589:0:0:0:0:
182,192,222511,128,0,222589:0:0:0:0:
109,192,222511,128,0,222589:0:0:0:0:
475,192,222627,128,0,222705:0:0:0:0:
182,192,222627,128,0,222705:0:0:0:0:
256,192,222627,128,0,222705:0:0:0:0:
329,192,222627,128,0,222705:0:0:0:0:
402,192,222627,128,0,222705:0:0:0:0:
36,192,222705,1,0,0:0:0:0:
109,192,222861,1,0,0:0:0:0:
182,192,223016,1,0,0:0:0:0:
256,192,223016,1,0,0:0:0:0:
402,192,223016,1,0,0:0:0:0:
475,192,223016,1,0,0:0:0:0:
109,192,223172,1,0,0:0:0:0:
36,192,223327,1,0,0:0:0:0:
329,192,223327,1,0,0:0:0:0:
475,192,223327,1,0,0:0:0:0:
182,192,223483,1,0,0:0:0:0:
256,192,223638,1,0,0:0:0:0:
402,192,223638,1,0,0:0:0:0:
475,192,223638,1,0,0:0:0:0:
109,192,223638,1,0,0:0:0:0:
182,192,223794,1,0,0:0:0:0:
36,192,223949,1,0,0:0:0:0:
329,192,223949,1,0,0:0:0:0:
475,192,223949,1,0,0:0:0:0:
109,192,224105,1,0,0:0:0:0:
182,192,224260,1,0,0:0:0:0:
402,192,224260,1,0,0:0:0:0:
475,192,224260,1,0,0:0:0:0:
256,192,224260,1,0,0:0:0:0:
109,192,224416,1,0,0:0:0:0:
36,192,224571,1,0,0:0:0:0:
256,192,224571,1,0,0:0:0:0:
475,192,224571,1,0,0:0:0:0:
402,192,224727,1,0,0:0:0:0:
329,192,224883,1,0,0:0:0:0:
109,192,224883,1,0,0:0:0:0:
36,192,224883,1,0,0:0:0:0:
475,192,224883,1,0,0:0:0:0:
182,192,225038,1,0,0:0:0:0:
256,192,225194,1,0,0:0:0:0:
402,192,225194,1,0,0:0:0:0:
36,192,225194,1,0,0:0:0:0:
109,192,225349,1,0,0:0:0:0:
182,192,225505,1,0,0:0:0:0:
329,192,225505,1,0,0:0:0:0:
475,192,225505,1,0,0:0:0:0:
36,192,225505,1,0,0:0:0:0:
109,192,225660,1,0,0:0:0:0:
36,192,225816,1,0,0:0:0:0:
256,192,225816,1,0,0:0:0:0:
402,192,225816,1,0,0:0:0:0:
329,192,225971,1,0,0:0:0:0:
182,192,226127,1,0,0:0:0:0:
475,192,226127,1,0,0:0:0:0:
36,192,226127,1,0,0:0:0:0:
256,192,226127,1,0,0:0:0:0:
402,192,226282,1,0,0:0:0:0:
329,192,226438,1,0,0:0:0:0:
256,192,226438,1,0,0:0:0:0:
109,192,226438,1,0,0:0:0:0:
402,192,226593,1,0,0:0:0:0:
475,192,226749,1,0,0:0:0:0:
182,192,226749,1,0,0:0:0:0:
36,192,226749,1,0,0:0:0:0:
256,192,226904,1,0,0:0:0:0:
329,192,227060,1,0,0:0:0:0:
475,192,227086,1,0,0:0:0:0:
36,192,227112,1,0,0:0:0:0:
182,192,227138,1,0,0:0:0:0:
329,192,227163,1,0,0:0:0:0:
475,192,227189,1,0,0:0:0:0:
36,192,227215,1,0,0:0:0:0:
182,192,227241,1,0,0:0:0:0:
329,192,227267,1,0,0:0:0:0:
475,192,227293,1,0,0:0:0:0:
36,192,227319,1,0,0:0:0:0:
182,192,227345,1,0,0:0:0:0:
329,192,227371,1,0,0:0:0:0:
475,192,227371,1,0,0:0:0:0:
109,192,227682,1,0,0:0:0:0:
256,192,227682,1,0,0:0:0:0:
402,192,227682,1,0,0:0:0:0:
475,192,227682,1,0,0:0:0:0:
36,192,227682,1,0,0:0:0:0:
256,192,227837,1,0,0:0:0:0:
182,192,227837,1,0,0:0:0:0:
109,192,227993,1,0,0:0:0:0:
329,192,227993,1,0,0:0:0:0:
475,192,227993,1,0,0:0:0:0:
402,192,227993,1,0,0:0:0:0:
329,192,228148,1,0,0:0:0:0:
109,192,228148,1,0,0:0:0:0:
36,192,228304,1,0,0:0:0:0:
182,192,228304,1,0,0:0:0:0:
402,192,228304,1,0,0:0:0:0:
182,192,228460,1,0,0:0:0:0:
475,192,228460,1,0,0:0:0:0:
329,192,228615,1,0,0:0:0:0:
109,192,228615,1,0,0:0:0:0:
256,192,228615,1,0,0:0:0:0:
36,192,228615,1,0,0:0:0:0:
256,192,228771,1,0,0:0:0:0:
402,192,228771,1,0,0:0:0:0:
36,192,228926,1,0,0:0:0:0:
329,192,228926,1,0,0:0:0:0:
475,192,228926,1,0,0:0:0:0:
329,192,229082,1,0,0:0:0:0:
182,192,229082,1,0,0:0:0:0:
36,192,229237,1,0,0:0:0:0:
256,192,229237,1,0,0:0:0:0:
475,192,229237,1,0,0:0:0:0:
402,192,229237,1,0,0:0:0:0:
36,192,229393,1,0,0:0:0:0:
256,192,229393,1,0,0:0:0:0:
402,192,229548,1,0,0:0:0:0:
329,192,229548,1,0,0:0:0:0:
182,192,229548,1,0,0:0:0:0:
182,192,229704,1,0,0:0:0:0:
475,192,229704,1,0,0:0:0:0:
36,192,229859,1,0,0:0:0:0:
256,192,229859,1,0,0:0:0:0:
329,192,229859,1,0,0:0:0:0:
475,192,229859,1,0,0:0:0:0:
402,192,230015,1,0,0:0:0:0:
109,192,230015,1,0,0:0:0:0:
329,192,230170,1,0,0:0:0:0:
182,192,230170,1,0,0:0:0:0:
109,192,230170,1,0,0:0:0:0:
182,192,230326,1,0,0:0:0:0:
402,192,230326,1,0,0:0:0:0:
475,192,230481,1,0,0:0:0:0:
256,192,230481,1,0,0:0:0:0:
36,192,230481,1,0,0:0:0:0:
329,192,230481,1,0,0:0:0:0:
329,192,230637,1,0,0:0:0:0:
109,192,230637,1,0,0:0:0:0:
182,192,230792,1,0,0:0:0:0:
402,192,230792,1,0,0:0:0:0:
475,192,230792,1,0,0:0:0:0:
475,192,230948,1,0,0:0:0:0:
256,192,230948,1,0,0:0:0:0:
182,192,231103,1,0,0:0:0:0:
36,192,231103,1,0,0:0:0:0:
402,192,231103,1,0,0:0:0:0:
109,192,231103,1,0,0:0:0:0:
36,192,231259,1,0,0:0:0:0:
329,192,231259,1,0,0:0:0:0:
256,192,231414,1,0,0:0:0:0:
109,192,231414,1,0,0:0:0:0:
402,192,231414,1,0,0:0:0:0:
256,192,231570,1,0,0:0:0:0:
475,192,231570,1,0,0:0:0:0:
182,192,231725,1,0,0:0:0:0:
36,192,231725,1,0,0:0:0:0:
402,192,231725,1,0,0:0:0:0:
475,192,231725,1,0,0:0:0:0:
402,192,231881,1,0,0:0:0:0:
109,192,231881,1,0,0:0:0:0:
36,192,232036,1,0,0:0:0:0:
329,192,232036,1,0,0:0:0:0:
475,192,232036,1,0,0:0:0:0:
109,192,232114,1,0,0:0:0:0:
256,192,232114,1,0,0:0:0:0:
182,192,232192,1,0,0:0:0:0:
402,192,232192,1,0,0:0:0:0:
36,192,232270,1,0,0:0:0:0:
329,192,232270,1,0,0:0:0:0:
109,192,232348,1,0,0:0:0:0:
256,192,232348,1,0,0:0:0:0:
329,192,232373,1,0,0:0:0:0:
402,192,232399,1,0,0:0:0:0:
475,192,232425,1,0,0:0:0:0:
182,192,232451,1,0,0:0:0:0:
109,192,232477,1,0,0:0:0:0:
36,192,232503,1,0,0:0:0:0:
475,192,232529,1,0,0:0:0:0:
402,192,232555,1,0,0:0:0:0:
329,192,232581,1,0,0:0:0:0:
256,192,232607,1,0,0:0:0:0:
182,192,232633,1,0,0:0:0:0:
109,192,232659,1,0,0:0:0:0:
402,192,232814,1,0,0:0:0:0:
36,192,232970,1,0,0:0:0:0:
256,192,232970,1,0,0:0:0:0:
475,192,232970,1,0,0:0:0:0:
109,192,232970,1,0,0:0:0:0:
182,192,232970,128,0,233125:0:0:0:0:
402,192,233125,1,0,0:0:0:0:
329,192,233125,128,0,233281:0:0:0:0:
109,192,233281,128,0,233436:0:0:0:0:
36,192,233281,1,0,0:0:0:0:
256,192,233281,1,0,0:0:0:0:
475,192,233281,1,0,0:0:0:0:
402,192,233436,128,0,233592:0:0:0:0:
182,192,233436,1,0,0:0:0:0:
36,192,233592,128,0,233747:0:0:0:0:
109,192,233592,1,0,0:0:0:0:
256,192,233592,1,0,0:0:0:0:
329,192,233592,1,0,0:0:0:0:
475,192,233592,1,0,0:0:0:0:
475,192,233747,128,0,233903:0:0:0:0:
182,192,233747,1,0,0:0:0:0:
109,192,233903,128,0,234058:0:0:0:0:
256,192,233903,1,0,0:0:0:0:
402,192,233903,1,0,0:0:0:0:
36,192,233903,1,0,0:0:0:0:
402,192,234058,128,0,234214:0:0:0:0:
329,192,234058,1,0,0:0:0:0:
182,192,234214,128,0,234369:0:0:0:0:
256,192,234214,1,0,0:0:0:0:
36,192,234214,1,0,0:0:0:0:
109,192,234214,1,0,0:0:0:0:
475,192,234214,1,0,0:0:0:0:
329,192,234369,128,0,234525:0:0:0:0:
402,192,234369,1,0,0:0:0:0:
109,192,234525,128,0,234680:0:0:0:0:
36,192,234525,1,0,0:0:0:0:
182,192,234525,1,0,0:0:0:0:
475,192,234525,1,0,0:0:0:0:
256,192,234680,128,0,234836:0:0:0:0:
402,192,234680,1,0,0:0:0:0:
329,192,234836,128,0,234991:0:0:0:0:
36,192,234836,1,0,0:0:0:0:
182,192,234836,1,0,0:0:0:0:
475,192,234836,1,0,0:0:0:0:
109,192,234836,1,0,0:0:0:0:
182,192,234991,128,0,235147:0:0:0:0:
256,192,234991,1,0,0:0:0:0:
402,192,235147,128,0,235302:0:0:0:0:
329,192,235147,1,0,0:0:0:0:
36,192,235147,1,0,0:0:0:0:
475,192,235147,1,0,0:0:0:0:
256,192,235302,128,0,235458:0:0:0:0:
109,192,235302,1,0,0:0:0:0:
109,192,235458,128,0,235613:0:0:0:0:
182,192,235458,1,0,0:0:0:0:
402,192,235458,1,0,0:0:0:0:
475,192,235458,1,0,0:0:0:0:
36,192,235458,1,0,0:0:0:0:
256,192,235613,128,0,235769:0:0:0:0:
329,192,235613,1,0,0:0:0:0:
402,192,235769,128,0,235925:0:0:0:0:
182,192,235769,1,0,0:0:0:0:
475,192,235769,1,0,0:0:0:0:
36,192,235769,1,0,0:0:0:0:
36,192,235925,128,0,236080:0:0:0:0:
256,192,235925,1,0,0:0:0:0:
182,192,236080,128,0,236236:0:0:0:0:
329,192,236080,1,0,0:0:0:0:
402,192,236080,1,0,0:0:0:0:
475,192,236080,1,0,0:0:0:0:
109,192,236080,1,0,0:0:0:0:
329,192,236236,128,0,236391:0:0:0:0:
256,192,236236,1,0,0:0:0:0:
475,192,236391,128,0,236547:0:0:0:0:
182,192,236391,1,0,0:0:0:0:
36,192,236391,1,0,0:0:0:0:
402,192,236391,1,0,0:0:0:0:
329,192,236547,128,0,236702:0:0:0:0:
109,192,236547,1,0,0:0:0:0:
182,192,236702,128,0,236858:0:0:0:0:
36,192,236702,1,0,0:0:0:0:
256,192,236702,1,0,0:0:0:0:
109,192,236702,1,0,0:0:0:0:
475,192,236702,1,0,0:0:0:0:
36,192,236858,128,0,237013:0:0:0:0:
402,192,236858,1,0,0:0:0:0:
182,192,237013,1,0,0:0:0:0:
329,192,237013,1,0,0:0:0:0:
475,192,237013,1,0,0:0:0:0:
402,192,237091,1,0,0:0:0:0:
256,192,237091,1,0,0:0:0:0:
109,192,237091,1,0,0:0:0:0:
329,192,237169,1,0,0:0:0:0:
36,192,237169,1,0,0:0:0:0:
182,192,237169,1,0,0:0:0:0:
402,192,237246,1,0,0:0:0:0:
109,192,237246,1,0,0:0:0:0:
256,192,237246,1,0,0:0:0:0:
475,192,237324,1,0,0:0:0:0:
182,192,237324,1,0,0:0:0:0:
329,192,237324,1,0,0:0:0:0:
36,192,237480,1,0,0:0:0:0:
109,192,237635,1,0,0:0:0:0:
256,192,237635,1,0,0:0:0:0:
402,192,237635,1,0,0:0:0:0:
475,192,237635,1,0,0:0:0:0:
36,192,237635,128,0,237791:0:0:0:0:
109,192,237791,128,0,237946:0:0:0:0:
329,192,237791,1,0,0:0:0:0:
256,192,237946,128,0,238102:0:0:0:0:
182,192,237946,1,0,0:0:0:0:
36,192,237946,1,0,0:0:0:0:
329,192,237946,1,0,0:0:0:0:
475,192,237946,1,0,0:0:0:0:
402,192,238102,128,0,238257:0:0:0:0:
109,192,238102,1,0,0:0:0:0:
475,192,238257,128,0,238413:0:0:0:0:
36,192,238257,1,0,0:0:0:0:
256,192,238257,1,0,0:0:0:0:
329,192,238257,1,0,0:0:0:0:
182,192,238413,128,0,238568:0:0:0:0:
109,192,238413,1,0,0:0:0:0:
329,192,238568,128,0,238724:0:0:0:0:
36,192,238568,1,0,0:0:0:0:
256,192,238568,1,0,0:0:0:0:
402,192,238568,1,0,0:0:0:0:
475,192,238568,1,0,0:0:0:0:
256,192,238724,128,0,238879:0:0:0:0:
182,192,238724,1,0,0:0:0:0:
109,192,238879,128,0,239035:0:0:0:0:
36,192,238879,1,0,0:0:0:0:
329,192,238879,1,0,0:0:0:0:
475,192,238879,1,0,0:0:0:0:
402,192,239035,128,0,239190:0:0:0:0:
256,192,239035,1,0,0:0:0:0:
36,192,239190,128,0,239346:0:0:0:0:
182,192,239190,1,0,0:0:0:0:
109,192,239190,1,0,0:0:0:0:
329,192,239190,1,0,0:0:0:0:
475,192,239190,1,0,0:0:0:0:
475,192,239346,128,0,239501:0:0:0:0:
402,192,239346,1,0,0:0:0:0:
109,192,239501,128,0,239657:0:0:0:0:
329,192,239501,1,0,0:0:0:0:
182,192,239501,1,0,0:0:0:0:
36,192,239501,1,0,0:0:0:0:
256,192,239657,128,0,239813:0:0:0:0:
475,192,239657,1,0,0:0:0:0:
402,192,239813,128,0,239968:0:0:0:0:
329,192,239813,1,0,0:0:0:0:
182,192,239813,1,0,0:0:0:0:
36,192,239813,1,0,0:0:0:0:
109,192,239813,1,0,0:0:0:0:
329,192,239968,128,0,240124:0:0:0:0:
256,192,239968,1,0,0:0:0:0:
36,192,240124,128,0,240279:0:0:0:0:
109,192,240124,1,0,0:0:0:0:
402,192,240124,1,0,0:0:0:0:
182,192,240124,1,0,0:0:0:0:
475,192,240279,128,0,240435:0:0:0:0:
329,192,240279,1,0,0:0:0:0:
109,192,240435,128,0,240590:0:0:0:0:
256,192,240435,1,0,0:0:0:0:
36,192,240435,1,0,0:0:0:0:
402,192,240435,1,0,0:0:0:0:
329,192,240435,1,0,0:0:0:0:
182,192,240590,128,0,240746:0:0:0:0:
475,192,240590,1,0,0:0:0:0:
402,192,240746,128,0,240901:0:0:0:0:
329,192,240746,1,0,0:0:0:0:
36,192,240746,1,0,0:0:0:0:
256,192,240746,1,0,0:0:0:0:
109,192,240901,128,0,241057:0:0:0:0:
182,192,240901,1,0,0:0:0:0:
329,192,241057,128,0,241212:0:0:0:0:
256,192,241057,1,0,0:0:0:0:
475,192,241057,1,0,0:0:0:0:
402,192,241057,1,0,0:0:0:0:
36,192,241057,1,0,0:0:0:0:
36,192,241212,128,0,241368:0:0:0:0:
182,192,241212,1,0,0:0:0:0:
256,192,241368,128,0,241523:0:0:0:0:
109,192,241368,1,0,0:0:0:0:
402,192,241368,1,0,0:0:0:0:
475,192,241368,1,0,0:0:0:0:
475,192,241523,128,0,241679:0:0:0:0:
329,192,241523,1,0,0:0:0:0:
182,192,241679,128,0,241834:0:0:0:0:
36,192,241679,1,0,0:0:0:0:
109,192,241679,1,0,0:0:0:0:
402,192,241679,1,0,0:0:0:0:
256,192,241679,1,0,0:0:0:0:
402,192,241834,128,0,241990:0:0:0:0:
329,192,241834,1,0,0:0:0:0:
36,192,241990,1,0,0:0:0:0:
182,192,242016,1,0,0:0:0:0:
475,192,242042,1,0,0:0:0:0:
329,192,242068,1,0,0:0:0:0:
36,192,242094,1,0,0:0:0:0:
182,192,242119,1,0,0:0:0:0:
475,192,242145,1,0,0:0:0:0:
329,192,242171,1,0,0:0:0:0:
36,192,242197,1,0,0:0:0:0:
182,192,242223,1,0,0:0:0:0:
475,192,242249,1,0,0:0:0:0:
329,192,242275,1,0,0:0:0:0:
36,192,242301,1,0,0:0:0:0:
182,192,242301,1,0,0:0:0:0:
36,192,242612,128,0,242767:0:0:0:0:
109,192,242612,1,0,0:0:0:0:
256,192,242612,1,0,0:0:0:0:
402,192,242612,1,0,0:0:0:0:
475,192,242612,1,0,0:0:0:0:
182,192,242767,128,0,242923:0:0:0:0:
402,192,242767,1,0,0:0:0:0:
475,192,242923,128,0,243078:0:0:0:0:
256,192,242923,1,0,0:0:0:0:
36,192,242923,1,0,0:0:0:0:
329,192,242923,1,0,0:0:0:0:
402,192,242923,1,0,0:0:0:0:
329,192,243078,128,0,243234:0:0:0:0:
182,192,243078,1,0,0:0:0:0:
109,192,243234,128,0,243390:0:0:0:0:
36,192,243234,1,0,0:0:0:0:
182,192,243234,1,0,0:0:0:0:
475,192,243234,1,0,0:0:0:0:
402,192,243390,128,0,243545:0:0:0:0:
256,192,243390,1,0,0:0:0:0:
256,192,243545,128,0,243701:0:0:0:0:
329,192,243545,1,0,0:0:0:0:
36,192,243545,1,0,0:0:0:0:
109,192,243545,1,0,0:0:0:0:
475,192,243545,1,0,0:0:0:0:
36,192,243701,128,0,243856:0:0:0:0:
329,192,243701,1,0,0:0:0:0:
475,192,243856,128,0,244012:0:0:0:0:
109,192,243856,1,0,0:0:0:0:
402,192,243856,1,0,0:0:0:0:
256,192,243856,1,0,0:0:0:0:
256,192,244012,128,0,244167:0:0:0:0:
36,192,244012,1,0,0:0:0:0:
109,192,244167,128,0,244323:0:0:0:0:
36,192,244167,1,0,0:0:0:0:
329,192,244167,1,0,0:0:0:0:
475,192,244167,1,0,0:0:0:0:
182,192,244167,1,0,0:0:0:0:
329,192,244323,128,0,244478:0:0:0:0:
475,192,244323,1,0,0:0:0:0:
182,192,244478,128,0,244634:0:0:0:0:
36,192,244478,1,0,0:0:0:0:
109,192,244478,1,0,0:0:0:0:
402,192,244478,1,0,0:0:0:0:
402,192,244634,128,0,244789:0:0:0:0:
256,192,244634,1,0,0:0:0:0:
256,192,244789,128,0,244945:0:0:0:0:
182,192,244789,1,0,0:0:0:0:
109,192,244789,1,0,0:0:0:0:
475,192,244789,1,0,0:0:0:0:
329,192,244789,1,0,0:0:0:0:
402,192,244945,128,0,245100:0:0:0:0:
109,192,244945,1,0,0:0:0:0:
182,192,245100,128,0,245256:0:0:0:0:
36,192,245100,1,0,0:0:0:0:
329,192,245100,1,0,0:0:0:0:
475,192,245100,1,0,0:0:0:0:
329,192,245256,128,0,245411:0:0:0:0:
402,192,245256,1,0,0:0:0:0:
109,192,245411,128,0,245567:0:0:0:0:
256,192,245411,1,0,0:0:0:0:
402,192,245411,1,0,0:0:0:0:
475,192,245411,1,0,0:0:0:0:
36,192,245411,1,0,0:0:0:0:
256,192,245567,128,0,245722:0:0:0:0:
182,192,245567,1,0,0:0:0:0:
402,192,245722,128,0,245878:0:0:0:0:
329,192,245722,1,0,0:0:0:0:
36,192,245722,1,0,0:0:0:0:
182,192,245722,1,0,0:0:0:0:
36,192,245878,128,0,246033:0:0:0:0:
256,192,245878,1,0,0:0:0:0:
256,192,246033,128,0,246189:0:0:0:0:
475,192,246033,1,0,0:0:0:0:
402,192,246033,1,0,0:0:0:0:
109,192,246033,1,0,0:0:0:0:
182,192,246033,1,0,0:0:0:0:
475,192,246189,128,0,246344:0:0:0:0:
109,192,246189,1,0,0:0:0:0:
329,192,246344,128,0,246500:0:0:0:0:
36,192,246344,1,0,0:0:0:0:
182,192,246344,1,0,0:0:0:0:
402,192,246344,1,0,0:0:0:0:
182,192,246500,128,0,246655:0:0:0:0:
36,192,246500,1,0,0:0:0:0:
256,192,246500,1,0,0:0:0:0:
36,192,246655,128,0,246811:0:0:0:0:
329,192,246655,1,0,0:0:0:0:
402,192,246655,1,0,0:0:0:0:
475,192,246655,1,0,0:0:0:0:
109,192,246655,1,0,0:0:0:0:
256,192,246811,128,0,246967:0:0:0:0:
36,192,246967,1,0,0:0:0:0:
475,192,246967,1,0,0:0:0:0:
329,192,246967,1,0,0:0:0:0:
182,192,246967,1,0,0:0:0:0:
402,192,247044,1,0,0:0:0:0:
109,192,247044,1,0,0:0:0:0:
256,192,247044,1,0,0:0:0:0:
182,192,247122,1,0,0:0:0:0:
329,192,247122,1,0,0:0:0:0:
36,192,247122,1,0,0:0:0:0:
475,192,247122,1,0,0:0:0:0:
109,192,247200,1,0,0:0:0:0:
402,192,247200,1,0,0:0:0:0:
256,192,247200,1,0,0:0:0:0:
36,192,247278,1,0,0:0:0:0:
475,192,247278,1,0,0:0:0:0:
182,192,247278,1,0,0:0:0:0:
329,192,247278,1,0,0:0:0:0:
256,192,247433,1,0,0:0:0:0:
256,192,247589,1,0,0:0:0:0:
182,192,247589,1,0,0:0:0:0:
329,192,247589,1,0,0:0:0:0:
475,192,247589,1,0,0:0:0:0:
36,192,247589,128,0,247744:0:0:0:0:
329,192,247744,128,0,247900:0:0:0:0:
109,192,247744,1,0,0:0:0:0:
475,192,247744,1,0,0:0:0:0:
109,192,247900,128,0,248055:0:0:0:0:
256,192,247900,1,0,0:0:0:0:
182,192,247900,1,0,0:0:0:0:
36,192,247900,1,0,0:0:0:0:
475,192,247900,1,0,0:0:0:0:
402,192,248055,128,0,248211:0:0:0:0:
329,192,248055,1,0,0:0:0:0:
36,192,248055,1,0,0:0:0:0:
182,192,248211,128,0,248366:0:0:0:0:
256,192,248211,1,0,0:0:0:0:
109,192,248211,1,0,0:0:0:0:
475,192,248211,1,0,0:0:0:0:
475,192,248366,128,0,248522:0:0:0:0:
329,192,248366,1,0,0:0:0:0:
36,192,248366,1,0,0:0:0:0:
256,192,248522,128,0,248677:0:0:0:0:
36,192,248522,1,0,0:0:0:0:
109,192,248522,1,0,0:0:0:0:
182,192,248522,1,0,0:0:0:0:
402,192,248522,1,0,0:0:0:0:
36,192,248677,128,0,248833:0:0:0:0:
182,192,248677,1,0,0:0:0:0:
475,192,248677,1,0,0:0:0:0:
402,192,248833,128,0,248988:0:0:0:0:
109,192,248833,1,0,0:0:0:0:
256,192,248833,1,0,0:0:0:0:
475,192,248833,1,0,0:0:0:0:
109,192,248988,128,0,249144:0:0:0:0:
329,192,248988,1,0,0:0:0:0:
182,192,248988,1,0,0:0:0:0:
329,192,249144,128,0,249299:0:0:0:0:
36,192,249144,1,0,0:0:0:0:
256,192,249144,1,0,0:0:0:0:
402,192,249144,1,0,0:0:0:0:
475,192,249144,1,0,0:0:0:0:
182,192,249299,128,0,249455:0:0:0:0:
475,192,249299,1,0,0:0:0:0:
109,192,249299,1,0,0:0:0:0:
402,192,249455,128,0,249610:0:0:0:0:
256,192,249455,1,0,0:0:0:0:
36,192,249455,1,0,0:0:0:0:
329,192,249455,1,0,0:0:0:0:
109,192,249610,128,0,249766:0:0:0:0:
182,192,249610,1,0,0:0:0:0:
329,192,249610,1,0,0:0:0:0:
475,192,249766,128,0,249921:0:0:0:0:
256,192,249766,1,0,0:0:0:0:
36,192,249766,1,0,0:0:0:0:
402,192,249766,1,0,0:0:0:0:
329,192,249766,1,0,0:0:0:0:
36,192,249921,128,0,250077:0:0:0:0:
182,192,249921,1,0,0:0:0:0:
402,192,249921,1,0,0:0:0:0:
256,192,250077,128,0,250232:0:0:0:0:
109,192,250077,1,0,0:0:0:0:
329,192,250077,1,0,0:0:0:0:
475,192,250077,1,0,0:0:0:0:
475,192,250232,128,0,250388:0:0:0:0:
402,192,250232,1,0,0:0:0:0:
36,192,250232,1,0,0:0:0:0:
256,192,250388,128,0,250543:0:0:0:0:
109,192,250388,1,0,0:0:0:0:
182,192,250388,1,0,0:0:0:0:
329,192,250388,1,0,0:0:0:0:
402,192,250388,1,0,0:0:0:0:
36,192,250543,128,0,250699:0:0:0:0:
402,192,250543,1,0,0:0:0:0:
109,192,250543,1,0,0:0:0:0:
475,192,250699,1,0,0:0:0:0:
182,192,250699,128,0,250855:0:0:0:0:
402,192,250777,1,0,0:0:0:0:
329,192,250855,128,0,251010:0:0:0:0:
256,192,250855,1,0,0:0:0:0:
36,192,250855,1,0,0:0:0:0:
402,192,250932,1,0,0:0:0:0:
475,192,251010,128,0,251166:0:0:0:0:
36,192,251010,1,0,0:0:0:0:
182,192,251010,1,0,0:0:0:0:
256,192,251010,1,0,0:0:0:0:
109,192,251010,1,0,0:0:0:0:
402,192,251088,1,0,0:0:0:0:
109,192,251166,128,0,251321:0:0:0:0:
329,192,251166,1,0,0:0:0:0:
182,192,251166,1,0,0:0:0:0:
256,192,251243,1,0,0:0:0:0:
475,192,251321,128,0,251477:0:0:0:0:
182,192,251321,1,0,0:0:0:0:
329,192,251321,1,0,0:0:0:0:
36,192,251321,1,0,0:0:0:0:
402,192,251399,1,0,0:0:0:0:
329,192,251477,128,0,251632:0:0:0:0:
182,192,251477,1,0,0:0:0:0:
36,192,251477,1,0,0:0:0:0:
109,192,251554,1,0,0:0:0:0:
182,192,251632,128,0,251788:0:0:0:0:
402,192,251632,1,0,0:0:0:0:
475,192,251632,1,0,0:0:0:0:
36,192,251632,1,0,0:0:0:0:
256,192,251632,1,0,0:0:0:0:
109,192,251710,1,0,0:0:0:0:
36,192,251788,128,0,251943:0:0:0:0:
329,192,251788,1,0,0:0:0:0:
475,192,251788,1,0,0:0:0:0:
109,192,251865,1,0,0:0:0:0:
182,192,251943,1,0,0:0:0:0:
475,192,251943,1,0,0:0:0:0:
402,192,251969,1,0,0:0:0:0:
329,192,251995,1,0,0:0:0:0:
256,192,252021,1,0,0:0:0:0:
182,192,252047,1,0,0:0:0:0:
109,192,252073,1,0,0:0:0:0:
36,192,252099,1,0,0:0:0:0:
475,192,252125,1,0,0:0:0:0:
402,192,252151,1,0,0:0:0:0:
329,192,252176,1,0,0:0:0:0:
256,192,252202,1,0,0:0:0:0:
182,192,252228,1,0,0:0:0:0:
109,192,252254,1,0,0:0:0:0:
329,192,252254,1,0,0:0:0:0:
475,192,252254,1,0,0:0:0:0:
256,192,252332,1,0,0:0:0:0:
36,192,252332,1,0,0:0:0:0:
402,192,252332,1,0,0:0:0:0:
329,192,252410,1,0,0:0:0:0:
182,192,252410,1,0,0:0:0:0:
475,192,252410,1,0,0:0:0:0:
256,192,252487,1,0,0:0:0:0:
109,192,252487,1,0,0:0:0:0:
402,192,252487,1,0,0:0:0:0:
329,192,252565,1,0,0:0:0:0:
182,192,252565,1,0,0:0:0:0:
475,192,252565,128,0,253498:0:0:0:0:
36,192,252565,128,0,252721:0:0:0:0:
256,192,252721,128,0,252876:0:0:0:0:
402,192,252721,1,0,0:0:0:0:
109,192,252876,128,0,253032:0:0:0:0:
36,192,252876,1,0,0:0:0:0:
182,192,252876,1,0,0:0:0:0:
329,192,252876,1,0,0:0:0:0:
329,192,253032,128,0,253187:0:0:0:0:
256,192,253032,1,0,0:0:0:0:
182,192,253187,128,0,253343:0:0:0:0:
36,192,253187,1,0,0:0:0:0:
402,192,253187,1,0,0:0:0:0:
402,192,253343,128,0,253498:0:0:0:0:
256,192,253343,1,0,0:0:0:0:
256,192,253498,128,0,253654:0:0:0:0:
36,192,253498,1,0,0:0:0:0:
109,192,253498,1,0,0:0:0:0:
329,192,253498,1,0,0:0:0:0:
475,192,253654,128,0,253809:0:0:0:0:
182,192,253654,1,0,0:0:0:0:
36,192,253809,128,0,255054:0:0:0:0:
109,192,253809,128,0,254120:0:0:0:0:
402,192,253809,1,0,0:0:0:0:
256,192,253809,1,0,0:0:0:0:
329,192,253965,1,0,0:0:0:0:
256,192,254120,128,0,254432:0:0:0:0:
402,192,254120,1,0,0:0:0:0:
475,192,254120,1,0,0:0:0:0:
182,192,254120,1,0,0:0:0:0:
329,192,254276,1,0,0:0:0:0:
329,192,254432,128,0,254743:0:0:0:0:
402,192,254432,1,0,0:0:0:0:
109,192,254432,1,0,0:0:0:0:
475,192,254587,1,0,0:0:0:0:
256,192,254587,1,0,0:0:0:0:
475,192,254743,128,0,255054:0:0:0:0:
109,192,254743,1,0,0:0:0:0:
402,192,254743,1,0,0:0:0:0:
182,192,254743,1,0,0:0:0:0:
256,192,254898,1,0,0:0:0:0:
109,192,254898,1,0,0:0:0:0:
182,192,255054,128,0,255520:0:0:0:0:
329,192,255054,128,0,255520:0:0:0:0:
109,192,255054,1,0,0:0:0:0:
402,192,255054,1,0,0:0:0:0:
256,192,255209,1,0,0:0:0:0:
36,192,255365,1,0,0:0:0:0:
256,192,255365,1,0,0:0:0:0:
402,192,255365,1,0,0:0:0:0:
36,192,255520,128,0,255987:0:0:0:0:
475,192,255520,128,0,255987:0:0:0:0:
109,192,255520,1,0,0:0:0:0:
256,192,255676,1,0,0:0:0:0:
402,192,255676,1,0,0:0:0:0:
329,192,255831,1,0,0:0:0:0:
109,192,255987,128,0,256298:0:0:0:0:
402,192,255987,128,0,256298:0:0:0:0:
329,192,255987,1,0,0:0:0:0:
182,192,255987,1,0,0:0:0:0:
256,192,255987,1,0,0:0:0:0:
256,192,256142,1,0,0:0:0:0:
182,192,256298,128,0,256687:0:0:0:0:
329,192,256298,128,0,256687:0:0:0:0:
475,192,256298,1,0,0:0:0:0:
36,192,256298,1,0,0:0:0:0:
256,192,256453,1,0,0:0:0:0:
256,192,256609,1,0,0:0:0:0:
36,192,256609,1,0,0:0:0:0:
402,192,256609,1,0,0:0:0:0:
182,192,256764,128,0,256842:0:0:0:0:
329,192,256764,128,0,256842:0:0:0:0:
475,192,256764,1,0,0:0:0:0:
182,192,256920,128,0,257231:0:0:0:0:
329,192,256920,128,0,257231:0:0:0:0:
36,192,256920,1,0,0:0:0:0:
256,192,256920,1,0,0:0:0:0:
402,192,256998,1,0,0:0:0:0:
109,192,257075,1,0,0:0:0:0:
475,192,257075,1,0,0:0:0:0:
256,192,257153,1,0,0:0:0:0:
402,192,257231,1,0,0:0:0:0:
475,192,257231,1,0,0:0:0:0:
329,192,257386,1,0,0:0:0:0:
36,192,257386,1,0,0:0:0:0:
109,192,257464,1,0,0:0:0:0:
402,192,257464,1,0,0:0:0:0:
36,192,257542,128,0,257775:0:0:0:0:
182,192,257542,128,0,257775:0:0:0:0:
256,192,257542,128,0,257775:0:0:0:0:
329,192,257542,128,0,257775:0:0:0:0:
475,192,257542,128,0,257775:0:0:0:0:
475,192,257853,128,0,257931:0:0:0:0:
402,192,257853,128,0,257931:0:0:0:0:
329,192,257853,128,0,257931:0:0:0:0:
256,192,257853,128,0,257931:0:0:0:0:
109,192,257853,128,0,257931:0:0:0:0:
36,192,258008,128,0,258086:0:0:0:0:
182,192,258008,128,0,258086:0:0:0:0:
329,192,258008,128,0,258086:0:0:0:0:
402,192,258008,128,0,258086:0:0:0:0:
475,192,258008,128,0,258086:0:0:0:0:
475,192,258164,128,0,258242:0:0:0:0:
402,192,258164,128,0,258242:0:0:0:0:
256,192,258164,128,0,258242:0:0:0:0:
109,192,258164,128,0,258242:0:0:0:0:
36,192,258164,128,0,258242:0:0:0:0:
36,192,258320,128,0,258397:0:0:0:0:
109,192,258320,128,0,258397:0:0:0:0:
182,192,258320,128,0,258397:0:0:0:0:
256,192,258320,128,0,258397:0:0:0:0:
402,192,258320,128,0,258397:0:0:0:0:
475,192,258475,128,0,258553:0:0:0:0:
329,192,258475,128,0,258553:0:0:0:0:
182,192,258475,128,0,258553:0:0:0:0:
36,192,258475,128,0,258553:0:0:0:0:
109,192,258631,128,0,258708:0:0:0:0:
36,192,258631,128,0,258708:0:0:0:0:
256,192,258631,128,0,258708:0:0:0:0:
402,192,258631,128,0,258708:0:0:0:0:
475,192,258631,128,0,258708:0:0:0:0:
402,192,258786,128,0,258864:0:0:0:0:
329,192,258786,128,0,258864:0:0:0:0:
256,192,258786,128,0,258864:0:0:0:0:
182,192,258786,128,0,258864:0:0:0:0:
109,192,258786,128,0,258864:0:0:0:0:
36,192,258942,128,0,259019:0:0:0:0:
109,192,258942,128,0,259019:0:0:0:0:
256,192,258942,128,0,259019:0:0:0:0:
402,192,258942,128,0,259019:0:0:0:0:
475,192,258942,128,0,259019:0:0:0:0:
402,192,259097,128,0,259175:0:0:0:0:
329,192,259097,128,0,259175:0:0:0:0:
256,192,259097,128,0,259175:0:0:0:0:
182,192,259097,128,0,259175:0:0:0:0:
109,192,259097,128,0,259175:0:0:0:0:
36,192,259253,128,0,259330:0:0:0:0:
109,192,259253,128,0,259330:0:0:0:0:
256,192,259253,128,0,259330:0:0:0:0:
402,192,259253,128,0,259330:0:0:0:0:
475,192,259253,128,0,259330:0:0:0:0:
475,192,259564,128,0,259641:0:0:0:0:
402,192,259564,128,0,259641:0:0:0:0:
329,192,259564,128,0,259641:0:0:0:0:
256,192,259564,128,0,259641:0:0:0:0:
182,192,259564,128,0,259641:0:0:0:0:
109,192,259564,128,0,259641:0:0:0:0:
256,192,259719,128,0,259797:0:0:0:0:
329,192,259719,128,0,259797:0:0:0:0:
402,192,259719,128,0,259797:0:0:0:0:
475,192,259719,128,0,259797:0:0:0:0:
182,192,259719,128,0,259797:0:0:0:0:
256,192,259875,128,0,259953:0:0:0:0:
329,192,259875,128,0,259953:0:0:0:0:
402,192,259875,128,0,259953:0:0:0:0:
475,192,259875,128,0,259953:0:0:0:0:
329,192,260030,1,0,0:0:0:0:
402,192,260030,1,0,0:0:0:0:
475,192,260030,1,0,0:0:0:0:
36,192,260030,1,0,0:0:0:0:
109,192,260186,1,0,0:0:0:0:
256,192,260186,1,0,0:0:0:0:
182,192,260341,1,0,0:0:0:0:
36,192,260341,1,0,0:0:0:0:
329,192,260341,1,0,0:0:0:0:
402,192,260341,1,0,0:0:0:0:
475,192,260341,1,0,0:0:0:0:
256,192,260497,1,0,0:0:0:0:
109,192,260497,1,0,0:0:0:0:
329,192,260652,1,0,0:0:0:0:
402,192,260652,1,0,0:0:0:0:
475,192,260652,1,0,0:0:0:0:
182,192,260652,1,0,0:0:0:0:
256,192,260808,1,0,0:0:0:0:
109,192,260808,1,0,0:0:0:0:
182,192,260963,1,0,0:0:0:0:
402,192,260963,1,0,0:0:0:0:
329,192,260963,1,0,0:0:0:0:
475,192,260963,1,0,0:0:0:0:
36,192,260963,1,0,0:0:0:0:
109,192,261119,1,0,0:0:0:0:
256,192,261119,1,0,0:0:0:0:
36,192,261274,1,0,0:0:0:0:
329,192,261313,1,0,0:0:0:0:
182,192,261352,1,0,0:0:0:0:
475,192,261391,1,0,0:0:0:0:
329,192,261430,1,0,0:0:0:0:
36,192,261469,1,0,0:0:0:0:
182,192,261508,1,0,0:0:0:0:
329,192,261547,1,0,0:0:0:0:
475,192,261585,1,0,0:0:0:0:
36,192,261585,1,0,0:0:0:0:
109,192,261663,1,0,0:0:0:0:
402,192,261663,1,0,0:0:0:0:
329,192,261741,1,0,0:0:0:0:
182,192,261741,1,0,0:0:0:0:
402,192,261819,1,0,0:0:0:0:
109,192,261819,1,0,0:0:0:0:
475,192,261897,1,0,0:0:0:0:
36,192,261897,1,0,0:0:0:0:
402,192,261974,1,0,0:0:0:0:
109,192,261974,1,0,0:0:0:0:
329,192,262052,1,0,0:0:0:0:
182,192,262052,1,0,0:0:0:0:
402,192,262130,1,0,0:0:0:0:
109,192,262130,1,0,0:0:0:0:
475,192,262208,1,0,0:0:0:0:
36,192,262208,1,0,0:0:0:0:
109,192,262285,1,0,0:0:0:0:
402,192,262285,1,0,0:0:0:0:
182,192,262363,1,0,0:0:0:0:
329,192,262363,1,0,0:0:0:0:
402,192,262441,1,0,0:0:0:0:
109,192,262441,1,0,0:0:0:0:
475,192,262519,1,0,0:0:0:0:
36,192,262519,1,0,0:0:0:0:
256,192,262519,1,0,0:0:0:0:
