osu file format v14

[General]
AudioFilename: audio 0.900x.mp3
AudioLeadIn: 0
PreviewTime: 125155
Countdown: 0
SampleSet: Normal
StackLeniency: 0.7
Mode: 3
LetterboxInBreaks: 0
SpecialStyle: 0
WidescreenStoryboard: 1

[Editor]
DistanceSpacing: 0.8
BeatDivisor: 4
GridSize: 8
TimelineZoom: 3.4

[Metadata]
Title:KLASSIKER EINHEIT
TitleUnicode:KLASSIKER EINHEIT
Artist:DJ Sharpnel
ArtistUnicode:DJ Sharpnel
Creator:Arona
Version:BMS LV.22 (0.9x) [Yasashiku]
Source:氷菓
Tags:Welcome To The Ottack Universe Sharpnelsound Jea Ryuta Nakagami 仲上竜太 Lemmy SRPC-0029 優しさの理由 Yasashisa no Riyuu ちょうちょ ChouCho 氷菓 Hyouka Electronic Japanese J-core J-pop c82 comiket82 comic market 82 コミックマーケッ 82 コミケ82
BeatmapID:2923823
BeatmapSetID:1419209

[Difficulty]
HPDrainRate:8
CircleSize:7
OverallDifficulty:8.5
ApproachRate:5
SliderMultiplier:1.4
SliderTickRate:1

[Events]
//Background and Video events
0,0,"klassiker-bg.jpg",0,0
//Break Periods
//Storyboard Layer 0 (Background)
//Storyboard Layer 1 (Fail)
//Storyboard Layer 2 (Pass)
//Storyboard Layer 3 (Foreground)
//Storyboard Layer 4 (Overlay)
//Storyboard Sound Samples

[TimingPoints]
0,355.555555555556,4,1,0,0,1,0

[HitObjects]
475,192,0,5,0,0:0:0:0:
402,192,0,1,0,0:0:0:0:
36,192,0,1,0,0:0:0:0:
109,192,0,1,0,0:0:0:0:
182,192,0,1,0,0:0:0:0:
329,192,88,1,0,0:0:0:0:
402,192,177,1,0,0:0:0:0:
182,192,177,1,0,0:0:0:0:
36,192,266,1,0,0:0:0:0:
475,192,355,1,0,0:0:0:0:
402,192,355,1,0,0:0:0:0:
182,192,355,1,0,0:0:0:0:
109,192,355,1,0,0:0:0:0:
329,192,444,1,0,0:0:0:0:
36,192,533,1,0,0:0:0:0:
182,192,533,1,0,0:0:0:0:
402,192,622,1,0,0:0:0:0:
256,192,622,1,0,0:0:0:0:
36,192,711,1,0,0:0:0:0:
475,192,711,1,0,0:0:0:0:
109,192,711,1,0,0:0:0:0:
329,192,800,1,0,0:0:0:0:
109,192,888,1,0,0:0:0:0:
402,192,888,1,0,0:0:0:0:
329,192,977,1,0,0:0:0:0:
256,192,1066,1,0,0:0:0:0:
182,192,1066,1,0,0:0:0:0:
109,192,1066,1,0,0:0:0:0:
475,192,1066,1,0,0:0:0:0:
36,192,1155,1,0,0:0:0:0:
475,192,1244,1,0,0:0:0:0:
329,192,1244,1,0,0:0:0:0:
109,192,1333,1,0,0:0:0:0:
256,192,1333,1,0,0:0:0:0:
36,192,1422,1,0,0:0:0:0:
475,192,1422,1,0,0:0:0:0:
402,192,1422,1,0,0:0:0:0:
182,192,1511,1,0,0:0:0:0:
109,192,1600,1,0,0:0:0:0:
329,192,1600,1,0,0:0:0:0:
475,192,1688,1,0,0:0:0:0:
36,192,1777,1,0,0:0:0:0:
256,192,1777,1,0,0:0:0:0:
182,192,1777,1,0,0:0:0:0:
109,192,1777,1,0,0:0:0:0:
402,192,1777,1,0,0:0:0:0:
329,192,1866,1,0,0:0:0:0:
36,192,1955,1,0,0:0:0:0:
182,192,1955,1,0,0:0:0:0:
402,192,2044,1,0,0:0:0:0:
329,192,2044,1,0,0:0:0:0:
475,192,2133,1,0,0:0:0:0:
182,192,2133,1,0,0:0:0:0:
109,192,2133,1,0,0:0:0:0:
36,192,2222,1,0,0:0:0:0:
182,192,2311,1,0,0:0:0:0:
329,192,2311,1,0,0:0:0:0:
475,192,2400,1,0,0:0:0:0:
402,192,2488,1,0,0:0:0:0:
109,192,2488,1,0,0:0:0:0:
182,192,2488,1,0,0:0:0:0:
36,192,2488,1,0,0:0:0:0:
256,192,2577,1,0,0:0:0:0:
402,192,2666,1,0,0:0:0:0:
475,192,2666,1,0,0:0:0:0:
182,192,2755,1,0,0:0:0:0:
36,192,2755,1,0,0:0:0:0:
475,192,2844,1,0,0:0:0:0:
329,192,2844,1,0,0:0:0:0:
256,192,2844,1,0,0:0:0:0:
109,192,2933,1,0,0:0:0:0:
256,192,3022,1,0,0:0:0:0:
402,192,3022,1,0,0:0:0:0:
36,192,3111,1,0,0:0:0:0:
182,192,3200,1,0,0:0:0:0:
256,192,3200,1,0,0:0:0:0:
109,192,3200,1,0,0:0:0:0:
475,192,3200,1,0,0:0:0:0:
402,192,3288,1,0,0:0:0:0:
36,192,3377,1,0,0:0:0:0:
109,192,3377,1,0,0:0:0:0:
402,192,3466,1,0,0:0:0:0:
475,192,3466,1,0,0:0:0:0:
36,192,3555,1,0,0:0:0:0:
109,192,3555,1,0,0:0:0:0:
329,192,3555,1,0,0:0:0:0:
256,192,3555,1,0,0:0:0:0:
402,192,3644,1,0,0:0:0:0:
256,192,3733,1,0,0:0:0:0:
109,192,3733,1,0,0:0:0:0:
475,192,3822,1,0,0:0:0:0:
402,192,3911,1,0,0:0:0:0:
329,192,3911,1,0,0:0:0:0:
182,192,3911,1,0,0:0:0:0:
36,192,3911,1,0,0:0:0:0:
109,192,4000,1,0,0:0:0:0:
329,192,4088,1,0,0:0:0:0:
256,192,4088,1,0,0:0:0:0:
402,192,4177,1,0,0:0:0:0:
182,192,4177,1,0,0:0:0:0:
36,192,4266,1,0,0:0:0:0:
109,192,4266,1,0,0:0:0:0:
475,192,4266,1,0,0:0:0:0:
256,192,4355,1,0,0:0:0:0:
36,192,4444,1,0,0:0:0:0:
182,192,4444,1,0,0:0:0:0:
329,192,4533,1,0,0:0:0:0:
475,192,4622,1,0,0:0:0:0:
256,192,4622,1,0,0:0:0:0:
109,192,4622,1,0,0:0:0:0:
36,192,4622,1,0,0:0:0:0:
329,192,4711,1,0,0:0:0:0:
182,192,4800,1,0,0:0:0:0:
256,192,4800,1,0,0:0:0:0:
329,192,4888,1,0,0:0:0:0:
109,192,4888,1,0,0:0:0:0:
475,192,4977,1,0,0:0:0:0:
402,192,4977,1,0,0:0:0:0:
36,192,4977,1,0,0:0:0:0:
256,192,5066,1,0,0:0:0:0:
475,192,5155,1,0,0:0:0:0:
329,192,5155,1,0,0:0:0:0:
182,192,5244,1,0,0:0:0:0:
36,192,5333,1,0,0:0:0:0:
109,192,5333,1,0,0:0:0:0:
475,192,5333,1,0,0:0:0:0:
402,192,5333,1,0,0:0:0:0:
329,192,5422,1,0,0:0:0:0:
36,192,5511,1,0,0:0:0:0:
475,192,5511,1,0,0:0:0:0:
109,192,5511,1,0,0:0:0:0:
402,192,5511,1,0,0:0:0:0:
182,192,5600,1,0,0:0:0:0:
36,192,5688,1,0,0:0:0:0:
109,192,5688,1,0,0:0:0:0:
256,192,5688,1,0,0:0:0:0:
475,192,5688,1,0,0:0:0:0:
402,192,5688,1,0,0:0:0:0:
329,192,5777,1,0,0:0:0:0:
402,192,5866,1,0,0:0:0:0:
182,192,5866,1,0,0:0:0:0:
329,192,5955,1,0,0:0:0:0:
36,192,6044,1,0,0:0:0:0:
256,192,6044,1,0,0:0:0:0:
475,192,6044,1,0,0:0:0:0:
109,192,6044,1,0,0:0:0:0:
402,192,6133,1,0,0:0:0:0:
182,192,6222,1,0,0:0:0:0:
256,192,6311,1,0,0:0:0:0:
402,192,6311,1,0,0:0:0:0:
475,192,6400,1,0,0:0:0:0:
36,192,6400,1,0,0:0:0:0:
329,192,6400,1,0,0:0:0:0:
182,192,6488,1,0,0:0:0:0:
109,192,6577,1,0,0:0:0:0:
329,192,6577,1,0,0:0:0:0:
182,192,6666,1,0,0:0:0:0:
36,192,6755,1,0,0:0:0:0:
256,192,6755,1,0,0:0:0:0:
475,192,6755,1,0,0:0:0:0:
402,192,6755,1,0,0:0:0:0:
109,192,6844,1,0,0:0:0:0:
329,192,6933,1,0,0:0:0:0:
109,192,7022,1,0,0:0:0:0:
256,192,7022,1,0,0:0:0:0:
475,192,7111,1,0,0:0:0:0:
182,192,7111,1,0,0:0:0:0:
36,192,7111,1,0,0:0:0:0:
329,192,7200,1,0,0:0:0:0:
182,192,7288,1,0,0:0:0:0:
402,192,7288,1,0,0:0:0:0:
329,192,7377,1,0,0:0:0:0:
256,192,7466,1,0,0:0:0:0:
475,192,7466,1,0,0:0:0:0:
36,192,7466,1,0,0:0:0:0:
109,192,7466,1,0,0:0:0:0:
402,192,7555,1,0,0:0:0:0:
182,192,7644,1,0,0:0:0:0:
402,192,7733,1,0,0:0:0:0:
256,192,7733,1,0,0:0:0:0:
475,192,7822,1,0,0:0:0:0:
329,192,7822,1,0,0:0:0:0:
36,192,7822,1,0,0:0:0:0:
182,192,7911,1,0,0:0:0:0:
109,192,8000,1,0,0:0:0:0:
329,192,8000,1,0,0:0:0:0:
182,192,8088,1,0,0:0:0:0:
109,192,8177,1,0,0:0:0:0:
36,192,8177,1,0,0:0:0:0:
256,192,8177,1,0,0:0:0:0:
475,192,8177,1,0,0:0:0:0:
402,192,8266,1,0,0:0:0:0:
329,192,8355,1,0,0:0:0:0:
182,192,8355,1,0,0:0:0:0:
36,192,8444,1,0,0:0:0:0:
475,192,8533,1,0,0:0:0:0:
256,192,8533,1,0,0:0:0:0:
329,192,8533,1,0,0:0:0:0:
109,192,8533,1,0,0:0:0:0:
182,192,8622,1,0,0:0:0:0:
402,192,8711,1,0,0:0:0:0:
256,192,8711,1,0,0:0:0:0:
182,192,8800,1,0,0:0:0:0:
256,192,8888,1,0,0:0:0:0:
36,192,8888,1,0,0:0:0:0:
109,192,8888,1,0,0:0:0:0:
329,192,8888,1,0,0:0:0:0:
402,192,8977,1,0,0:0:0:0:
329,192,9066,1,0,0:0:0:0:
109,192,9066,1,0,0:0:0:0:
475,192,9155,1,0,0:0:0:0:
182,192,9155,1,0,0:0:0:0:
256,192,9244,1,0,0:0:0:0:
402,192,9244,1,0,0:0:0:0:
36,192,9244,1,0,0:0:0:0:
329,192,9333,1,0,0:0:0:0:
256,192,9422,1,0,0:0:0:0:
109,192,9422,1,0,0:0:0:0:
329,192,9511,1,0,0:0:0:0:
256,192,9600,1,0,0:0:0:0:
475,192,9600,1,0,0:0:0:0:
402,192,9600,1,0,0:0:0:0:
182,192,9600,1,0,0:0:0:0:
109,192,9688,1,0,0:0:0:0:
182,192,9777,1,0,0:0:0:0:
402,192,9777,1,0,0:0:0:0:
36,192,9866,1,0,0:0:0:0:
329,192,9866,1,0,0:0:0:0:
109,192,9955,1,0,0:0:0:0:
256,192,9955,1,0,0:0:0:0:
402,192,9955,1,0,0:0:0:0:
182,192,10044,1,0,0:0:0:0:
36,192,10133,1,0,0:0:0:0:
256,192,10133,1,0,0:0:0:0:
182,192,10222,1,0,0:0:0:0:
36,192,10311,1,0,0:0:0:0:
109,192,10311,1,0,0:0:0:0:
329,192,10311,1,0,0:0:0:0:
475,192,10311,1,0,0:0:0:0:
256,192,10400,1,0,0:0:0:0:
402,192,10488,1,0,0:0:0:0:
109,192,10488,1,0,0:0:0:0:
475,192,10577,1,0,0:0:0:0:
256,192,10577,1,0,0:0:0:0:
402,192,10666,1,0,0:0:0:0:
36,192,10666,1,0,0:0:0:0:
182,192,10666,1,0,0:0:0:0:
329,192,10755,1,0,0:0:0:0:
475,192,10844,1,0,0:0:0:0:
256,192,10844,1,0,0:0:0:0:
329,192,10933,1,0,0:0:0:0:
402,192,11022,1,0,0:0:0:0:
475,192,11022,1,0,0:0:0:0:
182,192,11022,1,0,0:0:0:0:
36,192,11022,1,0,0:0:0:0:
256,192,11111,1,0,0:0:0:0:
36,192,11200,1,0,0:0:0:0:
109,192,11200,1,0,0:0:0:0:
329,192,11200,1,0,0:0:0:0:
475,192,11200,1,0,0:0:0:0:
182,192,11288,1,0,0:0:0:0:
36,192,11377,1,0,0:0:0:0:
402,192,11377,1,0,0:0:0:0:
475,192,11377,1,0,0:0:0:0:
256,192,11377,1,0,0:0:0:0:
109,192,11377,1,0,0:0:0:0:
182,192,11466,1,0,0:0:0:0:
329,192,11555,1,0,0:0:0:0:
109,192,11555,1,0,0:0:0:0:
256,192,11644,1,0,0:0:0:0:
36,192,11733,1,0,0:0:0:0:
475,192,11733,1,0,0:0:0:0:
402,192,11733,1,0,0:0:0:0:
182,192,11733,1,0,0:0:0:0:
329,192,11822,1,0,0:0:0:0:
256,192,11911,1,0,0:0:0:0:
109,192,11911,1,0,0:0:0:0:
475,192,12000,1,0,0:0:0:0:
36,192,12088,1,0,0:0:0:0:
182,192,12088,1,0,0:0:0:0:
402,192,12088,1,0,0:0:0:0:
256,192,12177,1,0,0:0:0:0:
109,192,12266,1,0,0:0:0:0:
329,192,12266,1,0,0:0:0:0:
182,192,12355,1,0,0:0:0:0:
475,192,12444,1,0,0:0:0:0:
402,192,12444,1,0,0:0:0:0:
36,192,12444,1,0,0:0:0:0:
256,192,12444,1,0,0:0:0:0:
109,192,12533,1,0,0:0:0:0:
329,192,12622,1,0,0:0:0:0:
182,192,12622,1,0,0:0:0:0:
36,192,12711,1,0,0:0:0:0:
475,192,12800,1,0,0:0:0:0:
256,192,12800,1,0,0:0:0:0:
109,192,12800,1,0,0:0:0:0:
329,192,12888,1,0,0:0:0:0:
182,192,12977,1,0,0:0:0:0:
475,192,12977,1,0,0:0:0:0:
402,192,13066,1,0,0:0:0:0:
36,192,13155,1,0,0:0:0:0:
475,192,13155,1,0,0:0:0:0:
329,192,13155,1,0,0:0:0:0:
256,192,13155,1,0,0:0:0:0:
182,192,13244,1,0,0:0:0:0:
329,192,13333,1,0,0:0:0:0:
109,192,13333,1,0,0:0:0:0:
402,192,13422,1,0,0:0:0:0:
475,192,13511,1,0,0:0:0:0:
182,192,13511,1,0,0:0:0:0:
256,192,13511,1,0,0:0:0:0:
36,192,13600,1,0,0:0:0:0:
475,192,13688,1,0,0:0:0:0:
329,192,13688,1,0,0:0:0:0:
109,192,13688,1,0,0:0:0:0:
402,192,13777,1,0,0:0:0:0:
36,192,13866,1,0,0:0:0:0:
182,192,13866,1,0,0:0:0:0:
256,192,13866,1,0,0:0:0:0:
475,192,13866,1,0,0:0:0:0:
329,192,13955,1,0,0:0:0:0:
109,192,14044,1,0,0:0:0:0:
256,192,14044,1,0,0:0:0:0:
402,192,14133,1,0,0:0:0:0:
36,192,14222,1,0,0:0:0:0:
475,192,14222,1,0,0:0:0:0:
329,192,14222,1,0,0:0:0:0:
256,192,14311,1,0,0:0:0:0:
402,192,14400,1,0,0:0:0:0:
182,192,14400,1,0,0:0:0:0:
36,192,14488,1,0,0:0:0:0:
329,192,14577,1,0,0:0:0:0:
256,192,14577,1,0,0:0:0:0:
182,192,14577,1,0,0:0:0:0:
109,192,14577,1,0,0:0:0:0:
402,192,14666,1,0,0:0:0:0:
475,192,14755,1,0,0:0:0:0:
182,192,14755,1,0,0:0:0:0:
329,192,14844,1,0,0:0:0:0:
475,192,14933,1,0,0:0:0:0:
402,192,14933,1,0,0:0:0:0:
109,192,14933,1,0,0:0:0:0:
256,192,15022,1,0,0:0:0:0:
36,192,15111,1,0,0:0:0:0:
329,192,15111,1,0,0:0:0:0:
475,192,15200,1,0,0:0:0:0:
329,192,15288,1,0,0:0:0:0:
182,192,15288,1,0,0:0:0:0:
109,192,15288,1,0,0:0:0:0:
36,192,15288,1,0,0:0:0:0:
256,192,15377,1,0,0:0:0:0:
109,192,15466,1,0,0:0:0:0:
402,192,15466,1,0,0:0:0:0:
329,192,15555,1,0,0:0:0:0:
36,192,15644,1,0,0:0:0:0:
182,192,15644,1,0,0:0:0:0:
475,192,15644,1,0,0:0:0:0:
256,192,15733,1,0,0:0:0:0:
402,192,15822,1,0,0:0:0:0:
182,192,15822,1,0,0:0:0:0:
329,192,15911,1,0,0:0:0:0:
475,192,16000,1,0,0:0:0:0:
36,192,16000,1,0,0:0:0:0:
109,192,16000,1,0,0:0:0:0:
256,192,16000,1,0,0:0:0:0:
182,192,16088,1,0,0:0:0:0:
36,192,16177,1,0,0:0:0:0:
329,192,16177,1,0,0:0:0:0:
109,192,16266,1,0,0:0:0:0:
475,192,16355,1,0,0:0:0:0:
256,192,16355,1,0,0:0:0:0:
182,192,16355,1,0,0:0:0:0:
402,192,16444,1,0,0:0:0:0:
36,192,16533,1,0,0:0:0:0:
256,192,16533,1,0,0:0:0:0:
475,192,16622,1,0,0:0:0:0:
402,192,16711,1,0,0:0:0:0:
329,192,16711,1,0,0:0:0:0:
182,192,16711,1,0,0:0:0:0:
109,192,16711,1,0,0:0:0:0:
36,192,16800,1,0,0:0:0:0:
402,192,16888,1,0,0:0:0:0:
329,192,16888,1,0,0:0:0:0:
182,192,16888,1,0,0:0:0:0:
109,192,16888,1,0,0:0:0:0:
475,192,16977,1,0,0:0:0:0:
109,192,17066,1,0,0:0:0:0:
182,192,17066,1,0,0:0:0:0:
329,192,17066,1,0,0:0:0:0:
402,192,17066,1,0,0:0:0:0:
256,192,17155,1,0,0:0:0:0:
36,192,17155,1,0,0:0:0:0:
475,192,17244,1,0,0:0:0:0:
182,192,17244,1,0,0:0:0:0:
329,192,17333,1,0,0:0:0:0:
36,192,17422,1,0,0:0:0:0:
109,192,17422,1,0,0:0:0:0:
182,192,17422,1,0,0:0:0:0:
402,192,17422,1,0,0:0:0:0:
475,192,17511,1,0,0:0:0:0:
256,192,17600,1,0,0:0:0:0:
402,192,17600,1,0,0:0:0:0:
109,192,17688,1,0,0:0:0:0:
36,192,17777,1,0,0:0:0:0:
475,192,17777,1,0,0:0:0:0:
329,192,17777,1,0,0:0:0:0:
256,192,17866,1,0,0:0:0:0:
36,192,17955,1,0,0:0:0:0:
182,192,17955,1,0,0:0:0:0:
329,192,18044,1,0,0:0:0:0:
109,192,18044,1,0,0:0:0:0:
475,192,18133,1,0,0:0:0:0:
402,192,18133,1,0,0:0:0:0:
256,192,18133,1,0,0:0:0:0:
182,192,18133,1,0,0:0:0:0:
36,192,18222,1,0,0:0:0:0:
256,192,18311,1,0,0:0:0:0:
109,192,18311,1,0,0:0:0:0:
329,192,18400,1,0,0:0:0:0:
36,192,18488,1,0,0:0:0:0:
182,192,18488,1,0,0:0:0:0:
402,192,18488,1,0,0:0:0:0:
256,192,18577,1,0,0:0:0:0:
475,192,18666,1,0,0:0:0:0:
329,192,18666,1,0,0:0:0:0:
402,192,18755,1,0,0:0:0:0:
182,192,18755,1,0,0:0:0:0:
256,192,18844,1,0,0:0:0:0:
109,192,18844,1,0,0:0:0:0:
36,192,18844,1,0,0:0:0:0:
329,192,18844,1,0,0:0:0:0:
475,192,18933,1,0,0:0:0:0:
402,192,19022,1,0,0:0:0:0:
256,192,19022,1,0,0:0:0:0:
182,192,19111,1,0,0:0:0:0:
475,192,19200,1,0,0:0:0:0:
329,192,19200,1,0,0:0:0:0:
36,192,19200,1,0,0:0:0:0:
182,192,19288,1,0,0:0:0:0:
402,192,19288,1,0,0:0:0:0:
109,192,19377,1,0,0:0:0:0:
329,192,19377,1,0,0:0:0:0:
256,192,19466,1,0,0:0:0:0:
182,192,19555,1,0,0:0:0:0:
36,192,19555,1,0,0:0:0:0:
475,192,19555,1,0,0:0:0:0:
329,192,19644,1,0,0:0:0:0:
182,192,19733,1,0,0:0:0:0:
402,192,19733,1,0,0:0:0:0:
109,192,19822,1,0,0:0:0:0:
475,192,19822,1,0,0:0:0:0:
36,192,19911,1,0,0:0:0:0:
256,192,19911,1,0,0:0:0:0:
329,192,19911,1,0,0:0:0:0:
475,192,20000,1,0,0:0:0:0:
402,192,20000,1,0,0:0:0:0:
256,192,20088,1,0,0:0:0:0:
182,192,20088,1,0,0:0:0:0:
402,192,20177,1,0,0:0:0:0:
329,192,20177,1,0,0:0:0:0:
36,192,20266,1,0,0:0:0:0:
109,192,20266,1,0,0:0:0:0:
182,192,20266,1,0,0:0:0:0:
475,192,20355,1,0,0:0:0:0:
329,192,20355,1,0,0:0:0:0:
36,192,20444,1,0,0:0:0:0:
182,192,20444,1,0,0:0:0:0:
475,192,20533,1,0,0:0:0:0:
402,192,20533,1,0,0:0:0:0:
36,192,20622,1,0,0:0:0:0:
109,192,20622,1,0,0:0:0:0:
256,192,20622,1,0,0:0:0:0:
475,192,20711,1,0,0:0:0:0:
402,192,20711,1,0,0:0:0:0:
36,192,20800,1,0,0:0:0:0:
109,192,20800,1,0,0:0:0:0:
402,192,20888,1,0,0:0:0:0:
329,192,20888,1,0,0:0:0:0:
109,192,20977,1,0,0:0:0:0:
182,192,20977,1,0,0:0:0:0:
475,192,21066,1,0,0:0:0:0:
329,192,21066,1,0,0:0:0:0:
36,192,21155,1,0,0:0:0:0:
182,192,21155,1,0,0:0:0:0:
475,192,21244,1,0,0:0:0:0:
329,192,21244,1,0,0:0:0:0:
36,192,21333,1,0,0:0:0:0:
182,192,21333,1,0,0:0:0:0:
256,192,21377,1,0,0:0:0:0:
329,192,21422,1,0,0:0:0:0:
402,192,21466,1,0,0:0:0:0:
475,192,21511,1,0,0:0:0:0:
256,192,21555,1,0,0:0:0:0:
182,192,21600,1,0,0:0:0:0:
109,192,21644,1,0,0:0:0:0:
36,192,21688,1,0,0:0:0:0:
256,192,21733,1,0,0:0:0:0:
329,192,21777,1,0,0:0:0:0:
402,192,21822,1,0,0:0:0:0:
475,192,21866,1,0,0:0:0:0:
36,192,21911,1,0,0:0:0:0:
109,192,21955,1,0,0:0:0:0:
182,192,22000,1,0,0:0:0:0:
256,192,22044,1,0,0:0:0:0:
402,192,22074,1,0,0:0:0:0:
329,192,22103,1,0,0:0:0:0:
182,192,22133,1,0,0:0:0:0:
109,192,22192,1,0,0:0:0:0:
256,192,22222,1,0,0:0:0:0:
402,192,22251,1,0,0:0:0:0:
475,192,22311,1,0,0:0:0:0:
329,192,22340,1,0,0:0:0:0:
109,192,22370,1,0,0:0:0:0:
36,192,22429,1,0,0:0:0:0:
182,192,22459,1,0,0:0:0:0:
329,192,22488,1,0,0:0:0:0:
475,192,22548,1,0,0:0:0:0:
256,192,22577,1,0,0:0:0:0:
402,192,22637,1,0,0:0:0:0:
329,192,22666,1,0,0:0:0:0:
109,192,22696,1,0,0:0:0:0:
182,192,22725,1,0,0:0:0:0:
256,192,22755,1,0,0:0:0:0:
36,192,22755,1,0,0:0:0:0:
475,192,22755,1,0,0:0:0:0:
109,192,22844,1,0,0:0:0:0:
402,192,22933,1,0,0:0:0:0:
182,192,22933,1,0,0:0:0:0:
256,192,23022,1,0,0:0:0:0:
36,192,23111,1,0,0:0:0:0:
109,192,23111,1,0,0:0:0:0:
475,192,23111,1,0,0:0:0:0:
182,192,23111,1,0,0:0:0:0:
402,192,23200,1,0,0:0:0:0:
109,192,23288,1,0,0:0:0:0:
329,192,23288,1,0,0:0:0:0:
256,192,23377,1,0,0:0:0:0:
475,192,23466,1,0,0:0:0:0:
36,192,23466,1,0,0:0:0:0:
182,192,23466,1,0,0:0:0:0:
329,192,23555,1,0,0:0:0:0:
256,192,23644,1,0,0:0:0:0:
402,192,23644,1,0,0:0:0:0:
182,192,23733,1,0,0:0:0:0:
475,192,23822,1,0,0:0:0:0:
402,192,23822,1,0,0:0:0:0:
109,192,23822,1,0,0:0:0:0:
36,192,23822,1,0,0:0:0:0:
256,192,23911,1,0,0:0:0:0:
402,192,24000,1,0,0:0:0:0:
182,192,24000,1,0,0:0:0:0:
256,192,24088,1,0,0:0:0:0:
475,192,24177,1,0,0:0:0:0:
402,192,24177,1,0,0:0:0:0:
36,192,24177,1,0,0:0:0:0:
182,192,24177,1,0,0:0:0:0:
109,192,24266,1,0,0:0:0:0:
182,192,24355,1,0,0:0:0:0:
402,192,24355,1,0,0:0:0:0:
256,192,24444,1,0,0:0:0:0:
475,192,24533,1,0,0:0:0:0:
329,192,24533,1,0,0:0:0:0:
402,192,24533,1,0,0:0:0:0:
109,192,24533,1,0,0:0:0:0:
182,192,24622,1,0,0:0:0:0:
256,192,24711,1,0,0:0:0:0:
109,192,24711,1,0,0:0:0:0:
329,192,24800,1,0,0:0:0:0:
475,192,24888,1,0,0:0:0:0:
36,192,24888,1,0,0:0:0:0:
182,192,24888,1,0,0:0:0:0:
256,192,24977,1,0,0:0:0:0:
329,192,25066,1,0,0:0:0:0:
109,192,25066,1,0,0:0:0:0:
402,192,25155,1,0,0:0:0:0:
475,192,25244,1,0,0:0:0:0:
109,192,25244,1,0,0:0:0:0:
182,192,25244,1,0,0:0:0:0:
36,192,25244,1,0,0:0:0:0:
256,192,25333,1,0,0:0:0:0:
109,192,25422,1,0,0:0:0:0:
329,192,25422,1,0,0:0:0:0:
256,192,25511,1,0,0:0:0:0:
36,192,25600,1,0,0:0:0:0:
402,192,25600,1,0,0:0:0:0:
475,192,25600,1,0,0:0:0:0:
109,192,25600,1,0,0:0:0:0:
329,192,25688,1,0,0:0:0:0:
256,192,25777,1,0,0:0:0:0:
109,192,25777,1,0,0:0:0:0:
182,192,25866,1,0,0:0:0:0:
36,192,25955,1,0,0:0:0:0:
109,192,25955,1,0,0:0:0:0:
475,192,25955,1,0,0:0:0:0:
329,192,25955,1,0,0:0:0:0:
182,192,26044,1,0,0:0:0:0:
36,192,26133,1,0,0:0:0:0:
329,192,26133,1,0,0:0:0:0:
182,192,26222,1,0,0:0:0:0:
36,192,26311,1,0,0:0:0:0:
475,192,26311,1,0,0:0:0:0:
329,192,26311,1,0,0:0:0:0:
109,192,26311,1,0,0:0:0:0:
182,192,26400,1,0,0:0:0:0:
256,192,26488,1,0,0:0:0:0:
402,192,26488,1,0,0:0:0:0:
329,192,26577,1,0,0:0:0:0:
36,192,26666,1,0,0:0:0:0:
475,192,26666,1,0,0:0:0:0:
402,192,26666,1,0,0:0:0:0:
182,192,26666,1,0,0:0:0:0:
329,192,26755,1,0,0:0:0:0:
182,192,26844,1,0,0:0:0:0:
475,192,26844,1,0,0:0:0:0:
329,192,26933,1,0,0:0:0:0:
182,192,27022,1,0,0:0:0:0:
36,192,27022,1,0,0:0:0:0:
475,192,27022,1,0,0:0:0:0:
402,192,27022,1,0,0:0:0:0:
109,192,27111,1,0,0:0:0:0:
182,192,27200,1,0,0:0:0:0:
329,192,27200,1,0,0:0:0:0:
402,192,27288,1,0,0:0:0:0:
329,192,27377,1,0,0:0:0:0:
475,192,27377,1,0,0:0:0:0:
109,192,27377,1,0,0:0:0:0:
36,192,27377,1,0,0:0:0:0:
256,192,27466,1,0,0:0:0:0:
109,192,27555,1,0,0:0:0:0:
402,192,27555,1,0,0:0:0:0:
256,192,27644,1,0,0:0:0:0:
182,192,27733,1,0,0:0:0:0:
36,192,27733,1,0,0:0:0:0:
475,192,27733,1,0,0:0:0:0:
329,192,27733,1,0,0:0:0:0:
402,192,27822,1,0,0:0:0:0:
329,192,27911,1,0,0:0:0:0:
182,192,27911,1,0,0:0:0:0:
109,192,28000,1,0,0:0:0:0:
475,192,28088,1,0,0:0:0:0:
36,192,28088,1,0,0:0:0:0:
402,192,28088,1,0,0:0:0:0:
182,192,28088,1,0,0:0:0:0:
329,192,28177,1,0,0:0:0:0:
402,192,28266,1,0,0:0:0:0:
182,192,28266,1,0,0:0:0:0:
475,192,28266,1,0,0:0:0:0:
36,192,28266,1,0,0:0:0:0:
256,192,28355,1,0,0:0:0:0:
36,192,28444,1,0,0:0:0:0:
475,192,28444,1,0,0:0:0:0:
402,192,28444,1,0,0:0:0:0:
182,192,28444,1,0,0:0:0:0:
256,192,28533,1,0,0:0:0:0:
329,192,28622,1,0,0:0:0:0:
109,192,28622,1,0,0:0:0:0:
402,192,28711,1,0,0:0:0:0:
256,192,28800,1,0,0:0:0:0:
36,192,28800,1,0,0:0:0:0:
475,192,28800,1,0,0:0:0:0:
109,192,28800,1,0,0:0:0:0:
329,192,28888,1,0,0:0:0:0:
402,192,28977,1,0,0:0:0:0:
182,192,28977,1,0,0:0:0:0:
475,192,29066,1,0,0:0:0:0:
329,192,29155,1,0,0:0:0:0:
36,192,29155,1,0,0:0:0:0:
109,192,29155,1,0,0:0:0:0:
256,192,29244,1,0,0:0:0:0:
182,192,29333,1,0,0:0:0:0:
402,192,29333,1,0,0:0:0:0:
109,192,29422,1,0,0:0:0:0:
402,192,29511,1,0,0:0:0:0:
475,192,29511,1,0,0:0:0:0:
36,192,29511,1,0,0:0:0:0:
256,192,29511,1,0,0:0:0:0:
182,192,29600,1,0,0:0:0:0:
402,192,29688,1,0,0:0:0:0:
256,192,29777,1,0,0:0:0:0:
182,192,29777,1,0,0:0:0:0:
475,192,29866,1,0,0:0:0:0:
36,192,29866,1,0,0:0:0:0:
109,192,29866,1,0,0:0:0:0:
329,192,29866,1,0,0:0:0:0:
256,192,29955,1,0,0:0:0:0:
182,192,30044,1,0,0:0:0:0:
402,192,30044,1,0,0:0:0:0:
109,192,30133,1,0,0:0:0:0:
256,192,30222,1,0,0:0:0:0:
475,192,30222,1,0,0:0:0:0:
36,192,30222,1,0,0:0:0:0:
402,192,30222,1,0,0:0:0:0:
182,192,30311,1,0,0:0:0:0:
109,192,30400,1,0,0:0:0:0:
329,192,30400,1,0,0:0:0:0:
36,192,30488,1,0,0:0:0:0:
182,192,30577,1,0,0:0:0:0:
475,192,30577,1,0,0:0:0:0:
402,192,30577,1,0,0:0:0:0:
256,192,30666,1,0,0:0:0:0:
329,192,30755,1,0,0:0:0:0:
109,192,30755,1,0,0:0:0:0:
402,192,30844,1,0,0:0:0:0:
109,192,30933,1,0,0:0:0:0:
36,192,30933,1,0,0:0:0:0:
475,192,30933,1,0,0:0:0:0:
256,192,30933,1,0,0:0:0:0:
329,192,31022,1,0,0:0:0:0:
109,192,31111,1,0,0:0:0:0:
256,192,31200,1,0,0:0:0:0:
329,192,31200,1,0,0:0:0:0:
109,192,31288,1,0,0:0:0:0:
36,192,31288,1,0,0:0:0:0:
475,192,31288,1,0,0:0:0:0:
182,192,31288,1,0,0:0:0:0:
402,192,31377,1,0,0:0:0:0:
256,192,31466,1,0,0:0:0:0:
109,192,31466,1,0,0:0:0:0:
329,192,31555,1,0,0:0:0:0:
475,192,31644,1,0,0:0:0:0:
402,192,31644,1,0,0:0:0:0:
36,192,31644,1,0,0:0:0:0:
109,192,31644,1,0,0:0:0:0:
329,192,31733,1,0,0:0:0:0:
182,192,31822,1,0,0:0:0:0:
36,192,31822,1,0,0:0:0:0:
256,192,31911,1,0,0:0:0:0:
402,192,31911,1,0,0:0:0:0:
329,192,32000,1,0,0:0:0:0:
109,192,32000,1,0,0:0:0:0:
475,192,32000,1,0,0:0:0:0:
256,192,32088,1,0,0:0:0:0:
36,192,32177,1,0,0:0:0:0:
402,192,32177,1,0,0:0:0:0:
109,192,32266,1,0,0:0:0:0:
475,192,32355,1,0,0:0:0:0:
36,192,32355,1,0,0:0:0:0:
402,192,32355,1,0,0:0:0:0:
182,192,32355,1,0,0:0:0:0:
329,192,32444,1,0,0:0:0:0:
475,192,32533,1,0,0:0:0:0:
36,192,32533,1,0,0:0:0:0:
256,192,32533,1,0,0:0:0:0:
182,192,32622,1,0,0:0:0:0:
36,192,32711,1,0,0:0:0:0:
475,192,32711,1,0,0:0:0:0:
109,192,32711,1,0,0:0:0:0:
329,192,32711,1,0,0:0:0:0:
402,192,32800,1,0,0:0:0:0:
329,192,32888,1,0,0:0:0:0:
109,192,32888,1,0,0:0:0:0:
256,192,32977,1,0,0:0:0:0:
402,192,33066,1,0,0:0:0:0:
475,192,33066,1,0,0:0:0:0:
36,192,33066,1,0,0:0:0:0:
182,192,33066,1,0,0:0:0:0:
109,192,33155,1,0,0:0:0:0:
182,192,33244,1,0,0:0:0:0:
402,192,33244,1,0,0:0:0:0:
256,192,33333,1,0,0:0:0:0:
329,192,33422,1,0,0:0:0:0:
475,192,33422,1,0,0:0:0:0:
109,192,33422,1,0,0:0:0:0:
36,192,33422,1,0,0:0:0:0:
402,192,33511,1,0,0:0:0:0:
329,192,33600,1,0,0:0:0:0:
109,192,33600,1,0,0:0:0:0:
256,192,33688,1,0,0:0:0:0:
475,192,33777,1,0,0:0:0:0:
329,192,33777,1,0,0:0:0:0:
36,192,33777,1,0,0:0:0:0:
109,192,33777,1,0,0:0:0:0:
182,192,33866,1,0,0:0:0:0:
36,192,33955,1,0,0:0:0:0:
109,192,33955,1,0,0:0:0:0:
475,192,33955,1,0,0:0:0:0:
329,192,33955,1,0,0:0:0:0:
256,192,34044,1,0,0:0:0:0:
475,192,34133,1,0,0:0:0:0:
329,192,34133,1,0,0:0:0:0:
36,192,34133,1,0,0:0:0:0:
109,192,34133,1,0,0:0:0:0:
182,192,34133,1,0,0:0:0:0:
256,192,34222,1,0,0:0:0:0:
402,192,34311,1,0,0:0:0:0:
36,192,34311,1,0,0:0:0:0:
182,192,34400,1,0,0:0:0:0:
329,192,34400,1,0,0:0:0:0:
475,192,34488,1,0,0:0:0:0:
402,192,34488,1,0,0:0:0:0:
36,192,34488,1,0,0:0:0:0:
256,192,34488,1,0,0:0:0:0:
182,192,34577,1,0,0:0:0:0:
329,192,34666,1,0,0:0:0:0:
475,192,34666,1,0,0:0:0:0:
256,192,34755,1,0,0:0:0:0:
109,192,34755,1,0,0:0:0:0:
182,192,34844,1,0,0:0:0:0:
402,192,34844,1,0,0:0:0:0:
475,192,34844,1,0,0:0:0:0:
329,192,34844,1,0,0:0:0:0:
109,192,34933,1,0,0:0:0:0:
256,192,35022,1,0,0:0:0:0:
402,192,35022,1,0,0:0:0:0:
182,192,35111,1,0,0:0:0:0:
36,192,35111,1,0,0:0:0:0:
109,192,35200,1,0,0:0:0:0:
256,192,35200,1,0,0:0:0:0:
329,192,35200,1,0,0:0:0:0:
475,192,35200,1,0,0:0:0:0:
36,192,35288,1,0,0:0:0:0:
182,192,35377,1,0,0:0:0:0:
329,192,35377,1,0,0:0:0:0:
109,192,35466,1,0,0:0:0:0:
475,192,35466,1,0,0:0:0:0:
36,192,35555,1,0,0:0:0:0:
182,192,35555,1,0,0:0:0:0:
256,192,35555,1,0,0:0:0:0:
402,192,35555,1,0,0:0:0:0:
475,192,35644,1,0,0:0:0:0:
109,192,35733,1,0,0:0:0:0:
256,192,35733,1,0,0:0:0:0:
36,192,35822,1,0,0:0:0:0:
402,192,35822,1,0,0:0:0:0:
475,192,35911,1,0,0:0:0:0:
329,192,35911,1,0,0:0:0:0:
182,192,35911,1,0,0:0:0:0:
109,192,35911,1,0,0:0:0:0:
256,192,36000,1,0,0:0:0:0:
109,192,36088,1,0,0:0:0:0:
475,192,36088,1,0,0:0:0:0:
329,192,36177,1,0,0:0:0:0:
182,192,36177,1,0,0:0:0:0:
36,192,36266,1,0,0:0:0:0:
109,192,36266,1,0,0:0:0:0:
475,192,36266,1,0,0:0:0:0:
256,192,36266,1,0,0:0:0:0:
329,192,36355,1,0,0:0:0:0:
182,192,36444,1,0,0:0:0:0:
36,192,36444,1,0,0:0:0:0:
256,192,36533,1,0,0:0:0:0:
402,192,36533,1,0,0:0:0:0:
329,192,36622,1,0,0:0:0:0:
109,192,36622,1,0,0:0:0:0:
36,192,36622,1,0,0:0:0:0:
182,192,36622,1,0,0:0:0:0:
402,192,36711,1,0,0:0:0:0:
256,192,36800,1,0,0:0:0:0:
109,192,36800,1,0,0:0:0:0:
329,192,36888,1,0,0:0:0:0:
475,192,36888,1,0,0:0:0:0:
402,192,36977,1,0,0:0:0:0:
256,192,36977,1,0,0:0:0:0:
182,192,36977,1,0,0:0:0:0:
36,192,36977,1,0,0:0:0:0:
475,192,37066,1,0,0:0:0:0:
329,192,37155,1,0,0:0:0:0:
182,192,37155,1,0,0:0:0:0:
402,192,37244,1,0,0:0:0:0:
36,192,37244,1,0,0:0:0:0:
475,192,37333,1,0,0:0:0:0:
329,192,37333,1,0,0:0:0:0:
256,192,37333,1,0,0:0:0:0:
109,192,37333,1,0,0:0:0:0:
36,192,37422,1,0,0:0:0:0:
402,192,37511,1,0,0:0:0:0:
256,192,37511,1,0,0:0:0:0:
475,192,37600,1,0,0:0:0:0:
109,192,37600,1,0,0:0:0:0:
36,192,37688,1,0,0:0:0:0:
182,192,37688,1,0,0:0:0:0:
329,192,37688,1,0,0:0:0:0:
402,192,37688,1,0,0:0:0:0:
256,192,37777,1,0,0:0:0:0:
109,192,37866,1,0,0:0:0:0:
475,192,37866,1,0,0:0:0:0:
402,192,37955,1,0,0:0:0:0:
256,192,37955,1,0,0:0:0:0:
182,192,38044,1,0,0:0:0:0:
36,192,38044,1,0,0:0:0:0:
475,192,38044,1,0,0:0:0:0:
109,192,38044,1,0,0:0:0:0:
329,192,38133,1,0,0:0:0:0:
182,192,38222,1,0,0:0:0:0:
36,192,38222,1,0,0:0:0:0:
329,192,38311,1,0,0:0:0:0:
475,192,38311,1,0,0:0:0:0:
256,192,38400,1,0,0:0:0:0:
182,192,38400,1,0,0:0:0:0:
109,192,38400,1,0,0:0:0:0:
36,192,38400,1,0,0:0:0:0:
402,192,38488,1,0,0:0:0:0:
109,192,38577,1,0,0:0:0:0:
256,192,38577,1,0,0:0:0:0:
402,192,38666,1,0,0:0:0:0:
36,192,38666,1,0,0:0:0:0:
109,192,38755,1,0,0:0:0:0:
182,192,38755,1,0,0:0:0:0:
256,192,38755,1,0,0:0:0:0:
329,192,38755,1,0,0:0:0:0:
475,192,38844,1,0,0:0:0:0:
182,192,38933,1,0,0:0:0:0:
329,192,38933,1,0,0:0:0:0:
475,192,39022,1,0,0:0:0:0:
109,192,39022,1,0,0:0:0:0:
182,192,39111,1,0,0:0:0:0:
256,192,39111,1,0,0:0:0:0:
329,192,39111,1,0,0:0:0:0:
402,192,39111,1,0,0:0:0:0:
36,192,39200,1,0,0:0:0:0:
256,192,39288,1,0,0:0:0:0:
402,192,39288,1,0,0:0:0:0:
182,192,39377,1,0,0:0:0:0:
109,192,39377,1,0,0:0:0:0:
475,192,39466,1,0,0:0:0:0:
402,192,39466,1,0,0:0:0:0:
329,192,39466,1,0,0:0:0:0:
36,192,39466,1,0,0:0:0:0:
256,192,39555,1,0,0:0:0:0:
109,192,39644,1,0,0:0:0:0:
36,192,39644,1,0,0:0:0:0:
402,192,39644,1,0,0:0:0:0:
475,192,39644,1,0,0:0:0:0:
256,192,39733,1,0,0:0:0:0:
182,192,39822,1,0,0:0:0:0:
109,192,39822,1,0,0:0:0:0:
36,192,39822,1,0,0:0:0:0:
475,192,39822,1,0,0:0:0:0:
329,192,39911,1,0,0:0:0:0:
36,192,40000,1,0,0:0:0:0:
475,192,40000,1,0,0:0:0:0:
182,192,40088,1,0,0:0:0:0:
402,192,40088,1,0,0:0:0:0:
475,192,40177,1,0,0:0:0:0:
109,192,40177,1,0,0:0:0:0:
329,192,40177,1,0,0:0:0:0:
36,192,40177,1,0,0:0:0:0:
256,192,40266,1,0,0:0:0:0:
475,192,40355,1,0,0:0:0:0:
402,192,40355,1,0,0:0:0:0:
329,192,40444,1,0,0:0:0:0:
109,192,40444,1,0,0:0:0:0:
402,192,40533,1,0,0:0:0:0:
256,192,40533,1,0,0:0:0:0:
475,192,40533,1,0,0:0:0:0:
36,192,40533,1,0,0:0:0:0:
182,192,40622,1,0,0:0:0:0:
329,192,40711,1,0,0:0:0:0:
402,192,40711,1,0,0:0:0:0:
256,192,40800,1,0,0:0:0:0:
36,192,40800,1,0,0:0:0:0:
109,192,40888,1,0,0:0:0:0:
329,192,40888,1,0,0:0:0:0:
402,192,40888,1,0,0:0:0:0:
475,192,40888,1,0,0:0:0:0:
256,192,40977,1,0,0:0:0:0:
475,192,41066,1,0,0:0:0:0:
36,192,41066,1,0,0:0:0:0:
329,192,41155,1,0,0:0:0:0:
109,192,41155,1,0,0:0:0:0:
36,192,41244,1,0,0:0:0:0:
402,192,41244,1,0,0:0:0:0:
182,192,41244,1,0,0:0:0:0:
475,192,41244,1,0,0:0:0:0:
329,192,41333,1,0,0:0:0:0:
36,192,41422,1,0,0:0:0:0:
109,192,41422,1,0,0:0:0:0:
182,192,41511,1,0,0:0:0:0:
402,192,41511,1,0,0:0:0:0:
109,192,41600,1,0,0:0:0:0:
256,192,41600,1,0,0:0:0:0:
36,192,41600,1,0,0:0:0:0:
475,192,41600,1,0,0:0:0:0:
402,192,41688,1,0,0:0:0:0:
182,192,41777,1,0,0:0:0:0:
109,192,41777,1,0,0:0:0:0:
256,192,41866,1,0,0:0:0:0:
475,192,41866,1,0,0:0:0:0:
329,192,41955,1,0,0:0:0:0:
182,192,41955,1,0,0:0:0:0:
109,192,41955,1,0,0:0:0:0:
36,192,41955,1,0,0:0:0:0:
475,192,42044,1,0,0:0:0:0:
402,192,42133,1,0,0:0:0:0:
329,192,42133,1,0,0:0:0:0:
256,192,42222,1,0,0:0:0:0:
109,192,42222,1,0,0:0:0:0:
182,192,42311,1,0,0:0:0:0:
36,192,42311,1,0,0:0:0:0:
329,192,42311,1,0,0:0:0:0:
475,192,42311,1,0,0:0:0:0:
402,192,42400,1,0,0:0:0:0:
329,192,42488,1,0,0:0:0:0:
256,192,42488,1,0,0:0:0:0:
182,192,42577,1,0,0:0:0:0:
36,192,42577,1,0,0:0:0:0:
109,192,42666,1,0,0:0:0:0:
475,192,42666,1,0,0:0:0:0:
256,192,42666,1,0,0:0:0:0:
402,192,42666,1,0,0:0:0:0:
329,192,42755,1,0,0:0:0:0:
182,192,42844,1,0,0:0:0:0:
256,192,42844,1,0,0:0:0:0:
109,192,42933,1,0,0:0:0:0:
475,192,42933,1,0,0:0:0:0:
182,192,43022,1,0,0:0:0:0:
36,192,43022,1,0,0:0:0:0:
402,192,43022,1,0,0:0:0:0:
329,192,43022,1,0,0:0:0:0:
256,192,43111,1,0,0:0:0:0:
109,192,43200,1,0,0:0:0:0:
182,192,43200,1,0,0:0:0:0:
256,192,43288,1,0,0:0:0:0:
402,192,43288,1,0,0:0:0:0:
329,192,43377,1,0,0:0:0:0:
475,192,43377,1,0,0:0:0:0:
182,192,43377,1,0,0:0:0:0:
36,192,43377,1,0,0:0:0:0:
109,192,43466,1,0,0:0:0:0:
182,192,43555,1,0,0:0:0:0:
256,192,43555,1,0,0:0:0:0:
329,192,43644,1,0,0:0:0:0:
475,192,43644,1,0,0:0:0:0:
402,192,43733,1,0,0:0:0:0:
36,192,43733,1,0,0:0:0:0:
256,192,43733,1,0,0:0:0:0:
109,192,43733,1,0,0:0:0:0:
182,192,43822,1,0,0:0:0:0:
329,192,43911,1,0,0:0:0:0:
256,192,43911,1,0,0:0:0:0:
402,192,44000,1,0,0:0:0:0:
36,192,44000,1,0,0:0:0:0:
329,192,44088,1,0,0:0:0:0:
475,192,44088,1,0,0:0:0:0:
109,192,44088,1,0,0:0:0:0:
182,192,44088,1,0,0:0:0:0:
256,192,44177,1,0,0:0:0:0:
402,192,44266,1,0,0:0:0:0:
475,192,44266,1,0,0:0:0:0:
329,192,44355,1,0,0:0:0:0:
182,192,44355,1,0,0:0:0:0:
475,192,44444,1,0,0:0:0:0:
109,192,44444,1,0,0:0:0:0:
36,192,44444,1,0,0:0:0:0:
256,192,44444,1,0,0:0:0:0:
329,192,44533,1,0,0:0:0:0:
109,192,44622,1,0,0:0:0:0:
36,192,44622,1,0,0:0:0:0:
182,192,44711,1,0,0:0:0:0:
329,192,44711,1,0,0:0:0:0:
36,192,44800,1,0,0:0:0:0:
402,192,44800,1,0,0:0:0:0:
475,192,44800,1,0,0:0:0:0:
256,192,44800,1,0,0:0:0:0:
182,192,44888,1,0,0:0:0:0:
402,192,44977,1,0,0:0:0:0:
475,192,44977,1,0,0:0:0:0:
109,192,44977,1,0,0:0:0:0:
36,192,44977,1,0,0:0:0:0:
329,192,45066,1,0,0:0:0:0:
182,192,45066,1,0,0:0:0:0:
256,192,45066,1,0,0:0:0:0:
402,192,45155,1,0,0:0:0:0:
475,192,45155,1,0,0:0:0:0:
109,192,45155,1,0,0:0:0:0:
36,192,45155,1,0,0:0:0:0:
182,192,45244,1,0,0:0:0:0:
329,192,45333,1,0,0:0:0:0:
475,192,45333,1,0,0:0:0:0:
256,192,45377,1,0,0:0:0:0:
182,192,45422,1,0,0:0:0:0:
109,192,45466,1,0,0:0:0:0:
402,192,45511,1,0,0:0:0:0:
475,192,45511,1,0,0:0:0:0:
36,192,45511,1,0,0:0:0:0:
329,192,45511,1,0,0:0:0:0:
256,192,45600,1,0,0:0:0:0:
182,192,45688,1,0,0:0:0:0:
475,192,45688,1,0,0:0:0:0:
402,192,45777,1,0,0:0:0:0:
36,192,45866,1,0,0:0:0:0:
182,192,45866,1,0,0:0:0:0:
109,192,45866,1,0,0:0:0:0:
329,192,45866,1,0,0:0:0:0:
475,192,45955,1,0,0:0:0:0:
402,192,46044,1,0,0:0:0:0:
329,192,46044,1,0,0:0:0:0:
256,192,46044,1,0,0:0:0:0:
109,192,46133,1,0,0:0:0:0:
329,192,46222,1,0,0:0:0:0:
402,192,46222,1,0,0:0:0:0:
475,192,46222,1,0,0:0:0:0:
256,192,46222,1,0,0:0:0:0:
36,192,46222,1,0,0:0:0:0:
182,192,46311,1,0,0:0:0:0:
109,192,46400,1,0,0:0:0:0:
329,192,46400,1,0,0:0:0:0:
256,192,46488,1,0,0:0:0:0:
36,192,46577,1,0,0:0:0:0:
475,192,46577,1,0,0:0:0:0:
182,192,46577,1,0,0:0:0:0:
402,192,46577,1,0,0:0:0:0:
329,192,46666,1,0,0:0:0:0:
36,192,46755,1,0,0:0:0:0:
475,192,46755,1,0,0:0:0:0:
109,192,46755,1,0,0:0:0:0:
402,192,46755,1,0,0:0:0:0:
182,192,46755,1,0,0:0:0:0:
256,192,46844,1,0,0:0:0:0:
475,192,46933,1,0,0:0:0:0:
329,192,46933,1,0,0:0:0:0:
36,192,47022,1,0,0:0:0:0:
109,192,47111,1,0,0:0:0:0:
256,192,47111,1,0,0:0:0:0:
182,192,47111,1,0,0:0:0:0:
329,192,47200,1,0,0:0:0:0:
109,192,47288,1,0,0:0:0:0:
182,192,47288,1,0,0:0:0:0:
36,192,47288,1,0,0:0:0:0:
475,192,47288,1,0,0:0:0:0:
256,192,47288,1,0,0:0:0:0:
402,192,47377,1,0,0:0:0:0:
329,192,47466,1,0,0:0:0:0:
182,192,47466,1,0,0:0:0:0:
109,192,47555,1,0,0:0:0:0:
36,192,47644,1,0,0:0:0:0:
256,192,47644,1,0,0:0:0:0:
475,192,47644,1,0,0:0:0:0:
109,192,47733,1,0,0:0:0:0:
182,192,47822,1,0,0:0:0:0:
329,192,47822,1,0,0:0:0:0:
402,192,47911,1,0,0:0:0:0:
475,192,48000,1,0,0:0:0:0:
109,192,48000,1,0,0:0:0:0:
36,192,48000,1,0,0:0:0:0:
256,192,48000,1,0,0:0:0:0:
182,192,48088,1,0,0:0:0:0:
329,192,48177,1,0,0:0:0:0:
402,192,48177,1,0,0:0:0:0:
475,192,48177,1,0,0:0:0:0:
109,192,48266,1,0,0:0:0:0:
475,192,48355,1,0,0:0:0:0:
402,192,48355,1,0,0:0:0:0:
182,192,48355,1,0,0:0:0:0:
256,192,48355,1,0,0:0:0:0:
329,192,48355,1,0,0:0:0:0:
109,192,48444,1,0,0:0:0:0:
36,192,48533,1,0,0:0:0:0:
475,192,48533,1,0,0:0:0:0:
256,192,48533,1,0,0:0:0:0:
402,192,48622,1,0,0:0:0:0:
182,192,48711,1,0,0:0:0:0:
109,192,48711,1,0,0:0:0:0:
36,192,48711,1,0,0:0:0:0:
475,192,48800,1,0,0:0:0:0:
36,192,48888,1,0,0:0:0:0:
109,192,48888,1,0,0:0:0:0:
256,192,48888,1,0,0:0:0:0:
329,192,48888,1,0,0:0:0:0:
182,192,48888,1,0,0:0:0:0:
402,192,48977,1,0,0:0:0:0:
475,192,49066,1,0,0:0:0:0:
182,192,49066,1,0,0:0:0:0:
36,192,49066,1,0,0:0:0:0:
256,192,49155,1,0,0:0:0:0:
402,192,49244,1,0,0:0:0:0:
109,192,49244,1,0,0:0:0:0:
329,192,49333,1,0,0:0:0:0:
36,192,49422,1,0,0:0:0:0:
256,192,49422,1,0,0:0:0:0:
182,192,49422,1,0,0:0:0:0:
475,192,49422,1,0,0:0:0:0:
329,192,49511,1,0,0:0:0:0:
36,192,49600,1,0,0:0:0:0:
109,192,49600,1,0,0:0:0:0:
182,192,49600,1,0,0:0:0:0:
475,192,49600,1,0,0:0:0:0:
402,192,49600,1,0,0:0:0:0:
256,192,49688,1,0,0:0:0:0:
475,192,49777,1,0,0:0:0:0:
36,192,49777,1,0,0:0:0:0:
329,192,49777,1,0,0:0:0:0:
182,192,49866,1,0,0:0:0:0:
256,192,49955,1,0,0:0:0:0:
36,192,49955,1,0,0:0:0:0:
109,192,50044,1,0,0:0:0:0:
475,192,50133,1,0,0:0:0:0:
402,192,50133,1,0,0:0:0:0:
329,192,50133,1,0,0:0:0:0:
182,192,50133,1,0,0:0:0:0:
36,192,50222,1,0,0:0:0:0:
475,192,50311,1,0,0:0:0:0:
402,192,50311,1,0,0:0:0:0:
329,192,50311,1,0,0:0:0:0:
256,192,50311,1,0,0:0:0:0:
182,192,50400,1,0,0:0:0:0:
475,192,50488,1,0,0:0:0:0:
402,192,50488,1,0,0:0:0:0:
109,192,50488,1,0,0:0:0:0:
329,192,50577,1,0,0:0:0:0:
182,192,50666,1,0,0:0:0:0:
36,192,50666,1,0,0:0:0:0:
256,192,50755,1,0,0:0:0:0:
475,192,50844,1,0,0:0:0:0:
402,192,50844,1,0,0:0:0:0:
36,192,50844,1,0,0:0:0:0:
109,192,50844,1,0,0:0:0:0:
182,192,50933,1,0,0:0:0:0:
109,192,51022,1,0,0:0:0:0:
36,192,51022,1,0,0:0:0:0:
402,192,51022,1,0,0:0:0:0:
475,192,51022,1,0,0:0:0:0:
329,192,51111,1,0,0:0:0:0:
402,192,51200,1,0,0:0:0:0:
475,192,51200,1,0,0:0:0:0:
109,192,51200,1,0,0:0:0:0:
36,192,51200,1,0,0:0:0:0:
182,192,51288,1,0,0:0:0:0:
329,192,51377,1,0,0:0:0:0:
475,192,51377,1,0,0:0:0:0:
36,192,51377,1,0,0:0:0:0:
256,192,51466,1,0,0:0:0:0:
182,192,51555,1,0,0:0:0:0:
402,192,51555,1,0,0:0:0:0:
475,192,51555,1,0,0:0:0:0:
329,192,51555,1,0,0:0:0:0:
109,192,51644,1,0,0:0:0:0:
256,192,51733,1,0,0:0:0:0:
36,192,51733,1,0,0:0:0:0:
402,192,51733,1,0,0:0:0:0:
182,192,51822,1,0,0:0:0:0:
109,192,51911,1,0,0:0:0:0:
329,192,51911,1,0,0:0:0:0:
475,192,51911,1,0,0:0:0:0:
36,192,52000,1,0,0:0:0:0:
182,192,52088,1,0,0:0:0:0:
402,192,52088,1,0,0:0:0:0:
256,192,52177,1,0,0:0:0:0:
329,192,52266,1,0,0:0:0:0:
36,192,52266,1,0,0:0:0:0:
109,192,52266,1,0,0:0:0:0:
182,192,52266,1,0,0:0:0:0:
402,192,52355,1,0,0:0:0:0:
256,192,52444,1,0,0:0:0:0:
475,192,52444,1,0,0:0:0:0:
109,192,52444,1,0,0:0:0:0:
329,192,52533,1,0,0:0:0:0:
402,192,52622,1,0,0:0:0:0:
182,192,52622,1,0,0:0:0:0:
36,192,52622,1,0,0:0:0:0:
475,192,52711,1,0,0:0:0:0:
329,192,52800,1,0,0:0:0:0:
109,192,52800,1,0,0:0:0:0:
256,192,52888,1,0,0:0:0:0:
475,192,52977,1,0,0:0:0:0:
402,192,52977,1,0,0:0:0:0:
329,192,52977,1,0,0:0:0:0:
182,192,52977,1,0,0:0:0:0:
109,192,53066,1,0,0:0:0:0:
402,192,53155,1,0,0:0:0:0:
36,192,53155,1,0,0:0:0:0:
329,192,53244,1,0,0:0:0:0:
256,192,53333,1,0,0:0:0:0:
36,192,53333,1,0,0:0:0:0:
475,192,53333,1,0,0:0:0:0:
182,192,53422,1,0,0:0:0:0:
475,192,53511,1,0,0:0:0:0:
109,192,53511,1,0,0:0:0:0:
402,192,53600,1,0,0:0:0:0:
329,192,53688,1,0,0:0:0:0:
182,192,53688,1,0,0:0:0:0:
109,192,53688,1,0,0:0:0:0:
36,192,53688,1,0,0:0:0:0:
256,192,53777,1,0,0:0:0:0:
36,192,53866,1,0,0:0:0:0:
402,192,53866,1,0,0:0:0:0:
109,192,53955,1,0,0:0:0:0:
182,192,54044,1,0,0:0:0:0:
475,192,54044,1,0,0:0:0:0:
402,192,54044,1,0,0:0:0:0:
256,192,54133,1,0,0:0:0:0:
109,192,54222,1,0,0:0:0:0:
329,192,54222,1,0,0:0:0:0:
182,192,54311,1,0,0:0:0:0:
256,192,54400,1,0,0:0:0:0:
109,192,54400,1,0,0:0:0:0:
36,192,54400,1,0,0:0:0:0:
475,192,54400,1,0,0:0:0:0:
329,192,54488,1,0,0:0:0:0:
182,192,54577,1,0,0:0:0:0:
402,192,54577,1,0,0:0:0:0:
256,192,54666,1,0,0:0:0:0:
329,192,54755,1,0,0:0:0:0:
36,192,54755,1,0,0:0:0:0:
109,192,54755,1,0,0:0:0:0:
402,192,54844,1,0,0:0:0:0:
256,192,54933,1,0,0:0:0:0:
475,192,54933,1,0,0:0:0:0:
329,192,55022,1,0,0:0:0:0:
402,192,55111,1,0,0:0:0:0:
36,192,55111,1,0,0:0:0:0:
109,192,55111,1,0,0:0:0:0:
182,192,55111,1,0,0:0:0:0:
475,192,55200,1,0,0:0:0:0:
36,192,55288,1,0,0:0:0:0:
256,192,55288,1,0,0:0:0:0:
109,192,55377,1,0,0:0:0:0:
402,192,55466,1,0,0:0:0:0:
475,192,55466,1,0,0:0:0:0:
329,192,55466,1,0,0:0:0:0:
36,192,55466,1,0,0:0:0:0:
182,192,55555,1,0,0:0:0:0:
109,192,55644,1,0,0:0:0:0:
256,192,55733,1,0,0:0:0:0:
182,192,55822,1,0,0:0:0:0:
402,192,55822,1,0,0:0:0:0:
475,192,55822,1,0,0:0:0:0:
109,192,55911,1,0,0:0:0:0:
182,192,56000,1,0,0:0:0:0:
329,192,56088,1,0,0:0:0:0:
256,192,56177,1,0,0:0:0:0:
36,192,56177,1,0,0:0:0:0:
475,192,56177,1,0,0:0:0:0:
182,192,56266,1,0,0:0:0:0:
329,192,56355,1,0,0:0:0:0:
402,192,56444,1,0,0:0:0:0:
329,192,56533,1,0,0:0:0:0:
109,192,56533,1,0,0:0:0:0:
475,192,56533,1,0,0:0:0:0:
36,192,56533,1,0,0:0:0:0:
256,192,56622,1,0,0:0:0:0:
402,192,56711,1,0,0:0:0:0:
109,192,56711,1,0,0:0:0:0:
36,192,56711,1,0,0:0:0:0:
475,192,56711,1,0,0:0:0:0:
329,192,56800,1,0,0:0:0:0:
475,192,56888,1,0,0:0:0:0:
109,192,56888,1,0,0:0:0:0:
36,192,56888,1,0,0:0:0:0:
182,192,56888,1,0,0:0:0:0:
256,192,56977,1,0,0:0:0:0:
329,192,57066,1,0,0:0:0:0:
402,192,57066,1,0,0:0:0:0:
109,192,57066,1,0,0:0:0:0:
475,192,57155,1,0,0:0:0:0:
182,192,57155,1,0,0:0:0:0:
256,192,57244,1,0,0:0:0:0:
36,192,57244,1,0,0:0:0:0:
402,192,57244,1,0,0:0:0:0:
109,192,57244,1,0,0:0:0:0:
182,192,57333,1,0,0:0:0:0:
329,192,57422,1,0,0:0:0:0:
256,192,57422,1,0,0:0:0:0:
36,192,57422,1,0,0:0:0:0:
402,192,57511,1,0,0:0:0:0:
109,192,57511,1,0,0:0:0:0:
182,192,57600,1,0,0:0:0:0:
475,192,57600,1,0,0:0:0:0:
36,192,57600,1,0,0:0:0:0:
109,192,57688,1,0,0:0:0:0:
182,192,57777,1,0,0:0:0:0:
256,192,57777,1,0,0:0:0:0:
475,192,57777,1,0,0:0:0:0:
329,192,57866,1,0,0:0:0:0:
36,192,57866,1,0,0:0:0:0:
402,192,57955,1,0,0:0:0:0:
475,192,57955,1,0,0:0:0:0:
109,192,57955,1,0,0:0:0:0:
256,192,57955,1,0,0:0:0:0:
36,192,58044,1,0,0:0:0:0:
109,192,58133,1,0,0:0:0:0:
182,192,58133,1,0,0:0:0:0:
329,192,58133,1,0,0:0:0:0:
256,192,58222,1,0,0:0:0:0:
475,192,58222,1,0,0:0:0:0:
402,192,58311,1,0,0:0:0:0:
36,192,58311,1,0,0:0:0:0:
329,192,58311,1,0,0:0:0:0:
475,192,58400,1,0,0:0:0:0:
36,192,58488,1,0,0:0:0:0:
109,192,58488,1,0,0:0:0:0:
256,192,58488,1,0,0:0:0:0:
182,192,58577,1,0,0:0:0:0:
402,192,58577,1,0,0:0:0:0:
329,192,58666,1,0,0:0:0:0:
256,192,58666,1,0,0:0:0:0:
475,192,58666,1,0,0:0:0:0:
36,192,58666,1,0,0:0:0:0:
402,192,58755,1,0,0:0:0:0:
36,192,58844,1,0,0:0:0:0:
182,192,58844,1,0,0:0:0:0:
475,192,58844,1,0,0:0:0:0:
329,192,58933,1,0,0:0:0:0:
109,192,58933,1,0,0:0:0:0:
182,192,59022,1,0,0:0:0:0:
256,192,59022,1,0,0:0:0:0:
402,192,59022,1,0,0:0:0:0:
329,192,59111,1,0,0:0:0:0:
402,192,59200,1,0,0:0:0:0:
109,192,59200,1,0,0:0:0:0:
475,192,59200,1,0,0:0:0:0:
256,192,59288,1,0,0:0:0:0:
36,192,59288,1,0,0:0:0:0:
109,192,59377,1,0,0:0:0:0:
182,192,59377,1,0,0:0:0:0:
329,192,59377,1,0,0:0:0:0:
475,192,59377,1,0,0:0:0:0:
256,192,59466,1,0,0:0:0:0:
329,192,59555,1,0,0:0:0:0:
402,192,59555,1,0,0:0:0:0:
36,192,59555,1,0,0:0:0:0:
182,192,59644,1,0,0:0:0:0:
475,192,59644,1,0,0:0:0:0:
36,192,59733,1,0,0:0:0:0:
109,192,59733,1,0,0:0:0:0:
256,192,59733,1,0,0:0:0:0:
329,192,59733,1,0,0:0:0:0:
402,192,59733,1,0,0:0:0:0:
182,192,59822,1,0,0:0:0:0:
475,192,59911,1,0,0:0:0:0:
329,192,59911,1,0,0:0:0:0:
36,192,60000,1,0,0:0:0:0:
109,192,60000,1,0,0:0:0:0:
182,192,60088,1,0,0:0:0:0:
402,192,60088,1,0,0:0:0:0:
475,192,60088,1,0,0:0:0:0:
256,192,60088,1,0,0:0:0:0:
109,192,60177,1,0,0:0:0:0:
256,192,60266,1,0,0:0:0:0:
402,192,60266,1,0,0:0:0:0:
36,192,60355,1,0,0:0:0:0:
475,192,60355,1,0,0:0:0:0:
109,192,60444,1,0,0:0:0:0:
182,192,60444,1,0,0:0:0:0:
329,192,60444,1,0,0:0:0:0:
402,192,60444,1,0,0:0:0:0:
36,192,60533,1,0,0:0:0:0:
182,192,60622,1,0,0:0:0:0:
329,192,60622,1,0,0:0:0:0:
402,192,60711,1,0,0:0:0:0:
475,192,60711,1,0,0:0:0:0:
256,192,60800,1,0,0:0:0:0:
109,192,60800,1,0,0:0:0:0:
36,192,60800,1,0,0:0:0:0:
329,192,60800,1,0,0:0:0:0:
475,192,60888,1,0,0:0:0:0:
109,192,60977,1,0,0:0:0:0:
256,192,60977,1,0,0:0:0:0:
329,192,61066,1,0,0:0:0:0:
402,192,61066,1,0,0:0:0:0:
36,192,61155,1,0,0:0:0:0:
182,192,61155,1,0,0:0:0:0:
256,192,61155,1,0,0:0:0:0:
475,192,61155,1,0,0:0:0:0:
402,192,61244,1,0,0:0:0:0:
36,192,61333,1,0,0:0:0:0:
182,192,61333,1,0,0:0:0:0:
256,192,61422,1,0,0:0:0:0:
329,192,61422,1,0,0:0:0:0:
402,192,61511,1,0,0:0:0:0:
475,192,61511,1,0,0:0:0:0:
182,192,61511,1,0,0:0:0:0:
109,192,61511,1,0,0:0:0:0:
329,192,61600,1,0,0:0:0:0:
109,192,61688,1,0,0:0:0:0:
475,192,61688,1,0,0:0:0:0:
182,192,61777,1,0,0:0:0:0:
256,192,61777,1,0,0:0:0:0:
329,192,61866,1,0,0:0:0:0:
402,192,61866,1,0,0:0:0:0:
109,192,61866,1,0,0:0:0:0:
36,192,61866,1,0,0:0:0:0:
256,192,61955,1,0,0:0:0:0:
36,192,62044,1,0,0:0:0:0:
402,192,62044,1,0,0:0:0:0:
182,192,62133,1,0,0:0:0:0:
109,192,62133,1,0,0:0:0:0:
402,192,62222,1,0,0:0:0:0:
36,192,62222,1,0,0:0:0:0:
475,192,62222,1,0,0:0:0:0:
329,192,62222,1,0,0:0:0:0:
256,192,62311,1,0,0:0:0:0:
329,192,62400,1,0,0:0:0:0:
182,192,62400,1,0,0:0:0:0:
109,192,62400,1,0,0:0:0:0:
402,192,62400,1,0,0:0:0:0:
256,192,62488,1,0,0:0:0:0:
36,192,62577,1,0,0:0:0:0:
182,192,62577,1,0,0:0:0:0:
475,192,62577,1,0,0:0:0:0:
109,192,62577,1,0,0:0:0:0:
329,192,62666,1,0,0:0:0:0:
109,192,62755,1,0,0:0:0:0:
256,192,62755,1,0,0:0:0:0:
402,192,62844,1,0,0:0:0:0:
475,192,62844,1,0,0:0:0:0:
329,192,62933,1,0,0:0:0:0:
36,192,62933,1,0,0:0:0:0:
256,192,62933,1,0,0:0:0:0:
109,192,62933,1,0,0:0:0:0:
182,192,63022,1,0,0:0:0:0:
256,192,63111,1,0,0:0:0:0:
402,192,63111,1,0,0:0:0:0:
109,192,63200,1,0,0:0:0:0:
36,192,63200,1,0,0:0:0:0:
182,192,63288,1,0,0:0:0:0:
256,192,63288,1,0,0:0:0:0:
402,192,63288,1,0,0:0:0:0:
475,192,63288,1,0,0:0:0:0:
329,192,63377,1,0,0:0:0:0:
36,192,63466,1,0,0:0:0:0:
109,192,63466,1,0,0:0:0:0:
182,192,63466,1,0,0:0:0:0:
402,192,63555,1,0,0:0:0:0:
475,192,63555,1,0,0:0:0:0:
36,192,63644,1,0,0:0:0:0:
329,192,63644,1,0,0:0:0:0:
256,192,63644,1,0,0:0:0:0:
109,192,63644,1,0,0:0:0:0:
182,192,63733,1,0,0:0:0:0:
402,192,63822,1,0,0:0:0:0:
475,192,63822,1,0,0:0:0:0:
329,192,63822,1,0,0:0:0:0:
109,192,63911,1,0,0:0:0:0:
36,192,63911,1,0,0:0:0:0:
182,192,64000,1,0,0:0:0:0:
256,192,64000,1,0,0:0:0:0:
402,192,64000,1,0,0:0:0:0:
475,192,64000,1,0,0:0:0:0:
329,192,64088,1,0,0:0:0:0:
256,192,64177,1,0,0:0:0:0:
182,192,64177,1,0,0:0:0:0:
402,192,64177,1,0,0:0:0:0:
109,192,64266,1,0,0:0:0:0:
36,192,64266,1,0,0:0:0:0:
329,192,64355,1,0,0:0:0:0:
402,192,64355,1,0,0:0:0:0:
475,192,64355,1,0,0:0:0:0:
256,192,64355,1,0,0:0:0:0:
182,192,64444,1,0,0:0:0:0:
256,192,64533,1,0,0:0:0:0:
329,192,64533,1,0,0:0:0:0:
109,192,64533,1,0,0:0:0:0:
402,192,64622,1,0,0:0:0:0:
475,192,64622,1,0,0:0:0:0:
256,192,64711,1,0,0:0:0:0:
182,192,64711,1,0,0:0:0:0:
109,192,64711,1,0,0:0:0:0:
36,192,64711,1,0,0:0:0:0:
329,192,64800,1,0,0:0:0:0:
475,192,64888,1,0,0:0:0:0:
36,192,64888,1,0,0:0:0:0:
182,192,64888,1,0,0:0:0:0:
402,192,64977,1,0,0:0:0:0:
329,192,64977,1,0,0:0:0:0:
36,192,65066,1,0,0:0:0:0:
475,192,65066,1,0,0:0:0:0:
256,192,65066,1,0,0:0:0:0:
109,192,65066,1,0,0:0:0:0:
182,192,65155,1,0,0:0:0:0:
475,192,65244,1,0,0:0:0:0:
36,192,65244,1,0,0:0:0:0:
329,192,65244,1,0,0:0:0:0:
109,192,65333,1,0,0:0:0:0:
182,192,65333,1,0,0:0:0:0:
36,192,65422,1,0,0:0:0:0:
475,192,65422,1,0,0:0:0:0:
402,192,65422,1,0,0:0:0:0:
256,192,65422,1,0,0:0:0:0:
109,192,65511,1,0,0:0:0:0:
182,192,65511,1,0,0:0:0:0:
329,192,65600,1,0,0:0:0:0:
475,192,65600,1,0,0:0:0:0:
36,192,65688,1,0,0:0:0:0:
182,192,65688,1,0,0:0:0:0:
402,192,65777,1,0,0:0:0:0:
475,192,65777,1,0,0:0:0:0:
256,192,65777,1,0,0:0:0:0:
109,192,65866,1,0,0:0:0:0:
36,192,65866,1,0,0:0:0:0:
182,192,65955,1,0,0:0:0:0:
256,192,65955,1,0,0:0:0:0:
329,192,66044,1,0,0:0:0:0:
402,192,66044,1,0,0:0:0:0:
182,192,66133,1,0,0:0:0:0:
109,192,66133,1,0,0:0:0:0:
256,192,66222,1,0,0:0:0:0:
329,192,66222,1,0,0:0:0:0:
402,192,66311,1,0,0:0:0:0:
475,192,66311,1,0,0:0:0:0:
36,192,66400,1,0,0:0:0:0:
182,192,66400,1,0,0:0:0:0:
329,192,66488,1,0,0:0:0:0:
475,192,66488,1,0,0:0:0:0:
109,192,66577,1,0,0:0:0:0:
182,192,66577,1,0,0:0:0:0:
329,192,66666,1,0,0:0:0:0:
402,192,66666,1,0,0:0:0:0:
182,192,66755,1,0,0:0:0:0:
109,192,66755,1,0,0:0:0:0:
329,192,66844,1,0,0:0:0:0:
402,192,66844,1,0,0:0:0:0:
256,192,66888,1,0,0:0:0:0:
182,192,66933,1,0,0:0:0:0:
109,192,66977,1,0,0:0:0:0:
36,192,67022,1,0,0:0:0:0:
402,192,67022,1,0,0:0:0:0:
329,192,67066,1,0,0:0:0:0:
256,192,67111,1,0,0:0:0:0:
182,192,67155,1,0,0:0:0:0:
109,192,67200,1,0,0:0:0:0:
475,192,67200,1,0,0:0:0:0:
402,192,67244,1,0,0:0:0:0:
329,192,67288,1,0,0:0:0:0:
256,192,67333,1,0,0:0:0:0:
182,192,67377,1,0,0:0:0:0:
36,192,67437,1,0,0:0:0:0:
109,192,67466,1,0,0:0:0:0:
182,192,67496,1,0,0:0:0:0:
329,192,67555,1,0,0:0:0:0:
402,192,67585,1,0,0:0:0:0:
475,192,67614,1,0,0:0:0:0:
182,192,67674,1,0,0:0:0:0:
109,192,67703,1,0,0:0:0:0:
36,192,67733,1,0,0:0:0:0:
329,192,67762,1,0,0:0:0:0:
402,192,67792,1,0,0:0:0:0:
475,192,67822,1,0,0:0:0:0:
109,192,67881,1,0,0:0:0:0:
182,192,67911,1,0,0:0:0:0:
256,192,67940,1,0,0:0:0:0:
402,192,68000,1,0,0:0:0:0:
329,192,68029,1,0,0:0:0:0:
256,192,68059,1,0,0:0:0:0:
36,192,68118,1,0,0:0:0:0:
109,192,68148,1,0,0:0:0:0:
182,192,68177,1,0,0:0:0:0:
329,192,68207,1,0,0:0:0:0:
402,192,68237,1,0,0:0:0:0:
475,192,68266,128,0,68385:0:0:0:0:
182,192,68622,1,0,0:0:0:0:
475,192,68800,128,0,68933:0:0:0:0:
109,192,69155,1,0,0:0:0:0:
329,192,69688,128,0,69822:0:0:0:0:
109,192,70044,1,0,0:0:0:0:
329,192,70222,128,0,70355:0:0:0:0:
182,192,70577,1,0,0:0:0:0:
109,192,71111,128,0,71244:0:0:0:0:
402,192,71466,1,0,0:0:0:0:
109,192,71644,128,0,71777:0:0:0:0:
329,192,72000,1,0,0:0:0:0:
182,192,72533,128,0,72666:0:0:0:0:
402,192,72888,1,0,0:0:0:0:
182,192,73066,128,0,73200:0:0:0:0:
329,192,73422,1,0,0:0:0:0:
256,192,73600,128,0,73733:0:0:0:0:
475,192,73955,128,0,74088:0:0:0:0:
182,192,74311,1,0,0:0:0:0:
475,192,74488,128,0,74622:0:0:0:0:
109,192,74844,1,0,0:0:0:0:
329,192,75377,128,0,75511:0:0:0:0:
109,192,75733,1,0,0:0:0:0:
329,192,75911,128,0,76044:0:0:0:0:
182,192,76266,1,0,0:0:0:0:
109,192,76800,128,0,76933:0:0:0:0:
402,192,77155,1,0,0:0:0:0:
109,192,77333,128,0,77466:0:0:0:0:
329,192,77688,1,0,0:0:0:0:
182,192,78222,128,0,78355:0:0:0:0:
402,192,78577,1,0,0:0:0:0:
182,192,78755,128,0,78888:0:0:0:0:
329,192,79111,1,0,0:0:0:0:
36,192,79288,1,0,0:0:0:0:
109,192,79288,1,0,0:0:0:0:
329,192,79377,1,0,0:0:0:0:
402,192,79377,1,0,0:0:0:0:
182,192,79466,1,0,0:0:0:0:
109,192,79466,1,0,0:0:0:0:
402,192,79555,1,0,0:0:0:0:
475,192,79555,1,0,0:0:0:0:
329,192,79644,1,0,0:0:0:0:
256,192,79644,1,0,0:0:0:0:
36,192,79644,1,0,0:0:0:0:
109,192,79644,1,0,0:0:0:0:
182,192,79733,1,0,0:0:0:0:
256,192,79822,1,0,0:0:0:0:
475,192,79822,1,0,0:0:0:0:
109,192,79822,1,0,0:0:0:0:
329,192,79911,1,0,0:0:0:0:
182,192,80000,1,0,0:0:0:0:
402,192,80000,1,0,0:0:0:0:
475,192,80000,1,0,0:0:0:0:
36,192,80000,1,0,0:0:0:0:
109,192,80000,1,0,0:0:0:0:
256,192,80088,1,0,0:0:0:0:
329,192,80177,1,0,0:0:0:0:
182,192,80177,1,0,0:0:0:0:
36,192,80177,1,0,0:0:0:0:
402,192,80266,1,0,0:0:0:0:
475,192,80355,1,0,0:0:0:0:
256,192,80355,1,0,0:0:0:0:
182,192,80355,1,0,0:0:0:0:
109,192,80355,1,0,0:0:0:0:
36,192,80355,1,0,0:0:0:0:
329,192,80444,1,0,0:0:0:0:
475,192,80533,1,0,0:0:0:0:
256,192,80533,1,0,0:0:0:0:
109,192,80533,1,0,0:0:0:0:
402,192,80622,1,0,0:0:0:0:
182,192,80622,1,0,0:0:0:0:
475,192,80711,1,0,0:0:0:0:
36,192,80711,1,0,0:0:0:0:
329,192,80711,1,0,0:0:0:0:
109,192,80711,1,0,0:0:0:0:
182,192,80800,1,0,0:0:0:0:
36,192,80888,1,0,0:0:0:0:
256,192,80888,1,0,0:0:0:0:
402,192,80888,1,0,0:0:0:0:
109,192,80977,1,0,0:0:0:0:
329,192,80977,1,0,0:0:0:0:
36,192,81066,1,0,0:0:0:0:
182,192,81066,1,0,0:0:0:0:
402,192,81066,1,0,0:0:0:0:
475,192,81066,1,0,0:0:0:0:
329,192,81155,1,0,0:0:0:0:
256,192,81244,1,0,0:0:0:0:
475,192,81244,1,0,0:0:0:0:
109,192,81244,1,0,0:0:0:0:
182,192,81333,1,0,0:0:0:0:
329,192,81422,1,0,0:0:0:0:
36,192,81422,1,0,0:0:0:0:
109,192,81422,1,0,0:0:0:0:
475,192,81422,1,0,0:0:0:0:
402,192,81422,1,0,0:0:0:0:
256,192,81511,1,0,0:0:0:0:
182,192,81600,1,0,0:0:0:0:
329,192,81600,1,0,0:0:0:0:
475,192,81600,1,0,0:0:0:0:
109,192,81688,1,0,0:0:0:0:
36,192,81777,1,0,0:0:0:0:
256,192,81777,1,0,0:0:0:0:
329,192,81777,1,0,0:0:0:0:
402,192,81777,1,0,0:0:0:0:
475,192,81777,1,0,0:0:0:0:
109,192,81866,1,0,0:0:0:0:
36,192,81955,1,0,0:0:0:0:
402,192,81955,1,0,0:0:0:0:
256,192,81955,1,0,0:0:0:0:
109,192,82044,1,0,0:0:0:0:
329,192,82044,1,0,0:0:0:0:
36,192,82133,1,0,0:0:0:0:
475,192,82133,1,0,0:0:0:0:
182,192,82133,1,0,0:0:0:0:
256,192,82133,1,0,0:0:0:0:
402,192,82222,1,0,0:0:0:0:
109,192,82311,1,0,0:0:0:0:
475,192,82311,1,0,0:0:0:0:
256,192,82311,1,0,0:0:0:0:
182,192,82400,1,0,0:0:0:0:
402,192,82400,1,0,0:0:0:0:
475,192,82488,1,0,0:0:0:0:
36,192,82488,1,0,0:0:0:0:
256,192,82488,1,0,0:0:0:0:
329,192,82488,1,0,0:0:0:0:
109,192,82577,1,0,0:0:0:0:
182,192,82666,1,0,0:0:0:0:
475,192,82666,1,0,0:0:0:0:
329,192,82666,1,0,0:0:0:0:
256,192,82755,1,0,0:0:0:0:
109,192,82844,1,0,0:0:0:0:
36,192,82844,1,0,0:0:0:0:
329,192,82844,1,0,0:0:0:0:
475,192,82844,1,0,0:0:0:0:
402,192,82844,1,0,0:0:0:0:
182,192,82933,1,0,0:0:0:0:
256,192,83022,1,0,0:0:0:0:
36,192,83022,1,0,0:0:0:0:
402,192,83022,1,0,0:0:0:0:
329,192,83111,1,0,0:0:0:0:
36,192,83200,1,0,0:0:0:0:
109,192,83200,1,0,0:0:0:0:
475,192,83200,1,0,0:0:0:0:
402,192,83200,1,0,0:0:0:0:
329,192,83288,1,0,0:0:0:0:
402,192,83377,1,0,0:0:0:0:
36,192,83377,1,0,0:0:0:0:
256,192,83377,1,0,0:0:0:0:
329,192,83466,1,0,0:0:0:0:
109,192,83466,1,0,0:0:0:0:
402,192,83555,1,0,0:0:0:0:
256,192,83555,1,0,0:0:0:0:
475,192,83555,1,0,0:0:0:0:
36,192,83555,1,0,0:0:0:0:
182,192,83644,1,0,0:0:0:0:
109,192,83733,1,0,0:0:0:0:
256,192,83733,1,0,0:0:0:0:
475,192,83733,1,0,0:0:0:0:
182,192,83822,1,0,0:0:0:0:
402,192,83822,1,0,0:0:0:0:
256,192,83911,1,0,0:0:0:0:
475,192,83911,1,0,0:0:0:0:
36,192,83911,1,0,0:0:0:0:
109,192,83911,1,0,0:0:0:0:
402,192,84000,1,0,0:0:0:0:
329,192,84088,1,0,0:0:0:0:
36,192,84088,1,0,0:0:0:0:
182,192,84088,1,0,0:0:0:0:
256,192,84177,1,0,0:0:0:0:
402,192,84266,1,0,0:0:0:0:
36,192,84266,1,0,0:0:0:0:
475,192,84266,1,0,0:0:0:0:
182,192,84266,1,0,0:0:0:0:
109,192,84266,1,0,0:0:0:0:
329,192,84355,1,0,0:0:0:0:
256,192,84444,1,0,0:0:0:0:
109,192,84444,1,0,0:0:0:0:
475,192,84444,1,0,0:0:0:0:
182,192,84533,1,0,0:0:0:0:
36,192,84622,1,0,0:0:0:0:
109,192,84622,1,0,0:0:0:0:
329,192,84622,1,0,0:0:0:0:
402,192,84622,1,0,0:0:0:0:
475,192,84622,1,0,0:0:0:0:
182,192,84711,1,0,0:0:0:0:
109,192,84800,1,0,0:0:0:0:
256,192,84800,1,0,0:0:0:0:
402,192,84800,1,0,0:0:0:0:
329,192,84888,1,0,0:0:0:0:
475,192,84977,1,0,0:0:0:0:
402,192,84977,1,0,0:0:0:0:
36,192,84977,1,0,0:0:0:0:
182,192,84977,1,0,0:0:0:0:
109,192,84977,1,0,0:0:0:0:
329,192,85066,1,0,0:0:0:0:
402,192,85155,1,0,0:0:0:0:
475,192,85155,1,0,0:0:0:0:
36,192,85155,1,0,0:0:0:0:
109,192,85155,1,0,0:0:0:0:
182,192,85244,1,0,0:0:0:0:
475,192,85333,1,0,0:0:0:0:
36,192,85333,1,0,0:0:0:0:
329,192,85333,1,0,0:0:0:0:
109,192,85333,1,0,0:0:0:0:
402,192,85333,1,0,0:0:0:0:
256,192,85422,1,0,0:0:0:0:
109,192,85511,1,0,0:0:0:0:
182,192,85511,1,0,0:0:0:0:
329,192,85511,1,0,0:0:0:0:
475,192,85600,1,0,0:0:0:0:
256,192,85600,1,0,0:0:0:0:
36,192,85688,1,0,0:0:0:0:
402,192,85688,1,0,0:0:0:0:
329,192,85688,1,0,0:0:0:0:
109,192,85688,1,0,0:0:0:0:
182,192,85688,1,0,0:0:0:0:
256,192,85777,1,0,0:0:0:0:
109,192,85866,1,0,0:0:0:0:
329,192,85866,1,0,0:0:0:0:
475,192,85866,1,0,0:0:0:0:
256,192,85955,1,0,0:0:0:0:
402,192,86044,1,0,0:0:0:0:
475,192,86044,1,0,0:0:0:0:
36,192,86044,1,0,0:0:0:0:
182,192,86044,1,0,0:0:0:0:
109,192,86133,1,0,0:0:0:0:
329,192,86222,1,0,0:0:0:0:
256,192,86222,1,0,0:0:0:0:
475,192,86222,1,0,0:0:0:0:
402,192,86311,1,0,0:0:0:0:
182,192,86311,1,0,0:0:0:0:
109,192,86400,1,0,0:0:0:0:
329,192,86400,1,0,0:0:0:0:
256,192,86400,1,0,0:0:0:0:
36,192,86400,1,0,0:0:0:0:
475,192,86400,1,0,0:0:0:0:
402,192,86488,1,0,0:0:0:0:
256,192,86577,1,0,0:0:0:0:
182,192,86577,1,0,0:0:0:0:
475,192,86577,1,0,0:0:0:0:
36,192,86666,1,0,0:0:0:0:
329,192,86755,1,0,0:0:0:0:
402,192,86755,1,0,0:0:0:0:
475,192,86755,1,0,0:0:0:0:
109,192,86755,1,0,0:0:0:0:
256,192,86844,1,0,0:0:0:0:
402,192,86933,1,0,0:0:0:0:
109,192,86933,1,0,0:0:0:0:
36,192,86933,1,0,0:0:0:0:
329,192,87022,1,0,0:0:0:0:
182,192,87022,1,0,0:0:0:0:
256,192,87111,1,0,0:0:0:0:
475,192,87111,1,0,0:0:0:0:
36,192,87111,1,0,0:0:0:0:
402,192,87111,1,0,0:0:0:0:
109,192,87111,1,0,0:0:0:0:
182,192,87200,1,0,0:0:0:0:
329,192,87288,1,0,0:0:0:0:
475,192,87288,1,0,0:0:0:0:
36,192,87288,1,0,0:0:0:0:
109,192,87377,1,0,0:0:0:0:
182,192,87466,1,0,0:0:0:0:
402,192,87466,1,0,0:0:0:0:
475,192,87466,1,0,0:0:0:0:
256,192,87466,1,0,0:0:0:0:
329,192,87555,1,0,0:0:0:0:
36,192,87644,1,0,0:0:0:0:
475,192,87644,1,0,0:0:0:0:
256,192,87644,1,0,0:0:0:0:
329,192,87733,1,0,0:0:0:0:
182,192,87733,1,0,0:0:0:0:
109,192,87822,1,0,0:0:0:0:
36,192,87822,1,0,0:0:0:0:
256,192,87822,1,0,0:0:0:0:
475,192,87822,1,0,0:0:0:0:
402,192,87822,1,0,0:0:0:0:
182,192,87911,1,0,0:0:0:0:
109,192,88000,1,0,0:0:0:0:
402,192,88000,1,0,0:0:0:0:
256,192,88000,1,0,0:0:0:0:
475,192,88088,1,0,0:0:0:0:
402,192,88177,1,0,0:0:0:0:
182,192,88177,1,0,0:0:0:0:
109,192,88177,1,0,0:0:0:0:
36,192,88177,1,0,0:0:0:0:
256,192,88266,1,0,0:0:0:0:
329,192,88355,1,0,0:0:0:0:
109,192,88355,1,0,0:0:0:0:
475,192,88355,1,0,0:0:0:0:
182,192,88444,1,0,0:0:0:0:
402,192,88444,1,0,0:0:0:0:
475,192,88533,1,0,0:0:0:0:
109,192,88533,1,0,0:0:0:0:
36,192,88533,1,0,0:0:0:0:
256,192,88533,1,0,0:0:0:0:
329,192,88533,1,0,0:0:0:0:
402,192,88622,1,0,0:0:0:0:
329,192,88711,1,0,0:0:0:0:
182,192,88711,1,0,0:0:0:0:
36,192,88711,1,0,0:0:0:0:
402,192,88800,1,0,0:0:0:0:
475,192,88888,1,0,0:0:0:0:
109,192,88888,1,0,0:0:0:0:
256,192,88888,1,0,0:0:0:0:
36,192,88888,1,0,0:0:0:0:
182,192,88977,1,0,0:0:0:0:
256,192,89066,1,0,0:0:0:0:
402,192,89066,1,0,0:0:0:0:
36,192,89066,1,0,0:0:0:0:
182,192,89155,1,0,0:0:0:0:
329,192,89155,1,0,0:0:0:0:
109,192,89244,1,0,0:0:0:0:
475,192,89244,1,0,0:0:0:0:
402,192,89244,1,0,0:0:0:0:
36,192,89244,1,0,0:0:0:0:
256,192,89244,1,0,0:0:0:0:
329,192,89333,1,0,0:0:0:0:
182,192,89422,1,0,0:0:0:0:
475,192,89422,1,0,0:0:0:0:
109,192,89422,1,0,0:0:0:0:
329,192,89511,1,0,0:0:0:0:
256,192,89600,1,0,0:0:0:0:
36,192,89600,1,0,0:0:0:0:
475,192,89600,1,0,0:0:0:0:
109,192,89600,1,0,0:0:0:0:
329,192,89688,1,0,0:0:0:0:
475,192,89777,1,0,0:0:0:0:
402,192,89777,1,0,0:0:0:0:
182,192,89777,1,0,0:0:0:0:
329,192,89866,1,0,0:0:0:0:
109,192,89866,1,0,0:0:0:0:
256,192,89955,1,0,0:0:0:0:
36,192,89955,1,0,0:0:0:0:
475,192,89955,1,0,0:0:0:0:
182,192,89955,1,0,0:0:0:0:
402,192,89955,1,0,0:0:0:0:
329,192,90044,1,0,0:0:0:0:
402,192,90133,1,0,0:0:0:0:
36,192,90133,1,0,0:0:0:0:
182,192,90133,1,0,0:0:0:0:
109,192,90222,1,0,0:0:0:0:
256,192,90222,1,0,0:0:0:0:
475,192,90311,1,0,0:0:0:0:
36,192,90311,1,0,0:0:0:0:
329,192,90311,1,0,0:0:0:0:
402,192,90311,1,0,0:0:0:0:
182,192,90400,1,0,0:0:0:0:
256,192,90400,1,0,0:0:0:0:
36,192,90488,1,0,0:0:0:0:
109,192,90488,1,0,0:0:0:0:
475,192,90488,1,0,0:0:0:0:
402,192,90488,1,0,0:0:0:0:
329,192,90577,1,0,0:0:0:0:
256,192,90577,1,0,0:0:0:0:
182,192,90577,1,0,0:0:0:0:
109,192,90666,1,0,0:0:0:0:
36,192,90666,1,0,0:0:0:0:
402,192,90666,1,0,0:0:0:0:
475,192,90666,1,0,0:0:0:0:
329,192,90755,1,0,0:0:0:0:
256,192,90755,1,0,0:0:0:0:
182,192,90844,1,0,0:0:0:0:
36,192,90844,1,0,0:0:0:0:
109,192,90844,1,0,0:0:0:0:
256,192,90888,1,0,0:0:0:0:
329,192,90933,1,0,0:0:0:0:
402,192,90977,1,0,0:0:0:0:
475,192,91022,1,0,0:0:0:0:
36,192,91022,1,0,0:0:0:0:
182,192,91022,1,0,0:0:0:0:
109,192,91022,1,0,0:0:0:0:
256,192,91111,1,0,0:0:0:0:
329,192,91111,1,0,0:0:0:0:
475,192,91200,1,0,0:0:0:0:
109,192,91200,1,0,0:0:0:0:
182,192,91200,1,0,0:0:0:0:
256,192,91288,1,0,0:0:0:0:
329,192,91288,1,0,0:0:0:0:
475,192,91377,1,0,0:0:0:0:
402,192,91377,1,0,0:0:0:0:
182,192,91377,1,0,0:0:0:0:
36,192,91377,1,0,0:0:0:0:
329,192,91466,1,0,0:0:0:0:
109,192,91466,1,0,0:0:0:0:
36,192,91555,1,0,0:0:0:0:
475,192,91555,1,0,0:0:0:0:
182,192,91644,1,0,0:0:0:0:
402,192,91644,1,0,0:0:0:0:
475,192,91733,1,0,0:0:0:0:
109,192,91733,1,0,0:0:0:0:
36,192,91733,1,0,0:0:0:0:
329,192,91733,1,0,0:0:0:0:
256,192,91822,1,0,0:0:0:0:
182,192,91822,1,0,0:0:0:0:
36,192,91911,1,0,0:0:0:0:
402,192,91911,1,0,0:0:0:0:
475,192,91911,1,0,0:0:0:0:
182,192,92000,1,0,0:0:0:0:
256,192,92000,1,0,0:0:0:0:
329,192,92088,1,0,0:0:0:0:
475,192,92088,1,0,0:0:0:0:
109,192,92088,1,0,0:0:0:0:
36,192,92088,1,0,0:0:0:0:
182,192,92177,1,0,0:0:0:0:
402,192,92177,1,0,0:0:0:0:
475,192,92266,1,0,0:0:0:0:
36,192,92266,1,0,0:0:0:0:
329,192,92355,1,0,0:0:0:0:
109,192,92355,1,0,0:0:0:0:
182,192,92444,1,0,0:0:0:0:
36,192,92444,1,0,0:0:0:0:
402,192,92444,1,0,0:0:0:0:
475,192,92444,1,0,0:0:0:0:
256,192,92533,1,0,0:0:0:0:
109,192,92533,1,0,0:0:0:0:
475,192,92622,1,0,0:0:0:0:
36,192,92622,1,0,0:0:0:0:
329,192,92622,1,0,0:0:0:0:
256,192,92711,1,0,0:0:0:0:
402,192,92711,1,0,0:0:0:0:
109,192,92800,1,0,0:0:0:0:
36,192,92800,1,0,0:0:0:0:
329,192,92800,1,0,0:0:0:0:
475,192,92800,1,0,0:0:0:0:
182,192,92888,1,0,0:0:0:0:
256,192,92888,1,0,0:0:0:0:
109,192,92977,1,0,0:0:0:0:
402,192,92977,1,0,0:0:0:0:
475,192,92977,1,0,0:0:0:0:
36,192,93066,1,0,0:0:0:0:
256,192,93066,1,0,0:0:0:0:
329,192,93155,1,0,0:0:0:0:
475,192,93155,1,0,0:0:0:0:
182,192,93155,1,0,0:0:0:0:
109,192,93155,1,0,0:0:0:0:
256,192,93244,1,0,0:0:0:0:
402,192,93244,1,0,0:0:0:0:
36,192,93333,1,0,0:0:0:0:
475,192,93333,1,0,0:0:0:0:
109,192,93422,1,0,0:0:0:0:
256,192,93422,1,0,0:0:0:0:
402,192,93511,1,0,0:0:0:0:
182,192,93511,1,0,0:0:0:0:
475,192,93511,1,0,0:0:0:0:
36,192,93511,1,0,0:0:0:0:
256,192,93600,1,0,0:0:0:0:
329,192,93600,1,0,0:0:0:0:
402,192,93688,1,0,0:0:0:0:
109,192,93688,1,0,0:0:0:0:
36,192,93688,1,0,0:0:0:0:
475,192,93777,1,0,0:0:0:0:
256,192,93777,1,0,0:0:0:0:
402,192,93866,1,0,0:0:0:0:
36,192,93866,1,0,0:0:0:0:
329,192,93866,1,0,0:0:0:0:
182,192,93866,1,0,0:0:0:0:
109,192,93955,1,0,0:0:0:0:
256,192,93955,1,0,0:0:0:0:
475,192,94044,1,0,0:0:0:0:
402,192,94044,1,0,0:0:0:0:
329,192,94044,1,0,0:0:0:0:
36,192,94133,1,0,0:0:0:0:
256,192,94133,1,0,0:0:0:0:
329,192,94222,1,0,0:0:0:0:
475,192,94222,1,0,0:0:0:0:
182,192,94222,1,0,0:0:0:0:
109,192,94222,1,0,0:0:0:0:
256,192,94311,1,0,0:0:0:0:
402,192,94311,1,0,0:0:0:0:
36,192,94400,1,0,0:0:0:0:
109,192,94400,1,0,0:0:0:0:
182,192,94400,1,0,0:0:0:0:
256,192,94488,1,0,0:0:0:0:
475,192,94488,1,0,0:0:0:0:
402,192,94577,1,0,0:0:0:0:
329,192,94577,1,0,0:0:0:0:
182,192,94577,1,0,0:0:0:0:
36,192,94577,1,0,0:0:0:0:
475,192,94666,1,0,0:0:0:0:
109,192,94666,1,0,0:0:0:0:
182,192,94755,1,0,0:0:0:0:
329,192,94755,1,0,0:0:0:0:
36,192,94844,1,0,0:0:0:0:
402,192,94844,1,0,0:0:0:0:
256,192,94933,1,0,0:0:0:0:
182,192,94933,1,0,0:0:0:0:
109,192,94933,1,0,0:0:0:0:
475,192,94933,1,0,0:0:0:0:
36,192,95022,1,0,0:0:0:0:
402,192,95022,1,0,0:0:0:0:
329,192,95111,1,0,0:0:0:0:
182,192,95111,1,0,0:0:0:0:
109,192,95200,1,0,0:0:0:0:
475,192,95200,1,0,0:0:0:0:
402,192,95288,1,0,0:0:0:0:
329,192,95288,1,0,0:0:0:0:
256,192,95288,1,0,0:0:0:0:
36,192,95288,1,0,0:0:0:0:
182,192,95377,1,0,0:0:0:0:
109,192,95377,1,0,0:0:0:0:
475,192,95466,1,0,0:0:0:0:
256,192,95466,1,0,0:0:0:0:
402,192,95466,1,0,0:0:0:0:
36,192,95555,1,0,0:0:0:0:
329,192,95555,1,0,0:0:0:0:
182,192,95644,1,0,0:0:0:0:
256,192,95644,1,0,0:0:0:0:
475,192,95644,1,0,0:0:0:0:
109,192,95644,1,0,0:0:0:0:
329,192,95733,1,0,0:0:0:0:
402,192,95733,1,0,0:0:0:0:
36,192,95822,1,0,0:0:0:0:
109,192,95822,1,0,0:0:0:0:
256,192,95822,1,0,0:0:0:0:
182,192,95911,1,0,0:0:0:0:
475,192,95911,1,0,0:0:0:0:
402,192,96000,1,0,0:0:0:0:
329,192,96000,1,0,0:0:0:0:
256,192,96000,1,0,0:0:0:0:
36,192,96000,1,0,0:0:0:0:
182,192,96088,1,0,0:0:0:0:
329,192,96177,1,0,0:0:0:0:
36,192,96177,1,0,0:0:0:0:
475,192,96177,1,0,0:0:0:0:
256,192,96266,1,0,0:0:0:0:
402,192,96355,1,0,0:0:0:0:
475,192,96355,1,0,0:0:0:0:
109,192,96355,1,0,0:0:0:0:
36,192,96355,1,0,0:0:0:0:
182,192,96355,1,0,0:0:0:0:
256,192,96444,1,0,0:0:0:0:
329,192,96533,1,0,0:0:0:0:
402,192,96533,1,0,0:0:0:0:
475,192,96533,1,0,0:0:0:0:
109,192,96533,1,0,0:0:0:0:
36,192,96533,1,0,0:0:0:0:
182,192,96622,1,0,0:0:0:0:
256,192,96711,1,0,0:0:0:0:
402,192,96711,1,0,0:0:0:0:
475,192,96711,1,0,0:0:0:0:
36,192,96711,1,0,0:0:0:0:
109,192,96711,1,0,0:0:0:0:
182,192,96800,1,0,0:0:0:0:
256,192,96888,1,0,0:0:0:0:
475,192,96888,1,0,0:0:0:0:
109,192,96888,1,0,0:0:0:0:
36,192,96977,1,0,0:0:0:0:
402,192,96977,1,0,0:0:0:0:
182,192,97066,1,0,0:0:0:0:
256,192,97066,1,0,0:0:0:0:
475,192,97066,1,0,0:0:0:0:
109,192,97066,1,0,0:0:0:0:
329,192,97155,1,0,0:0:0:0:
36,192,97244,1,0,0:0:0:0:
256,192,97244,1,0,0:0:0:0:
402,192,97244,1,0,0:0:0:0:
475,192,97333,1,0,0:0:0:0:
109,192,97333,1,0,0:0:0:0:
36,192,97422,1,0,0:0:0:0:
256,192,97422,1,0,0:0:0:0:
329,192,97422,1,0,0:0:0:0:
402,192,97422,1,0,0:0:0:0:
182,192,97511,1,0,0:0:0:0:
475,192,97600,1,0,0:0:0:0:
109,192,97600,1,0,0:0:0:0:
256,192,97600,1,0,0:0:0:0:
36,192,97688,1,0,0:0:0:0:
402,192,97688,1,0,0:0:0:0:
475,192,97777,1,0,0:0:0:0:
109,192,97777,1,0,0:0:0:0:
256,192,97777,1,0,0:0:0:0:
182,192,97777,1,0,0:0:0:0:
329,192,97866,1,0,0:0:0:0:
402,192,97955,1,0,0:0:0:0:
36,192,97955,1,0,0:0:0:0:
256,192,97955,1,0,0:0:0:0:
475,192,98044,1,0,0:0:0:0:
109,192,98044,1,0,0:0:0:0:
402,192,98133,1,0,0:0:0:0:
256,192,98133,1,0,0:0:0:0:
329,192,98133,1,0,0:0:0:0:
36,192,98133,1,0,0:0:0:0:
182,192,98222,1,0,0:0:0:0:
475,192,98311,1,0,0:0:0:0:
36,192,98311,1,0,0:0:0:0:
402,192,98311,1,0,0:0:0:0:
256,192,98400,1,0,0:0:0:0:
109,192,98400,1,0,0:0:0:0:
402,192,98488,1,0,0:0:0:0:
36,192,98488,1,0,0:0:0:0:
475,192,98488,1,0,0:0:0:0:
182,192,98488,1,0,0:0:0:0:
329,192,98577,1,0,0:0:0:0:
109,192,98666,1,0,0:0:0:0:
36,192,98666,1,0,0:0:0:0:
475,192,98666,1,0,0:0:0:0:
256,192,98755,1,0,0:0:0:0:
402,192,98755,1,0,0:0:0:0:
109,192,98844,1,0,0:0:0:0:
36,192,98844,1,0,0:0:0:0:
475,192,98844,1,0,0:0:0:0:
329,192,98844,1,0,0:0:0:0:
256,192,98933,1,0,0:0:0:0:
36,192,99022,1,0,0:0:0:0:
475,192,99022,1,0,0:0:0:0:
329,192,99022,1,0,0:0:0:0:
256,192,99111,1,0,0:0:0:0:
182,192,99111,1,0,0:0:0:0:
36,192,99200,1,0,0:0:0:0:
109,192,99200,1,0,0:0:0:0:
475,192,99200,1,0,0:0:0:0:
402,192,99200,1,0,0:0:0:0:
329,192,99288,1,0,0:0:0:0:
109,192,99377,1,0,0:0:0:0:
36,192,99377,1,0,0:0:0:0:
402,192,99377,1,0,0:0:0:0:
475,192,99377,1,0,0:0:0:0:
182,192,99466,1,0,0:0:0:0:
402,192,99555,1,0,0:0:0:0:
475,192,99555,1,0,0:0:0:0:
109,192,99555,1,0,0:0:0:0:
36,192,99555,1,0,0:0:0:0:
256,192,99644,1,0,0:0:0:0:
329,192,99644,1,0,0:0:0:0:
109,192,99733,1,0,0:0:0:0:
182,192,99733,1,0,0:0:0:0:
329,192,99822,1,0,0:0:0:0:
402,192,99822,1,0,0:0:0:0:
36,192,99911,1,0,0:0:0:0:
109,192,99911,1,0,0:0:0:0:
256,192,99911,1,0,0:0:0:0:
402,192,100000,1,0,0:0:0:0:
475,192,100000,1,0,0:0:0:0:
182,192,100088,1,0,0:0:0:0:
36,192,100088,1,0,0:0:0:0:
329,192,100177,1,0,0:0:0:0:
475,192,100177,1,0,0:0:0:0:
182,192,100266,1,0,0:0:0:0:
109,192,100266,1,0,0:0:0:0:
329,192,100355,1,0,0:0:0:0:
402,192,100355,1,0,0:0:0:0:
182,192,100444,1,0,0:0:0:0:
36,192,100444,1,0,0:0:0:0:
329,192,100533,1,0,0:0:0:0:
475,192,100533,1,0,0:0:0:0:
36,192,100622,1,0,0:0:0:0:
109,192,100622,1,0,0:0:0:0:
256,192,100622,1,0,0:0:0:0:
402,192,100711,1,0,0:0:0:0:
475,192,100711,1,0,0:0:0:0:
109,192,100800,1,0,0:0:0:0:
182,192,100800,1,0,0:0:0:0:
329,192,100888,1,0,0:0:0:0:
402,192,100888,1,0,0:0:0:0:
36,192,100977,1,0,0:0:0:0:
109,192,101022,1,0,0:0:0:0:
182,192,101066,1,0,0:0:0:0:
475,192,101111,1,0,0:0:0:0:
402,192,101155,1,0,0:0:0:0:
329,192,101200,1,0,0:0:0:0:
256,192,101244,1,0,0:0:0:0:
182,192,101288,1,0,0:0:0:0:
109,192,101333,1,0,0:0:0:0:
36,192,101377,1,0,0:0:0:0:
475,192,101422,1,0,0:0:0:0:
402,192,101466,1,0,0:0:0:0:
256,192,101511,1,0,0:0:0:0:
109,192,101555,1,0,0:0:0:0:
36,192,101644,1,0,0:0:0:0:
329,192,101688,1,0,0:0:0:0:
475,192,101718,1,0,0:0:0:0:
256,192,101748,1,0,0:0:0:0:
36,192,101807,1,0,0:0:0:0:
402,192,101837,1,0,0:0:0:0:
182,192,101866,1,0,0:0:0:0:
256,192,101925,1,0,0:0:0:0:
475,192,101955,1,0,0:0:0:0:
329,192,101985,1,0,0:0:0:0:
182,192,102014,1,0,0:0:0:0:
36,192,102044,1,0,0:0:0:0:
109,192,102074,1,0,0:0:0:0:
475,192,102133,1,0,0:0:0:0:
402,192,102162,1,0,0:0:0:0:
329,192,102192,1,0,0:0:0:0:
36,192,102222,1,0,0:0:0:0:
109,192,102251,1,0,0:0:0:0:
182,192,102281,1,0,0:0:0:0:
475,192,102311,1,0,0:0:0:0:
402,192,102340,1,0,0:0:0:0:
329,192,102370,1,0,0:0:0:0:
36,192,102400,1,0,0:0:0:0:
256,192,102400,1,0,0:0:0:0:
182,192,102400,1,0,0:0:0:0:
182,192,102577,1,0,0:0:0:0:
402,192,102577,1,0,0:0:0:0:
256,192,102666,1,0,0:0:0:0:
36,192,102755,1,0,0:0:0:0:
475,192,102755,1,0,0:0:0:0:
329,192,102755,1,0,0:0:0:0:
109,192,102755,1,0,0:0:0:0:
182,192,102933,1,0,0:0:0:0:
402,192,102933,1,0,0:0:0:0:
329,192,103022,1,0,0:0:0:0:
109,192,103111,1,0,0:0:0:0:
36,192,103111,1,0,0:0:0:0:
182,192,103111,1,0,0:0:0:0:
109,192,103288,1,0,0:0:0:0:
329,192,103288,1,0,0:0:0:0:
182,192,103377,1,0,0:0:0:0:
256,192,103466,1,0,0:0:0:0:
402,192,103466,1,0,0:0:0:0:
475,192,103466,1,0,0:0:0:0:
36,192,103466,1,0,0:0:0:0:
329,192,103644,1,0,0:0:0:0:
109,192,103644,1,0,0:0:0:0:
256,192,103733,1,0,0:0:0:0:
402,192,103822,1,0,0:0:0:0:
475,192,103822,1,0,0:0:0:0:
329,192,103822,1,0,0:0:0:0:
256,192,104000,1,0,0:0:0:0:
402,192,104000,1,0,0:0:0:0:
182,192,104088,1,0,0:0:0:0:
109,192,104177,1,0,0:0:0:0:
36,192,104177,1,0,0:0:0:0:
329,192,104177,1,0,0:0:0:0:
475,192,104177,1,0,0:0:0:0:
182,192,104355,1,0,0:0:0:0:
329,192,104444,1,0,0:0:0:0:
109,192,104533,1,0,0:0:0:0:
36,192,104533,1,0,0:0:0:0:
256,192,104533,1,0,0:0:0:0:
182,192,104533,1,0,0:0:0:0:
329,192,104711,1,0,0:0:0:0:
402,192,104711,1,0,0:0:0:0:
256,192,104800,1,0,0:0:0:0:
402,192,104888,1,0,0:0:0:0:
475,192,104888,1,0,0:0:0:0:
182,192,104888,1,0,0:0:0:0:
36,192,104888,1,0,0:0:0:0:
329,192,105066,1,0,0:0:0:0:
402,192,105066,1,0,0:0:0:0:
182,192,105155,1,0,0:0:0:0:
36,192,105244,1,0,0:0:0:0:
109,192,105244,1,0,0:0:0:0:
256,192,105244,1,0,0:0:0:0:
36,192,105422,1,0,0:0:0:0:
256,192,105422,1,0,0:0:0:0:
402,192,105511,1,0,0:0:0:0:
475,192,105600,1,0,0:0:0:0:
329,192,105600,1,0,0:0:0:0:
182,192,105600,1,0,0:0:0:0:
109,192,105600,1,0,0:0:0:0:
256,192,105777,1,0,0:0:0:0:
402,192,105777,1,0,0:0:0:0:
109,192,105866,1,0,0:0:0:0:
329,192,105955,1,0,0:0:0:0:
475,192,105955,1,0,0:0:0:0:
402,192,105955,1,0,0:0:0:0:
256,192,106133,1,0,0:0:0:0:
109,192,106133,1,0,0:0:0:0:
402,192,106222,1,0,0:0:0:0:
256,192,106311,1,0,0:0:0:0:
36,192,106311,1,0,0:0:0:0:
182,192,106311,1,0,0:0:0:0:
475,192,106311,1,0,0:0:0:0:
402,192,106488,1,0,0:0:0:0:
256,192,106488,1,0,0:0:0:0:
329,192,106577,1,0,0:0:0:0:
109,192,106666,1,0,0:0:0:0:
36,192,106666,1,0,0:0:0:0:
182,192,106666,1,0,0:0:0:0:
256,192,106666,1,0,0:0:0:0:
36,192,106844,1,0,0:0:0:0:
329,192,106844,1,0,0:0:0:0:
256,192,106933,1,0,0:0:0:0:
402,192,107022,1,0,0:0:0:0:
182,192,107022,1,0,0:0:0:0:
475,192,107022,1,0,0:0:0:0:
329,192,107022,1,0,0:0:0:0:
109,192,107200,1,0,0:0:0:0:
256,192,107200,1,0,0:0:0:0:
182,192,107288,1,0,0:0:0:0:
256,192,107377,1,0,0:0:0:0:
402,192,107377,1,0,0:0:0:0:
475,192,107377,1,0,0:0:0:0:
329,192,107377,1,0,0:0:0:0:
182,192,107555,1,0,0:0:0:0:
256,192,107555,1,0,0:0:0:0:
402,192,107644,1,0,0:0:0:0:
182,192,107733,1,0,0:0:0:0:
109,192,107733,1,0,0:0:0:0:
36,192,107733,1,0,0:0:0:0:
329,192,107733,1,0,0:0:0:0:
109,192,107911,1,0,0:0:0:0:
36,192,107911,1,0,0:0:0:0:
475,192,107911,1,0,0:0:0:0:
329,192,107911,1,0,0:0:0:0:
256,192,108000,1,0,0:0:0:0:
36,192,108088,1,0,0:0:0:0:
109,192,108088,1,0,0:0:0:0:
402,192,108088,1,0,0:0:0:0:
475,192,108088,1,0,0:0:0:0:
109,192,108266,1,0,0:0:0:0:
256,192,108266,1,0,0:0:0:0:
329,192,108355,1,0,0:0:0:0:
402,192,108444,1,0,0:0:0:0:
475,192,108444,1,0,0:0:0:0:
182,192,108444,1,0,0:0:0:0:
36,192,108444,1,0,0:0:0:0:
256,192,108622,1,0,0:0:0:0:
109,192,108711,1,0,0:0:0:0:
182,192,108800,1,0,0:0:0:0:
36,192,108800,1,0,0:0:0:0:
256,192,108800,1,0,0:0:0:0:
329,192,108800,1,0,0:0:0:0:
475,192,108977,1,0,0:0:0:0:
329,192,108977,1,0,0:0:0:0:
256,192,109066,1,0,0:0:0:0:
182,192,109155,1,0,0:0:0:0:
402,192,109155,1,0,0:0:0:0:
475,192,109155,1,0,0:0:0:0:
36,192,109155,1,0,0:0:0:0:
256,192,109333,1,0,0:0:0:0:
402,192,109422,1,0,0:0:0:0:
329,192,109511,1,0,0:0:0:0:
475,192,109511,1,0,0:0:0:0:
256,192,109511,1,0,0:0:0:0:
182,192,109511,1,0,0:0:0:0:
182,192,109688,1,0,0:0:0:0:
402,192,109688,1,0,0:0:0:0:
256,192,109777,1,0,0:0:0:0:
329,192,109866,1,0,0:0:0:0:
475,192,109866,1,0,0:0:0:0:
109,192,109866,1,0,0:0:0:0:
36,192,109866,1,0,0:0:0:0:
182,192,110044,1,0,0:0:0:0:
402,192,110044,1,0,0:0:0:0:
109,192,110133,1,0,0:0:0:0:
256,192,110222,1,0,0:0:0:0:
182,192,110222,1,0,0:0:0:0:
329,192,110222,1,0,0:0:0:0:
36,192,110222,1,0,0:0:0:0:
256,192,110400,1,0,0:0:0:0:
475,192,110400,1,0,0:0:0:0:
329,192,110488,1,0,0:0:0:0:
182,192,110577,1,0,0:0:0:0:
109,192,110577,1,0,0:0:0:0:
402,192,110577,1,0,0:0:0:0:
256,192,110577,1,0,0:0:0:0:
329,192,110755,1,0,0:0:0:0:
475,192,110755,1,0,0:0:0:0:
256,192,110844,1,0,0:0:0:0:
329,192,110933,1,0,0:0:0:0:
109,192,110933,1,0,0:0:0:0:
36,192,110933,1,0,0:0:0:0:
182,192,110933,1,0,0:0:0:0:
182,192,111111,1,0,0:0:0:0:
36,192,111111,1,0,0:0:0:0:
256,192,111200,1,0,0:0:0:0:
402,192,111288,1,0,0:0:0:0:
475,192,111288,1,0,0:0:0:0:
109,192,111288,1,0,0:0:0:0:
182,192,111288,1,0,0:0:0:0:
329,192,111466,1,0,0:0:0:0:
182,192,111466,1,0,0:0:0:0:
256,192,111555,1,0,0:0:0:0:
329,192,111644,1,0,0:0:0:0:
475,192,111644,1,0,0:0:0:0:
402,192,111644,1,0,0:0:0:0:
109,192,111822,1,0,0:0:0:0:
329,192,111822,1,0,0:0:0:0:
182,192,111911,1,0,0:0:0:0:
256,192,112000,1,0,0:0:0:0:
402,192,112000,1,0,0:0:0:0:
475,192,112000,1,0,0:0:0:0:
36,192,112000,1,0,0:0:0:0:
329,192,112177,1,0,0:0:0:0:
402,192,112177,1,0,0:0:0:0:
256,192,112266,1,0,0:0:0:0:
109,192,112355,1,0,0:0:0:0:
36,192,112355,1,0,0:0:0:0:
182,192,112355,1,0,0:0:0:0:
402,192,112355,1,0,0:0:0:0:
109,192,112533,1,0,0:0:0:0:
256,192,112533,1,0,0:0:0:0:
402,192,112622,1,0,0:0:0:0:
329,192,112711,1,0,0:0:0:0:
182,192,112711,1,0,0:0:0:0:
36,192,112711,1,0,0:0:0:0:
475,192,112711,1,0,0:0:0:0:
256,192,112888,1,0,0:0:0:0:
109,192,112888,1,0,0:0:0:0:
402,192,112977,1,0,0:0:0:0:
182,192,113066,1,0,0:0:0:0:
475,192,113244,1,0,0:0:0:0:
329,192,113244,1,0,0:0:0:0:
36,192,113333,1,0,0:0:0:0:
182,192,113333,1,0,0:0:0:0:
329,192,113422,1,0,0:0:0:0:
475,192,113422,1,0,0:0:0:0:
109,192,113600,1,0,0:0:0:0:
402,192,113600,1,0,0:0:0:0:
256,192,113777,1,0,0:0:0:0:
36,192,113777,1,0,0:0:0:0:
109,192,113777,1,0,0:0:0:0:
402,192,113777,1,0,0:0:0:0:
475,192,113777,1,0,0:0:0:0:
182,192,113866,1,0,0:0:0:0:
256,192,113955,1,0,0:0:0:0:
329,192,113955,1,0,0:0:0:0:
475,192,113955,1,0,0:0:0:0:
109,192,114044,1,0,0:0:0:0:
36,192,114044,1,0,0:0:0:0:
182,192,114133,1,0,0:0:0:0:
402,192,114133,1,0,0:0:0:0:
475,192,114133,1,0,0:0:0:0:
329,192,114133,1,0,0:0:0:0:
256,192,114222,1,0,0:0:0:0:
36,192,114311,1,0,0:0:0:0:
475,192,114311,1,0,0:0:0:0:
402,192,114311,1,0,0:0:0:0:
109,192,114400,1,0,0:0:0:0:
256,192,114400,1,0,0:0:0:0:
475,192,114488,1,0,0:0:0:0:
36,192,114488,1,0,0:0:0:0:
402,192,114488,1,0,0:0:0:0:
182,192,114488,1,0,0:0:0:0:
329,192,114577,1,0,0:0:0:0:
109,192,114666,1,0,0:0:0:0:
36,192,114666,1,0,0:0:0:0:
256,192,114666,1,0,0:0:0:0:
402,192,114755,1,0,0:0:0:0:
475,192,114755,1,0,0:0:0:0:
329,192,114844,1,0,0:0:0:0:
256,192,114844,1,0,0:0:0:0:
109,192,114844,1,0,0:0:0:0:
36,192,114844,1,0,0:0:0:0:
182,192,114933,1,0,0:0:0:0:
475,192,115022,1,0,0:0:0:0:
256,192,115022,1,0,0:0:0:0:
36,192,115022,1,0,0:0:0:0:
402,192,115111,1,0,0:0:0:0:
182,192,115111,1,0,0:0:0:0:
329,192,115200,1,0,0:0:0:0:
475,192,115200,1,0,0:0:0:0:
109,192,115200,1,0,0:0:0:0:
36,192,115200,1,0,0:0:0:0:
182,192,115288,1,0,0:0:0:0:
402,192,115377,1,0,0:0:0:0:
475,192,115377,1,0,0:0:0:0:
256,192,115377,1,0,0:0:0:0:
36,192,115466,1,0,0:0:0:0:
182,192,115466,1,0,0:0:0:0:
475,192,115555,1,0,0:0:0:0:
109,192,115555,1,0,0:0:0:0:
256,192,115555,1,0,0:0:0:0:
329,192,115555,1,0,0:0:0:0:
402,192,115644,1,0,0:0:0:0:
36,192,115733,1,0,0:0:0:0:
475,192,115733,1,0,0:0:0:0:
256,192,115733,1,0,0:0:0:0:
402,192,115822,1,0,0:0:0:0:
182,192,115822,1,0,0:0:0:0:
329,192,115911,1,0,0:0:0:0:
475,192,115911,1,0,0:0:0:0:
109,192,115911,1,0,0:0:0:0:
36,192,115911,1,0,0:0:0:0:
182,192,116000,1,0,0:0:0:0:
402,192,116000,1,0,0:0:0:0:
256,192,116088,1,0,0:0:0:0:
329,192,116088,1,0,0:0:0:0:
109,192,116088,1,0,0:0:0:0:
402,192,116177,1,0,0:0:0:0:
475,192,116177,1,0,0:0:0:0:
36,192,116177,1,0,0:0:0:0:
109,192,116266,1,0,0:0:0:0:
182,192,116266,1,0,0:0:0:0:
256,192,116266,1,0,0:0:0:0:
329,192,116266,1,0,0:0:0:0:
36,192,116355,1,0,0:0:0:0:
182,192,116444,1,0,0:0:0:0:
256,192,116444,1,0,0:0:0:0:
475,192,116444,1,0,0:0:0:0:
402,192,116444,1,0,0:0:0:0:
109,192,116533,1,0,0:0:0:0:
36,192,116622,1,0,0:0:0:0:
256,192,116622,1,0,0:0:0:0:
329,192,116622,1,0,0:0:0:0:
402,192,116622,1,0,0:0:0:0:
475,192,116622,1,0,0:0:0:0:
182,192,116711,1,0,0:0:0:0:
109,192,116800,1,0,0:0:0:0:
475,192,116800,1,0,0:0:0:0:
402,192,116800,1,0,0:0:0:0:
329,192,116888,1,0,0:0:0:0:
256,192,116888,1,0,0:0:0:0:
402,192,116977,1,0,0:0:0:0:
475,192,116977,1,0,0:0:0:0:
109,192,116977,1,0,0:0:0:0:
36,192,116977,1,0,0:0:0:0:
182,192,117066,1,0,0:0:0:0:
36,192,117155,1,0,0:0:0:0:
256,192,117155,1,0,0:0:0:0:
402,192,117155,1,0,0:0:0:0:
182,192,117244,1,0,0:0:0:0:
475,192,117244,1,0,0:0:0:0:
36,192,117333,1,0,0:0:0:0:
109,192,117333,1,0,0:0:0:0:
329,192,117333,1,0,0:0:0:0:
402,192,117333,1,0,0:0:0:0:
256,192,117422,1,0,0:0:0:0:
182,192,117511,1,0,0:0:0:0:
475,192,117511,1,0,0:0:0:0:
109,192,117511,1,0,0:0:0:0:
402,192,117600,1,0,0:0:0:0:
329,192,117600,1,0,0:0:0:0:
36,192,117600,1,0,0:0:0:0:
109,192,117688,1,0,0:0:0:0:
182,192,117688,1,0,0:0:0:0:
256,192,117688,1,0,0:0:0:0:
475,192,117688,1,0,0:0:0:0:
329,192,117777,1,0,0:0:0:0:
475,192,117866,1,0,0:0:0:0:
36,192,117866,1,0,0:0:0:0:
182,192,117866,1,0,0:0:0:0:
402,192,117955,1,0,0:0:0:0:
256,192,117955,1,0,0:0:0:0:
329,192,118044,1,0,0:0:0:0:
475,192,118044,1,0,0:0:0:0:
36,192,118044,1,0,0:0:0:0:
109,192,118044,1,0,0:0:0:0:
182,192,118044,1,0,0:0:0:0:
256,192,118133,1,0,0:0:0:0:
475,192,118222,1,0,0:0:0:0:
402,192,118222,1,0,0:0:0:0:
329,192,118222,1,0,0:0:0:0:
182,192,118311,1,0,0:0:0:0:
109,192,118311,1,0,0:0:0:0:
36,192,118400,1,0,0:0:0:0:
402,192,118400,1,0,0:0:0:0:
475,192,118400,1,0,0:0:0:0:
256,192,118400,1,0,0:0:0:0:
182,192,118488,1,0,0:0:0:0:
36,192,118577,1,0,0:0:0:0:
475,192,118577,1,0,0:0:0:0:
329,192,118577,1,0,0:0:0:0:
109,192,118666,1,0,0:0:0:0:
256,192,118666,1,0,0:0:0:0:
329,192,118755,1,0,0:0:0:0:
402,192,118755,1,0,0:0:0:0:
475,192,118755,1,0,0:0:0:0:
182,192,118755,1,0,0:0:0:0:
36,192,118755,1,0,0:0:0:0:
256,192,118844,1,0,0:0:0:0:
182,192,118933,1,0,0:0:0:0:
109,192,118933,1,0,0:0:0:0:
36,192,118933,1,0,0:0:0:0:
329,192,119022,1,0,0:0:0:0:
402,192,119022,1,0,0:0:0:0:
256,192,119111,1,0,0:0:0:0:
475,192,119111,1,0,0:0:0:0:
109,192,119111,1,0,0:0:0:0:
36,192,119111,1,0,0:0:0:0:
329,192,119200,1,0,0:0:0:0:
36,192,119288,1,0,0:0:0:0:
256,192,119288,1,0,0:0:0:0:
475,192,119288,1,0,0:0:0:0:
402,192,119288,1,0,0:0:0:0:
182,192,119377,1,0,0:0:0:0:
475,192,119466,1,0,0:0:0:0:
256,192,119466,1,0,0:0:0:0:
109,192,119466,1,0,0:0:0:0:
36,192,119466,1,0,0:0:0:0:
329,192,119555,1,0,0:0:0:0:
402,192,119644,1,0,0:0:0:0:
475,192,119644,1,0,0:0:0:0:
182,192,119644,1,0,0:0:0:0:
109,192,119644,1,0,0:0:0:0:
256,192,119733,1,0,0:0:0:0:
475,192,119822,1,0,0:0:0:0:
36,192,119822,1,0,0:0:0:0:
109,192,119822,1,0,0:0:0:0:
329,192,119822,1,0,0:0:0:0:
402,192,119822,1,0,0:0:0:0:
182,192,119911,1,0,0:0:0:0:
475,192,120000,1,0,0:0:0:0:
402,192,120000,1,0,0:0:0:0:
109,192,120000,1,0,0:0:0:0:
36,192,120088,1,0,0:0:0:0:
256,192,120088,1,0,0:0:0:0:
182,192,120177,1,0,0:0:0:0:
329,192,120177,1,0,0:0:0:0:
475,192,120177,1,0,0:0:0:0:
109,192,120177,1,0,0:0:0:0:
256,192,120266,1,0,0:0:0:0:
475,192,120355,1,0,0:0:0:0:
402,192,120355,1,0,0:0:0:0:
182,192,120355,1,0,0:0:0:0:
36,192,120444,1,0,0:0:0:0:
109,192,120444,1,0,0:0:0:0:
329,192,120444,1,0,0:0:0:0:
475,192,120533,1,0,0:0:0:0:
182,192,120533,1,0,0:0:0:0:
402,192,120533,1,0,0:0:0:0:
256,192,120533,1,0,0:0:0:0:
329,192,120622,1,0,0:0:0:0:
109,192,120711,1,0,0:0:0:0:
36,192,120711,1,0,0:0:0:0:
256,192,120711,1,0,0:0:0:0:
402,192,120800,1,0,0:0:0:0:
475,192,120800,1,0,0:0:0:0:
329,192,120888,1,0,0:0:0:0:
109,192,120888,1,0,0:0:0:0:
36,192,120888,1,0,0:0:0:0:
256,192,120888,1,0,0:0:0:0:
182,192,120977,1,0,0:0:0:0:
475,192,121066,1,0,0:0:0:0:
36,192,121066,1,0,0:0:0:0:
109,192,121066,1,0,0:0:0:0:
256,192,121066,1,0,0:0:0:0:
402,192,121066,1,0,0:0:0:0:
329,192,121155,1,0,0:0:0:0:
475,192,121244,1,0,0:0:0:0:
109,192,121244,1,0,0:0:0:0:
36,192,121244,1,0,0:0:0:0:
182,192,121244,1,0,0:0:0:0:
402,192,121244,1,0,0:0:0:0:
256,192,121333,1,0,0:0:0:0:
402,192,121422,1,0,0:0:0:0:
36,192,121422,1,0,0:0:0:0:
182,192,121422,1,0,0:0:0:0:
475,192,121511,1,0,0:0:0:0:
109,192,121511,1,0,0:0:0:0:
36,192,121600,1,0,0:0:0:0:
182,192,121600,1,0,0:0:0:0:
329,192,121600,1,0,0:0:0:0:
256,192,121600,1,0,0:0:0:0:
402,192,121688,1,0,0:0:0:0:
475,192,121777,1,0,0:0:0:0:
256,192,121777,1,0,0:0:0:0:
36,192,121777,1,0,0:0:0:0:
109,192,121866,1,0,0:0:0:0:
475,192,121955,1,0,0:0:0:0:
182,192,121955,1,0,0:0:0:0:
329,192,121955,1,0,0:0:0:0:
36,192,121955,1,0,0:0:0:0:
256,192,121955,1,0,0:0:0:0:
402,192,122044,1,0,0:0:0:0:
36,192,122133,1,0,0:0:0:0:
182,192,122133,1,0,0:0:0:0:
256,192,122133,1,0,0:0:0:0:
329,192,122133,1,0,0:0:0:0:
475,192,122133,1,0,0:0:0:0:
109,192,122222,1,0,0:0:0:0:
402,192,122311,1,0,0:0:0:0:
475,192,122311,1,0,0:0:0:0:
256,192,122311,1,0,0:0:0:0:
36,192,122311,1,0,0:0:0:0:
109,192,122400,1,0,0:0:0:0:
182,192,122400,1,0,0:0:0:0:
256,192,122488,1,0,0:0:0:0:
329,192,122488,1,0,0:0:0:0:
402,192,122577,1,0,0:0:0:0:
475,192,122577,1,0,0:0:0:0:
36,192,122666,1,0,0:0:0:0:
109,192,122666,1,0,0:0:0:0:
182,192,122666,1,0,0:0:0:0:
256,192,122755,1,0,0:0:0:0:
329,192,122755,1,0,0:0:0:0:
402,192,122755,1,0,0:0:0:0:
182,192,122844,1,0,0:0:0:0:
109,192,122844,1,0,0:0:0:0:
329,192,122933,1,0,0:0:0:0:
475,192,122933,1,0,0:0:0:0:
182,192,123022,1,0,0:0:0:0:
36,192,123022,1,0,0:0:0:0:
329,192,123111,1,0,0:0:0:0:
402,192,123111,1,0,0:0:0:0:
109,192,123200,1,0,0:0:0:0:
36,192,123200,1,0,0:0:0:0:
256,192,123200,1,0,0:0:0:0:
475,192,123288,1,0,0:0:0:0:
402,192,123288,1,0,0:0:0:0:
182,192,123377,1,0,0:0:0:0:
109,192,123377,1,0,0:0:0:0:
256,192,123377,1,0,0:0:0:0:
329,192,123466,1,0,0:0:0:0:
475,192,123466,1,0,0:0:0:0:
182,192,123555,1,0,0:0:0:0:
36,192,123555,1,0,0:0:0:0:
109,192,123555,1,0,0:0:0:0:
329,192,123644,1,0,0:0:0:0:
402,192,123644,1,0,0:0:0:0:
36,192,123733,1,0,0:0:0:0:
109,192,123777,1,0,0:0:0:0:
256,192,123822,1,0,0:0:0:0:
329,192,123866,1,0,0:0:0:0:
402,192,123911,1,0,0:0:0:0:
475,192,123955,1,0,0:0:0:0:
36,192,123955,1,0,0:0:0:0:
182,192,124000,1,0,0:0:0:0:
256,192,124044,1,0,0:0:0:0:
329,192,124088,1,0,0:0:0:0:
402,192,124133,1,0,0:0:0:0:
475,192,124177,1,0,0:0:0:0:
36,192,124177,1,0,0:0:0:0:
109,192,124222,1,0,0:0:0:0:
182,192,124266,1,0,0:0:0:0:
256,192,124311,1,0,0:0:0:0:
329,192,124355,1,0,0:0:0:0:
36,192,124400,1,0,0:0:0:0:
475,192,124400,1,0,0:0:0:0:
109,192,124444,1,0,0:0:0:0:
182,192,124488,1,0,0:0:0:0:
256,192,124533,1,0,0:0:0:0:
402,192,124577,1,0,0:0:0:0:
475,192,124622,1,0,0:0:0:0:
36,192,124651,1,0,0:0:0:0:
256,192,124681,1,0,0:0:0:0:
109,192,124740,1,0,0:0:0:0:
475,192,124770,1,0,0:0:0:0:
329,192,124800,1,0,0:0:0:0:
402,192,124859,1,0,0:0:0:0:
256,192,124888,1,0,0:0:0:0:
182,192,124918,1,0,0:0:0:0:
36,192,124948,1,0,0:0:0:0:
475,192,125007,1,0,0:0:0:0:
329,192,125037,1,0,0:0:0:0:
109,192,125066,1,0,0:0:0:0:
256,192,125096,1,0,0:0:0:0:
182,192,125155,1,0,0:0:0:0:
36,192,125155,1,0,0:0:0:0:
109,192,125155,1,0,0:0:0:0:
475,192,125155,1,0,0:0:0:0:
329,192,125155,1,0,0:0:0:0:
402,192,125244,1,0,0:0:0:0:
256,192,125244,1,0,0:0:0:0:
329,192,125333,1,0,0:0:0:0:
36,192,125333,1,0,0:0:0:0:
109,192,125333,1,0,0:0:0:0:
182,192,125422,1,0,0:0:0:0:
402,192,125422,1,0,0:0:0:0:
256,192,125511,1,0,0:0:0:0:
36,192,125511,1,0,0:0:0:0:
475,192,125511,1,0,0:0:0:0:
329,192,125511,1,0,0:0:0:0:
109,192,125600,1,0,0:0:0:0:
402,192,125600,1,0,0:0:0:0:
182,192,125688,1,0,0:0:0:0:
256,192,125688,1,0,0:0:0:0:
475,192,125688,1,0,0:0:0:0:
329,192,125777,1,0,0:0:0:0:
36,192,125777,1,0,0:0:0:0:
475,192,125866,1,0,0:0:0:0:
402,192,125866,1,0,0:0:0:0:
109,192,125866,1,0,0:0:0:0:
256,192,125866,1,0,0:0:0:0:
182,192,125955,1,0,0:0:0:0:
36,192,125955,1,0,0:0:0:0:
109,192,126044,1,0,0:0:0:0:
329,192,126044,1,0,0:0:0:0:
402,192,126044,1,0,0:0:0:0:
256,192,126133,1,0,0:0:0:0:
475,192,126133,1,0,0:0:0:0:
402,192,126222,1,0,0:0:0:0:
182,192,126222,1,0,0:0:0:0:
36,192,126222,1,0,0:0:0:0:
329,192,126222,1,0,0:0:0:0:
256,192,126311,1,0,0:0:0:0:
109,192,126311,1,0,0:0:0:0:
182,192,126400,1,0,0:0:0:0:
475,192,126400,1,0,0:0:0:0:
402,192,126400,1,0,0:0:0:0:
329,192,126488,1,0,0:0:0:0:
109,192,126488,1,0,0:0:0:0:
402,192,126577,1,0,0:0:0:0:
475,192,126577,1,0,0:0:0:0:
36,192,126577,1,0,0:0:0:0:
256,192,126577,1,0,0:0:0:0:
182,192,126666,1,0,0:0:0:0:
329,192,126666,1,0,0:0:0:0:
109,192,126755,1,0,0:0:0:0:
36,192,126755,1,0,0:0:0:0:
402,192,126755,1,0,0:0:0:0:
256,192,126844,1,0,0:0:0:0:
475,192,126844,1,0,0:0:0:0:
36,192,126933,1,0,0:0:0:0:
182,192,126933,1,0,0:0:0:0:
109,192,126933,1,0,0:0:0:0:
329,192,126933,1,0,0:0:0:0:
256,192,127022,1,0,0:0:0:0:
402,192,127022,1,0,0:0:0:0:
109,192,127111,1,0,0:0:0:0:
475,192,127111,1,0,0:0:0:0:
329,192,127111,1,0,0:0:0:0:
256,192,127200,1,0,0:0:0:0:
36,192,127200,1,0,0:0:0:0:
402,192,127288,1,0,0:0:0:0:
475,192,127288,1,0,0:0:0:0:
182,192,127288,1,0,0:0:0:0:
329,192,127288,1,0,0:0:0:0:
256,192,127377,1,0,0:0:0:0:
109,192,127377,1,0,0:0:0:0:
36,192,127466,1,0,0:0:0:0:
182,192,127466,1,0,0:0:0:0:
475,192,127466,1,0,0:0:0:0:
402,192,127555,1,0,0:0:0:0:
109,192,127555,1,0,0:0:0:0:
256,192,127644,1,0,0:0:0:0:
329,192,127644,1,0,0:0:0:0:
182,192,127644,1,0,0:0:0:0:
475,192,127644,1,0,0:0:0:0:
402,192,127733,1,0,0:0:0:0:
36,192,127733,1,0,0:0:0:0:
329,192,127822,1,0,0:0:0:0:
182,192,127822,1,0,0:0:0:0:
109,192,127822,1,0,0:0:0:0:
475,192,127911,1,0,0:0:0:0:
256,192,127911,1,0,0:0:0:0:
402,192,128000,1,0,0:0:0:0:
329,192,128000,1,0,0:0:0:0:
182,192,128000,1,0,0:0:0:0:
36,192,128000,1,0,0:0:0:0:
256,192,128088,1,0,0:0:0:0:
109,192,128088,1,0,0:0:0:0:
475,192,128177,1,0,0:0:0:0:
402,192,128177,1,0,0:0:0:0:
182,192,128177,1,0,0:0:0:0:
329,192,128266,1,0,0:0:0:0:
109,192,128266,1,0,0:0:0:0:
256,192,128355,1,0,0:0:0:0:
475,192,128355,1,0,0:0:0:0:
36,192,128355,1,0,0:0:0:0:
109,192,128444,1,0,0:0:0:0:
329,192,128444,1,0,0:0:0:0:
256,192,128533,1,0,0:0:0:0:
182,192,128533,1,0,0:0:0:0:
475,192,128533,1,0,0:0:0:0:
402,192,128622,1,0,0:0:0:0:
36,192,128622,1,0,0:0:0:0:
109,192,128711,1,0,0:0:0:0:
182,192,128711,1,0,0:0:0:0:
329,192,128711,1,0,0:0:0:0:
475,192,128711,1,0,0:0:0:0:
256,192,128800,1,0,0:0:0:0:
402,192,128800,1,0,0:0:0:0:
36,192,128888,1,0,0:0:0:0:
475,192,128888,1,0,0:0:0:0:
109,192,128888,1,0,0:0:0:0:
182,192,128977,1,0,0:0:0:0:
329,192,128977,1,0,0:0:0:0:
36,192,129066,1,0,0:0:0:0:
402,192,129066,1,0,0:0:0:0:
475,192,129066,1,0,0:0:0:0:
256,192,129066,1,0,0:0:0:0:
109,192,129155,1,0,0:0:0:0:
329,192,129155,1,0,0:0:0:0:
182,192,129244,1,0,0:0:0:0:
475,192,129244,1,0,0:0:0:0:
256,192,129244,1,0,0:0:0:0:
402,192,129333,1,0,0:0:0:0:
36,192,129333,1,0,0:0:0:0:
109,192,129422,1,0,0:0:0:0:
256,192,129422,1,0,0:0:0:0:
475,192,129422,1,0,0:0:0:0:
182,192,129422,1,0,0:0:0:0:
329,192,129511,1,0,0:0:0:0:
36,192,129511,1,0,0:0:0:0:
402,192,129600,1,0,0:0:0:0:
475,192,129600,1,0,0:0:0:0:
182,192,129600,1,0,0:0:0:0:
109,192,129688,1,0,0:0:0:0:
329,192,129688,1,0,0:0:0:0:
36,192,129777,1,0,0:0:0:0:
475,192,129777,1,0,0:0:0:0:
402,192,129777,1,0,0:0:0:0:
182,192,129777,1,0,0:0:0:0:
109,192,129866,1,0,0:0:0:0:
256,192,129866,1,0,0:0:0:0:
402,192,129955,1,0,0:0:0:0:
475,192,129955,1,0,0:0:0:0:
329,192,129955,1,0,0:0:0:0:
36,192,129955,1,0,0:0:0:0:
109,192,130044,1,0,0:0:0:0:
182,192,130044,1,0,0:0:0:0:
256,192,130133,1,0,0:0:0:0:
402,192,130133,1,0,0:0:0:0:
475,192,130133,1,0,0:0:0:0:
36,192,130133,1,0,0:0:0:0:
329,192,130222,1,0,0:0:0:0:
182,192,130222,1,0,0:0:0:0:
109,192,130311,1,0,0:0:0:0:
36,192,130311,1,0,0:0:0:0:
256,192,130311,1,0,0:0:0:0:
475,192,130311,1,0,0:0:0:0:
402,192,130400,1,0,0:0:0:0:
329,192,130400,1,0,0:0:0:0:
109,192,130488,1,0,0:0:0:0:
36,192,130488,1,0,0:0:0:0:
182,192,130488,1,0,0:0:0:0:
475,192,130488,1,0,0:0:0:0:
256,192,130577,1,0,0:0:0:0:
329,192,130577,1,0,0:0:0:0:
475,192,130666,1,0,0:0:0:0:
402,192,130666,1,0,0:0:0:0:
109,192,130666,1,0,0:0:0:0:
36,192,130666,1,0,0:0:0:0:
182,192,130755,1,0,0:0:0:0:
256,192,130755,1,0,0:0:0:0:
329,192,130755,1,0,0:0:0:0:
109,192,130844,1,0,0:0:0:0:
36,192,130844,1,0,0:0:0:0:
402,192,130844,1,0,0:0:0:0:
475,192,130844,1,0,0:0:0:0:
182,192,130933,1,0,0:0:0:0:
329,192,130933,1,0,0:0:0:0:
256,192,131022,1,0,0:0:0:0:
475,192,131022,1,0,0:0:0:0:
36,192,131022,1,0,0:0:0:0:
329,192,131111,1,0,0:0:0:0:
109,192,131111,1,0,0:0:0:0:
402,192,131200,1,0,0:0:0:0:
475,192,131200,1,0,0:0:0:0:
182,192,131200,1,0,0:0:0:0:
256,192,131288,1,0,0:0:0:0:
36,192,131288,1,0,0:0:0:0:
109,192,131377,1,0,0:0:0:0:
475,192,131377,1,0,0:0:0:0:
329,192,131377,1,0,0:0:0:0:
182,192,131466,1,0,0:0:0:0:
256,192,131466,1,0,0:0:0:0:
402,192,131555,1,0,0:0:0:0:
475,192,131555,1,0,0:0:0:0:
109,192,131555,1,0,0:0:0:0:
36,192,131555,1,0,0:0:0:0:
329,192,131644,1,0,0:0:0:0:
182,192,131644,1,0,0:0:0:0:
256,192,131733,1,0,0:0:0:0:
36,192,131733,1,0,0:0:0:0:
475,192,131733,1,0,0:0:0:0:
109,192,131822,1,0,0:0:0:0:
329,192,131822,1,0,0:0:0:0:
402,192,131911,1,0,0:0:0:0:
182,192,131911,1,0,0:0:0:0:
475,192,131911,1,0,0:0:0:0:
36,192,132000,1,0,0:0:0:0:
256,192,132000,1,0,0:0:0:0:
475,192,132088,1,0,0:0:0:0:
329,192,132088,1,0,0:0:0:0:
109,192,132088,1,0,0:0:0:0:
256,192,132177,1,0,0:0:0:0:
182,192,132177,1,0,0:0:0:0:
475,192,132266,1,0,0:0:0:0:
109,192,132266,1,0,0:0:0:0:
36,192,132266,1,0,0:0:0:0:
402,192,132266,1,0,0:0:0:0:
182,192,132355,1,0,0:0:0:0:
329,192,132355,1,0,0:0:0:0:
36,192,132444,1,0,0:0:0:0:
475,192,132444,1,0,0:0:0:0:
256,192,132444,1,0,0:0:0:0:
182,192,132533,1,0,0:0:0:0:
402,192,132533,1,0,0:0:0:0:
36,192,132622,1,0,0:0:0:0:
109,192,132622,1,0,0:0:0:0:
329,192,132622,1,0,0:0:0:0:
475,192,132711,1,0,0:0:0:0:
256,192,132711,1,0,0:0:0:0:
402,192,132800,1,0,0:0:0:0:
36,192,132800,1,0,0:0:0:0:
182,192,132800,1,0,0:0:0:0:
109,192,132800,1,0,0:0:0:0:
256,192,132888,1,0,0:0:0:0:
329,192,132888,1,0,0:0:0:0:
475,192,132977,1,0,0:0:0:0:
36,192,132977,1,0,0:0:0:0:
109,192,132977,1,0,0:0:0:0:
402,192,132977,1,0,0:0:0:0:
182,192,133066,1,0,0:0:0:0:
256,192,133066,1,0,0:0:0:0:
475,192,133155,1,0,0:0:0:0:
36,192,133155,1,0,0:0:0:0:
109,192,133155,1,0,0:0:0:0:
329,192,133155,1,0,0:0:0:0:
256,192,133244,1,0,0:0:0:0:
182,192,133244,1,0,0:0:0:0:
475,192,133333,1,0,0:0:0:0:
402,192,133333,1,0,0:0:0:0:
109,192,133333,1,0,0:0:0:0:
36,192,133333,1,0,0:0:0:0:
329,192,133422,1,0,0:0:0:0:
256,192,133422,1,0,0:0:0:0:
182,192,133511,1,0,0:0:0:0:
36,192,133511,1,0,0:0:0:0:
475,192,133511,1,0,0:0:0:0:
109,192,133511,1,0,0:0:0:0:
402,192,133600,1,0,0:0:0:0:
329,192,133600,1,0,0:0:0:0:
256,192,133688,1,0,0:0:0:0:
182,192,133688,1,0,0:0:0:0:
109,192,133688,1,0,0:0:0:0:
36,192,133688,1,0,0:0:0:0:
475,192,133688,1,0,0:0:0:0:
329,192,133777,1,0,0:0:0:0:
402,192,133777,1,0,0:0:0:0:
36,192,133866,1,0,0:0:0:0:
182,192,133866,1,0,0:0:0:0:
475,192,133866,1,0,0:0:0:0:
256,192,133955,1,0,0:0:0:0:
109,192,133955,1,0,0:0:0:0:
329,192,134044,1,0,0:0:0:0:
402,192,134044,1,0,0:0:0:0:
475,192,134044,1,0,0:0:0:0:
182,192,134044,1,0,0:0:0:0:
36,192,134133,1,0,0:0:0:0:
109,192,134133,1,0,0:0:0:0:
182,192,134222,1,0,0:0:0:0:
329,192,134222,1,0,0:0:0:0:
402,192,134222,1,0,0:0:0:0:
475,192,134222,1,0,0:0:0:0:
256,192,134311,1,0,0:0:0:0:
109,192,134311,1,0,0:0:0:0:
36,192,134400,1,0,0:0:0:0:
475,192,134400,1,0,0:0:0:0:
402,192,134400,1,0,0:0:0:0:
182,192,134400,1,0,0:0:0:0:
329,192,134488,1,0,0:0:0:0:
256,192,134488,1,0,0:0:0:0:
36,192,134577,1,0,0:0:0:0:
182,192,134577,1,0,0:0:0:0:
109,192,134577,1,0,0:0:0:0:
475,192,134577,1,0,0:0:0:0:
256,192,134666,1,0,0:0:0:0:
402,192,134666,1,0,0:0:0:0:
329,192,134755,1,0,0:0:0:0:
36,192,134755,1,0,0:0:0:0:
109,192,134755,1,0,0:0:0:0:
475,192,134755,1,0,0:0:0:0:
182,192,134844,1,0,0:0:0:0:
256,192,134844,1,0,0:0:0:0:
329,192,134933,1,0,0:0:0:0:
402,192,134933,1,0,0:0:0:0:
475,192,134933,1,0,0:0:0:0:
36,192,134933,1,0,0:0:0:0:
109,192,135022,1,0,0:0:0:0:
182,192,135022,1,0,0:0:0:0:
256,192,135111,1,0,0:0:0:0:
402,192,135111,1,0,0:0:0:0:
36,192,135111,1,0,0:0:0:0:
182,192,135200,1,0,0:0:0:0:
329,192,135200,1,0,0:0:0:0:
475,192,135288,1,0,0:0:0:0:
109,192,135288,1,0,0:0:0:0:
36,192,135288,1,0,0:0:0:0:
256,192,135288,1,0,0:0:0:0:
402,192,135377,1,0,0:0:0:0:
182,192,135377,1,0,0:0:0:0:
256,192,135466,1,0,0:0:0:0:
475,192,135466,1,0,0:0:0:0:
36,192,135466,1,0,0:0:0:0:
109,192,135555,1,0,0:0:0:0:
329,192,135555,1,0,0:0:0:0:
402,192,135644,1,0,0:0:0:0:
475,192,135644,1,0,0:0:0:0:
182,192,135644,1,0,0:0:0:0:
36,192,135644,1,0,0:0:0:0:
256,192,135733,1,0,0:0:0:0:
329,192,135733,1,0,0:0:0:0:
36,192,135822,1,0,0:0:0:0:
402,192,135822,1,0,0:0:0:0:
475,192,135822,1,0,0:0:0:0:
182,192,135822,1,0,0:0:0:0:
109,192,135911,1,0,0:0:0:0:
329,192,135911,1,0,0:0:0:0:
36,192,136000,1,0,0:0:0:0:
256,192,136000,1,0,0:0:0:0:
475,192,136000,1,0,0:0:0:0:
182,192,136088,1,0,0:0:0:0:
329,192,136088,1,0,0:0:0:0:
109,192,136177,1,0,0:0:0:0:
36,192,136177,1,0,0:0:0:0:
402,192,136177,1,0,0:0:0:0:
475,192,136177,1,0,0:0:0:0:
182,192,136266,1,0,0:0:0:0:
329,192,136266,1,0,0:0:0:0:
256,192,136355,1,0,0:0:0:0:
475,192,136355,1,0,0:0:0:0:
109,192,136355,1,0,0:0:0:0:
36,192,136355,1,0,0:0:0:0:
402,192,136355,1,0,0:0:0:0:
329,192,136444,1,0,0:0:0:0:
182,192,136444,1,0,0:0:0:0:
402,192,136533,1,0,0:0:0:0:
475,192,136533,1,0,0:0:0:0:
109,192,136533,1,0,0:0:0:0:
36,192,136533,1,0,0:0:0:0:
256,192,136533,1,0,0:0:0:0:
329,192,136622,1,0,0:0:0:0:
182,192,136622,1,0,0:0:0:0:
36,192,136711,1,0,0:0:0:0:
109,192,136711,1,0,0:0:0:0:
475,192,136711,1,0,0:0:0:0:
256,192,136800,1,0,0:0:0:0:
329,192,136800,1,0,0:0:0:0:
402,192,136888,1,0,0:0:0:0:
475,192,136888,1,0,0:0:0:0:
182,192,136888,1,0,0:0:0:0:
36,192,136888,1,0,0:0:0:0:
109,192,136977,1,0,0:0:0:0:
329,192,136977,1,0,0:0:0:0:
182,192,137066,1,0,0:0:0:0:
36,192,137066,1,0,0:0:0:0:
402,192,137066,1,0,0:0:0:0:
475,192,137066,1,0,0:0:0:0:
329,192,137155,1,0,0:0:0:0:
256,192,137155,1,0,0:0:0:0:
109,192,137244,1,0,0:0:0:0:
475,192,137244,1,0,0:0:0:0:
36,192,137244,1,0,0:0:0:0:
402,192,137333,1,0,0:0:0:0:
182,192,137333,1,0,0:0:0:0:
256,192,137422,1,0,0:0:0:0:
109,192,137422,1,0,0:0:0:0:
36,192,137422,1,0,0:0:0:0:
329,192,137422,1,0,0:0:0:0:
402,192,137511,1,0,0:0:0:0:
182,192,137511,1,0,0:0:0:0:
475,192,137600,1,0,0:0:0:0:
256,192,137600,1,0,0:0:0:0:
36,192,137600,1,0,0:0:0:0:
109,192,137688,1,0,0:0:0:0:
329,192,137688,1,0,0:0:0:0:
182,192,137777,1,0,0:0:0:0:
402,192,137777,1,0,0:0:0:0:
475,192,137777,1,0,0:0:0:0:
256,192,137777,1,0,0:0:0:0:
36,192,137866,1,0,0:0:0:0:
109,192,137866,1,0,0:0:0:0:
329,192,137955,1,0,0:0:0:0:
402,192,137955,1,0,0:0:0:0:
475,192,137955,1,0,0:0:0:0:
182,192,137955,1,0,0:0:0:0:
256,192,138044,1,0,0:0:0:0:
109,192,138044,1,0,0:0:0:0:
182,192,138133,1,0,0:0:0:0:
36,192,138133,1,0,0:0:0:0:
475,192,138133,1,0,0:0:0:0:
402,192,138222,1,0,0:0:0:0:
329,192,138222,1,0,0:0:0:0:
109,192,138311,1,0,0:0:0:0:
36,192,138311,1,0,0:0:0:0:
256,192,138311,1,0,0:0:0:0:
182,192,138311,1,0,0:0:0:0:
402,192,138400,1,0,0:0:0:0:
475,192,138400,1,0,0:0:0:0:
329,192,138488,1,0,0:0:0:0:
182,192,138488,1,0,0:0:0:0:
256,192,138577,1,0,0:0:0:0:
36,192,138577,1,0,0:0:0:0:
402,192,138666,1,0,0:0:0:0:
475,192,138666,1,0,0:0:0:0:
109,192,138666,1,0,0:0:0:0:
182,192,138666,1,0,0:0:0:0:
329,192,138755,1,0,0:0:0:0:
256,192,138755,1,0,0:0:0:0:
402,192,138844,1,0,0:0:0:0:
475,192,138844,1,0,0:0:0:0:
182,192,138844,1,0,0:0:0:0:
36,192,138933,1,0,0:0:0:0:
109,192,138933,1,0,0:0:0:0:
256,192,138933,1,0,0:0:0:0:
329,192,139022,1,0,0:0:0:0:
475,192,139022,1,0,0:0:0:0:
402,192,139022,1,0,0:0:0:0:
256,192,139111,1,0,0:0:0:0:
109,192,139111,1,0,0:0:0:0:
36,192,139200,1,0,0:0:0:0:
182,192,139200,1,0,0:0:0:0:
475,192,139200,1,0,0:0:0:0:
402,192,139288,1,0,0:0:0:0:
256,192,139288,1,0,0:0:0:0:
182,192,139377,1,0,0:0:0:0:
109,192,139377,1,0,0:0:0:0:
36,192,139377,1,0,0:0:0:0:
329,192,139377,1,0,0:0:0:0:
256,192,139466,1,0,0:0:0:0:
402,192,139466,1,0,0:0:0:0:
329,192,139555,1,0,0:0:0:0:
475,192,139555,1,0,0:0:0:0:
36,192,139555,1,0,0:0:0:0:
109,192,139644,1,0,0:0:0:0:
182,192,139644,1,0,0:0:0:0:
402,192,139733,1,0,0:0:0:0:
475,192,139733,1,0,0:0:0:0:
256,192,139733,1,0,0:0:0:0:
329,192,139733,1,0,0:0:0:0:
109,192,139822,1,0,0:0:0:0:
36,192,139822,1,0,0:0:0:0:
182,192,139911,1,0,0:0:0:0:
329,192,139911,1,0,0:0:0:0:
256,192,140000,1,0,0:0:0:0:
475,192,140000,1,0,0:0:0:0:
109,192,140088,1,0,0:0:0:0:
36,192,140088,1,0,0:0:0:0:
402,192,140088,1,0,0:0:0:0:
329,192,140088,1,0,0:0:0:0:
182,192,140177,1,0,0:0:0:0:
256,192,140177,1,0,0:0:0:0:
109,192,140266,1,0,0:0:0:0:
36,192,140266,1,0,0:0:0:0:
329,192,140266,1,0,0:0:0:0:
475,192,140355,1,0,0:0:0:0:
402,192,140355,1,0,0:0:0:0:
256,192,140355,1,0,0:0:0:0:
182,192,140444,1,0,0:0:0:0:
36,192,140444,1,0,0:0:0:0:
109,192,140444,1,0,0:0:0:0:
256,192,140533,1,0,0:0:0:0:
402,192,140533,1,0,0:0:0:0:
475,192,140622,1,0,0:0:0:0:
329,192,140622,1,0,0:0:0:0:
36,192,140622,1,0,0:0:0:0:
109,192,140711,1,0,0:0:0:0:
256,192,140711,1,0,0:0:0:0:
402,192,140800,1,0,0:0:0:0:
475,192,140800,1,0,0:0:0:0:
36,192,140800,1,0,0:0:0:0:
182,192,140800,1,0,0:0:0:0:
329,192,140888,1,0,0:0:0:0:
256,192,140888,1,0,0:0:0:0:
109,192,140977,1,0,0:0:0:0:
36,192,140977,1,0,0:0:0:0:
475,192,140977,1,0,0:0:0:0:
182,192,141066,1,0,0:0:0:0:
256,192,141066,1,0,0:0:0:0:
402,192,141155,1,0,0:0:0:0:
475,192,141155,1,0,0:0:0:0:
36,192,141155,1,0,0:0:0:0:
109,192,141155,1,0,0:0:0:0:
182,192,141244,1,0,0:0:0:0:
329,192,141244,1,0,0:0:0:0:
256,192,141333,1,0,0:0:0:0:
109,192,141333,1,0,0:0:0:0:
36,192,141422,1,0,0:0:0:0:
402,192,141422,1,0,0:0:0:0:
475,192,141422,1,0,0:0:0:0:
329,192,141511,1,0,0:0:0:0:
182,192,141511,1,0,0:0:0:0:
109,192,141511,1,0,0:0:0:0:
256,192,141511,1,0,0:0:0:0:
402,192,141600,1,0,0:0:0:0:
475,192,141600,1,0,0:0:0:0:
36,192,141600,1,0,0:0:0:0:
182,192,141688,1,0,0:0:0:0:
256,192,141688,1,0,0:0:0:0:
109,192,141777,1,0,0:0:0:0:
329,192,141777,1,0,0:0:0:0:
36,192,141866,1,0,0:0:0:0:
475,192,141866,1,0,0:0:0:0:
402,192,141866,1,0,0:0:0:0:
256,192,141866,1,0,0:0:0:0:
182,192,141955,1,0,0:0:0:0:
329,192,141955,1,0,0:0:0:0:
36,192,142044,1,0,0:0:0:0:
109,192,142044,1,0,0:0:0:0:
256,192,142044,1,0,0:0:0:0:
475,192,142044,1,0,0:0:0:0:
329,192,142133,1,0,0:0:0:0:
182,192,142133,1,0,0:0:0:0:
402,192,142222,1,0,0:0:0:0:
475,192,142222,1,0,0:0:0:0:
36,192,142222,1,0,0:0:0:0:
109,192,142222,1,0,0:0:0:0:
256,192,142311,1,0,0:0:0:0:
182,192,142311,1,0,0:0:0:0:
109,192,142400,1,0,0:0:0:0:
402,192,142400,1,0,0:0:0:0:
36,192,142488,1,0,0:0:0:0:
256,192,142488,1,0,0:0:0:0:
329,192,142488,1,0,0:0:0:0:
182,192,142577,1,0,0:0:0:0:
109,192,142577,1,0,0:0:0:0:
402,192,142577,1,0,0:0:0:0:
475,192,142577,1,0,0:0:0:0:
329,192,142666,1,0,0:0:0:0:
256,192,142666,1,0,0:0:0:0:
475,192,142755,1,0,0:0:0:0:
182,192,142755,1,0,0:0:0:0:
36,192,142755,1,0,0:0:0:0:
402,192,142844,1,0,0:0:0:0:
256,192,142844,1,0,0:0:0:0:
36,192,142933,1,0,0:0:0:0:
109,192,142933,1,0,0:0:0:0:
329,192,142933,1,0,0:0:0:0:
182,192,142933,1,0,0:0:0:0:
402,192,143022,1,0,0:0:0:0:
475,192,143022,1,0,0:0:0:0:
256,192,143111,1,0,0:0:0:0:
329,192,143111,1,0,0:0:0:0:
109,192,143111,1,0,0:0:0:0:
36,192,143200,1,0,0:0:0:0:
182,192,143200,1,0,0:0:0:0:
475,192,143288,1,0,0:0:0:0:
402,192,143288,1,0,0:0:0:0:
329,192,143288,1,0,0:0:0:0:
109,192,143288,1,0,0:0:0:0:
256,192,143377,1,0,0:0:0:0:
182,192,143377,1,0,0:0:0:0:
36,192,143466,1,0,0:0:0:0:
475,192,143466,1,0,0:0:0:0:
329,192,143466,1,0,0:0:0:0:
402,192,143555,1,0,0:0:0:0:
256,192,143555,1,0,0:0:0:0:
109,192,143644,1,0,0:0:0:0:
36,192,143644,1,0,0:0:0:0:
475,192,143644,1,0,0:0:0:0:
182,192,143644,1,0,0:0:0:0:
256,192,143733,1,0,0:0:0:0:
329,192,143733,1,0,0:0:0:0:
402,192,143822,1,0,0:0:0:0:
109,192,143822,1,0,0:0:0:0:
475,192,143911,1,0,0:0:0:0:
256,192,143911,1,0,0:0:0:0:
182,192,143911,1,0,0:0:0:0:
329,192,144000,1,0,0:0:0:0:
402,192,144000,1,0,0:0:0:0:
109,192,144000,1,0,0:0:0:0:
36,192,144000,1,0,0:0:0:0:
182,192,144088,1,0,0:0:0:0:
256,192,144088,1,0,0:0:0:0:
36,192,144177,1,0,0:0:0:0:
329,192,144177,1,0,0:0:0:0:
475,192,144177,1,0,0:0:0:0:
109,192,144266,1,0,0:0:0:0:
256,192,144266,1,0,0:0:0:0:
475,192,144355,1,0,0:0:0:0:
402,192,144355,1,0,0:0:0:0:
182,192,144355,1,0,0:0:0:0:
329,192,144355,1,0,0:0:0:0:
109,192,144444,1,0,0:0:0:0:
36,192,144444,1,0,0:0:0:0:
256,192,144533,1,0,0:0:0:0:
182,192,144533,1,0,0:0:0:0:
402,192,144533,1,0,0:0:0:0:
475,192,144622,1,0,0:0:0:0:
329,192,144622,1,0,0:0:0:0:
36,192,144711,1,0,0:0:0:0:
109,192,144711,1,0,0:0:0:0:
182,192,144711,1,0,0:0:0:0:
402,192,144711,1,0,0:0:0:0:
256,192,144800,1,0,0:0:0:0:
329,192,144800,1,0,0:0:0:0:
475,192,144888,1,0,0:0:0:0:
36,192,144888,1,0,0:0:0:0:
182,192,144888,1,0,0:0:0:0:
109,192,144977,1,0,0:0:0:0:
256,192,144977,1,0,0:0:0:0:
182,192,145066,1,0,0:0:0:0:
402,192,145066,1,0,0:0:0:0:
475,192,145066,1,0,0:0:0:0:
36,192,145066,1,0,0:0:0:0:
329,192,145155,1,0,0:0:0:0:
256,192,145155,1,0,0:0:0:0:
182,192,145244,1,0,0:0:0:0:
36,192,145244,1,0,0:0:0:0:
402,192,145244,1,0,0:0:0:0:
109,192,145333,1,0,0:0:0:0:
256,192,145333,1,0,0:0:0:0:
402,192,145422,1,0,0:0:0:0:
475,192,145422,1,0,0:0:0:0:
36,192,145422,1,0,0:0:0:0:
182,192,145422,1,0,0:0:0:0:
329,192,145511,1,0,0:0:0:0:
256,192,145511,1,0,0:0:0:0:
182,192,145600,1,0,0:0:0:0:
36,192,145600,1,0,0:0:0:0:
402,192,145600,1,0,0:0:0:0:
109,192,145688,1,0,0:0:0:0:
256,192,145688,1,0,0:0:0:0:
36,192,145777,1,0,0:0:0:0:
402,192,145777,1,0,0:0:0:0:
475,192,145777,1,0,0:0:0:0:
182,192,145777,1,0,0:0:0:0:
329,192,145866,1,0,0:0:0:0:
256,192,145866,1,0,0:0:0:0:
182,192,145955,1,0,0:0:0:0:
402,192,145955,1,0,0:0:0:0:
475,192,145955,1,0,0:0:0:0:
36,192,145955,1,0,0:0:0:0:
256,192,146044,1,0,0:0:0:0:
329,192,146044,1,0,0:0:0:0:
402,192,146133,1,0,0:0:0:0:
475,192,146133,1,0,0:0:0:0:
36,192,146133,1,0,0:0:0:0:
109,192,146133,1,0,0:0:0:0:
182,192,146222,1,0,0:0:0:0:
256,192,146222,1,0,0:0:0:0:
329,192,146311,1,0,0:0:0:0:
109,192,146311,1,0,0:0:0:0:
36,192,146311,1,0,0:0:0:0:
475,192,146311,1,0,0:0:0:0:
182,192,146400,1,0,0:0:0:0:
256,192,146400,1,0,0:0:0:0:
329,192,146488,1,0,0:0:0:0:
109,192,146488,1,0,0:0:0:0:
36,192,146488,1,0,0:0:0:0:
475,192,146488,1,0,0:0:0:0:
182,192,146577,1,0,0:0:0:0:
256,192,146577,1,0,0:0:0:0:
329,192,146666,1,0,0:0:0:0:
475,192,146666,1,0,0:0:0:0:
109,192,146666,1,0,0:0:0:0:
402,192,146755,1,0,0:0:0:0:
256,192,146755,1,0,0:0:0:0:
109,192,146844,1,0,0:0:0:0:
36,192,146844,1,0,0:0:0:0:
475,192,146844,1,0,0:0:0:0:
182,192,146933,1,0,0:0:0:0:
256,192,146933,1,0,0:0:0:0:
329,192,147022,1,0,0:0:0:0:
475,192,147022,1,0,0:0:0:0:
109,192,147022,1,0,0:0:0:0:
402,192,147111,1,0,0:0:0:0:
256,192,147111,1,0,0:0:0:0:
475,192,147200,1,0,0:0:0:0:
109,192,147200,1,0,0:0:0:0:
36,192,147200,1,0,0:0:0:0:
329,192,147200,1,0,0:0:0:0:
182,192,147288,1,0,0:0:0:0:
256,192,147288,1,0,0:0:0:0:
329,192,147377,1,0,0:0:0:0:
109,192,147377,1,0,0:0:0:0:
36,192,147377,1,0,0:0:0:0:
402,192,147377,1,0,0:0:0:0:
256,192,147466,1,0,0:0:0:0:
182,192,147466,1,0,0:0:0:0:
109,192,147555,1,0,0:0:0:0:
36,192,147555,1,0,0:0:0:0:
475,192,147555,1,0,0:0:0:0:
402,192,147555,1,0,0:0:0:0:
329,192,147644,1,0,0:0:0:0:
256,192,147644,1,0,0:0:0:0:
182,192,147733,1,0,0:0:0:0:
402,192,147733,1,0,0:0:0:0:
475,192,147733,1,0,0:0:0:0:
36,192,147733,1,0,0:0:0:0:
109,192,147733,1,0,0:0:0:0:
329,192,147822,1,0,0:0:0:0:
256,192,147822,1,0,0:0:0:0:
402,192,147911,1,0,0:0:0:0:
475,192,147911,1,0,0:0:0:0:
36,192,147911,1,0,0:0:0:0:
182,192,147911,1,0,0:0:0:0:
109,192,147911,1,0,0:0:0:0:
256,192,148000,1,0,0:0:0:0:
36,192,148088,1,0,0:0:0:0:
402,192,148088,1,0,0:0:0:0:
109,192,148088,1,0,0:0:0:0:
182,192,148177,1,0,0:0:0:0:
256,192,148177,1,0,0:0:0:0:
329,192,148266,1,0,0:0:0:0:
475,192,148266,1,0,0:0:0:0:
36,192,148266,1,0,0:0:0:0:
109,192,148266,1,0,0:0:0:0:
182,192,148355,1,0,0:0:0:0:
109,192,148444,1,0,0:0:0:0:
36,192,148444,1,0,0:0:0:0:
402,192,148444,1,0,0:0:0:0:
329,192,148533,1,0,0:0:0:0:
256,192,148533,1,0,0:0:0:0:
182,192,148622,1,0,0:0:0:0:
36,192,148622,1,0,0:0:0:0:
402,192,148622,1,0,0:0:0:0:
475,192,148622,1,0,0:0:0:0:
109,192,148711,1,0,0:0:0:0:
329,192,148800,1,0,0:0:0:0:
402,192,148800,1,0,0:0:0:0:
36,192,148800,1,0,0:0:0:0:
256,192,148888,1,0,0:0:0:0:
182,192,148888,1,0,0:0:0:0:
109,192,148977,1,0,0:0:0:0:
36,192,148977,1,0,0:0:0:0:
475,192,148977,1,0,0:0:0:0:
329,192,148977,1,0,0:0:0:0:
402,192,149066,1,0,0:0:0:0:
109,192,149155,1,0,0:0:0:0:
182,192,149155,1,0,0:0:0:0:
475,192,149155,1,0,0:0:0:0:
256,192,149244,1,0,0:0:0:0:
329,192,149244,1,0,0:0:0:0:
402,192,149333,1,0,0:0:0:0:
475,192,149333,1,0,0:0:0:0:
182,192,149333,1,0,0:0:0:0:
36,192,149333,1,0,0:0:0:0:
109,192,149422,1,0,0:0:0:0:
256,192,149511,1,0,0:0:0:0:
402,192,149511,1,0,0:0:0:0:
36,192,149511,1,0,0:0:0:0:
109,192,149600,1,0,0:0:0:0:
329,192,149688,1,0,0:0:0:0:
475,192,149688,1,0,0:0:0:0:
182,192,149688,1,0,0:0:0:0:
36,192,149688,1,0,0:0:0:0:
402,192,149777,1,0,0:0:0:0:
109,192,149866,1,0,0:0:0:0:
256,192,149866,1,0,0:0:0:0:
475,192,149866,1,0,0:0:0:0:
402,192,149955,1,0,0:0:0:0:
329,192,150044,1,0,0:0:0:0:
182,192,150044,1,0,0:0:0:0:
36,192,150044,1,0,0:0:0:0:
475,192,150044,1,0,0:0:0:0:
256,192,150103,1,0,0:0:0:0:
402,192,150133,1,0,0:0:0:0:
182,192,150162,1,0,0:0:0:0:
109,192,150222,1,0,0:0:0:0:
329,192,150222,1,0,0:0:0:0:
256,192,150281,1,0,0:0:0:0:
36,192,150311,1,0,0:0:0:0:
475,192,150340,1,0,0:0:0:0:
182,192,150400,1,0,0:0:0:0:
402,192,150400,1,0,0:0:0:0:
109,192,150459,1,0,0:0:0:0:
329,192,150459,1,0,0:0:0:0:
36,192,150518,1,0,0:0:0:0:
256,192,150518,1,0,0:0:0:0:
475,192,150577,1,0,0:0:0:0:
182,192,150577,1,0,0:0:0:0:
402,192,150637,1,0,0:0:0:0:
109,192,150666,1,0,0:0:0:0:
329,192,150696,1,0,0:0:0:0:
36,192,150755,1,0,0:0:0:0:
256,192,150755,1,0,0:0:0:0:
182,192,150755,1,0,0:0:0:0:
329,192,150844,1,0,0:0:0:0:
402,192,150844,1,0,0:0:0:0:
475,192,150933,1,0,0:0:0:0:
36,192,150933,1,0,0:0:0:0:
109,192,150933,1,0,0:0:0:0:
182,192,151022,1,0,0:0:0:0:
329,192,151022,1,0,0:0:0:0:
109,192,151111,1,0,0:0:0:0:
36,192,151111,1,0,0:0:0:0:
402,192,151111,1,0,0:0:0:0:
475,192,151111,1,0,0:0:0:0:
256,192,151111,1,0,0:0:0:0:
329,192,151200,1,0,0:0:0:0:
182,192,151200,1,0,0:0:0:0:
109,192,151288,1,0,0:0:0:0:
36,192,151288,1,0,0:0:0:0:
256,192,151288,1,0,0:0:0:0:
475,192,151377,1,0,0:0:0:0:
402,192,151377,1,0,0:0:0:0:
329,192,151466,1,0,0:0:0:0:
182,192,151466,1,0,0:0:0:0:
36,192,151466,1,0,0:0:0:0:
109,192,151466,1,0,0:0:0:0:
256,192,151555,1,0,0:0:0:0:
475,192,151555,1,0,0:0:0:0:
182,192,151644,1,0,0:0:0:0:
109,192,151644,1,0,0:0:0:0:
36,192,151644,1,0,0:0:0:0:
402,192,151644,1,0,0:0:0:0:
475,192,151733,1,0,0:0:0:0:
329,192,151733,1,0,0:0:0:0:
256,192,151822,1,0,0:0:0:0:
36,192,151822,1,0,0:0:0:0:
109,192,151822,1,0,0:0:0:0:
182,192,151822,1,0,0:0:0:0:
329,192,151911,1,0,0:0:0:0:
475,192,151911,1,0,0:0:0:0:
402,192,152000,1,0,0:0:0:0:
256,192,152000,1,0,0:0:0:0:
109,192,152000,1,0,0:0:0:0:
36,192,152088,1,0,0:0:0:0:
182,192,152088,1,0,0:0:0:0:
256,192,152177,1,0,0:0:0:0:
329,192,152177,1,0,0:0:0:0:
402,192,152177,1,0,0:0:0:0:
475,192,152177,1,0,0:0:0:0:
36,192,152266,1,0,0:0:0:0:
109,192,152266,1,0,0:0:0:0:
182,192,152355,1,0,0:0:0:0:
402,192,152355,1,0,0:0:0:0:
475,192,152355,1,0,0:0:0:0:
329,192,152355,1,0,0:0:0:0:
256,192,152444,1,0,0:0:0:0:
36,192,152444,1,0,0:0:0:0:
109,192,152533,1,0,0:0:0:0:
402,192,152533,1,0,0:0:0:0:
329,192,152533,1,0,0:0:0:0:
475,192,152533,1,0,0:0:0:0:
256,192,152622,1,0,0:0:0:0:
182,192,152622,1,0,0:0:0:0:
109,192,152711,1,0,0:0:0:0:
36,192,152711,1,0,0:0:0:0:
475,192,152711,1,0,0:0:0:0:
402,192,152711,1,0,0:0:0:0:
329,192,152800,1,0,0:0:0:0:
182,192,152800,1,0,0:0:0:0:
256,192,152888,1,0,0:0:0:0:
109,192,152888,1,0,0:0:0:0:
36,192,152888,1,0,0:0:0:0:
475,192,152888,1,0,0:0:0:0:
402,192,152977,1,0,0:0:0:0:
329,192,152977,1,0,0:0:0:0:
256,192,153066,1,0,0:0:0:0:
182,192,153066,1,0,0:0:0:0:
109,192,153066,1,0,0:0:0:0:
36,192,153066,1,0,0:0:0:0:
475,192,153155,1,0,0:0:0:0:
402,192,153155,1,0,0:0:0:0:
36,192,153244,1,0,0:0:0:0:
182,192,153244,1,0,0:0:0:0:
109,192,153244,1,0,0:0:0:0:
329,192,153244,1,0,0:0:0:0:
256,192,153333,1,0,0:0:0:0:
475,192,153333,1,0,0:0:0:0:
402,192,153422,1,0,0:0:0:0:
329,192,153422,1,0,0:0:0:0:
109,192,153422,1,0,0:0:0:0:
36,192,153422,1,0,0:0:0:0:
182,192,153511,1,0,0:0:0:0:
256,192,153511,1,0,0:0:0:0:
402,192,153600,1,0,0:0:0:0:
475,192,153600,1,0,0:0:0:0:
329,192,153600,1,0,0:0:0:0:
109,192,153600,1,0,0:0:0:0:
36,192,153600,1,0,0:0:0:0:
182,192,153688,1,0,0:0:0:0:
256,192,153688,1,0,0:0:0:0:
329,192,153777,1,0,0:0:0:0:
402,192,153777,1,0,0:0:0:0:
475,192,153777,1,0,0:0:0:0:
36,192,153777,1,0,0:0:0:0:
109,192,153866,1,0,0:0:0:0:
256,192,153866,1,0,0:0:0:0:
182,192,153955,1,0,0:0:0:0:
329,192,153955,1,0,0:0:0:0:
475,192,153955,1,0,0:0:0:0:
402,192,153955,1,0,0:0:0:0:
36,192,154044,1,0,0:0:0:0:
109,192,154044,1,0,0:0:0:0:
182,192,154133,1,0,0:0:0:0:
256,192,154133,1,0,0:0:0:0:
402,192,154133,1,0,0:0:0:0:
475,192,154133,1,0,0:0:0:0:
36,192,154222,1,0,0:0:0:0:
109,192,154222,1,0,0:0:0:0:
329,192,154311,1,0,0:0:0:0:
402,192,154311,1,0,0:0:0:0:
475,192,154311,1,0,0:0:0:0:
256,192,154311,1,0,0:0:0:0:
182,192,154400,1,0,0:0:0:0:
36,192,154400,1,0,0:0:0:0:
109,192,154488,1,0,0:0:0:0:
256,192,154488,1,0,0:0:0:0:
402,192,154488,1,0,0:0:0:0:
475,192,154488,1,0,0:0:0:0:
36,192,154577,1,0,0:0:0:0:
182,192,154577,1,0,0:0:0:0:
329,192,154666,1,0,0:0:0:0:
402,192,154666,1,0,0:0:0:0:
475,192,154666,1,0,0:0:0:0:
256,192,154666,1,0,0:0:0:0:
36,192,154755,1,0,0:0:0:0:
109,192,154755,1,0,0:0:0:0:
182,192,154844,1,0,0:0:0:0:
256,192,154844,1,0,0:0:0:0:
475,192,154844,1,0,0:0:0:0:
402,192,154844,1,0,0:0:0:0:
329,192,154933,1,0,0:0:0:0:
109,192,154933,1,0,0:0:0:0:
256,192,155022,1,0,0:0:0:0:
182,192,155022,1,0,0:0:0:0:
36,192,155022,1,0,0:0:0:0:
475,192,155022,1,0,0:0:0:0:
402,192,155111,1,0,0:0:0:0:
329,192,155111,1,0,0:0:0:0:
182,192,155200,1,0,0:0:0:0:
36,192,155200,1,0,0:0:0:0:
109,192,155200,1,0,0:0:0:0:
256,192,155200,1,0,0:0:0:0:
402,192,155288,1,0,0:0:0:0:
475,192,155288,1,0,0:0:0:0:
329,192,155377,1,0,0:0:0:0:
109,192,155377,1,0,0:0:0:0:
36,192,155377,1,0,0:0:0:0:
182,192,155377,1,0,0:0:0:0:
256,192,155466,1,0,0:0:0:0:
402,192,155466,1,0,0:0:0:0:
182,192,155555,1,0,0:0:0:0:
109,192,155555,1,0,0:0:0:0:
36,192,155555,1,0,0:0:0:0:
329,192,155555,1,0,0:0:0:0:
475,192,155644,1,0,0:0:0:0:
402,192,155644,1,0,0:0:0:0:
329,192,155733,1,0,0:0:0:0:
256,192,155733,1,0,0:0:0:0:
109,192,155733,1,0,0:0:0:0:
36,192,155733,1,0,0:0:0:0:
402,192,155822,1,0,0:0:0:0:
475,192,155822,1,0,0:0:0:0:
36,192,155911,1,0,0:0:0:0:
109,192,155911,1,0,0:0:0:0:
182,192,155911,1,0,0:0:0:0:
256,192,155911,1,0,0:0:0:0:
329,192,156000,1,0,0:0:0:0:
402,192,156000,1,0,0:0:0:0:
475,192,156088,1,0,0:0:0:0:
36,192,156088,1,0,0:0:0:0:
109,192,156088,1,0,0:0:0:0:
256,192,156088,1,0,0:0:0:0:
182,192,156177,1,0,0:0:0:0:
329,192,156177,1,0,0:0:0:0:
402,192,156266,1,0,0:0:0:0:
475,192,156266,1,0,0:0:0:0:
36,192,156266,1,0,0:0:0:0:
256,192,156266,1,0,0:0:0:0:
182,192,156355,1,0,0:0:0:0:
109,192,156355,1,0,0:0:0:0:
402,192,156444,1,0,0:0:0:0:
475,192,156444,1,0,0:0:0:0:
329,192,156444,1,0,0:0:0:0:
36,192,156444,1,0,0:0:0:0:
109,192,156533,1,0,0:0:0:0:
182,192,156533,1,0,0:0:0:0:
402,192,156622,1,0,0:0:0:0:
475,192,156622,1,0,0:0:0:0:
329,192,156622,1,0,0:0:0:0:
256,192,156622,1,0,0:0:0:0:
36,192,156711,1,0,0:0:0:0:
182,192,156711,1,0,0:0:0:0:
329,192,156800,1,0,0:0:0:0:
402,192,156800,1,0,0:0:0:0:
475,192,156800,1,0,0:0:0:0:
109,192,156800,1,0,0:0:0:0:
182,192,156888,1,0,0:0:0:0:
256,192,156888,1,0,0:0:0:0:
329,192,156977,1,0,0:0:0:0:
402,192,156977,1,0,0:0:0:0:
475,192,156977,1,0,0:0:0:0:
36,192,156977,1,0,0:0:0:0:
109,192,157066,1,0,0:0:0:0:
182,192,157066,1,0,0:0:0:0:
256,192,157155,1,0,0:0:0:0:
329,192,157155,1,0,0:0:0:0:
475,192,157155,1,0,0:0:0:0:
402,192,157155,1,0,0:0:0:0:
36,192,157244,1,0,0:0:0:0:
109,192,157244,1,0,0:0:0:0:
182,192,157333,1,0,0:0:0:0:
256,192,157333,1,0,0:0:0:0:
402,192,157333,1,0,0:0:0:0:
475,192,157333,1,0,0:0:0:0:
36,192,157422,1,0,0:0:0:0:
329,192,157422,1,0,0:0:0:0:
182,192,157511,1,0,0:0:0:0:
109,192,157511,1,0,0:0:0:0:
475,192,157511,1,0,0:0:0:0:
402,192,157511,1,0,0:0:0:0:
256,192,157600,1,0,0:0:0:0:
329,192,157600,1,0,0:0:0:0:
109,192,157688,1,0,0:0:0:0:
36,192,157688,1,0,0:0:0:0:
475,192,157688,1,0,0:0:0:0:
402,192,157688,1,0,0:0:0:0:
329,192,157777,1,0,0:0:0:0:
256,192,157777,1,0,0:0:0:0:
182,192,157866,1,0,0:0:0:0:
109,192,157866,1,0,0:0:0:0:
36,192,157866,1,0,0:0:0:0:
475,192,157866,1,0,0:0:0:0:
402,192,157866,1,0,0:0:0:0:
329,192,157955,1,0,0:0:0:0:
256,192,157955,1,0,0:0:0:0:
182,192,158044,1,0,0:0:0:0:
109,192,158044,1,0,0:0:0:0:
36,192,158044,1,0,0:0:0:0:
475,192,158044,1,0,0:0:0:0:
402,192,158133,1,0,0:0:0:0:
256,192,158133,1,0,0:0:0:0:
182,192,158222,1,0,0:0:0:0:
109,192,158222,1,0,0:0:0:0:
36,192,158222,1,0,0:0:0:0:
329,192,158222,1,0,0:0:0:0:
475,192,158311,1,0,0:0:0:0:
402,192,158311,1,0,0:0:0:0:
256,192,158400,1,0,0:0:0:0:
109,192,158400,1,0,0:0:0:0:
36,192,158400,1,0,0:0:0:0:
182,192,158400,1,0,0:0:0:0:
329,192,158488,1,0,0:0:0:0:
402,192,158488,1,0,0:0:0:0:
256,192,158577,1,0,0:0:0:0:
109,192,158577,1,0,0:0:0:0:
36,192,158577,1,0,0:0:0:0:
475,192,158577,1,0,0:0:0:0:
402,192,158666,1,0,0:0:0:0:
329,192,158666,1,0,0:0:0:0:
182,192,158755,1,0,0:0:0:0:
109,192,158755,1,0,0:0:0:0:
36,192,158755,1,0,0:0:0:0:
256,192,158755,1,0,0:0:0:0:
475,192,158844,1,0,0:0:0:0:
402,192,158844,1,0,0:0:0:0:
109,192,158933,1,0,0:0:0:0:
36,192,158933,1,0,0:0:0:0:
256,192,158933,1,0,0:0:0:0:
182,192,158933,1,0,0:0:0:0:
329,192,159022,1,0,0:0:0:0:
475,192,159022,1,0,0:0:0:0:
402,192,159111,1,0,0:0:0:0:
182,192,159111,1,0,0:0:0:0:
109,192,159111,1,0,0:0:0:0:
36,192,159111,1,0,0:0:0:0:
256,192,159200,1,0,0:0:0:0:
329,192,159200,1,0,0:0:0:0:
402,192,159288,1,0,0:0:0:0:
475,192,159288,1,0,0:0:0:0:
36,192,159288,1,0,0:0:0:0:
109,192,159288,1,0,0:0:0:0:
182,192,159377,1,0,0:0:0:0:
256,192,159377,1,0,0:0:0:0:
329,192,159466,1,0,0:0:0:0:
402,192,159466,1,0,0:0:0:0:
475,192,159466,1,0,0:0:0:0:
36,192,159466,1,0,0:0:0:0:
109,192,159555,1,0,0:0:0:0:
182,192,159555,1,0,0:0:0:0:
256,192,159644,1,0,0:0:0:0:
329,192,159644,1,0,0:0:0:0:
402,192,159644,1,0,0:0:0:0:
475,192,159644,1,0,0:0:0:0:
36,192,159733,1,0,0:0:0:0:
182,192,159733,1,0,0:0:0:0:
109,192,159822,1,0,0:0:0:0:
402,192,159822,1,0,0:0:0:0:
475,192,159822,1,0,0:0:0:0:
329,192,159822,1,0,0:0:0:0:
36,192,159911,1,0,0:0:0:0:
182,192,159911,1,0,0:0:0:0:
329,192,160000,1,0,0:0:0:0:
402,192,160000,1,0,0:0:0:0:
475,192,160000,1,0,0:0:0:0:
256,192,160000,1,0,0:0:0:0:
36,192,160088,1,0,0:0:0:0:
109,192,160088,1,0,0:0:0:0:
182,192,160177,1,0,0:0:0:0:
329,192,160177,1,0,0:0:0:0:
475,192,160177,1,0,0:0:0:0:
256,192,160177,1,0,0:0:0:0:
36,192,160266,1,0,0:0:0:0:
109,192,160266,1,0,0:0:0:0:
329,192,160355,1,0,0:0:0:0:
402,192,160355,1,0,0:0:0:0:
475,192,160355,1,0,0:0:0:0:
256,192,160355,1,0,0:0:0:0:
182,192,160355,1,0,0:0:0:0:
109,192,160444,1,0,0:0:0:0:
36,192,160533,1,0,0:0:0:0:
402,192,160533,1,0,0:0:0:0:
475,192,160533,1,0,0:0:0:0:
256,192,160533,1,0,0:0:0:0:
329,192,160622,1,0,0:0:0:0:
182,192,160622,1,0,0:0:0:0:
109,192,160711,1,0,0:0:0:0:
36,192,160711,1,0,0:0:0:0:
256,192,160711,1,0,0:0:0:0:
475,192,160711,1,0,0:0:0:0:
402,192,160800,1,0,0:0:0:0:
329,192,160800,1,0,0:0:0:0:
182,192,160888,1,0,0:0:0:0:
109,192,160888,1,0,0:0:0:0:
36,192,160888,1,0,0:0:0:0:
256,192,160888,1,0,0:0:0:0:
475,192,160977,1,0,0:0:0:0:
402,192,160977,1,0,0:0:0:0:
329,192,161066,1,0,0:0:0:0:
256,192,161066,1,0,0:0:0:0:
182,192,161066,1,0,0:0:0:0:
109,192,161155,1,0,0:0:0:0:
36,192,161155,1,0,0:0:0:0:
256,192,161244,1,0,0:0:0:0:
329,192,161244,1,0,0:0:0:0:
402,192,161244,1,0,0:0:0:0:
475,192,161244,1,0,0:0:0:0:
36,192,161333,1,0,0:0:0:0:
109,192,161333,1,0,0:0:0:0:
182,192,161422,1,0,0:0:0:0:
256,192,161422,1,0,0:0:0:0:
329,192,161422,1,0,0:0:0:0:
402,192,161422,1,0,0:0:0:0:
475,192,161422,1,0,0:0:0:0:
36,192,161511,1,0,0:0:0:0:
109,192,161511,1,0,0:0:0:0:
182,192,161600,1,0,0:0:0:0:
256,192,161600,1,0,0:0:0:0:
329,192,161600,1,0,0:0:0:0:
402,192,161688,1,0,0:0:0:0:
475,192,161688,1,0,0:0:0:0:
36,192,161777,1,0,0:0:0:0:
109,192,161777,1,0,0:0:0:0:
182,192,161777,1,0,0:0:0:0:
329,192,161777,1,0,0:0:0:0:
475,192,161866,1,0,0:0:0:0:
256,192,161866,1,0,0:0:0:0:
36,192,161955,1,0,0:0:0:0:
109,192,161955,1,0,0:0:0:0:
182,192,161955,1,0,0:0:0:0:
402,192,161955,1,0,0:0:0:0:
475,192,162044,1,0,0:0:0:0:
256,192,162044,1,0,0:0:0:0:
329,192,162133,1,0,0:0:0:0:
182,192,162133,1,0,0:0:0:0:
109,192,162133,1,0,0:0:0:0:
36,192,162133,1,0,0:0:0:0:
402,192,162133,1,0,0:0:0:0:
256,192,162222,1,0,0:0:0:0:
475,192,162222,1,0,0:0:0:0:
402,192,162311,1,0,0:0:0:0:
329,192,162311,1,0,0:0:0:0:
36,192,162311,1,0,0:0:0:0:
109,192,162311,1,0,0:0:0:0:
182,192,162400,1,0,0:0:0:0:
256,192,162400,1,0,0:0:0:0:
329,192,162488,1,0,0:0:0:0:
402,192,162488,1,0,0:0:0:0:
475,192,162488,1,0,0:0:0:0:
36,192,162488,1,0,0:0:0:0:
109,192,162577,1,0,0:0:0:0:
182,192,162577,1,0,0:0:0:0:
256,192,162666,1,0,0:0:0:0:
329,192,162666,1,0,0:0:0:0:
402,192,162666,1,0,0:0:0:0:
475,192,162666,1,0,0:0:0:0:
36,192,162755,1,0,0:0:0:0:
109,192,162755,1,0,0:0:0:0:
182,192,162844,1,0,0:0:0:0:
256,192,162844,1,0,0:0:0:0:
402,192,162844,1,0,0:0:0:0:
475,192,162844,1,0,0:0:0:0:
36,192,162933,1,0,0:0:0:0:
109,192,162933,1,0,0:0:0:0:
256,192,163022,1,0,0:0:0:0:
402,192,163022,1,0,0:0:0:0:
475,192,163022,1,0,0:0:0:0:
329,192,163022,1,0,0:0:0:0:
36,192,163111,1,0,0:0:0:0:
182,192,163111,1,0,0:0:0:0:
109,192,163200,1,0,0:0:0:0:
402,192,163200,1,0,0:0:0:0:
475,192,163200,1,0,0:0:0:0:
329,192,163200,1,0,0:0:0:0:
36,192,163288,1,0,0:0:0:0:
256,192,163288,1,0,0:0:0:0:
402,192,163377,1,0,0:0:0:0:
475,192,163377,1,0,0:0:0:0:
182,192,163377,1,0,0:0:0:0:
109,192,163377,1,0,0:0:0:0:
329,192,163466,1,0,0:0:0:0:
256,192,163466,1,0,0:0:0:0:
109,192,163555,1,0,0:0:0:0:
36,192,163555,1,0,0:0:0:0:
182,192,163555,1,0,0:0:0:0:
475,192,163555,1,0,0:0:0:0:
402,192,163555,1,0,0:0:0:0:
329,192,163644,1,0,0:0:0:0:
256,192,163644,1,0,0:0:0:0:
182,192,163733,1,0,0:0:0:0:
109,192,163733,1,0,0:0:0:0:
36,192,163733,1,0,0:0:0:0:
475,192,163733,1,0,0:0:0:0:
402,192,163822,1,0,0:0:0:0:
329,192,163822,1,0,0:0:0:0:
109,192,163911,1,0,0:0:0:0:
36,192,163911,1,0,0:0:0:0:
182,192,163911,1,0,0:0:0:0:
256,192,163911,1,0,0:0:0:0:
475,192,164000,1,0,0:0:0:0:
402,192,164000,1,0,0:0:0:0:
256,192,164088,1,0,0:0:0:0:
109,192,164088,1,0,0:0:0:0:
36,192,164088,1,0,0:0:0:0:
329,192,164177,1,0,0:0:0:0:
402,192,164177,1,0,0:0:0:0:
182,192,164266,1,0,0:0:0:0:
109,192,164266,1,0,0:0:0:0:
36,192,164266,1,0,0:0:0:0:
256,192,164266,1,0,0:0:0:0:
475,192,164355,1,0,0:0:0:0:
402,192,164355,1,0,0:0:0:0:
329,192,164444,1,0,0:0:0:0:
109,192,164444,1,0,0:0:0:0:
36,192,164444,1,0,0:0:0:0:
182,192,164444,1,0,0:0:0:0:
475,192,164533,1,0,0:0:0:0:
402,192,164533,1,0,0:0:0:0:
182,192,164622,1,0,0:0:0:0:
256,192,164622,1,0,0:0:0:0:
109,192,164622,1,0,0:0:0:0:
36,192,164622,1,0,0:0:0:0:
329,192,164711,1,0,0:0:0:0:
402,192,164711,1,0,0:0:0:0:
475,192,164800,1,0,0:0:0:0:
36,192,164800,1,0,0:0:0:0:
109,192,164800,1,0,0:0:0:0:
256,192,164800,1,0,0:0:0:0:
182,192,164888,1,0,0:0:0:0:
329,192,164888,1,0,0:0:0:0:
402,192,164977,1,0,0:0:0:0:
475,192,164977,1,0,0:0:0:0:
36,192,164977,1,0,0:0:0:0:
109,192,164977,1,0,0:0:0:0:
256,192,164977,1,0,0:0:0:0:
182,192,165066,1,0,0:0:0:0:
329,192,165066,1,0,0:0:0:0:
402,192,165155,1,0,0:0:0:0:
475,192,165155,1,0,0:0:0:0:
256,192,165155,1,0,0:0:0:0:
36,192,165155,1,0,0:0:0:0:
109,192,165244,1,0,0:0:0:0:
182,192,165244,1,0,0:0:0:0:
402,192,165333,1,0,0:0:0:0:
36,192,165333,1,0,0:0:0:0:
329,192,165333,1,0,0:0:0:0:
475,192,165333,1,0,0:0:0:0:
109,192,165422,1,0,0:0:0:0:
182,192,165422,1,0,0:0:0:0:
256,192,165511,1,0,0:0:0:0:
329,192,165511,1,0,0:0:0:0:
402,192,165511,1,0,0:0:0:0:
475,192,165511,1,0,0:0:0:0:
36,192,165600,1,0,0:0:0:0:
109,192,165600,1,0,0:0:0:0:
182,192,165688,1,0,0:0:0:0:
256,192,165688,1,0,0:0:0:0:
402,192,165688,1,0,0:0:0:0:
475,192,165688,1,0,0:0:0:0:
36,192,165777,1,0,0:0:0:0:
109,192,165777,1,0,0:0:0:0:
256,192,165866,1,0,0:0:0:0:
402,192,165866,1,0,0:0:0:0:
329,192,165866,1,0,0:0:0:0:
475,192,165866,1,0,0:0:0:0:
36,192,165955,1,0,0:0:0:0:
182,192,165955,1,0,0:0:0:0:
329,192,166044,1,0,0:0:0:0:
402,192,166044,1,0,0:0:0:0:
475,192,166044,1,0,0:0:0:0:
109,192,166044,1,0,0:0:0:0:
256,192,166133,1,0,0:0:0:0:
182,192,166133,1,0,0:0:0:0:
36,192,166222,1,0,0:0:0:0:
402,192,166222,1,0,0:0:0:0:
475,192,166222,1,0,0:0:0:0:
109,192,166222,1,0,0:0:0:0:
329,192,166311,1,0,0:0:0:0:
256,192,166311,1,0,0:0:0:0:
182,192,166400,1,0,0:0:0:0:
109,192,166400,1,0,0:0:0:0:
36,192,166400,1,0,0:0:0:0:
475,192,166400,1,0,0:0:0:0:
402,192,166400,1,0,0:0:0:0:
329,192,166488,1,0,0:0:0:0:
256,192,166488,1,0,0:0:0:0:
182,192,166577,1,0,0:0:0:0:
109,192,166577,1,0,0:0:0:0:
36,192,166577,1,0,0:0:0:0:
475,192,166577,1,0,0:0:0:0:
402,192,166666,1,0,0:0:0:0:
256,192,166666,1,0,0:0:0:0:
182,192,166755,1,0,0:0:0:0:
109,192,166755,1,0,0:0:0:0:
36,192,166755,1,0,0:0:0:0:
329,192,166755,1,0,0:0:0:0:
475,192,166844,1,0,0:0:0:0:
402,192,166844,1,0,0:0:0:0:
329,192,166933,1,0,0:0:0:0:
182,192,166933,1,0,0:0:0:0:
109,192,166933,1,0,0:0:0:0:
36,192,166933,1,0,0:0:0:0:
475,192,167022,1,0,0:0:0:0:
402,192,167022,1,0,0:0:0:0:
256,192,167111,1,0,0:0:0:0:
182,192,167111,1,0,0:0:0:0:
109,192,167111,1,0,0:0:0:0:
36,192,167111,1,0,0:0:0:0:
329,192,167200,1,0,0:0:0:0:
402,192,167200,1,0,0:0:0:0:
109,192,167288,1,0,0:0:0:0:
36,192,167288,1,0,0:0:0:0:
475,192,167288,1,0,0:0:0:0:
256,192,167288,1,0,0:0:0:0:
182,192,167377,1,0,0:0:0:0:
329,192,167377,1,0,0:0:0:0:
109,192,167466,1,0,0:0:0:0:
36,192,167466,1,0,0:0:0:0:
402,192,167466,1,0,0:0:0:0:
475,192,167466,1,0,0:0:0:0:
256,192,167555,1,0,0:0:0:0:
182,192,167555,1,0,0:0:0:0:
109,192,167644,1,0,0:0:0:0:
36,192,167644,1,0,0:0:0:0:
402,192,167644,1,0,0:0:0:0:
475,192,167644,1,0,0:0:0:0:
329,192,167733,1,0,0:0:0:0:
256,192,167733,1,0,0:0:0:0:
109,192,167822,1,0,0:0:0:0:
36,192,167822,1,0,0:0:0:0:
402,192,167822,1,0,0:0:0:0:
475,192,167822,1,0,0:0:0:0:
182,192,167911,1,0,0:0:0:0:
256,192,167911,1,0,0:0:0:0:
329,192,168000,1,0,0:0:0:0:
402,192,168000,1,0,0:0:0:0:
475,192,168000,1,0,0:0:0:0:
36,192,168000,1,0,0:0:0:0:
109,192,168088,1,0,0:0:0:0:
182,192,168088,1,0,0:0:0:0:
256,192,168177,1,0,0:0:0:0:
329,192,168177,1,0,0:0:0:0:
402,192,168177,1,0,0:0:0:0:
475,192,168177,1,0,0:0:0:0:
36,192,168266,1,0,0:0:0:0:
109,192,168266,1,0,0:0:0:0:
329,192,168355,1,0,0:0:0:0:
402,192,168355,1,0,0:0:0:0:
475,192,168355,1,0,0:0:0:0:
182,192,168355,1,0,0:0:0:0:
109,192,168444,1,0,0:0:0:0:
36,192,168444,1,0,0:0:0:0:
329,192,168533,1,0,0:0:0:0:
402,192,168533,1,0,0:0:0:0:
475,192,168533,1,0,0:0:0:0:
256,192,168533,1,0,0:0:0:0:
36,192,168622,1,0,0:0:0:0:
182,192,168622,1,0,0:0:0:0:
109,192,168711,1,0,0:0:0:0:
256,192,168711,1,0,0:0:0:0:
329,192,168711,1,0,0:0:0:0:
402,192,168711,1,0,0:0:0:0:
36,192,168800,1,0,0:0:0:0:
182,192,168800,1,0,0:0:0:0:
329,192,168888,1,0,0:0:0:0:
475,192,168888,1,0,0:0:0:0:
402,192,168888,1,0,0:0:0:0:
256,192,168888,1,0,0:0:0:0:
182,192,168977,1,0,0:0:0:0:
109,192,168977,1,0,0:0:0:0:
36,192,169066,1,0,0:0:0:0:
256,192,169066,1,0,0:0:0:0:
329,192,169066,1,0,0:0:0:0:
402,192,169066,1,0,0:0:0:0:
475,192,169155,1,0,0:0:0:0:
109,192,169155,1,0,0:0:0:0:
182,192,169244,1,0,0:0:0:0:
256,192,169244,1,0,0:0:0:0:
329,192,169244,1,0,0:0:0:0:
402,192,169244,1,0,0:0:0:0:
36,192,169333,1,0,0:0:0:0:
109,192,169333,1,0,0:0:0:0:
182,192,169422,1,0,0:0:0:0:
256,192,169422,1,0,0:0:0:0:
329,192,169422,1,0,0:0:0:0:
402,192,169422,1,0,0:0:0:0:
475,192,169511,1,0,0:0:0:0:
36,192,169511,1,0,0:0:0:0:
109,192,169600,1,0,0:0:0:0:
182,192,169600,1,0,0:0:0:0:
256,192,169600,1,0,0:0:0:0:
329,192,169600,1,0,0:0:0:0:
402,192,169688,1,0,0:0:0:0:
475,192,169688,1,0,0:0:0:0:
329,192,169777,1,0,0:0:0:0:
36,192,169777,1,0,0:0:0:0:
182,192,169777,1,0,0:0:0:0:
256,192,169777,1,0,0:0:0:0:
475,192,169866,1,0,0:0:0:0:
402,192,169866,1,0,0:0:0:0:
329,192,169955,1,0,0:0:0:0:
256,192,169955,1,0,0:0:0:0:
109,192,169955,1,0,0:0:0:0:
36,192,169955,1,0,0:0:0:0:
182,192,170044,1,0,0:0:0:0:
402,192,170044,1,0,0:0:0:0:
329,192,170133,1,0,0:0:0:0:
256,192,170133,1,0,0:0:0:0:
109,192,170133,1,0,0:0:0:0:
36,192,170133,1,0,0:0:0:0:
475,192,170222,1,0,0:0:0:0:
402,192,170222,1,0,0:0:0:0:
256,192,170311,1,0,0:0:0:0:
182,192,170311,1,0,0:0:0:0:
109,192,170311,1,0,0:0:0:0:
36,192,170311,1,0,0:0:0:0:
329,192,170400,1,0,0:0:0:0:
402,192,170400,1,0,0:0:0:0:
109,192,170488,1,0,0:0:0:0:
36,192,170488,1,0,0:0:0:0:
256,192,170488,1,0,0:0:0:0:
475,192,170488,1,0,0:0:0:0:
402,192,170577,1,0,0:0:0:0:
329,192,170577,1,0,0:0:0:0:
256,192,170666,1,0,0:0:0:0:
182,192,170666,1,0,0:0:0:0:
109,192,170666,1,0,0:0:0:0:
36,192,170666,1,0,0:0:0:0:
475,192,170755,1,0,0:0:0:0:
402,192,170755,1,0,0:0:0:0:
109,192,170844,1,0,0:0:0:0:
36,192,170844,1,0,0:0:0:0:
256,192,170844,1,0,0:0:0:0:
182,192,170844,1,0,0:0:0:0:
475,192,170933,1,0,0:0:0:0:
329,192,170933,1,0,0:0:0:0:
256,192,171022,1,0,0:0:0:0:
109,192,171022,1,0,0:0:0:0:
36,192,171022,1,0,0:0:0:0:
402,192,171022,1,0,0:0:0:0:
329,192,171111,1,0,0:0:0:0:
475,192,171111,1,0,0:0:0:0:
182,192,171200,1,0,0:0:0:0:
109,192,171200,1,0,0:0:0:0:
36,192,171200,1,0,0:0:0:0:
256,192,171200,1,0,0:0:0:0:
329,192,171288,1,0,0:0:0:0:
402,192,171288,1,0,0:0:0:0:
475,192,171377,1,0,0:0:0:0:
36,192,171377,1,0,0:0:0:0:
109,192,171377,1,0,0:0:0:0:
182,192,171377,1,0,0:0:0:0:
256,192,171466,1,0,0:0:0:0:
329,192,171466,1,0,0:0:0:0:
402,192,171555,1,0,0:0:0:0:
475,192,171555,1,0,0:0:0:0:
36,192,171555,1,0,0:0:0:0:
109,192,171555,1,0,0:0:0:0:
182,192,171644,1,0,0:0:0:0:
256,192,171644,1,0,0:0:0:0:
329,192,171733,1,0,0:0:0:0:
475,192,171733,1,0,0:0:0:0:
36,192,171733,1,0,0:0:0:0:
402,192,171733,1,0,0:0:0:0:
109,192,171822,1,0,0:0:0:0:
256,192,171822,1,0,0:0:0:0:
402,192,171911,1,0,0:0:0:0:
475,192,171911,1,0,0:0:0:0:
36,192,171911,1,0,0:0:0:0:
182,192,171911,1,0,0:0:0:0:
329,192,172000,1,0,0:0:0:0:
109,192,172000,1,0,0:0:0:0:
402,192,172088,1,0,0:0:0:0:
475,192,172088,1,0,0:0:0:0:
36,192,172088,1,0,0:0:0:0:
182,192,172088,1,0,0:0:0:0:
256,192,172177,1,0,0:0:0:0:
329,192,172177,1,0,0:0:0:0:
402,192,172266,1,0,0:0:0:0:
475,192,172266,1,0,0:0:0:0:
109,192,172266,1,0,0:0:0:0:
182,192,172355,1,0,0:0:0:0:
329,192,172355,1,0,0:0:0:0:
475,192,172444,1,0,0:0:0:0:
36,192,172444,1,0,0:0:0:0:
402,192,172444,1,0,0:0:0:0:
109,192,172444,1,0,0:0:0:0:
182,192,172533,1,0,0:0:0:0:
256,192,172533,1,0,0:0:0:0:
329,192,172622,1,0,0:0:0:0:
402,192,172622,1,0,0:0:0:0:
36,192,172622,1,0,0:0:0:0:
256,192,172711,1,0,0:0:0:0:
109,192,172711,1,0,0:0:0:0:
402,192,172800,1,0,0:0:0:0:
36,192,172800,1,0,0:0:0:0:
475,192,172800,1,0,0:0:0:0:
329,192,172800,1,0,0:0:0:0:
109,192,172888,1,0,0:0:0:0:
182,192,172888,1,0,0:0:0:0:
256,192,172977,1,0,0:0:0:0:
329,192,172977,1,0,0:0:0:0:
475,192,172977,1,0,0:0:0:0:
36,192,173066,1,0,0:0:0:0:
182,192,173066,1,0,0:0:0:0:
402,192,173155,1,0,0:0:0:0:
475,192,173155,1,0,0:0:0:0:
109,192,173155,1,0,0:0:0:0:
329,192,173155,1,0,0:0:0:0:
36,192,173244,1,0,0:0:0:0:
182,192,173244,1,0,0:0:0:0:
109,192,173333,1,0,0:0:0:0:
402,192,173333,1,0,0:0:0:0:
475,192,173333,1,0,0:0:0:0:
256,192,173333,1,0,0:0:0:0:
329,192,173422,1,0,0:0:0:0:
182,192,173422,1,0,0:0:0:0:
36,192,173511,1,0,0:0:0:0:
109,192,173511,1,0,0:0:0:0:
402,192,173511,1,0,0:0:0:0:
475,192,173511,1,0,0:0:0:0:
256,192,173511,1,0,0:0:0:0:
329,192,173600,1,0,0:0:0:0:
182,192,173688,1,0,0:0:0:0:
402,192,173777,1,0,0:0:0:0:
329,192,173866,1,0,0:0:0:0:
475,192,173866,1,0,0:0:0:0:
109,192,173866,1,0,0:0:0:0:
36,192,173866,1,0,0:0:0:0:
256,192,173955,1,0,0:0:0:0:
402,192,174044,1,0,0:0:0:0:
182,192,174133,1,0,0:0:0:0:
36,192,174222,1,0,0:0:0:0:
329,192,174222,1,0,0:0:0:0:
475,192,174222,1,0,0:0:0:0:
256,192,174222,1,0,0:0:0:0:
109,192,174311,1,0,0:0:0:0:
475,192,174400,1,0,0:0:0:0:
182,192,174400,1,0,0:0:0:0:
402,192,174488,1,0,0:0:0:0:
475,192,174577,1,0,0:0:0:0:
256,192,174577,1,0,0:0:0:0:
182,192,174577,1,0,0:0:0:0:
36,192,174577,1,0,0:0:0:0:
329,192,174666,1,0,0:0:0:0:
402,192,174755,1,0,0:0:0:0:
109,192,174844,1,0,0:0:0:0:
182,192,174933,1,0,0:0:0:0:
36,192,174933,1,0,0:0:0:0:
475,192,174933,1,0,0:0:0:0:
256,192,174933,1,0,0:0:0:0:
329,192,175022,1,0,0:0:0:0:
109,192,175111,1,0,0:0:0:0:
402,192,175111,1,0,0:0:0:0:
256,192,175200,1,0,0:0:0:0:
109,192,175288,1,0,0:0:0:0:
182,192,175288,1,0,0:0:0:0:
329,192,175288,1,0,0:0:0:0:
475,192,175288,1,0,0:0:0:0:
36,192,175377,1,0,0:0:0:0:
256,192,175466,1,0,0:0:0:0:
475,192,175466,1,0,0:0:0:0:
402,192,175466,1,0,0:0:0:0:
182,192,175555,1,0,0:0:0:0:
109,192,175644,1,0,0:0:0:0:
329,192,175644,1,0,0:0:0:0:
36,192,175644,1,0,0:0:0:0:
256,192,175733,1,0,0:0:0:0:
402,192,175822,1,0,0:0:0:0:
182,192,175911,1,0,0:0:0:0:
109,192,176000,1,0,0:0:0:0:
36,192,176000,1,0,0:0:0:0:
329,192,176000,1,0,0:0:0:0:
475,192,176000,1,0,0:0:0:0:
256,192,176088,1,0,0:0:0:0:
402,192,176177,1,0,0:0:0:0:
182,192,176177,1,0,0:0:0:0:
329,192,176266,1,0,0:0:0:0:
475,192,176355,1,0,0:0:0:0:
256,192,176355,1,0,0:0:0:0:
36,192,176355,1,0,0:0:0:0:
109,192,176355,1,0,0:0:0:0:
182,192,176444,1,0,0:0:0:0:
402,192,176533,1,0,0:0:0:0:
256,192,176622,1,0,0:0:0:0:
109,192,176711,1,0,0:0:0:0:
36,192,176711,1,0,0:0:0:0:
475,192,176711,1,0,0:0:0:0:
329,192,176711,1,0,0:0:0:0:
182,192,176800,1,0,0:0:0:0:
256,192,176888,1,0,0:0:0:0:
475,192,176888,1,0,0:0:0:0:
402,192,176888,1,0,0:0:0:0:
36,192,176977,1,0,0:0:0:0:
182,192,177066,1,0,0:0:0:0:
329,192,177066,1,0,0:0:0:0:
475,192,177066,1,0,0:0:0:0:
109,192,177155,1,0,0:0:0:0:
256,192,177244,1,0,0:0:0:0:
402,192,177333,1,0,0:0:0:0:
329,192,177422,1,0,0:0:0:0:
475,192,177422,1,0,0:0:0:0:
36,192,177422,1,0,0:0:0:0:
109,192,177422,1,0,0:0:0:0:
182,192,177511,1,0,0:0:0:0:
256,192,177600,1,0,0:0:0:0:
402,192,177600,1,0,0:0:0:0:
109,192,177688,1,0,0:0:0:0:
475,192,177777,1,0,0:0:0:0:
36,192,177777,1,0,0:0:0:0:
182,192,177777,1,0,0:0:0:0:
329,192,177777,1,0,0:0:0:0:
256,192,177866,1,0,0:0:0:0:
109,192,177955,1,0,0:0:0:0:
475,192,178044,1,0,0:0:0:0:
402,192,178133,1,0,0:0:0:0:
329,192,178133,1,0,0:0:0:0:
182,192,178133,1,0,0:0:0:0:
36,192,178133,1,0,0:0:0:0:
256,192,178222,1,0,0:0:0:0:
402,192,178311,1,0,0:0:0:0:
475,192,178311,1,0,0:0:0:0:
109,192,178311,1,0,0:0:0:0:
182,192,178400,1,0,0:0:0:0:
256,192,178488,1,0,0:0:0:0:
36,192,178488,1,0,0:0:0:0:
329,192,178488,1,0,0:0:0:0:
182,192,178577,1,0,0:0:0:0:
109,192,178666,1,0,0:0:0:0:
402,192,178666,1,0,0:0:0:0:
256,192,178755,1,0,0:0:0:0:
329,192,178844,1,0,0:0:0:0:
475,192,178844,1,0,0:0:0:0:
36,192,178844,1,0,0:0:0:0:
109,192,178844,1,0,0:0:0:0:
182,192,178933,1,0,0:0:0:0:
329,192,179022,1,0,0:0:0:0:
475,192,179022,1,0,0:0:0:0:
36,192,179022,1,0,0:0:0:0:
109,192,179022,1,0,0:0:0:0:
256,192,179111,1,0,0:0:0:0:
36,192,179200,1,0,0:0:0:0:
109,192,179200,1,0,0:0:0:0:
329,192,179200,1,0,0:0:0:0:
475,192,179200,1,0,0:0:0:0:
182,192,179288,1,0,0:0:0:0:
256,192,179377,1,0,0:0:0:0:
329,192,179466,1,0,0:0:0:0:
402,192,179555,1,0,0:0:0:0:
475,192,179555,1,0,0:0:0:0:
182,192,179555,1,0,0:0:0:0:
36,192,179555,1,0,0:0:0:0:
256,192,179644,1,0,0:0:0:0:
329,192,179733,1,0,0:0:0:0:
475,192,179733,1,0,0:0:0:0:
109,192,179733,1,0,0:0:0:0:
402,192,179822,1,0,0:0:0:0:
475,192,179911,1,0,0:0:0:0:
36,192,179911,1,0,0:0:0:0:
182,192,179911,1,0,0:0:0:0:
329,192,180000,1,0,0:0:0:0:
256,192,180088,1,0,0:0:0:0:
402,192,180088,1,0,0:0:0:0:
182,192,180177,1,0,0:0:0:0:
109,192,180266,1,0,0:0:0:0:
475,192,180266,1,0,0:0:0:0:
36,192,180266,1,0,0:0:0:0:
329,192,180266,1,0,0:0:0:0:
256,192,180355,1,0,0:0:0:0:
182,192,180444,1,0,0:0:0:0:
109,192,180533,1,0,0:0:0:0:
36,192,180622,1,0,0:0:0:0:
402,192,180622,1,0,0:0:0:0:
475,192,180622,1,0,0:0:0:0:
256,192,180622,1,0,0:0:0:0:
182,192,180711,1,0,0:0:0:0:
256,192,180800,1,0,0:0:0:0:
329,192,180888,1,0,0:0:0:0:
402,192,180977,1,0,0:0:0:0:
475,192,180977,1,0,0:0:0:0:
36,192,180977,1,0,0:0:0:0:
182,192,180977,1,0,0:0:0:0:
256,192,181066,1,0,0:0:0:0:
329,192,181155,1,0,0:0:0:0:
109,192,181155,1,0,0:0:0:0:
36,192,181155,1,0,0:0:0:0:
402,192,181244,1,0,0:0:0:0:
475,192,181333,1,0,0:0:0:0:
182,192,181333,1,0,0:0:0:0:
256,192,181333,1,0,0:0:0:0:
329,192,181422,1,0,0:0:0:0:
256,192,181511,1,0,0:0:0:0:
109,192,181511,1,0,0:0:0:0:
182,192,181600,1,0,0:0:0:0:
109,192,181688,1,0,0:0:0:0:
36,192,181688,1,0,0:0:0:0:
475,192,181688,1,0,0:0:0:0:
329,192,181688,1,0,0:0:0:0:
256,192,181777,1,0,0:0:0:0:
182,192,181866,1,0,0:0:0:0:
109,192,181955,1,0,0:0:0:0:
36,192,182044,1,0,0:0:0:0:
256,192,182044,1,0,0:0:0:0:
402,192,182044,1,0,0:0:0:0:
475,192,182044,1,0,0:0:0:0:
182,192,182133,1,0,0:0:0:0:
109,192,182222,1,0,0:0:0:0:
329,192,182311,1,0,0:0:0:0:
475,192,182400,1,0,0:0:0:0:
36,192,182400,1,0,0:0:0:0:
182,192,182400,1,0,0:0:0:0:
402,192,182400,1,0,0:0:0:0:
256,192,182488,1,0,0:0:0:0:
475,192,182577,1,0,0:0:0:0:
109,192,182577,1,0,0:0:0:0:
329,192,182577,1,0,0:0:0:0:
36,192,182666,1,0,0:0:0:0:
182,192,182755,1,0,0:0:0:0:
256,192,182755,1,0,0:0:0:0:
402,192,182755,1,0,0:0:0:0:
329,192,182844,1,0,0:0:0:0:
109,192,182933,1,0,0:0:0:0:
402,192,182933,1,0,0:0:0:0:
182,192,183022,1,0,0:0:0:0:
256,192,183111,1,0,0:0:0:0:
475,192,183111,1,0,0:0:0:0:
36,192,183111,1,0,0:0:0:0:
109,192,183111,1,0,0:0:0:0:
402,192,183200,1,0,0:0:0:0:
182,192,183288,1,0,0:0:0:0:
329,192,183377,1,0,0:0:0:0:
475,192,183466,1,0,0:0:0:0:
402,192,183466,1,0,0:0:0:0:
256,192,183466,1,0,0:0:0:0:
109,192,183466,1,0,0:0:0:0:
182,192,183555,1,0,0:0:0:0:
36,192,183644,1,0,0:0:0:0:
475,192,183733,1,0,0:0:0:0:
402,192,183822,1,0,0:0:0:0:
329,192,183822,1,0,0:0:0:0:
109,192,183822,1,0,0:0:0:0:
256,192,183822,1,0,0:0:0:0:
182,192,183911,1,0,0:0:0:0:
36,192,184000,1,0,0:0:0:0:
329,192,184000,1,0,0:0:0:0:
475,192,184000,1,0,0:0:0:0:
256,192,184088,1,0,0:0:0:0:
182,192,184177,1,0,0:0:0:0:
109,192,184177,1,0,0:0:0:0:
402,192,184177,1,0,0:0:0:0:
329,192,184266,1,0,0:0:0:0:
182,192,184355,1,0,0:0:0:0:
36,192,184355,1,0,0:0:0:0:
329,192,184444,1,0,0:0:0:0:
475,192,184444,1,0,0:0:0:0:
182,192,184533,1,0,0:0:0:0:
36,192,184533,1,0,0:0:0:0:
256,192,184622,1,0,0:0:0:0:
36,192,184711,1,0,0:0:0:0:
402,192,184711,1,0,0:0:0:0:
475,192,184711,1,0,0:0:0:0:
109,192,184755,1,0,0:0:0:0:
182,192,184800,1,0,0:0:0:0:
256,192,184844,1,0,0:0:0:0:
402,192,184888,1,0,0:0:0:0:
475,192,184888,1,0,0:0:0:0:
329,192,184888,1,0,0:0:0:0:
36,192,184888,1,0,0:0:0:0:
182,192,184977,1,0,0:0:0:0:
109,192,185066,1,0,0:0:0:0:
256,192,185155,1,0,0:0:0:0:
475,192,185155,1,0,0:0:0:0:
182,192,185244,1,0,0:0:0:0:
36,192,185244,1,0,0:0:0:0:
402,192,185244,1,0,0:0:0:0:
329,192,185244,1,0,0:0:0:0:
109,192,185333,1,0,0:0:0:0:
256,192,185422,1,0,0:0:0:0:
475,192,185422,1,0,0:0:0:0:
36,192,185511,1,0,0:0:0:0:
402,192,185511,1,0,0:0:0:0:
109,192,185600,1,0,0:0:0:0:
182,192,185600,1,0,0:0:0:0:
329,192,185600,1,0,0:0:0:0:
475,192,185600,1,0,0:0:0:0:
256,192,185688,1,0,0:0:0:0:
36,192,185777,1,0,0:0:0:0:
182,192,185866,1,0,0:0:0:0:
402,192,185866,1,0,0:0:0:0:
109,192,185955,1,0,0:0:0:0:
36,192,185955,1,0,0:0:0:0:
329,192,185955,1,0,0:0:0:0:
475,192,185955,1,0,0:0:0:0:
256,192,186044,1,0,0:0:0:0:
109,192,186133,1,0,0:0:0:0:
182,192,186222,1,0,0:0:0:0:
402,192,186222,1,0,0:0:0:0:
36,192,186311,1,0,0:0:0:0:
256,192,186311,1,0,0:0:0:0:
475,192,186311,1,0,0:0:0:0:
329,192,186311,1,0,0:0:0:0:
182,192,186400,1,0,0:0:0:0:
256,192,186488,1,0,0:0:0:0:
109,192,186577,1,0,0:0:0:0:
475,192,186577,1,0,0:0:0:0:
402,192,186666,1,0,0:0:0:0:
329,192,186666,1,0,0:0:0:0:
182,192,186666,1,0,0:0:0:0:
36,192,186666,1,0,0:0:0:0:
256,192,186755,1,0,0:0:0:0:
109,192,186844,1,0,0:0:0:0:
182,192,186844,1,0,0:0:0:0:
475,192,186933,1,0,0:0:0:0:
256,192,186933,1,0,0:0:0:0:
329,192,187022,1,0,0:0:0:0:
182,192,187022,1,0,0:0:0:0:
36,192,187022,1,0,0:0:0:0:
402,192,187022,1,0,0:0:0:0:
256,192,187111,1,0,0:0:0:0:
475,192,187200,1,0,0:0:0:0:
109,192,187288,1,0,0:0:0:0:
402,192,187288,1,0,0:0:0:0:
329,192,187377,1,0,0:0:0:0:
36,192,187377,1,0,0:0:0:0:
182,192,187377,1,0,0:0:0:0:
256,192,187377,1,0,0:0:0:0:
475,192,187466,1,0,0:0:0:0:
329,192,187555,1,0,0:0:0:0:
182,192,187644,1,0,0:0:0:0:
402,192,187644,1,0,0:0:0:0:
475,192,187733,1,0,0:0:0:0:
36,192,187733,1,0,0:0:0:0:
109,192,187733,1,0,0:0:0:0:
329,192,187733,1,0,0:0:0:0:
256,192,187822,1,0,0:0:0:0:
402,192,187911,1,0,0:0:0:0:
329,192,188000,1,0,0:0:0:0:
36,192,188000,1,0,0:0:0:0:
402,192,188088,1,0,0:0:0:0:
475,192,188088,1,0,0:0:0:0:
109,192,188088,1,0,0:0:0:0:
182,192,188088,1,0,0:0:0:0:
256,192,188177,1,0,0:0:0:0:
475,192,188266,1,0,0:0:0:0:
329,192,188266,1,0,0:0:0:0:
109,192,188355,1,0,0:0:0:0:
256,192,188355,1,0,0:0:0:0:
402,192,188444,1,0,0:0:0:0:
475,192,188444,1,0,0:0:0:0:
182,192,188444,1,0,0:0:0:0:
36,192,188444,1,0,0:0:0:0:
329,192,188533,1,0,0:0:0:0:
256,192,188622,1,0,0:0:0:0:
109,192,188711,1,0,0:0:0:0:
402,192,188711,1,0,0:0:0:0:
182,192,188800,1,0,0:0:0:0:
36,192,188800,1,0,0:0:0:0:
256,192,188800,1,0,0:0:0:0:
329,192,188800,1,0,0:0:0:0:
475,192,188888,1,0,0:0:0:0:
256,192,188977,1,0,0:0:0:0:
109,192,189066,1,0,0:0:0:0:
329,192,189066,1,0,0:0:0:0:
402,192,189155,1,0,0:0:0:0:
475,192,189155,1,0,0:0:0:0:
182,192,189155,1,0,0:0:0:0:
36,192,189155,1,0,0:0:0:0:
256,192,189244,1,0,0:0:0:0:
329,192,189333,1,0,0:0:0:0:
182,192,189422,1,0,0:0:0:0:
475,192,189422,1,0,0:0:0:0:
256,192,189511,1,0,0:0:0:0:
402,192,189511,1,0,0:0:0:0:
36,192,189511,1,0,0:0:0:0:
109,192,189511,1,0,0:0:0:0:
329,192,189600,1,0,0:0:0:0:
182,192,189688,1,0,0:0:0:0:
256,192,189688,1,0,0:0:0:0:
109,192,189777,1,0,0:0:0:0:
329,192,189777,1,0,0:0:0:0:
182,192,189866,1,0,0:0:0:0:
36,192,189866,1,0,0:0:0:0:
475,192,189866,1,0,0:0:0:0:
402,192,189866,1,0,0:0:0:0:
256,192,189955,1,0,0:0:0:0:
329,192,190044,1,0,0:0:0:0:
36,192,190133,1,0,0:0:0:0:
256,192,190133,1,0,0:0:0:0:
402,192,190222,1,0,0:0:0:0:
109,192,190222,1,0,0:0:0:0:
475,192,190222,1,0,0:0:0:0:
182,192,190222,1,0,0:0:0:0:
36,192,190311,1,0,0:0:0:0:
256,192,190400,1,0,0:0:0:0:
402,192,190400,1,0,0:0:0:0:
475,192,190400,1,0,0:0:0:0:
182,192,190488,1,0,0:0:0:0:
475,192,190577,1,0,0:0:0:0:
402,192,190577,1,0,0:0:0:0:
109,192,190577,1,0,0:0:0:0:
36,192,190577,1,0,0:0:0:0:
329,192,190577,1,0,0:0:0:0:
256,192,190666,1,0,0:0:0:0:
182,192,190755,1,0,0:0:0:0:
329,192,190844,1,0,0:0:0:0:
36,192,190844,1,0,0:0:0:0:
402,192,190933,1,0,0:0:0:0:
475,192,190933,1,0,0:0:0:0:
109,192,190933,1,0,0:0:0:0:
182,192,190933,1,0,0:0:0:0:
256,192,191022,1,0,0:0:0:0:
329,192,191111,1,0,0:0:0:0:
475,192,191200,1,0,0:0:0:0:
182,192,191200,1,0,0:0:0:0:
402,192,191288,1,0,0:0:0:0:
109,192,191288,1,0,0:0:0:0:
36,192,191288,1,0,0:0:0:0:
256,192,191288,1,0,0:0:0:0:
329,192,191377,1,0,0:0:0:0:
182,192,191466,1,0,0:0:0:0:
109,192,191555,1,0,0:0:0:0:
329,192,191555,1,0,0:0:0:0:
36,192,191644,1,0,0:0:0:0:
475,192,191644,1,0,0:0:0:0:
402,192,191644,1,0,0:0:0:0:
256,192,191644,1,0,0:0:0:0:
182,192,191733,1,0,0:0:0:0:
329,192,191822,1,0,0:0:0:0:
182,192,191911,1,0,0:0:0:0:
402,192,191911,1,0,0:0:0:0:
256,192,192000,1,0,0:0:0:0:
475,192,192000,1,0,0:0:0:0:
109,192,192000,1,0,0:0:0:0:
36,192,192000,1,0,0:0:0:0:
329,192,192088,1,0,0:0:0:0:
256,192,192177,1,0,0:0:0:0:
182,192,192266,1,0,0:0:0:0:
402,192,192266,1,0,0:0:0:0:
109,192,192355,1,0,0:0:0:0:
475,192,192355,1,0,0:0:0:0:
329,192,192355,1,0,0:0:0:0:
36,192,192355,1,0,0:0:0:0:
256,192,192444,1,0,0:0:0:0:
182,192,192533,1,0,0:0:0:0:
475,192,192533,1,0,0:0:0:0:
402,192,192533,1,0,0:0:0:0:
109,192,192622,1,0,0:0:0:0:
36,192,192711,1,0,0:0:0:0:
256,192,192711,1,0,0:0:0:0:
475,192,192711,1,0,0:0:0:0:
329,192,192711,1,0,0:0:0:0:
182,192,192800,1,0,0:0:0:0:
256,192,192888,1,0,0:0:0:0:
329,192,192977,1,0,0:0:0:0:
109,192,192977,1,0,0:0:0:0:
402,192,193066,1,0,0:0:0:0:
182,192,193066,1,0,0:0:0:0:
36,192,193066,1,0,0:0:0:0:
475,192,193066,1,0,0:0:0:0:
256,192,193155,1,0,0:0:0:0:
329,192,193244,1,0,0:0:0:0:
402,192,193333,1,0,0:0:0:0:
182,192,193333,1,0,0:0:0:0:
256,192,193422,1,0,0:0:0:0:
109,192,193422,1,0,0:0:0:0:
36,192,193422,1,0,0:0:0:0:
475,192,193511,1,0,0:0:0:0:
329,192,193511,1,0,0:0:0:0:
402,192,193511,1,0,0:0:0:0:
182,192,193600,1,0,0:0:0:0:
36,192,193600,1,0,0:0:0:0:
109,192,193600,1,0,0:0:0:0:
256,192,193688,1,0,0:0:0:0:
402,192,193688,1,0,0:0:0:0:
475,192,193688,1,0,0:0:0:0:
182,192,193777,1,0,0:0:0:0:
109,192,193777,1,0,0:0:0:0:
36,192,193777,1,0,0:0:0:0:
475,192,193866,1,0,0:0:0:0:
402,192,193866,1,0,0:0:0:0:
329,192,193866,1,0,0:0:0:0:
109,192,193955,1,0,0:0:0:0:
36,192,193955,1,0,0:0:0:0:
256,192,193955,1,0,0:0:0:0:
402,192,194044,1,0,0:0:0:0:
475,192,194044,1,0,0:0:0:0:
329,192,194044,1,0,0:0:0:0:
182,192,194133,1,0,0:0:0:0:
256,192,194133,1,0,0:0:0:0:
36,192,194133,1,0,0:0:0:0:
329,192,194222,1,0,0:0:0:0:
475,192,194222,1,0,0:0:0:0:
182,192,194311,1,0,0:0:0:0:
36,192,194311,1,0,0:0:0:0:
475,192,194400,1,0,0:0:0:0:
329,192,194400,1,0,0:0:0:0:
109,192,194488,1,0,0:0:0:0:
36,192,194488,1,0,0:0:0:0:
402,192,194577,1,0,0:0:0:0:
329,192,194577,1,0,0:0:0:0:
109,192,194666,1,0,0:0:0:0:
182,192,194666,1,0,0:0:0:0:
475,192,194755,1,0,0:0:0:0:
402,192,194755,1,0,0:0:0:0:
256,192,194844,1,0,0:0:0:0:
182,192,194888,1,0,0:0:0:0:
109,192,194933,1,0,0:0:0:0:
36,192,194977,1,0,0:0:0:0:
475,192,195022,1,0,0:0:0:0:
402,192,195066,1,0,0:0:0:0:
329,192,195111,1,0,0:0:0:0:
182,192,195155,1,0,0:0:0:0:
109,192,195200,1,0,0:0:0:0:
36,192,195244,1,0,0:0:0:0:
256,192,195288,1,0,0:0:0:0:
329,192,195333,1,0,0:0:0:0:
402,192,195377,1,0,0:0:0:0:
475,192,195407,1,0,0:0:0:0:
109,192,195437,1,0,0:0:0:0:
182,192,195496,1,0,0:0:0:0:
329,192,195525,1,0,0:0:0:0:
475,192,195555,1,0,0:0:0:0:
36,192,195614,1,0,0:0:0:0:
256,192,195644,1,0,0:0:0:0:
402,192,195674,1,0,0:0:0:0:
109,192,195733,1,0,0:0:0:0:
329,192,195762,1,0,0:0:0:0:
475,192,195792,1,0,0:0:0:0:
182,192,195851,1,0,0:0:0:0:
109,192,195881,1,0,0:0:0:0:
36,192,195911,1,0,0:0:0:0:
329,192,195970,1,0,0:0:0:0:
256,192,196000,1,0,0:0:0:0:
182,192,196029,1,0,0:0:0:0:
475,192,196088,1,0,0:0:0:0:
402,192,196118,1,0,0:0:0:0:
329,192,196148,1,0,0:0:0:0:
36,192,196177,1,0,0:0:0:0:
109,192,196207,1,0,0:0:0:0:
182,192,196237,1,0,0:0:0:0:
475,192,196266,1,0,0:0:0:0:
402,192,196266,1,0,0:0:0:0:
329,192,196266,1,0,0:0:0:0:
256,192,196266,1,0,0:0:0:0:
109,192,196355,1,0,0:0:0:0:
402,192,196444,1,0,0:0:0:0:
329,192,196444,1,0,0:0:0:0:
182,192,196444,1,0,0:0:0:0:
109,192,196533,1,0,0:0:0:0:
256,192,196622,1,0,0:0:0:0:
402,192,196711,1,0,0:0:0:0:
329,192,196711,1,0,0:0:0:0:
182,192,196711,1,0,0:0:0:0:
109,192,196800,1,0,0:0:0:0:
256,192,196888,1,0,0:0:0:0:
329,192,196977,1,0,0:0:0:0:
402,192,196977,1,0,0:0:0:0:
182,192,196977,1,0,0:0:0:0:
109,192,197066,1,0,0:0:0:0:
256,192,197155,1,0,0:0:0:0:
402,192,197244,1,0,0:0:0:0:
329,192,197244,1,0,0:0:0:0:
109,192,197244,1,0,0:0:0:0:
182,192,197333,1,0,0:0:0:0:
256,192,197333,1,0,0:0:0:0:
109,192,197422,1,0,0:0:0:0:
329,192,197511,1,0,0:0:0:0:
402,192,197511,1,0,0:0:0:0:
182,192,197600,1,0,0:0:0:0:
256,192,197600,1,0,0:0:0:0:
475,192,197688,1,0,0:0:0:0:
109,192,197688,1,0,0:0:0:0:
36,192,197688,1,0,0:0:0:0:
329,192,197777,1,0,0:0:0:0:
256,192,197866,1,0,0:0:0:0:
182,192,197866,1,0,0:0:0:0:
402,192,197866,1,0,0:0:0:0:
475,192,197955,1,0,0:0:0:0:
329,192,198044,1,0,0:0:0:0:
256,192,198133,1,0,0:0:0:0:
182,192,198133,1,0,0:0:0:0:
402,192,198133,1,0,0:0:0:0:
475,192,198222,1,0,0:0:0:0:
329,192,198311,1,0,0:0:0:0:
256,192,198400,1,0,0:0:0:0:
182,192,198400,1,0,0:0:0:0:
402,192,198400,1,0,0:0:0:0:
475,192,198488,1,0,0:0:0:0:
329,192,198577,1,0,0:0:0:0:
256,192,198666,1,0,0:0:0:0:
182,192,198666,1,0,0:0:0:0:
402,192,198666,1,0,0:0:0:0:
109,192,198755,1,0,0:0:0:0:
36,192,198755,1,0,0:0:0:0:
256,192,198844,1,0,0:0:0:0:
182,192,198933,1,0,0:0:0:0:
109,192,198933,1,0,0:0:0:0:
329,192,199022,1,0,0:0:0:0:
402,192,199022,1,0,0:0:0:0:
36,192,199111,1,0,0:0:0:0:
109,192,199111,1,0,0:0:0:0:
256,192,199111,1,0,0:0:0:0:
182,192,199200,1,0,0:0:0:0:
329,192,199288,1,0,0:0:0:0:
109,192,199288,1,0,0:0:0:0:
402,192,199288,1,0,0:0:0:0:
256,192,199377,1,0,0:0:0:0:
182,192,199466,1,0,0:0:0:0:
329,192,199555,1,0,0:0:0:0:
109,192,199555,1,0,0:0:0:0:
402,192,199555,1,0,0:0:0:0:
256,192,199644,1,0,0:0:0:0:
182,192,199733,1,0,0:0:0:0:
109,192,199822,1,0,0:0:0:0:
329,192,199822,1,0,0:0:0:0:
402,192,199822,1,0,0:0:0:0:
256,192,199911,1,0,0:0:0:0:
329,192,200000,1,0,0:0:0:0:
109,192,200000,1,0,0:0:0:0:
475,192,200000,1,0,0:0:0:0:
256,192,200088,1,0,0:0:0:0:
182,192,200088,1,0,0:0:0:0:
329,192,200177,1,0,0:0:0:0:
402,192,200177,1,0,0:0:0:0:
109,192,200266,1,0,0:0:0:0:
182,192,200266,1,0,0:0:0:0:
256,192,200355,1,0,0:0:0:0:
402,192,200355,1,0,0:0:0:0:
182,192,200444,1,0,0:0:0:0:
329,192,200444,1,0,0:0:0:0:
402,192,200533,1,0,0:0:0:0:
36,192,200533,1,0,0:0:0:0:
109,192,200533,1,0,0:0:0:0:
182,192,200622,1,0,0:0:0:0:
36,192,200711,1,0,0:0:0:0:
109,192,200711,1,0,0:0:0:0:
256,192,200711,1,0,0:0:0:0:
329,192,200800,1,0,0:0:0:0:
182,192,200888,1,0,0:0:0:0:
109,192,200977,1,0,0:0:0:0:
36,192,200977,1,0,0:0:0:0:
256,192,200977,1,0,0:0:0:0:
329,192,201066,1,0,0:0:0:0:
182,192,201155,1,0,0:0:0:0:
36,192,201244,1,0,0:0:0:0:
109,192,201244,1,0,0:0:0:0:
256,192,201244,1,0,0:0:0:0:
329,192,201333,1,0,0:0:0:0:
182,192,201422,1,0,0:0:0:0:
36,192,201511,1,0,0:0:0:0:
109,192,201511,1,0,0:0:0:0:
256,192,201511,1,0,0:0:0:0:
329,192,201600,1,0,0:0:0:0:
402,192,201600,1,0,0:0:0:0:
109,192,201688,1,0,0:0:0:0:
182,192,201688,1,0,0:0:0:0:
256,192,201777,1,0,0:0:0:0:
402,192,201777,1,0,0:0:0:0:
329,192,201866,1,0,0:0:0:0:
475,192,201866,1,0,0:0:0:0:
36,192,201955,1,0,0:0:0:0:
256,192,201955,1,0,0:0:0:0:
182,192,201955,1,0,0:0:0:0:
329,192,202044,1,0,0:0:0:0:
402,192,202133,1,0,0:0:0:0:
182,192,202133,1,0,0:0:0:0:
36,192,202133,1,0,0:0:0:0:
256,192,202222,1,0,0:0:0:0:
329,192,202311,1,0,0:0:0:0:
402,192,202400,1,0,0:0:0:0:
182,192,202400,1,0,0:0:0:0:
36,192,202400,1,0,0:0:0:0:
256,192,202488,1,0,0:0:0:0:
329,192,202577,1,0,0:0:0:0:
182,192,202666,1,0,0:0:0:0:
36,192,202666,1,0,0:0:0:0:
402,192,202666,1,0,0:0:0:0:
256,192,202755,1,0,0:0:0:0:
329,192,202844,1,0,0:0:0:0:
182,192,202933,1,0,0:0:0:0:
36,192,202933,1,0,0:0:0:0:
402,192,202933,1,0,0:0:0:0:
256,192,203022,1,0,0:0:0:0:
329,192,203022,1,0,0:0:0:0:
182,192,203111,1,0,0:0:0:0:
109,192,203111,1,0,0:0:0:0:
475,192,203200,1,0,0:0:0:0:
329,192,203200,1,0,0:0:0:0:
256,192,203288,1,0,0:0:0:0:
109,192,203288,1,0,0:0:0:0:
182,192,203377,1,0,0:0:0:0:
36,192,203377,1,0,0:0:0:0:
475,192,203377,1,0,0:0:0:0:
329,192,203466,1,0,0:0:0:0:
256,192,203555,1,0,0:0:0:0:
109,192,203555,1,0,0:0:0:0:
475,192,203644,1,0,0:0:0:0:
329,192,203733,1,0,0:0:0:0:
256,192,203822,1,0,0:0:0:0:
109,192,203822,1,0,0:0:0:0:
475,192,203911,1,0,0:0:0:0:
329,192,204000,1,0,0:0:0:0:
256,192,204088,1,0,0:0:0:0:
109,192,204088,1,0,0:0:0:0:
475,192,204177,1,0,0:0:0:0:
256,192,204266,1,0,0:0:0:0:
109,192,204266,1,0,0:0:0:0:
475,192,204355,1,0,0:0:0:0:
329,192,204444,1,0,0:0:0:0:
402,192,204444,1,0,0:0:0:0:
256,192,204533,1,0,0:0:0:0:
109,192,204533,1,0,0:0:0:0:
402,192,204622,1,0,0:0:0:0:
475,192,204622,1,0,0:0:0:0:
329,192,204711,1,0,0:0:0:0:
182,192,204711,1,0,0:0:0:0:
36,192,204800,1,0,0:0:0:0:
475,192,204800,1,0,0:0:0:0:
109,192,204800,1,0,0:0:0:0:
256,192,204888,1,0,0:0:0:0:
329,192,204977,1,0,0:0:0:0:
402,192,204977,1,0,0:0:0:0:
109,192,205066,1,0,0:0:0:0:
256,192,205155,1,0,0:0:0:0:
329,192,205244,1,0,0:0:0:0:
402,192,205244,1,0,0:0:0:0:
109,192,205333,1,0,0:0:0:0:
256,192,205422,1,0,0:0:0:0:
329,192,205511,1,0,0:0:0:0:
402,192,205511,1,0,0:0:0:0:
109,192,205600,1,0,0:0:0:0:
256,192,205688,1,0,0:0:0:0:
329,192,205777,1,0,0:0:0:0:
402,192,205777,1,0,0:0:0:0:
109,192,205866,1,0,0:0:0:0:
256,192,205955,1,0,0:0:0:0:
329,192,206044,1,0,0:0:0:0:
402,192,206044,1,0,0:0:0:0:
182,192,206133,1,0,0:0:0:0:
256,192,206133,1,0,0:0:0:0:
36,192,206222,1,0,0:0:0:0:
475,192,206222,1,0,0:0:0:0:
329,192,206311,1,0,0:0:0:0:
182,192,206400,1,0,0:0:0:0:
109,192,206400,1,0,0:0:0:0:
475,192,206488,1,0,0:0:0:0:
329,192,206577,1,0,0:0:0:0:
182,192,206666,1,0,0:0:0:0:
109,192,206666,1,0,0:0:0:0:
475,192,206755,1,0,0:0:0:0:
329,192,206844,1,0,0:0:0:0:
109,192,206933,1,0,0:0:0:0:
182,192,206933,1,0,0:0:0:0:
475,192,207022,1,0,0:0:0:0:
329,192,207111,1,0,0:0:0:0:
109,192,207200,1,0,0:0:0:0:
182,192,207200,1,0,0:0:0:0:
475,192,207288,1,0,0:0:0:0:
329,192,207377,1,0,0:0:0:0:
402,192,207377,1,0,0:0:0:0:
109,192,207466,1,0,0:0:0:0:
182,192,207466,1,0,0:0:0:0:
256,192,207555,1,0,0:0:0:0:
402,192,207555,1,0,0:0:0:0:
329,192,207644,1,0,0:0:0:0:
36,192,207644,1,0,0:0:0:0:
109,192,207644,1,0,0:0:0:0:
475,192,207644,1,0,0:0:0:0:
256,192,207733,1,0,0:0:0:0:
329,192,207822,1,0,0:0:0:0:
182,192,207911,1,0,0:0:0:0:
256,192,208000,1,0,0:0:0:0:
329,192,208088,1,0,0:0:0:0:
182,192,208177,1,0,0:0:0:0:
256,192,208266,1,0,0:0:0:0:
329,192,208355,1,0,0:0:0:0:
182,192,208444,1,0,0:0:0:0:
256,192,208533,1,0,0:0:0:0:
329,192,208622,1,0,0:0:0:0:
182,192,208711,1,0,0:0:0:0:
256,192,208800,1,0,0:0:0:0:
329,192,208888,1,0,0:0:0:0:
109,192,208888,1,0,0:0:0:0:
182,192,208977,1,0,0:0:0:0:
36,192,209066,1,0,0:0:0:0:
256,192,209066,1,0,0:0:0:0:
109,192,209155,1,0,0:0:0:0:
256,192,209244,1,0,0:0:0:0:
36,192,209333,1,0,0:0:0:0:
109,192,209422,1,0,0:0:0:0:
256,192,209511,1,0,0:0:0:0:
36,192,209600,1,0,0:0:0:0:
109,192,209688,1,0,0:0:0:0:
256,192,209777,1,0,0:0:0:0:
36,192,209866,1,0,0:0:0:0:
109,192,209955,1,0,0:0:0:0:
256,192,210044,1,0,0:0:0:0:
36,192,210133,1,0,0:0:0:0:
109,192,210222,1,0,0:0:0:0:
329,192,210222,1,0,0:0:0:0:
256,192,210311,1,0,0:0:0:0:
182,192,210400,1,0,0:0:0:0:
475,192,210400,1,0,0:0:0:0:
329,192,210488,1,0,0:0:0:0:
402,192,210488,1,0,0:0:0:0:
256,192,210577,1,0,0:0:0:0:
182,192,210666,1,0,0:0:0:0:
109,192,210666,1,0,0:0:0:0:
402,192,210755,1,0,0:0:0:0:
256,192,210844,1,0,0:0:0:0:
182,192,210933,1,0,0:0:0:0:
36,192,210933,1,0,0:0:0:0:
402,192,211022,1,0,0:0:0:0:
256,192,211111,1,0,0:0:0:0:
182,192,211200,1,0,0:0:0:0:
36,192,211200,1,0,0:0:0:0:
402,192,211288,1,0,0:0:0:0:
256,192,211377,1,0,0:0:0:0:
182,192,211466,1,0,0:0:0:0:
36,192,211466,1,0,0:0:0:0:
402,192,211555,1,0,0:0:0:0:
256,192,211644,1,0,0:0:0:0:
182,192,211733,1,0,0:0:0:0:
36,192,211733,1,0,0:0:0:0:
256,192,211822,1,0,0:0:0:0:
329,192,211822,1,0,0:0:0:0:
475,192,211911,1,0,0:0:0:0:
36,192,211911,1,0,0:0:0:0:
109,192,211911,1,0,0:0:0:0:
182,192,212000,1,0,0:0:0:0:
402,192,212088,1,0,0:0:0:0:
329,192,212088,1,0,0:0:0:0:
109,192,212177,1,0,0:0:0:0:
182,192,212266,1,0,0:0:0:0:
329,192,212355,1,0,0:0:0:0:
402,192,212355,1,0,0:0:0:0:
109,192,212444,1,0,0:0:0:0:
182,192,212533,1,0,0:0:0:0:
329,192,212622,1,0,0:0:0:0:
402,192,212622,1,0,0:0:0:0:
109,192,212711,1,0,0:0:0:0:
182,192,212800,1,0,0:0:0:0:
329,192,212888,1,0,0:0:0:0:
402,192,212888,1,0,0:0:0:0:
109,192,212977,1,0,0:0:0:0:
182,192,213066,1,0,0:0:0:0:
329,192,213155,1,0,0:0:0:0:
402,192,213155,1,0,0:0:0:0:
256,192,213244,1,0,0:0:0:0:
109,192,213244,1,0,0:0:0:0:
182,192,213333,1,0,0:0:0:0:
36,192,213333,1,0,0:0:0:0:
475,192,213333,1,0,0:0:0:0:
402,192,213422,1,0,0:0:0:0:
329,192,213511,1,0,0:0:0:0:
182,192,213511,1,0,0:0:0:0:
475,192,213600,1,0,0:0:0:0:
109,192,213600,1,0,0:0:0:0:
402,192,213688,1,0,0:0:0:0:
256,192,213688,1,0,0:0:0:0:
329,192,213777,1,0,0:0:0:0:
182,192,213777,1,0,0:0:0:0:
475,192,213866,1,0,0:0:0:0:
109,192,213866,1,0,0:0:0:0:
402,192,213955,1,0,0:0:0:0:
256,192,213955,1,0,0:0:0:0:
329,192,214044,1,0,0:0:0:0:
182,192,214044,1,0,0:0:0:0:
475,192,214133,1,0,0:0:0:0:
109,192,214133,1,0,0:0:0:0:
402,192,214222,1,0,0:0:0:0:
256,192,214222,1,0,0:0:0:0:
329,192,214311,1,0,0:0:0:0:
182,192,214311,1,0,0:0:0:0:
475,192,214400,1,0,0:0:0:0:
109,192,214400,1,0,0:0:0:0:
256,192,214488,1,0,0:0:0:0:
36,192,214488,1,0,0:0:0:0:
182,192,214577,1,0,0:0:0:0:
329,192,214577,1,0,0:0:0:0:
402,192,214666,1,0,0:0:0:0:
36,192,214666,1,0,0:0:0:0:
475,192,214755,1,0,0:0:0:0:
109,192,214755,1,0,0:0:0:0:
256,192,214755,1,0,0:0:0:0:
182,192,214844,1,0,0:0:0:0:
256,192,214933,1,0,0:0:0:0:
402,192,214933,1,0,0:0:0:0:
109,192,215022,1,0,0:0:0:0:
329,192,215022,1,0,0:0:0:0:
182,192,215111,1,0,0:0:0:0:
36,192,215111,1,0,0:0:0:0:
402,192,215200,1,0,0:0:0:0:
256,192,215200,1,0,0:0:0:0:
329,192,215288,1,0,0:0:0:0:
109,192,215288,1,0,0:0:0:0:
182,192,215377,1,0,0:0:0:0:
36,192,215377,1,0,0:0:0:0:
256,192,215466,1,0,0:0:0:0:
402,192,215466,1,0,0:0:0:0:
329,192,215555,1,0,0:0:0:0:
109,192,215555,1,0,0:0:0:0:
182,192,215644,1,0,0:0:0:0:
36,192,215644,1,0,0:0:0:0:
256,192,215733,1,0,0:0:0:0:
402,192,215733,1,0,0:0:0:0:
329,192,215822,1,0,0:0:0:0:
109,192,215822,1,0,0:0:0:0:
182,192,215911,1,0,0:0:0:0:
36,192,215911,1,0,0:0:0:0:
402,192,215911,1,0,0:0:0:0:
475,192,216000,1,0,0:0:0:0:
256,192,216000,1,0,0:0:0:0:
402,192,216088,1,0,0:0:0:0:
109,192,216088,1,0,0:0:0:0:
329,192,216177,1,0,0:0:0:0:
36,192,216177,1,0,0:0:0:0:
256,192,216177,1,0,0:0:0:0:
182,192,216266,1,0,0:0:0:0:
109,192,216355,1,0,0:0:0:0:
329,192,216355,1,0,0:0:0:0:
475,192,216355,1,0,0:0:0:0:
256,192,216444,1,0,0:0:0:0:
402,192,216444,1,0,0:0:0:0:
182,192,216533,1,0,0:0:0:0:
36,192,216533,1,0,0:0:0:0:
109,192,216622,1,0,0:0:0:0:
329,192,216622,1,0,0:0:0:0:
475,192,216622,1,0,0:0:0:0:
256,192,216711,1,0,0:0:0:0:
402,192,216711,1,0,0:0:0:0:
182,192,216800,1,0,0:0:0:0:
36,192,216800,1,0,0:0:0:0:
109,192,216888,1,0,0:0:0:0:
329,192,216888,1,0,0:0:0:0:
475,192,216888,1,0,0:0:0:0:
256,192,216977,1,0,0:0:0:0:
402,192,216977,1,0,0:0:0:0:
182,192,217066,1,0,0:0:0:0:
36,192,217066,1,0,0:0:0:0:
109,192,217155,1,0,0:0:0:0:
329,192,217155,1,0,0:0:0:0:
475,192,217155,1,0,0:0:0:0:
182,192,217244,1,0,0:0:0:0:
402,192,217244,1,0,0:0:0:0:
256,192,217333,1,0,0:0:0:0:
109,192,217333,1,0,0:0:0:0:
182,192,217422,1,0,0:0:0:0:
475,192,217422,1,0,0:0:0:0:
36,192,217422,1,0,0:0:0:0:
329,192,217511,1,0,0:0:0:0:
109,192,217600,1,0,0:0:0:0:
475,192,217600,1,0,0:0:0:0:
256,192,217600,1,0,0:0:0:0:
36,192,217688,1,0,0:0:0:0:
402,192,217688,1,0,0:0:0:0:
329,192,217777,1,0,0:0:0:0:
475,192,217777,1,0,0:0:0:0:
182,192,217777,1,0,0:0:0:0:
256,192,217866,1,0,0:0:0:0:
36,192,217866,1,0,0:0:0:0:
402,192,217955,1,0,0:0:0:0:
109,192,217955,1,0,0:0:0:0:
182,192,218044,1,0,0:0:0:0:
329,192,218044,1,0,0:0:0:0:
475,192,218044,1,0,0:0:0:0:
36,192,218133,1,0,0:0:0:0:
256,192,218133,1,0,0:0:0:0:
402,192,218222,1,0,0:0:0:0:
109,192,218222,1,0,0:0:0:0:
182,192,218311,1,0,0:0:0:0:
329,192,218311,1,0,0:0:0:0:
475,192,218311,1,0,0:0:0:0:
256,192,218400,1,0,0:0:0:0:
36,192,218400,1,0,0:0:0:0:
109,192,218488,1,0,0:0:0:0:
402,192,218488,1,0,0:0:0:0:
182,192,218577,1,0,0:0:0:0:
329,192,218577,1,0,0:0:0:0:
475,192,218577,1,0,0:0:0:0:
36,192,218666,1,0,0:0:0:0:
256,192,218666,1,0,0:0:0:0:
109,192,218755,1,0,0:0:0:0:
402,192,218755,1,0,0:0:0:0:
182,192,218844,1,0,0:0:0:0:
329,192,218844,1,0,0:0:0:0:
402,192,218933,1,0,0:0:0:0:
36,192,218933,1,0,0:0:0:0:
256,192,218933,1,0,0:0:0:0:
109,192,219022,1,0,0:0:0:0:
182,192,219022,1,0,0:0:0:0:
475,192,219022,1,0,0:0:0:0:
329,192,219111,1,0,0:0:0:0:
256,192,219200,1,0,0:0:0:0:
109,192,219200,1,0,0:0:0:0:
402,192,219200,1,0,0:0:0:0:
475,192,219288,1,0,0:0:0:0:
329,192,219377,1,0,0:0:0:0:
402,192,219466,1,0,0:0:0:0:
256,192,219466,1,0,0:0:0:0:
109,192,219466,1,0,0:0:0:0:
475,192,219555,1,0,0:0:0:0:
329,192,219644,1,0,0:0:0:0:
109,192,219733,1,0,0:0:0:0:
256,192,219733,1,0,0:0:0:0:
402,192,219733,1,0,0:0:0:0:
475,192,219822,1,0,0:0:0:0:
329,192,219911,1,0,0:0:0:0:
109,192,220000,1,0,0:0:0:0:
256,192,220000,1,0,0:0:0:0:
402,192,220000,1,0,0:0:0:0:
475,192,220088,1,0,0:0:0:0:
36,192,220088,1,0,0:0:0:0:
329,192,220177,1,0,0:0:0:0:
256,192,220266,1,0,0:0:0:0:
109,192,220266,1,0,0:0:0:0:
475,192,220266,1,0,0:0:0:0:
182,192,220355,1,0,0:0:0:0:
402,192,220355,1,0,0:0:0:0:
256,192,220444,1,0,0:0:0:0:
36,192,220444,1,0,0:0:0:0:
475,192,220444,1,0,0:0:0:0:
182,192,220533,1,0,0:0:0:0:
109,192,220622,1,0,0:0:0:0:
402,192,220622,1,0,0:0:0:0:
256,192,220622,1,0,0:0:0:0:
36,192,220711,1,0,0:0:0:0:
182,192,220800,1,0,0:0:0:0:
109,192,220888,1,0,0:0:0:0:
256,192,220888,1,0,0:0:0:0:
402,192,220888,1,0,0:0:0:0:
36,192,220977,1,0,0:0:0:0:
182,192,221066,1,0,0:0:0:0:
109,192,221155,1,0,0:0:0:0:
256,192,221155,1,0,0:0:0:0:
402,192,221155,1,0,0:0:0:0:
36,192,221244,1,0,0:0:0:0:
182,192,221333,1,0,0:0:0:0:
109,192,221422,1,0,0:0:0:0:
256,192,221422,1,0,0:0:0:0:
402,192,221422,1,0,0:0:0:0:
36,192,221511,1,0,0:0:0:0:
475,192,221511,1,0,0:0:0:0:
182,192,221600,1,0,0:0:0:0:
329,192,221688,1,0,0:0:0:0:
109,192,221688,1,0,0:0:0:0:
402,192,221688,1,0,0:0:0:0:
256,192,221777,1,0,0:0:0:0:
182,192,221777,1,0,0:0:0:0:
36,192,221866,1,0,0:0:0:0:
329,192,221866,1,0,0:0:0:0:
475,192,221866,1,0,0:0:0:0:
109,192,221866,1,0,0:0:0:0:
182,192,221955,1,0,0:0:0:0:
475,192,222044,1,0,0:0:0:0:
256,192,222044,1,0,0:0:0:0:
109,192,222044,1,0,0:0:0:0:
329,192,222133,1,0,0:0:0:0:
402,192,222222,1,0,0:0:0:0:
109,192,222311,1,0,0:0:0:0:
256,192,222311,1,0,0:0:0:0:
475,192,222311,1,0,0:0:0:0:
329,192,222400,1,0,0:0:0:0:
402,192,222488,1,0,0:0:0:0:
256,192,222577,1,0,0:0:0:0:
109,192,222577,1,0,0:0:0:0:
475,192,222577,1,0,0:0:0:0:
329,192,222666,1,0,0:0:0:0:
402,192,222755,1,0,0:0:0:0:
109,192,222844,1,0,0:0:0:0:
256,192,222844,1,0,0:0:0:0:
475,192,222844,1,0,0:0:0:0:
329,192,222933,1,0,0:0:0:0:
402,192,223022,1,0,0:0:0:0:
109,192,223111,1,0,0:0:0:0:
256,192,223111,1,0,0:0:0:0:
475,192,223111,1,0,0:0:0:0:
182,192,223200,1,0,0:0:0:0:
329,192,223200,1,0,0:0:0:0:
256,192,223288,1,0,0:0:0:0:
36,192,223288,1,0,0:0:0:0:
475,192,223288,1,0,0:0:0:0:
402,192,223288,1,0,0:0:0:0:
109,192,223377,1,0,0:0:0:0:
182,192,223466,1,0,0:0:0:0:
256,192,223555,1,0,0:0:0:0:
36,192,223555,1,0,0:0:0:0:
402,192,223555,1,0,0:0:0:0:
109,192,223644,1,0,0:0:0:0:
182,192,223733,1,0,0:0:0:0:
256,192,223822,1,0,0:0:0:0:
402,192,223822,1,0,0:0:0:0:
36,192,223822,1,0,0:0:0:0:
109,192,223911,1,0,0:0:0:0:
182,192,224000,1,0,0:0:0:0:
256,192,224088,1,0,0:0:0:0:
36,192,224088,1,0,0:0:0:0:
402,192,224088,1,0,0:0:0:0:
109,192,224177,1,0,0:0:0:0:
182,192,224266,1,0,0:0:0:0:
256,192,224355,1,0,0:0:0:0:
36,192,224355,1,0,0:0:0:0:
402,192,224355,1,0,0:0:0:0:
182,192,224444,1,0,0:0:0:0:
109,192,224533,1,0,0:0:0:0:
329,192,224533,1,0,0:0:0:0:
475,192,224533,1,0,0:0:0:0:
256,192,224622,1,0,0:0:0:0:
402,192,224622,1,0,0:0:0:0:
182,192,224711,1,0,0:0:0:0:
36,192,224711,1,0,0:0:0:0:
475,192,224711,1,0,0:0:0:0:
109,192,224711,1,0,0:0:0:0:
329,192,224800,1,0,0:0:0:0:
402,192,224888,1,0,0:0:0:0:
256,192,224977,1,0,0:0:0:0:
109,192,224977,1,0,0:0:0:0:
475,192,224977,1,0,0:0:0:0:
329,192,225066,1,0,0:0:0:0:
182,192,225155,1,0,0:0:0:0:
256,192,225244,1,0,0:0:0:0:
36,192,225244,1,0,0:0:0:0:
402,192,225244,1,0,0:0:0:0:
109,192,225333,1,0,0:0:0:0:
329,192,225422,1,0,0:0:0:0:
182,192,225511,1,0,0:0:0:0:
36,192,225511,1,0,0:0:0:0:
402,192,225511,1,0,0:0:0:0:
256,192,225600,1,0,0:0:0:0:
109,192,225688,1,0,0:0:0:0:
329,192,225777,1,0,0:0:0:0:
475,192,225777,1,0,0:0:0:0:
182,192,225777,1,0,0:0:0:0:
256,192,225866,1,0,0:0:0:0:
36,192,225955,1,0,0:0:0:0:
109,192,225955,1,0,0:0:0:0:
402,192,225955,1,0,0:0:0:0:
182,192,226044,1,0,0:0:0:0:
475,192,226133,1,0,0:0:0:0:
36,192,226133,1,0,0:0:0:0:
329,192,226133,1,0,0:0:0:0:
256,192,226222,1,0,0:0:0:0:
109,192,226311,1,0,0:0:0:0:
182,192,226400,1,0,0:0:0:0:
402,192,226400,1,0,0:0:0:0:
36,192,226400,1,0,0:0:0:0:
256,192,226488,1,0,0:0:0:0:
36,192,226577,1,0,0:0:0:0:
109,192,226666,1,0,0:0:0:0:
329,192,226666,1,0,0:0:0:0:
475,192,226666,1,0,0:0:0:0:
256,192,226755,1,0,0:0:0:0:
182,192,226844,1,0,0:0:0:0:
36,192,226933,1,0,0:0:0:0:
109,192,226933,1,0,0:0:0:0:
402,192,226933,1,0,0:0:0:0:
256,192,227022,1,0,0:0:0:0:
182,192,227111,1,0,0:0:0:0:
36,192,227200,1,0,0:0:0:0:
329,192,227200,1,0,0:0:0:0:
475,192,227200,1,0,0:0:0:0:
256,192,227288,1,0,0:0:0:0:
109,192,227377,1,0,0:0:0:0:
402,192,227377,1,0,0:0:0:0:
182,192,227466,1,0,0:0:0:0:
256,192,227555,1,0,0:0:0:0:
475,192,227555,1,0,0:0:0:0:
36,192,227555,1,0,0:0:0:0:
109,192,227644,1,0,0:0:0:0:
329,192,227733,1,0,0:0:0:0:
182,192,227822,1,0,0:0:0:0:
402,192,227822,1,0,0:0:0:0:
475,192,227822,1,0,0:0:0:0:
109,192,227911,1,0,0:0:0:0:
329,192,228000,1,0,0:0:0:0:
182,192,228088,1,0,0:0:0:0:
402,192,228088,1,0,0:0:0:0:
475,192,228088,1,0,0:0:0:0:
109,192,228177,1,0,0:0:0:0:
256,192,228266,1,0,0:0:0:0:
475,192,228355,1,0,0:0:0:0:
182,192,228355,1,0,0:0:0:0:
329,192,228355,1,0,0:0:0:0:
109,192,228444,1,0,0:0:0:0:
256,192,228533,1,0,0:0:0:0:
475,192,228622,1,0,0:0:0:0:
182,192,228622,1,0,0:0:0:0:
402,192,228622,1,0,0:0:0:0:
329,192,228711,1,0,0:0:0:0:
109,192,228800,1,0,0:0:0:0:
256,192,228800,1,0,0:0:0:0:
36,192,228888,1,0,0:0:0:0:
182,192,228977,1,0,0:0:0:0:
475,192,228977,1,0,0:0:0:0:
329,192,228977,1,0,0:0:0:0:
256,192,229066,1,0,0:0:0:0:
109,192,229155,1,0,0:0:0:0:
329,192,229155,1,0,0:0:0:0:
475,192,229155,1,0,0:0:0:0:
182,192,229244,1,0,0:0:0:0:
36,192,229333,1,0,0:0:0:0:
402,192,229422,1,0,0:0:0:0:
475,192,229422,1,0,0:0:0:0:
182,192,229422,1,0,0:0:0:0:
329,192,229511,1,0,0:0:0:0:
36,192,229600,1,0,0:0:0:0:
256,192,229688,1,0,0:0:0:0:
402,192,229688,1,0,0:0:0:0:
475,192,229688,1,0,0:0:0:0:
109,192,229777,1,0,0:0:0:0:
36,192,229866,1,0,0:0:0:0:
256,192,229955,1,0,0:0:0:0:
475,192,229955,1,0,0:0:0:0:
329,192,229955,1,0,0:0:0:0:
109,192,230044,1,0,0:0:0:0:
182,192,230133,1,0,0:0:0:0:
36,192,230222,1,0,0:0:0:0:
329,192,230222,1,0,0:0:0:0:
475,192,230222,1,0,0:0:0:0:
109,192,230311,1,0,0:0:0:0:
402,192,230400,1,0,0:0:0:0:
475,192,230400,1,0,0:0:0:0:
36,192,230400,1,0,0:0:0:0:
256,192,230400,1,0,0:0:0:0:
182,192,230488,1,0,0:0:0:0:
256,192,230577,1,0,0:0:0:0:
475,192,230577,1,0,0:0:0:0:
36,192,230577,1,0,0:0:0:0:
329,192,230666,1,0,0:0:0:0:
182,192,230755,1,0,0:0:0:0:
256,192,230844,1,0,0:0:0:0:
475,192,230844,1,0,0:0:0:0:
36,192,230844,1,0,0:0:0:0:
329,192,230933,1,0,0:0:0:0:
182,192,231022,1,0,0:0:0:0:
256,192,231111,1,0,0:0:0:0:
475,192,231111,1,0,0:0:0:0:
36,192,231111,1,0,0:0:0:0:
329,192,231200,1,0,0:0:0:0:
109,192,231288,1,0,0:0:0:0:
182,192,231377,1,0,0:0:0:0:
36,192,231377,1,0,0:0:0:0:
402,192,231377,1,0,0:0:0:0:
256,192,231466,1,0,0:0:0:0:
109,192,231555,1,0,0:0:0:0:
182,192,231644,1,0,0:0:0:0:
36,192,231644,1,0,0:0:0:0:
329,192,231644,1,0,0:0:0:0:
256,192,231733,1,0,0:0:0:0:
475,192,231822,1,0,0:0:0:0:
109,192,231822,1,0,0:0:0:0:
36,192,231822,1,0,0:0:0:0:
402,192,231911,1,0,0:0:0:0:
329,192,232000,1,0,0:0:0:0:
182,192,232000,1,0,0:0:0:0:
36,192,232000,1,0,0:0:0:0:
475,192,232088,1,0,0:0:0:0:
256,192,232177,1,0,0:0:0:0:
182,192,232266,1,0,0:0:0:0:
36,192,232266,1,0,0:0:0:0:
329,192,232266,1,0,0:0:0:0:
475,192,232355,1,0,0:0:0:0:
329,192,232444,1,0,0:0:0:0:
36,192,232533,1,0,0:0:0:0:
256,192,232533,1,0,0:0:0:0:
402,192,232533,1,0,0:0:0:0:
109,192,232533,1,0,0:0:0:0:
182,192,232622,1,0,0:0:0:0:
256,192,232711,1,0,0:0:0:0:
402,192,232711,1,0,0:0:0:0:
475,192,232711,1,0,0:0:0:0:
109,192,232800,1,0,0:0:0:0:
475,192,232888,1,0,0:0:0:0:
329,192,232888,1,0,0:0:0:0:
182,192,232888,1,0,0:0:0:0:
36,192,232888,1,0,0:0:0:0:
256,192,232977,1,0,0:0:0:0:
36,192,233066,1,0,0:0:0:0:
109,192,233066,1,0,0:0:0:0:
475,192,233066,1,0,0:0:0:0:
402,192,233066,1,0,0:0:0:0:
256,192,233155,1,0,0:0:0:0:
109,192,233244,1,0,0:0:0:0:
36,192,233244,1,0,0:0:0:0:
402,192,233244,1,0,0:0:0:0:
475,192,233244,1,0,0:0:0:0:
329,192,233244,1,0,0:0:0:0:
182,192,233333,1,0,0:0:0:0:
256,192,233333,1,0,0:0:0:0:
329,192,233422,1,0,0:0:0:0:
402,192,233422,1,0,0:0:0:0:
475,192,233422,1,0,0:0:0:0:
36,192,233422,1,0,0:0:0:0:
109,192,233511,1,0,0:0:0:0:
182,192,233511,1,0,0:0:0:0:
329,192,233600,1,0,0:0:0:0:
402,192,233600,1,0,0:0:0:0:
475,192,233600,1,0,0:0:0:0:
256,192,233600,1,0,0:0:0:0:
36,192,233688,1,0,0:0:0:0:
182,192,233688,1,0,0:0:0:0:
329,192,233777,1,0,0:0:0:0:
475,192,233777,1,0,0:0:0:0:
402,192,233777,1,0,0:0:0:0:
109,192,233777,1,0,0:0:0:0:
182,192,233866,1,0,0:0:0:0:
36,192,233866,1,0,0:0:0:0:
256,192,233955,1,0,0:0:0:0:
402,192,233955,1,0,0:0:0:0:
475,192,233955,1,0,0:0:0:0:
329,192,233955,1,0,0:0:0:0:
109,192,234044,1,0,0:0:0:0:
182,192,234044,1,0,0:0:0:0:
402,192,234133,1,0,0:0:0:0:
475,192,234133,1,0,0:0:0:0:
256,192,234133,1,0,0:0:0:0:
36,192,234133,1,0,0:0:0:0:
109,192,234222,1,0,0:0:0:0:
182,192,234222,1,0,0:0:0:0:
402,192,234311,1,0,0:0:0:0:
475,192,234311,1,0,0:0:0:0:
329,192,234311,1,0,0:0:0:0:
256,192,234311,1,0,0:0:0:0:
36,192,234400,1,0,0:0:0:0:
109,192,234400,1,0,0:0:0:0:
182,192,234488,1,0,0:0:0:0:
256,192,234488,1,0,0:0:0:0:
402,192,234488,1,0,0:0:0:0:
475,192,234488,1,0,0:0:0:0:
36,192,234577,1,0,0:0:0:0:
109,192,234577,1,0,0:0:0:0:
182,192,234666,1,0,0:0:0:0:
256,192,234666,1,0,0:0:0:0:
329,192,234666,1,0,0:0:0:0:
402,192,234666,1,0,0:0:0:0:
475,192,234666,1,0,0:0:0:0:
109,192,234755,1,0,0:0:0:0:
36,192,234755,1,0,0:0:0:0:
402,192,234844,1,0,0:0:0:0:
475,192,234844,1,0,0:0:0:0:
329,192,234844,1,0,0:0:0:0:
256,192,234933,1,0,0:0:0:0:
182,192,234933,1,0,0:0:0:0:
36,192,235022,1,0,0:0:0:0:
109,192,235022,1,0,0:0:0:0:
475,192,235022,1,0,0:0:0:0:
329,192,235022,1,0,0:0:0:0:
402,192,235111,1,0,0:0:0:0:
256,192,235111,1,0,0:0:0:0:
182,192,235200,1,0,0:0:0:0:
36,192,235200,1,0,0:0:0:0:
109,192,235200,1,0,0:0:0:0:
475,192,235200,1,0,0:0:0:0:
329,192,235288,1,0,0:0:0:0:
402,192,235288,1,0,0:0:0:0:
475,192,235377,1,0,0:0:0:0:
256,192,235377,1,0,0:0:0:0:
109,192,235377,1,0,0:0:0:0:
36,192,235377,1,0,0:0:0:0:
182,192,235377,1,0,0:0:0:0:
329,192,235466,1,0,0:0:0:0:
402,192,235466,1,0,0:0:0:0:
109,192,235555,1,0,0:0:0:0:
36,192,235555,1,0,0:0:0:0:
475,192,235555,1,0,0:0:0:0:
182,192,235555,1,0,0:0:0:0:
402,192,235644,1,0,0:0:0:0:
329,192,235644,1,0,0:0:0:0:
109,192,235733,1,0,0:0:0:0:
36,192,235733,1,0,0:0:0:0:
182,192,235733,1,0,0:0:0:0:
256,192,235733,1,0,0:0:0:0:
475,192,235822,1,0,0:0:0:0:
329,192,235822,1,0,0:0:0:0:
402,192,235911,1,0,0:0:0:0:
256,192,235911,1,0,0:0:0:0:
109,192,235911,1,0,0:0:0:0:
36,192,235911,1,0,0:0:0:0:
329,192,236000,1,0,0:0:0:0:
475,192,236000,1,0,0:0:0:0:
109,192,236088,1,0,0:0:0:0:
36,192,236088,1,0,0:0:0:0:
182,192,236088,1,0,0:0:0:0:
256,192,236088,1,0,0:0:0:0:
402,192,236177,1,0,0:0:0:0:
329,192,236177,1,0,0:0:0:0:
475,192,236266,1,0,0:0:0:0:
36,192,236266,1,0,0:0:0:0:
109,192,236266,1,0,0:0:0:0:
256,192,236266,1,0,0:0:0:0:
182,192,236355,1,0,0:0:0:0:
329,192,236355,1,0,0:0:0:0:
256,192,236444,1,0,0:0:0:0:
402,192,236444,1,0,0:0:0:0:
475,192,236444,1,0,0:0:0:0:
36,192,236444,1,0,0:0:0:0:
109,192,236533,1,0,0:0:0:0:
182,192,236533,1,0,0:0:0:0:
402,192,236622,1,0,0:0:0:0:
475,192,236622,1,0,0:0:0:0:
329,192,236622,1,0,0:0:0:0:
36,192,236622,1,0,0:0:0:0:
109,192,236711,1,0,0:0:0:0:
256,192,236711,1,0,0:0:0:0:
182,192,236800,1,0,0:0:0:0:
402,192,236800,1,0,0:0:0:0:
475,192,236800,1,0,0:0:0:0:
329,192,236800,1,0,0:0:0:0:
36,192,236888,1,0,0:0:0:0:
109,192,236888,1,0,0:0:0:0:
256,192,236977,1,0,0:0:0:0:
329,192,236977,1,0,0:0:0:0:
402,192,236977,1,0,0:0:0:0:
475,192,236977,1,0,0:0:0:0:
182,192,237066,1,0,0:0:0:0:
109,192,237066,1,0,0:0:0:0:
36,192,237155,1,0,0:0:0:0:
256,192,237155,1,0,0:0:0:0:
402,192,237155,1,0,0:0:0:0:
475,192,237155,1,0,0:0:0:0:
182,192,237244,1,0,0:0:0:0:
109,192,237244,1,0,0:0:0:0:
475,192,237333,1,0,0:0:0:0:
256,192,237333,1,0,0:0:0:0:
329,192,237333,1,0,0:0:0:0:
402,192,237333,1,0,0:0:0:0:
182,192,237422,1,0,0:0:0:0:
36,192,237422,1,0,0:0:0:0:
402,192,237511,1,0,0:0:0:0:
475,192,237511,1,0,0:0:0:0:
329,192,237511,1,0,0:0:0:0:
109,192,237511,1,0,0:0:0:0:
256,192,237511,1,0,0:0:0:0:
36,192,237600,1,0,0:0:0:0:
182,192,237600,1,0,0:0:0:0:
256,192,237688,1,0,0:0:0:0:
329,192,237688,1,0,0:0:0:0:
402,192,237688,1,0,0:0:0:0:
475,192,237688,1,0,0:0:0:0:
182,192,237777,1,0,0:0:0:0:
109,192,237777,1,0,0:0:0:0:
36,192,237866,1,0,0:0:0:0:
402,192,237866,1,0,0:0:0:0:
475,192,237866,1,0,0:0:0:0:
256,192,237866,1,0,0:0:0:0:
329,192,237955,1,0,0:0:0:0:
182,192,237955,1,0,0:0:0:0:
256,192,238044,1,0,0:0:0:0:
109,192,238044,1,0,0:0:0:0:
36,192,238044,1,0,0:0:0:0:
475,192,238044,1,0,0:0:0:0:
402,192,238133,1,0,0:0:0:0:
329,192,238133,1,0,0:0:0:0:
256,192,238222,1,0,0:0:0:0:
182,192,238222,1,0,0:0:0:0:
109,192,238222,1,0,0:0:0:0:
36,192,238222,1,0,0:0:0:0:
475,192,238311,1,0,0:0:0:0:
329,192,238311,1,0,0:0:0:0:
402,192,238400,1,0,0:0:0:0:
182,192,238400,1,0,0:0:0:0:
36,192,238400,1,0,0:0:0:0:
109,192,238400,1,0,0:0:0:0:
329,192,238488,1,0,0:0:0:0:
256,192,238488,1,0,0:0:0:0:
402,192,238577,1,0,0:0:0:0:
475,192,238577,1,0,0:0:0:0:
182,192,238577,1,0,0:0:0:0:
109,192,238577,1,0,0:0:0:0:
36,192,238577,1,0,0:0:0:0:
256,192,238666,1,0,0:0:0:0:
329,192,238666,1,0,0:0:0:0:
402,192,238755,1,0,0:0:0:0:
475,192,238755,1,0,0:0:0:0:
109,192,238755,1,0,0:0:0:0:
36,192,238755,1,0,0:0:0:0:
182,192,238844,1,0,0:0:0:0:
256,192,238844,1,0,0:0:0:0:
329,192,238933,1,0,0:0:0:0:
402,192,238933,1,0,0:0:0:0:
475,192,238933,1,0,0:0:0:0:
109,192,238933,1,0,0:0:0:0:
36,192,238933,1,0,0:0:0:0:
182,192,239022,1,0,0:0:0:0:
256,192,239022,1,0,0:0:0:0:
329,192,239111,1,0,0:0:0:0:
402,192,239111,1,0,0:0:0:0:
475,192,239111,1,0,0:0:0:0:
36,192,239111,1,0,0:0:0:0:
109,192,239200,1,0,0:0:0:0:
182,192,239200,1,0,0:0:0:0:
256,192,239288,1,0,0:0:0:0:
402,192,239288,1,0,0:0:0:0:
475,192,239288,1,0,0:0:0:0:
329,192,239288,1,0,0:0:0:0:
36,192,239377,1,0,0:0:0:0:
182,192,239377,1,0,0:0:0:0:
109,192,239466,1,0,0:0:0:0:
329,192,239466,1,0,0:0:0:0:
402,192,239466,1,0,0:0:0:0:
475,192,239466,1,0,0:0:0:0:
182,192,239555,1,0,0:0:0:0:
256,192,239555,1,0,0:0:0:0:
36,192,239644,1,0,0:0:0:0:
109,192,239644,1,0,0:0:0:0:
402,192,239644,1,0,0:0:0:0:
475,192,239644,1,0,0:0:0:0:
182,192,239733,1,0,0:0:0:0:
256,192,239733,1,0,0:0:0:0:
329,192,239822,1,0,0:0:0:0:
402,192,239822,1,0,0:0:0:0:
475,192,239822,1,0,0:0:0:0:
36,192,239822,1,0,0:0:0:0:
109,192,239911,1,0,0:0:0:0:
182,192,239911,1,0,0:0:0:0:
256,192,240000,1,0,0:0:0:0:
402,192,240000,1,0,0:0:0:0:
475,192,240000,1,0,0:0:0:0:
329,192,240000,1,0,0:0:0:0:
36,192,240088,1,0,0:0:0:0:
182,192,240088,1,0,0:0:0:0:
402,192,240177,1,0,0:0:0:0:
475,192,240177,1,0,0:0:0:0:
256,192,240177,1,0,0:0:0:0:
109,192,240177,1,0,0:0:0:0:
182,192,240266,1,0,0:0:0:0:
36,192,240266,1,0,0:0:0:0:
256,192,240355,1,0,0:0:0:0:
329,192,240355,1,0,0:0:0:0:
402,192,240355,1,0,0:0:0:0:
475,192,240355,1,0,0:0:0:0:
182,192,240444,1,0,0:0:0:0:
109,192,240444,1,0,0:0:0:0:
36,192,240533,1,0,0:0:0:0:
256,192,240533,1,0,0:0:0:0:
475,192,240533,1,0,0:0:0:0:
329,192,240533,1,0,0:0:0:0:
402,192,240622,1,0,0:0:0:0:
182,192,240622,1,0,0:0:0:0:
329,192,240711,1,0,0:0:0:0:
256,192,240711,1,0,0:0:0:0:
109,192,240711,1,0,0:0:0:0:
36,192,240711,1,0,0:0:0:0:
475,192,240800,1,0,0:0:0:0:
402,192,240800,1,0,0:0:0:0:
36,192,240888,1,0,0:0:0:0:
109,192,240888,1,0,0:0:0:0:
182,192,240888,1,0,0:0:0:0:
256,192,240888,1,0,0:0:0:0:
329,192,240977,1,0,0:0:0:0:
402,192,240977,1,0,0:0:0:0:
475,192,241066,1,0,0:0:0:0:
256,192,241066,1,0,0:0:0:0:
109,192,241066,1,0,0:0:0:0:
36,192,241066,1,0,0:0:0:0:
329,192,241155,1,0,0:0:0:0:
402,192,241155,1,0,0:0:0:0:
182,192,241244,1,0,0:0:0:0:
109,192,241244,1,0,0:0:0:0:
36,192,241244,1,0,0:0:0:0:
256,192,241244,1,0,0:0:0:0:
475,192,241333,1,0,0:0:0:0:
402,192,241333,1,0,0:0:0:0:
329,192,241422,1,0,0:0:0:0:
109,192,241422,1,0,0:0:0:0:
36,192,241422,1,0,0:0:0:0:
182,192,241422,1,0,0:0:0:0:
256,192,241511,1,0,0:0:0:0:
402,192,241511,1,0,0:0:0:0:
329,192,241600,1,0,0:0:0:0:
475,192,241600,1,0,0:0:0:0:
36,192,241600,1,0,0:0:0:0:
109,192,241600,1,0,0:0:0:0:
182,192,241688,1,0,0:0:0:0:
256,192,241688,1,0,0:0:0:0:
402,192,241777,1,0,0:0:0:0:
475,192,241777,1,0,0:0:0:0:
329,192,241777,1,0,0:0:0:0:
36,192,241777,1,0,0:0:0:0:
109,192,241777,1,0,0:0:0:0:
182,192,241866,1,0,0:0:0:0:
256,192,241866,1,0,0:0:0:0:
329,192,241955,1,0,0:0:0:0:
402,192,241955,1,0,0:0:0:0:
475,192,241955,1,0,0:0:0:0:
36,192,241955,1,0,0:0:0:0:
109,192,242044,1,0,0:0:0:0:
182,192,242044,1,0,0:0:0:0:
256,192,242133,1,0,0:0:0:0:
402,192,242133,1,0,0:0:0:0:
475,192,242133,1,0,0:0:0:0:
329,192,242133,1,0,0:0:0:0:
36,192,242222,1,0,0:0:0:0:
182,192,242222,1,0,0:0:0:0:
109,192,242311,1,0,0:0:0:0:
256,192,242311,1,0,0:0:0:0:
402,192,242311,1,0,0:0:0:0:
475,192,242311,1,0,0:0:0:0:
36,192,242400,1,0,0:0:0:0:
182,192,242400,1,0,0:0:0:0:
256,192,242488,1,0,0:0:0:0:
402,192,242488,1,0,0:0:0:0:
475,192,242488,1,0,0:0:0:0:
329,192,242488,1,0,0:0:0:0:
36,192,242577,1,0,0:0:0:0:
109,192,242577,1,0,0:0:0:0:
182,192,242666,1,0,0:0:0:0:
402,192,242666,1,0,0:0:0:0:
475,192,242666,1,0,0:0:0:0:
256,192,242666,1,0,0:0:0:0:
36,192,242755,1,0,0:0:0:0:
109,192,242755,1,0,0:0:0:0:
256,192,242844,1,0,0:0:0:0:
329,192,242844,1,0,0:0:0:0:
402,192,242844,1,0,0:0:0:0:
475,192,242844,1,0,0:0:0:0:
182,192,242933,1,0,0:0:0:0:
109,192,242933,1,0,0:0:0:0:
36,192,243022,1,0,0:0:0:0:
256,192,243022,1,0,0:0:0:0:
475,192,243022,1,0,0:0:0:0:
402,192,243022,1,0,0:0:0:0:
329,192,243111,1,0,0:0:0:0:
182,192,243111,1,0,0:0:0:0:
109,192,243200,1,0,0:0:0:0:
36,192,243200,1,0,0:0:0:0:
256,192,243200,1,0,0:0:0:0:
475,192,243200,1,0,0:0:0:0:
402,192,243200,1,0,0:0:0:0:
329,192,243288,1,0,0:0:0:0:
182,192,243288,1,0,0:0:0:0:
109,192,243377,1,0,0:0:0:0:
36,192,243377,1,0,0:0:0:0:
256,192,243377,1,0,0:0:0:0:
475,192,243377,1,0,0:0:0:0:
402,192,243466,1,0,0:0:0:0:
329,192,243466,1,0,0:0:0:0:
256,192,243555,1,0,0:0:0:0:
109,192,243555,1,0,0:0:0:0:
36,192,243555,1,0,0:0:0:0:
182,192,243555,1,0,0:0:0:0:
475,192,243644,1,0,0:0:0:0:
329,192,243644,1,0,0:0:0:0:
109,192,243733,1,0,0:0:0:0:
36,192,243733,1,0,0:0:0:0:
256,192,243733,1,0,0:0:0:0:
402,192,243733,1,0,0:0:0:0:
329,192,243822,1,0,0:0:0:0:
475,192,243822,1,0,0:0:0:0:
256,192,243911,1,0,0:0:0:0:
109,192,243911,1,0,0:0:0:0:
36,192,243911,1,0,0:0:0:0:
182,192,243911,1,0,0:0:0:0:
475,192,244000,1,0,0:0:0:0:
402,192,244000,1,0,0:0:0:0:
109,192,244088,1,0,0:0:0:0:
36,192,244088,1,0,0:0:0:0:
329,192,244088,1,0,0:0:0:0:
256,192,244177,1,0,0:0:0:0:
182,192,244177,1,0,0:0:0:0:
475,192,244177,1,0,0:0:0:0:
36,192,244266,1,0,0:0:0:0:
109,192,244266,1,0,0:0:0:0:
402,192,244266,1,0,0:0:0:0:
329,192,244266,1,0,0:0:0:0:
256,192,244355,1,0,0:0:0:0:
182,192,244355,1,0,0:0:0:0:
109,192,244444,1,0,0:0:0:0:
36,192,244444,1,0,0:0:0:0:
402,192,244444,1,0,0:0:0:0:
475,192,244444,1,0,0:0:0:0:
329,192,244533,1,0,0:0:0:0:
256,192,244533,1,0,0:0:0:0:
109,192,244622,1,0,0:0:0:0:
36,192,244622,1,0,0:0:0:0:
182,192,244622,1,0,0:0:0:0:
402,192,244622,1,0,0:0:0:0:
475,192,244622,1,0,0:0:0:0:
256,192,244711,1,0,0:0:0:0:
329,192,244711,1,0,0:0:0:0:
402,192,244800,1,0,0:0:0:0:
475,192,244800,1,0,0:0:0:0:
182,192,244800,1,0,0:0:0:0:
36,192,244800,1,0,0:0:0:0:
256,192,244888,1,0,0:0:0:0:
329,192,244888,1,0,0:0:0:0:
402,192,244977,1,0,0:0:0:0:
475,192,244977,1,0,0:0:0:0:
36,192,244977,1,0,0:0:0:0:
109,192,244977,1,0,0:0:0:0:
182,192,245066,1,0,0:0:0:0:
329,192,245066,1,0,0:0:0:0:
256,192,245155,1,0,0:0:0:0:
36,192,245155,1,0,0:0:0:0:
109,192,245155,1,0,0:0:0:0:
475,192,245155,1,0,0:0:0:0:
329,192,245244,1,0,0:0:0:0:
402,192,245244,1,0,0:0:0:0:
475,192,245333,1,0,0:0:0:0:
182,192,245333,1,0,0:0:0:0:
109,192,245333,1,0,0:0:0:0:
36,192,245333,1,0,0:0:0:0:
256,192,245422,1,0,0:0:0:0:
329,192,245422,1,0,0:0:0:0:
402,192,245511,1,0,0:0:0:0:
475,192,245511,1,0,0:0:0:0:
36,192,245511,1,0,0:0:0:0:
109,192,245511,1,0,0:0:0:0:
182,192,245600,1,0,0:0:0:0:
256,192,245600,1,0,0:0:0:0:
329,192,245688,1,0,0:0:0:0:
475,192,245688,1,0,0:0:0:0:
36,192,245688,1,0,0:0:0:0:
109,192,245688,1,0,0:0:0:0:
182,192,245777,1,0,0:0:0:0:
256,192,245777,1,0,0:0:0:0:
402,192,245866,1,0,0:0:0:0:
109,192,245866,1,0,0:0:0:0:
36,192,245866,1,0,0:0:0:0:
475,192,245866,1,0,0:0:0:0:
256,192,245955,1,0,0:0:0:0:
329,192,245955,1,0,0:0:0:0:
36,192,246044,1,0,0:0:0:0:
182,192,246044,1,0,0:0:0:0:
402,192,246044,1,0,0:0:0:0:
475,192,246044,1,0,0:0:0:0:
256,192,246133,1,0,0:0:0:0:
329,192,246133,1,0,0:0:0:0:
402,192,246222,1,0,0:0:0:0:
475,192,246222,1,0,0:0:0:0:
36,192,246222,1,0,0:0:0:0:
109,192,246222,1,0,0:0:0:0:
182,192,246311,1,0,0:0:0:0:
329,192,246311,1,0,0:0:0:0:
256,192,246400,1,0,0:0:0:0:
109,192,246400,1,0,0:0:0:0:
36,192,246400,1,0,0:0:0:0:
475,192,246400,1,0,0:0:0:0:
402,192,246488,1,0,0:0:0:0:
329,192,246488,1,0,0:0:0:0:
109,192,246577,1,0,0:0:0:0:
36,192,246577,1,0,0:0:0:0:
182,192,246577,1,0,0:0:0:0:
475,192,246577,1,0,0:0:0:0:
256,192,246666,1,0,0:0:0:0:
329,192,246666,1,0,0:0:0:0:
402,192,246755,1,0,0:0:0:0:
475,192,246755,1,0,0:0:0:0:
36,192,246755,1,0,0:0:0:0:
182,192,246755,1,0,0:0:0:0:
256,192,246844,1,0,0:0:0:0:
109,192,246844,1,0,0:0:0:0:
329,192,246933,1,0,0:0:0:0:
402,192,246933,1,0,0:0:0:0:
475,192,246933,1,0,0:0:0:0:
36,192,246933,1,0,0:0:0:0:
109,192,247022,1,0,0:0:0:0:
182,192,247022,1,0,0:0:0:0:
256,192,247111,1,0,0:0:0:0:
402,192,247111,1,0,0:0:0:0:
475,192,247111,1,0,0:0:0:0:
329,192,247111,1,0,0:0:0:0:
36,192,247200,1,0,0:0:0:0:
182,192,247200,1,0,0:0:0:0:
256,192,247288,1,0,0:0:0:0:
402,192,247288,1,0,0:0:0:0:
475,192,247288,1,0,0:0:0:0:
329,192,247288,1,0,0:0:0:0:
109,192,247377,1,0,0:0:0:0:
182,192,247377,1,0,0:0:0:0:
329,192,247466,1,0,0:0:0:0:
475,192,247466,1,0,0:0:0:0:
402,192,247466,1,0,0:0:0:0:
36,192,247466,1,0,0:0:0:0:
256,192,247466,1,0,0:0:0:0:
109,192,247555,1,0,0:0:0:0:
182,192,247555,1,0,0:0:0:0:
329,192,247644,1,0,0:0:0:0:
475,192,247644,1,0,0:0:0:0:
402,192,247644,1,0,0:0:0:0:
36,192,247644,1,0,0:0:0:0:
256,192,247733,1,0,0:0:0:0:
182,192,247733,1,0,0:0:0:0:
109,192,247822,1,0,0:0:0:0:
36,192,247822,1,0,0:0:0:0:
475,192,247822,1,0,0:0:0:0:
402,192,247822,1,0,0:0:0:0:
182,192,247911,1,0,0:0:0:0:
329,192,247911,1,0,0:0:0:0:
256,192,248000,1,0,0:0:0:0:
36,192,248000,1,0,0:0:0:0:
109,192,248000,1,0,0:0:0:0:
475,192,248000,1,0,0:0:0:0:
329,192,248088,1,0,0:0:0:0:
402,192,248088,1,0,0:0:0:0:
475,192,248177,1,0,0:0:0:0:
109,192,248177,1,0,0:0:0:0:
36,192,248177,1,0,0:0:0:0:
182,192,248177,1,0,0:0:0:0:
329,192,248266,1,0,0:0:0:0:
256,192,248266,1,0,0:0:0:0:
402,192,248355,1,0,0:0:0:0:
475,192,248355,1,0,0:0:0:0:
36,192,248355,1,0,0:0:0:0:
109,192,248355,1,0,0:0:0:0:
182,192,248444,1,0,0:0:0:0:
256,192,248444,1,0,0:0:0:0:
475,192,248533,1,0,0:0:0:0:
36,192,248533,1,0,0:0:0:0:
329,192,248533,1,0,0:0:0:0:
109,192,248533,1,0,0:0:0:0:
402,192,248622,1,0,0:0:0:0:
256,192,248622,1,0,0:0:0:0:
329,192,248711,1,0,0:0:0:0:
475,192,248711,1,0,0:0:0:0:
109,192,248711,1,0,0:0:0:0:
36,192,248711,1,0,0:0:0:0:
182,192,248800,1,0,0:0:0:0:
256,192,248800,1,0,0:0:0:0:
402,192,248888,1,0,0:0:0:0:
475,192,248888,1,0,0:0:0:0:
109,192,248888,1,0,0:0:0:0:
36,192,248888,1,0,0:0:0:0:
329,192,248977,1,0,0:0:0:0:
256,192,248977,1,0,0:0:0:0:
182,192,249066,1,0,0:0:0:0:
36,192,249066,1,0,0:0:0:0:
109,192,249066,1,0,0:0:0:0:
475,192,249066,1,0,0:0:0:0:
402,192,249155,1,0,0:0:0:0:
256,192,249155,1,0,0:0:0:0:
329,192,249244,1,0,0:0:0:0:
182,192,249244,1,0,0:0:0:0:
109,192,249244,1,0,0:0:0:0:
36,192,249244,1,0,0:0:0:0:
475,192,249333,1,0,0:0:0:0:
402,192,249333,1,0,0:0:0:0:
182,192,249422,1,0,0:0:0:0:
256,192,249422,1,0,0:0:0:0:
109,192,249422,1,0,0:0:0:0:
36,192,249422,1,0,0:0:0:0:
402,192,249511,1,0,0:0:0:0:
475,192,249511,1,0,0:0:0:0:
182,192,249600,1,0,0:0:0:0:
329,192,249600,1,0,0:0:0:0:
109,192,249600,1,0,0:0:0:0:
36,192,249600,1,0,0:0:0:0:
256,192,249688,1,0,0:0:0:0:
402,192,249688,1,0,0:0:0:0:
329,192,249777,1,0,0:0:0:0:
475,192,249777,1,0,0:0:0:0:
36,192,249777,1,0,0:0:0:0:
109,192,249777,1,0,0:0:0:0:
182,192,249866,1,0,0:0:0:0:
256,192,249866,1,0,0:0:0:0:
402,192,249955,1,0,0:0:0:0:
475,192,249955,1,0,0:0:0:0:
109,192,249955,1,0,0:0:0:0:
36,192,249955,1,0,0:0:0:0:
329,192,249955,1,0,0:0:0:0:
256,192,250044,1,0,0:0:0:0:
182,192,250044,1,0,0:0:0:0:
109,192,250133,1,0,0:0:0:0:
36,192,250133,1,0,0:0:0:0:
402,192,250133,1,0,0:0:0:0:
475,192,250133,1,0,0:0:0:0:
329,192,250222,1,0,0:0:0:0:
256,192,250222,1,0,0:0:0:0:
402,192,250311,1,0,0:0:0:0:
475,192,250311,1,0,0:0:0:0:
182,192,250311,1,0,0:0:0:0:
109,192,250311,1,0,0:0:0:0:
36,192,250311,1,0,0:0:0:0:
329,192,250400,1,0,0:0:0:0:
256,192,250400,1,0,0:0:0:0:
109,192,250488,1,0,0:0:0:0:
36,192,250488,1,0,0:0:0:0:
182,192,250488,1,0,0:0:0:0:
475,192,250488,1,0,0:0:0:0:
402,192,250577,1,0,0:0:0:0:
329,192,250577,1,0,0:0:0:0:
256,192,250666,1,0,0:0:0:0:
109,192,250666,1,0,0:0:0:0:
36,192,250666,1,0,0:0:0:0:
182,192,250666,1,0,0:0:0:0:
475,192,250755,1,0,0:0:0:0:
329,192,250755,1,0,0:0:0:0:
402,192,250844,1,0,0:0:0:0:
256,192,250844,1,0,0:0:0:0:
109,192,250844,1,0,0:0:0:0:
36,192,250844,1,0,0:0:0:0:
329,192,250933,1,0,0:0:0:0:
475,192,250933,1,0,0:0:0:0:
256,192,251022,1,0,0:0:0:0:
109,192,251022,1,0,0:0:0:0:
36,192,251022,1,0,0:0:0:0:
182,192,251022,1,0,0:0:0:0:
402,192,251111,1,0,0:0:0:0:
475,192,251111,1,0,0:0:0:0:
329,192,251200,1,0,0:0:0:0:
182,192,251200,1,0,0:0:0:0:
109,192,251200,1,0,0:0:0:0:
36,192,251200,1,0,0:0:0:0:
475,192,251288,1,0,0:0:0:0:
402,192,251288,1,0,0:0:0:0:
182,192,251377,1,0,0:0:0:0:
109,192,251377,1,0,0:0:0:0:
36,192,251377,1,0,0:0:0:0:
256,192,251377,1,0,0:0:0:0:
329,192,251466,1,0,0:0:0:0:
402,192,251466,1,0,0:0:0:0:
475,192,251555,1,0,0:0:0:0:
256,192,251555,1,0,0:0:0:0:
36,192,251555,1,0,0:0:0:0:
109,192,251555,1,0,0:0:0:0:
182,192,251644,1,0,0:0:0:0:
329,192,251644,1,0,0:0:0:0:
402,192,251733,1,0,0:0:0:0:
475,192,251733,1,0,0:0:0:0:
36,192,251733,1,0,0:0:0:0:
256,192,251733,1,0,0:0:0:0:
109,192,251822,1,0,0:0:0:0:
182,192,251822,1,0,0:0:0:0:
329,192,251911,1,0,0:0:0:0:
475,192,251911,1,0,0:0:0:0:
402,192,251911,1,0,0:0:0:0:
36,192,251911,1,0,0:0:0:0:
109,192,252000,1,0,0:0:0:0:
256,192,252000,1,0,0:0:0:0:
182,192,252088,1,0,0:0:0:0:
475,192,252088,1,0,0:0:0:0:
402,192,252088,1,0,0:0:0:0:
329,192,252088,1,0,0:0:0:0:
36,192,252177,1,0,0:0:0:0:
109,192,252177,1,0,0:0:0:0:
182,192,252266,1,0,0:0:0:0:
256,192,252266,1,0,0:0:0:0:
402,192,252266,1,0,0:0:0:0:
475,192,252266,1,0,0:0:0:0:
109,192,252355,1,0,0:0:0:0:
36,192,252355,1,0,0:0:0:0:
182,192,252444,1,0,0:0:0:0:
329,192,252444,1,0,0:0:0:0:
402,192,252444,1,0,0:0:0:0:
475,192,252444,1,0,0:0:0:0:
36,192,252533,1,0,0:0:0:0:
256,192,252533,1,0,0:0:0:0:
402,192,252622,1,0,0:0:0:0:
475,192,252622,1,0,0:0:0:0:
109,192,252622,1,0,0:0:0:0:
182,192,252622,1,0,0:0:0:0:
256,192,252711,1,0,0:0:0:0:
36,192,252711,1,0,0:0:0:0:
329,192,252800,1,0,0:0:0:0:
402,192,252800,1,0,0:0:0:0:
475,192,252800,1,0,0:0:0:0:
109,192,252800,1,0,0:0:0:0:
182,192,252888,1,0,0:0:0:0:
256,192,252888,1,0,0:0:0:0:
36,192,252977,1,0,0:0:0:0:
109,192,252977,1,0,0:0:0:0:
402,192,252977,1,0,0:0:0:0:
475,192,252977,1,0,0:0:0:0:
329,192,252977,1,0,0:0:0:0:
182,192,253066,1,0,0:0:0:0:
256,192,253066,1,0,0:0:0:0:
36,192,253155,1,0,0:0:0:0:
402,192,253155,1,0,0:0:0:0:
475,192,253155,1,0,0:0:0:0:
109,192,253155,1,0,0:0:0:0:
182,192,253244,1,0,0:0:0:0:
329,192,253244,1,0,0:0:0:0:
256,192,253333,1,0,0:0:0:0:
36,192,253333,1,0,0:0:0:0:
109,192,253333,1,0,0:0:0:0:
475,192,253333,1,0,0:0:0:0:
329,192,253422,1,0,0:0:0:0:
402,192,253422,1,0,0:0:0:0:
475,192,253511,1,0,0:0:0:0:
36,192,253511,1,0,0:0:0:0:
109,192,253511,1,0,0:0:0:0:
182,192,253511,1,0,0:0:0:0:
256,192,253600,1,0,0:0:0:0:
329,192,253600,1,0,0:0:0:0:
402,192,253688,1,0,0:0:0:0:
475,192,253688,1,0,0:0:0:0:
36,192,253688,1,0,0:0:0:0:
182,192,253688,1,0,0:0:0:0:
256,192,253777,1,0,0:0:0:0:
329,192,253777,1,0,0:0:0:0:
402,192,253866,1,0,0:0:0:0:
475,192,253866,1,0,0:0:0:0:
109,192,253866,1,0,0:0:0:0:
36,192,253866,1,0,0:0:0:0:
182,192,253955,1,0,0:0:0:0:
329,192,253955,1,0,0:0:0:0:
109,192,254044,1,0,0:0:0:0:
36,192,254044,1,0,0:0:0:0:
475,192,254044,1,0,0:0:0:0:
402,192,254044,1,0,0:0:0:0:
182,192,254133,1,0,0:0:0:0:
256,192,254133,1,0,0:0:0:0:
329,192,254222,1,0,0:0:0:0:
402,192,254222,1,0,0:0:0:0:
475,192,254222,1,0,0:0:0:0:
36,192,254222,1,0,0:0:0:0:
109,192,254311,1,0,0:0:0:0:
182,192,254311,1,0,0:0:0:0:
256,192,254400,1,0,0:0:0:0:
402,192,254400,1,0,0:0:0:0:
475,192,254400,1,0,0:0:0:0:
329,192,254400,1,0,0:0:0:0:
36,192,254488,1,0,0:0:0:0:
109,192,254488,1,0,0:0:0:0:
182,192,254577,1,0,0:0:0:0:
329,192,254577,1,0,0:0:0:0:
402,192,254577,1,0,0:0:0:0:
475,192,254577,1,0,0:0:0:0:
256,192,254577,1,0,0:0:0:0:
36,192,254666,1,0,0:0:0:0:
109,192,254666,1,0,0:0:0:0:
182,192,254755,1,0,0:0:0:0:
329,192,254755,1,0,0:0:0:0:
402,192,254755,1,0,0:0:0:0:
475,192,254755,1,0,0:0:0:0:
256,192,254844,1,0,0:0:0:0:
36,192,254844,1,0,0:0:0:0:
402,192,254933,1,0,0:0:0:0:
475,192,254933,1,0,0:0:0:0:
329,192,254933,1,0,0:0:0:0:
182,192,254933,1,0,0:0:0:0:
36,192,255022,1,0,0:0:0:0:
109,192,255022,1,0,0:0:0:0:
402,192,255111,1,0,0:0:0:0:
475,192,255111,1,0,0:0:0:0:
329,192,255111,1,0,0:0:0:0:
256,192,255111,1,0,0:0:0:0:
109,192,255200,1,0,0:0:0:0:
182,192,255200,1,0,0:0:0:0:
36,192,255288,1,0,0:0:0:0:
475,192,255288,1,0,0:0:0:0:
329,192,255288,1,0,0:0:0:0:
256,192,255288,1,0,0:0:0:0:
402,192,255377,1,0,0:0:0:0:
182,192,255377,1,0,0:0:0:0:
109,192,255466,1,0,0:0:0:0:
36,192,255466,1,0,0:0:0:0:
475,192,255466,1,0,0:0:0:0:
256,192,255466,1,0,0:0:0:0:
402,192,255555,1,0,0:0:0:0:
329,192,255555,1,0,0:0:0:0:
109,192,255644,1,0,0:0:0:0:
182,192,255644,1,0,0:0:0:0:
475,192,255644,1,0,0:0:0:0:
36,192,255644,1,0,0:0:0:0:
329,192,255733,1,0,0:0:0:0:
256,192,255733,1,0,0:0:0:0:
475,192,255822,1,0,0:0:0:0:
36,192,255822,1,0,0:0:0:0:
109,192,255822,1,0,0:0:0:0:
182,192,255822,1,0,0:0:0:0:
256,192,255911,1,0,0:0:0:0:
329,192,255911,1,0,0:0:0:0:
475,192,256000,1,0,0:0:0:0:
182,192,256000,1,0,0:0:0:0:
109,192,256000,1,0,0:0:0:0:
36,192,256000,1,0,0:0:0:0:
402,192,256000,1,0,0:0:0:0:
329,192,256088,1,0,0:0:0:0:
256,192,256088,1,0,0:0:0:0:
109,192,256177,1,0,0:0:0:0:
36,192,256177,1,0,0:0:0:0:
182,192,256177,1,0,0:0:0:0:
475,192,256177,1,0,0:0:0:0:
402,192,256266,1,0,0:0:0:0:
329,192,256266,1,0,0:0:0:0:
256,192,256355,1,0,0:0:0:0:
109,192,256355,1,0,0:0:0:0:
36,192,256355,1,0,0:0:0:0:
475,192,256355,1,0,0:0:0:0:
402,192,256444,1,0,0:0:0:0:
329,192,256444,1,0,0:0:0:0:
256,192,256533,1,0,0:0:0:0:
109,192,256533,1,0,0:0:0:0:
36,192,256533,1,0,0:0:0:0:
182,192,256533,1,0,0:0:0:0:
475,192,256622,1,0,0:0:0:0:
402,192,256622,1,0,0:0:0:0:
329,192,256711,1,0,0:0:0:0:
182,192,256711,1,0,0:0:0:0:
109,192,256711,1,0,0:0:0:0:
36,192,256711,1,0,0:0:0:0:
256,192,256800,1,0,0:0:0:0:
475,192,256800,1,0,0:0:0:0:
402,192,256888,1,0,0:0:0:0:
109,192,256888,1,0,0:0:0:0:
36,192,256888,1,0,0:0:0:0:
182,192,256888,1,0,0:0:0:0:
329,192,256977,1,0,0:0:0:0:
475,192,256977,1,0,0:0:0:0:
256,192,257066,1,0,0:0:0:0:
109,192,257066,1,0,0:0:0:0:
36,192,257066,1,0,0:0:0:0:
182,192,257066,1,0,0:0:0:0:
329,192,257155,1,0,0:0:0:0:
402,192,257155,1,0,0:0:0:0:
475,192,257244,1,0,0:0:0:0:
36,192,257244,1,0,0:0:0:0:
109,192,257244,1,0,0:0:0:0:
256,192,257244,1,0,0:0:0:0:
182,192,257333,1,0,0:0:0:0:
329,192,257333,1,0,0:0:0:0:
475,192,257422,1,0,0:0:0:0:
36,192,257422,1,0,0:0:0:0:
256,192,257422,1,0,0:0:0:0:
402,192,257422,1,0,0:0:0:0:
109,192,257511,1,0,0:0:0:0:
182,192,257511,1,0,0:0:0:0:
475,192,257600,1,0,0:0:0:0:
329,192,257600,1,0,0:0:0:0:
402,192,257600,1,0,0:0:0:0:
256,192,257600,1,0,0:0:0:0:
36,192,257688,1,0,0:0:0:0:
182,192,257688,1,0,0:0:0:0:
109,192,257777,1,0,0:0:0:0:
402,192,257777,1,0,0:0:0:0:
475,192,257777,1,0,0:0:0:0:
256,192,257777,1,0,0:0:0:0:
182,192,257866,1,0,0:0:0:0:
36,192,257866,1,0,0:0:0:0:
402,192,257955,1,0,0:0:0:0:
475,192,257955,1,0,0:0:0:0:
329,192,257955,1,0,0:0:0:0:
256,192,257955,1,0,0:0:0:0:
36,192,258044,1,0,0:0:0:0:
109,192,258044,1,0,0:0:0:0:
182,192,258133,1,0,0:0:0:0:
256,192,258133,1,0,0:0:0:0:
329,192,258133,1,0,0:0:0:0:
475,192,258133,1,0,0:0:0:0:
109,192,258222,1,0,0:0:0:0:
36,192,258222,1,0,0:0:0:0:
182,192,258311,1,0,0:0:0:0:
256,192,258311,1,0,0:0:0:0:
402,192,258311,1,0,0:0:0:0:
475,192,258311,1,0,0:0:0:0:
329,192,258400,1,0,0:0:0:0:
109,192,258400,1,0,0:0:0:0:
36,192,258488,1,0,0:0:0:0:
475,192,258488,1,0,0:0:0:0:
402,192,258488,1,0,0:0:0:0:
256,192,258488,1,0,0:0:0:0:
109,192,258577,1,0,0:0:0:0:
182,192,258577,1,0,0:0:0:0:
329,192,258666,1,0,0:0:0:0:
402,192,258666,1,0,0:0:0:0:
475,192,258666,1,0,0:0:0:0:
36,192,258666,1,0,0:0:0:0:
256,192,258755,1,0,0:0:0:0:
182,192,258755,1,0,0:0:0:0:
109,192,258844,1,0,0:0:0:0:
36,192,258844,1,0,0:0:0:0:
475,192,258844,1,0,0:0:0:0:
402,192,258844,1,0,0:0:0:0:
329,192,258844,1,0,0:0:0:0:
256,192,258933,1,0,0:0:0:0:
182,192,258933,1,0,0:0:0:0:
109,192,259022,1,0,0:0:0:0:
36,192,259022,1,0,0:0:0:0:
475,192,259022,1,0,0:0:0:0:
329,192,259022,1,0,0:0:0:0:
402,192,259111,1,0,0:0:0:0:
256,192,259111,1,0,0:0:0:0:
182,192,259200,1,0,0:0:0:0:
109,192,259200,1,0,0:0:0:0:
36,192,259200,1,0,0:0:0:0:
329,192,259200,1,0,0:0:0:0:
475,192,259288,1,0,0:0:0:0:
402,192,259288,1,0,0:0:0:0:
109,192,259377,1,0,0:0:0:0:
36,192,259377,1,0,0:0:0:0:
256,192,259377,1,0,0:0:0:0:
329,192,259377,1,0,0:0:0:0:
475,192,259466,1,0,0:0:0:0:
402,192,259466,1,0,0:0:0:0:
109,192,259555,1,0,0:0:0:0:
182,192,259555,1,0,0:0:0:0:
36,192,259555,1,0,0:0:0:0:
256,192,259555,1,0,0:0:0:0:
329,192,259644,1,0,0:0:0:0:
475,192,259644,1,0,0:0:0:0:
256,192,259733,1,0,0:0:0:0:
109,192,259733,1,0,0:0:0:0:
36,192,259733,1,0,0:0:0:0:
402,192,259733,1,0,0:0:0:0:
329,192,259822,1,0,0:0:0:0:
475,192,259822,1,0,0:0:0:0:
402,192,259911,1,0,0:0:0:0:
109,192,259911,1,0,0:0:0:0:
36,192,259911,1,0,0:0:0:0:
182,192,259911,1,0,0:0:0:0:
256,192,260000,1,0,0:0:0:0:
329,192,260000,1,0,0:0:0:0:
475,192,260088,1,0,0:0:0:0:
402,192,260088,1,0,0:0:0:0:
36,192,260088,1,0,0:0:0:0:
109,192,260088,1,0,0:0:0:0:
182,192,260177,1,0,0:0:0:0:
329,192,260177,1,0,0:0:0:0:
256,192,260266,1,0,0:0:0:0:
402,192,260266,1,0,0:0:0:0:
475,192,260266,1,0,0:0:0:0:
36,192,260266,1,0,0:0:0:0:
109,192,260266,1,0,0:0:0:0:
182,192,260355,1,0,0:0:0:0:
329,192,260355,1,0,0:0:0:0:
475,192,260444,1,0,0:0:0:0:
256,192,260444,1,0,0:0:0:0:
402,192,260444,1,0,0:0:0:0:
36,192,260444,1,0,0:0:0:0:
109,192,260533,1,0,0:0:0:0:
182,192,260533,1,0,0:0:0:0:
329,192,260622,1,0,0:0:0:0:
402,192,260622,1,0,0:0:0:0:
475,192,260622,1,0,0:0:0:0:
256,192,260622,1,0,0:0:0:0:
36,192,260711,1,0,0:0:0:0:
109,192,260711,1,0,0:0:0:0:
182,192,260800,1,0,0:0:0:0:
402,192,260800,1,0,0:0:0:0:
329,192,260800,1,0,0:0:0:0:
475,192,260800,1,0,0:0:0:0:
256,192,260888,1,0,0:0:0:0:
109,192,260888,1,0,0:0:0:0:
36,192,260977,1,0,0:0:0:0:
182,192,260977,1,0,0:0:0:0:
402,192,260977,1,0,0:0:0:0:
475,192,260977,1,0,0:0:0:0:
329,192,261066,1,0,0:0:0:0:
256,192,261066,1,0,0:0:0:0:
109,192,261155,1,0,0:0:0:0:
36,192,261155,1,0,0:0:0:0:
475,192,261155,1,0,0:0:0:0:
402,192,261155,1,0,0:0:0:0:
182,192,261244,1,0,0:0:0:0:
256,192,261244,1,0,0:0:0:0:
36,192,261333,1,0,0:0:0:0:
329,192,261333,1,0,0:0:0:0:
402,192,261333,1,0,0:0:0:0:
475,192,261333,1,0,0:0:0:0:
109,192,261333,1,0,0:0:0:0:
256,192,261422,1,0,0:0:0:0:
182,192,261422,1,0,0:0:0:0:
329,192,261511,1,0,0:0:0:0:
402,192,261511,1,0,0:0:0:0:
475,192,261511,1,0,0:0:0:0:
36,192,261511,1,0,0:0:0:0:
182,192,261600,1,0,0:0:0:0:
256,192,261600,1,0,0:0:0:0:
329,192,261688,1,0,0:0:0:0:
402,192,261688,1,0,0:0:0:0:
475,192,261688,1,0,0:0:0:0:
109,192,261688,1,0,0:0:0:0:
36,192,261688,1,0,0:0:0:0:
182,192,261777,1,0,0:0:0:0:
256,192,261777,1,0,0:0:0:0:
402,192,261866,1,0,0:0:0:0:
475,192,261866,1,0,0:0:0:0:
109,192,261866,1,0,0:0:0:0:
36,192,261866,1,0,0:0:0:0:
182,192,261955,1,0,0:0:0:0:
329,192,261955,1,0,0:0:0:0:
256,192,262044,1,0,0:0:0:0:
475,192,262044,1,0,0:0:0:0:
402,192,262044,1,0,0:0:0:0:
36,192,262044,1,0,0:0:0:0:
109,192,262133,1,0,0:0:0:0:
182,192,262133,1,0,0:0:0:0:
256,192,262222,1,0,0:0:0:0:
475,192,262222,1,0,0:0:0:0:
36,192,262222,1,0,0:0:0:0:
402,192,262222,1,0,0:0:0:0:
329,192,262311,1,0,0:0:0:0:
182,192,262311,1,0,0:0:0:0:
109,192,262400,1,0,0:0:0:0:
36,192,262400,1,0,0:0:0:0:
402,192,262400,1,0,0:0:0:0:
475,192,262400,1,0,0:0:0:0:
256,192,262488,1,0,0:0:0:0:
329,192,262488,1,0,0:0:0:0:
402,192,262577,1,0,0:0:0:0:
475,192,262577,1,0,0:0:0:0:
182,192,262577,1,0,0:0:0:0:
36,192,262577,1,0,0:0:0:0:
256,192,262666,1,0,0:0:0:0:
329,192,262666,1,0,0:0:0:0:
402,192,262755,1,0,0:0:0:0:
475,192,262755,1,0,0:0:0:0:
36,192,262755,1,0,0:0:0:0:
109,192,262755,1,0,0:0:0:0:
182,192,262844,1,0,0:0:0:0:
256,192,262844,1,0,0:0:0:0:
329,192,262933,1,0,0:0:0:0:
475,192,262933,1,0,0:0:0:0:
36,192,262933,1,0,0:0:0:0:
109,192,262933,1,0,0:0:0:0:
182,192,263022,1,0,0:0:0:0:
256,192,263022,1,0,0:0:0:0:
475,192,263111,1,0,0:0:0:0:
402,192,263111,1,0,0:0:0:0:
109,192,263111,1,0,0:0:0:0:
36,192,263111,1,0,0:0:0:0:
329,192,263200,1,0,0:0:0:0:
182,192,263200,1,0,0:0:0:0:
256,192,263288,1,0,0:0:0:0:
109,192,263288,1,0,0:0:0:0:
36,192,263288,1,0,0:0:0:0:
475,192,263288,1,0,0:0:0:0:
402,192,263377,1,0,0:0:0:0:
329,192,263377,1,0,0:0:0:0:
256,192,263466,1,0,0:0:0:0:
475,192,263466,1,0,0:0:0:0:
36,192,263466,1,0,0:0:0:0:
182,192,263466,1,0,0:0:0:0:
402,192,263555,1,0,0:0:0:0:
329,192,263555,1,0,0:0:0:0:
256,192,263644,1,0,0:0:0:0:
109,192,263644,1,0,0:0:0:0:
36,192,263644,1,0,0:0:0:0:
182,192,263644,1,0,0:0:0:0:
475,192,263733,1,0,0:0:0:0:
402,192,263733,1,0,0:0:0:0:
329,192,263822,1,0,0:0:0:0:
109,192,263822,1,0,0:0:0:0:
36,192,263822,1,0,0:0:0:0:
182,192,263822,1,0,0:0:0:0:
402,192,263911,1,0,0:0:0:0:
475,192,263911,1,0,0:0:0:0:
256,192,264000,1,0,0:0:0:0:
109,192,264000,1,0,0:0:0:0:
36,192,264000,1,0,0:0:0:0:
182,192,264000,1,0,0:0:0:0:
329,192,264088,1,0,0:0:0:0:
402,192,264088,1,0,0:0:0:0:
256,192,264177,1,0,0:0:0:0:
109,192,264177,1,0,0:0:0:0:
36,192,264177,1,0,0:0:0:0:
475,192,264177,1,0,0:0:0:0:
182,192,264266,1,0,0:0:0:0:
329,192,264266,1,0,0:0:0:0:
402,192,264355,1,0,0:0:0:0:
475,192,264355,1,0,0:0:0:0:
36,192,264355,1,0,0:0:0:0:
256,192,264355,1,0,0:0:0:0:
109,192,264444,1,0,0:0:0:0:
182,192,264444,1,0,0:0:0:0:
329,192,264533,1,0,0:0:0:0:
402,192,264533,1,0,0:0:0:0:
475,192,264533,1,0,0:0:0:0:
256,192,264533,1,0,0:0:0:0:
36,192,264622,1,0,0:0:0:0:
109,192,264622,1,0,0:0:0:0:
182,192,264711,1,0,0:0:0:0:
329,192,264711,1,0,0:0:0:0:
475,192,264711,1,0,0:0:0:0:
402,192,264711,1,0,0:0:0:0:
36,192,264800,1,0,0:0:0:0:
109,192,264800,1,0,0:0:0:0:
402,192,264888,1,0,0:0:0:0:
475,192,264888,1,0,0:0:0:0:
256,192,264888,1,0,0:0:0:0:
182,192,264888,1,0,0:0:0:0:
109,192,264977,1,0,0:0:0:0:
329,192,264977,1,0,0:0:0:0:
256,192,265066,1,0,0:0:0:0:
36,192,265066,1,0,0:0:0:0:
182,192,265066,1,0,0:0:0:0:
475,192,265066,1,0,0:0:0:0:
402,192,265155,1,0,0:0:0:0:
329,192,265155,1,0,0:0:0:0:
256,192,265244,1,0,0:0:0:0:
182,192,265244,1,0,0:0:0:0:
109,192,265244,1,0,0:0:0:0:
36,192,265244,1,0,0:0:0:0:
475,192,265333,1,0,0:0:0:0:
402,192,265333,1,0,0:0:0:0:
329,192,265422,1,0,0:0:0:0:
109,192,265422,1,0,0:0:0:0:
36,192,265422,1,0,0:0:0:0:
256,192,265422,1,0,0:0:0:0:
475,192,265511,1,0,0:0:0:0:
402,192,265511,1,0,0:0:0:0:
109,192,265600,1,0,0:0:0:0:
36,192,265600,1,0,0:0:0:0:
256,192,265600,1,0,0:0:0:0:
182,192,265600,1,0,0:0:0:0:
329,192,265688,1,0,0:0:0:0:
402,192,265688,1,0,0:0:0:0:
475,192,265777,1,0,0:0:0:0:
256,192,265777,1,0,0:0:0:0:
36,192,265777,1,0,0:0:0:0:
109,192,265777,1,0,0:0:0:0:
182,192,265866,1,0,0:0:0:0:
329,192,265866,1,0,0:0:0:0:
402,192,265955,1,0,0:0:0:0:
475,192,265955,1,0,0:0:0:0:
256,192,265955,1,0,0:0:0:0:
36,192,265955,1,0,0:0:0:0:
109,192,266044,1,0,0:0:0:0:
182,192,266044,1,0,0:0:0:0:
256,192,266133,1,0,0:0:0:0:
402,192,266133,1,0,0:0:0:0:
475,192,266133,1,0,0:0:0:0:
36,192,266133,1,0,0:0:0:0:
329,192,266222,1,0,0:0:0:0:
182,192,266222,1,0,0:0:0:0:
109,192,266311,1,0,0:0:0:0:
36,192,266311,1,0,0:0:0:0:
256,192,266311,1,0,0:0:0:0:
475,192,266311,1,0,0:0:0:0:
402,192,266400,1,0,0:0:0:0:
329,192,266400,1,0,0:0:0:0:
475,192,266488,1,0,0:0:0:0:
109,192,266488,1,0,0:0:0:0:
36,192,266488,1,0,0:0:0:0:
182,192,266488,1,0,0:0:0:0:
329,192,266577,1,0,0:0:0:0:
256,192,266577,1,0,0:0:0:0:
402,192,266666,1,0,0:0:0:0:
475,192,266666,1,0,0:0:0:0:
36,192,266666,1,0,0:0:0:0:
109,192,266666,1,0,0:0:0:0:
182,192,266755,1,0,0:0:0:0:
329,192,266755,1,0,0:0:0:0:
256,192,266844,1,0,0:0:0:0:
402,192,266844,1,0,0:0:0:0:
475,192,266844,1,0,0:0:0:0:
36,192,266844,1,0,0:0:0:0:
182,192,266933,1,0,0:0:0:0:
109,192,266933,1,0,0:0:0:0:
329,192,267022,1,0,0:0:0:0:
402,192,267022,1,0,0:0:0:0:
475,192,267022,1,0,0:0:0:0:
36,192,267022,1,0,0:0:0:0:
256,192,267111,1,0,0:0:0:0:
182,192,267111,1,0,0:0:0:0:
109,192,267200,1,0,0:0:0:0:
36,192,267200,1,0,0:0:0:0:
475,192,267200,1,0,0:0:0:0:
402,192,267200,1,0,0:0:0:0:
329,192,267288,1,0,0:0:0:0:
256,192,267288,1,0,0:0:0:0:
182,192,267288,1,0,0:0:0:0:
109,192,267377,128,0,268800:0:0:0:0:
36,192,267377,128,0,268800:0:0:0:0:
402,192,267377,128,0,268800:0:0:0:0:
475,192,267377,128,0,268800:0:0:0:0:
