osu file format v14

[General]
AudioFilename: audio 1.050x.mp3
AudioLeadIn: 0
PreviewTime: 93749
Countdown: 0
SampleSet: Soft
StackLeniency: 0.7
Mode: 0
LetterboxInBreaks: 0
WidescreenStoryboard: 0

[Editor]
DistanceSpacing: 0.5
BeatDivisor: 4
GridSize: 4
TimelineZoom: 2.4

[Metadata]
Title:Gate Openerz
TitleUnicode:Gate Openerz
Artist:DJ Sharpnel
ArtistUnicode:DJ Sharpnel
Creator:CosmicWolf
Version:SRPC-0210
Source:STEINS;GATE
Tags:cyclick = サイクリック sharpnelsound jea ryuta nakagami 仲上竜太 lemmy SRPC-0026 Skyclad no Kansokusha スカイクラッドの観測者 Observer Kanako Ito 威闘 華鳴乎 FVCG-1100 5pb. Records Science Adventure Series steinsgate 科学アドベンチャーシリーズ Kagaku Adobenchaa Shiriizu anime video game electronic japanese J-Core c78 comiket78 comic market 78 コミックマーケット78 コミケ78 stamina training speed stream practice
BeatmapID:2972130
BeatmapSetID:1435435

[Difficulty]
HPDrainRate:5
CircleSize:4
OverallDifficulty:9.2
ApproachRate:9.9
SliderMultiplier:2
SliderTickRate:1

[Events]
//Background and Video events
0,0,"165123.jpg",0,0
//Break Periods
2,182051,191595
//Storyboard Layer 0 (Background)
//Storyboard Layer 1 (Fail)
//Storyboard Layer 2 (Pass)
//Storyboard Layer 3 (Foreground)
//Storyboard Layer 4 (Overlay)
//Storyboard Sound Samples

[TimingPoints]
11495,285.714285714286,4,2,0,45,1,0
11495,-133.333333333333,4,2,0,45,0,0
11638,-133.333333333333,4,2,0,45,0,0
11780,-133.333333333333,4,2,0,5,0,0
11923,-133.333333333333,4,2,0,45,0,0
12066,-133.333333333333,4,2,0,5,0,0
12209,-133.333333333333,4,2,0,45,0,0
12352,-133.333333333333,4,2,0,5,0,0
12495,-133.333333333333,4,2,0,45,0,0
12638,-133.333333333333,4,2,0,5,0,0
12780,-133.333333333333,4,2,0,45,0,0
12923,-133.333333333333,4,2,0,5,0,0
13066,-133.333333333333,4,2,0,45,0,0
13209,-133.333333333333,4,2,0,5,0,0
13352,-133.333333333333,4,2,0,45,0,0
13495,-133.333333333333,4,2,0,5,0,0
13638,-133.333333333333,4,2,0,45,0,0
13780,-133.333333333333,4,2,0,5,0,0
13923,-133.333333333333,4,2,0,45,0,0
14066,-133.333333333333,4,2,0,5,0,0
14209,-133.333333333333,4,2,0,45,0,0
14352,-133.333333333333,4,2,0,5,0,0
14495,-133.333333333333,4,2,0,45,0,0
14638,-133.333333333333,4,2,0,5,0,0
14780,-133.333333333333,4,2,0,45,0,0
14922,-153.846153846153,4,2,0,5,0,0
15066,-153.846153846153,4,2,0,45,0,0
15209,-153.846153846153,4,2,0,5,0,0
15352,-153.846153846153,4,2,0,45,0,0
15495,-153.846153846153,4,2,0,5,0,0
15638,-153.846153846153,4,2,0,45,0,0
15780,-153.846153846153,4,2,0,5,0,0
15923,-153.846153846153,4,2,0,45,0,0
16065,-181.818181818181,4,2,0,5,0,0
16209,-181.818181818181,4,2,0,45,0,0
16352,-181.818181818181,4,2,0,5,0,0
16495,-181.818181818181,4,2,0,45,0,0
16638,-181.818181818181,4,2,0,5,0,0
16780,-181.818181818181,4,2,0,45,0,0
16923,-181.818181818181,4,2,0,5,0,0
17066,-181.818181818181,4,2,0,45,0,0
17208,-222.222222222221,4,2,0,5,0,0
17352,-222.222222222221,4,2,0,45,0,0
17495,-222.222222222221,4,2,0,5,0,0
17638,-222.222222222221,4,2,0,45,0,0
17780,-222.222222222221,4,2,0,5,0,0
17923,-222.222222222221,4,2,0,45,0,0
18066,-222.222222222221,4,2,0,5,0,0
18209,-222.222222222221,4,2,0,45,0,0
18351,-250,4,2,0,5,0,0
18495,-250,4,2,0,45,0,0
18638,-250,4,2,0,5,0,0
18780,-250,4,2,0,45,0,0
18923,-250,4,2,0,5,0,0
19066,-250,4,2,0,45,0,0
19209,-250,4,2,0,5,0,0
19352,-250,4,2,0,45,0,0
19494,-133.333333333333,4,2,0,45,0,0
20637,-133.333333333333,4,2,0,45,0,0
50351,-117.64705882353,4,2,0,45,0,0
52638,-111.111111111111,4,2,0,45,0,0
54922,-105.263157894737,4,2,0,45,0,0
65209,-95.2380952380952,4,2,0,45,0,0
66351,-133.333333333333,4,2,1,25,0,0
72494,-153.846153846154,4,2,1,25,0,0
72922,-117.64705882353,4,2,1,25,0,0
75209,-117.64705882353,4,2,1,35,0,0
75495,-117.64705882353,4,2,1,45,0,0
93780,-153.846153846155,4,2,1,25,0,0
94352,-153.846153846155,4,2,1,35,0,0
94638,-153.846153846155,4,2,1,50,0,0
94923,-117.647058823529,4,2,1,75,0,1
136066,-117.647058823529,4,2,1,55,0,0
145208,-133.333333333333,4,2,1,50,0,0
181851,-133.333333333333,4,2,1,50,0,0
182065,-133.333333333333,4,2,1,50,0,0
192065,-133.333333333333,4,2,1,25,0,0
201209,-153.846153846155,4,2,1,25,0,0
201780,-153.846153846155,4,2,1,35,0,0
202066,-153.846153846155,4,2,1,50,0,0
202352,-105.263157894737,4,2,1,75,0,1
243495,-117.647058823529,4,2,1,55,0,0

[HitObjects]
123,108,11495,5,0,0:0:0:0:
123,108,11638,2,0,L|141:201,1,75.0000028610231
291,109,11923,2,0,L|198:127,1,75.0000028610231
261,280,12209,2,0,L|243:187,1,75.0000028610231
93,277,12495,2,0,L|194:260,1,75.0000028610231
456,188,12780,6,0,L|438:281,1,75.0000028610231
288,189,13066,2,0,L|381:207,1,75.0000028610231
318,360,13352,2,0,L|336:267,1,75.0000028610231
486,357,13638,2,0,L|385:340,1,75.0000028610231
123,305,13923,6,0,L|140:401,1,75.0000028610231
208,268,14209,2,0,L|304:251,1,75.0000028610231
171,183,14495,2,0,L|154:87,1,75.0000028610231
86,220,14780,2,0,L|-10:237,1,75.0000028610231
370,171,15066,6,0,L|355:254,1,64.9999970245363
295,138,15352,2,0,L|211:123,1,64.9999970245363
328,64,15638,2,0,L|342:-19,1,64.9999970245363
402,96,15923,2,0,L|485:110,1,64.9999970245363
359,247,16209,6,0,L|356:179,1,55.0000016784668
268,317,16495,2,0,L|270:371,1,55.0000016784668
186,235,16780,2,0,L|183:167,1,55.0000016784668
99,299,17066,2,0,L|101:353,1,55.0000016784668
32,112,17352,6,0,L|34:56,1,44.999998626709
107,167,17638,2,0,L|105:211,1,44.999998626709
170,95,17923,2,0,L|172:39,1,44.999998626709
236,149,18209,2,0,L|234:193,1,44.999998626709
453,77,18495,6,0,L|408:82,1,40
309,171,18780,2,0,L|354:176,1,40
480,209,19066,2,0,L|435:214,1,40
339,279,19352,2,0,L|373:285,1,20
459,337,19495,5,8,0:0:0:0:
481,344,19566,1,8,0:0:0:0:
346,366,19709,1,8,0:0:0:0:
327,377,19780,1,8,0:0:0:0:
226,321,19923,1,8,0:0:0:0:
203,315,19995,1,8,0:0:0:0:
179,307,20066,6,0,L|147:300,14,18.7500007152558,8|0|0|0|0|0|0|0|0|0|0|0|0|0|0,0:0|0:0|0:0|0:0|0:0|0:0|0:0|0:0|0:0|0:0|0:0|0:0|0:0|0:0|0:0,0:0:0:0:
48,241,20638,6,0,L|56:184,1,37.5000014305115,8|0,2:2|0:0,0:0:0:0:
143,152,20780,2,0,L|151:209,1,37.5000014305115
64,96,20923,2,0,L|74:53,1,37.5000014305115,12|0,2:2|0:0,0:0:0:0:
165,41,21066,1,0,0:0:0:0:
165,41,21138,1,0,0:0:0:0:
165,41,21209,1,8,2:2:0:0:
234,114,21352,1,0,0:0:0:0:
300,32,21495,1,12,2:2:0:0:
392,112,21638,1,0,0:0:0:0:
417,102,21708,1,0,0:0:0:0:
438,95,21780,6,0,L|492:78,1,37.5000014305115,8|0,2:2|0:0,0:0:0:0:
460,223,21923,2,0,L|405:208,1,37.5000014305115
274,159,22066,2,0,L|310:149,1,37.5000014305115,12|0,2:2|0:0,0:0:0:0:
267,270,22209,1,0,0:0:0:0:
267,270,22280,1,0,0:0:0:0:
267,270,22352,1,8,2:2:0:0:
378,297,22495,1,0,0:0:0:0:
290,384,22638,1,12,2:2:0:0:
180,338,22780,1,0,0:0:0:0:
180,315,22851,1,0,0:0:0:0:
181,293,22923,6,0,L|185:229,1,37.5000014305115,8|0,2:2|0:0,0:0:0:0:
300,253,23066,2,0,L|242:281,1,37.5000014305115
199,161,23209,2,0,L|252:196,1,37.5000014305115,12|0,2:2|0:0,0:0:0:0:
119,226,23352,1,0,0:0:0:0:
310,152,23495,1,8,2:2:0:0:
160,43,23638,1,0,0:0:0:0:
160,43,23780,1,12,2:2:0:0:
17,187,23923,1,0,0:0:0:0:
20,206,23994,1,0,0:0:0:0:
24,228,24066,6,0,L|36:289,1,37.5000014305115,8|0,2:2|0:0,0:0:0:0:
172,236,24209,2,0,L|124:227,1,37.5000014305115
51,365,24352,2,0,L|116:350,1,37.5000014305115,12|0,2:2|0:0,0:0:0:0:
273,317,24495,1,0,0:0:0:0:
136,230,24638,1,8,2:2:0:0:
288,156,24780,1,0,0:0:0:0:
288,156,24923,1,12,2:2:0:0:
190,66,25066,1,8,2:2:0:0:
173,62,25137,1,0,0:0:0:0:
156,58,25209,6,0,L|95:46,1,37.5000014305115,8|0,2:2|0:0,0:0:0:0:
152,195,25352,2,0,L|164:141,1,37.5000014305115
37,83,25495,2,0,L|47:131,1,37.5000014305115,12|0,2:2|0:0,0:0:0:0:
106,254,25638,1,0,0:0:0:0:
0,205,25780,1,8,2:2:0:0:
121,341,25923,1,0,0:0:0:0:
160,158,26066,1,12,2:2:0:0:
234,285,26209,1,0,0:0:0:0:
264,285,26280,1,0,0:0:0:0:
292,276,26352,6,0,L|343:262,1,37.5000014305115,8|0,2:2|0:0,0:0:0:0:
318,137,26495,2,0,L|305:188,1,37.5000014305115
418,215,26638,2,0,L|381:178,1,37.5000014305115,12|0,2:2|0:0,0:0:0:0:
238,204,26780,1,0,0:0:0:0:
406,109,26923,1,8,2:2:0:0:
425,300,27066,1,0,0:0:0:0:
425,300,27209,1,12,2:2:0:0:
406,109,27352,1,0,0:0:0:0:
402,88,27422,1,0,0:0:0:0:
397,64,27495,6,0,L|387:8,1,37.5000014305115,8|0,2:2|0:0,0:0:0:0:
306,122,27638,2,0,L|292:178,1,37.5000014305115
224,48,27780,2,0,L|214:-8,1,37.5000014305115,12|0,2:2|0:0,0:0:0:0:
149,120,27923,2,0,L|139:157,1,37.5000014305115
53,56,28066,1,8,2:2:0:0:
16,185,28209,1,0,0:0:0:0:
16,185,28352,1,12,2:2:0:0:
186,240,28495,1,0,0:0:0:0:
168,246,28565,1,0,0:0:0:0:
145,254,28638,6,0,L|91:274,1,37.5000014305115,8|0,2:2|0:0,0:0:0:0:
16,185,28780,2,0,L|59:211,1,37.5000014305115
18,333,28923,2,0,L|23:275,1,37.5000014305115,12|0,2:2|0:0,0:0:0:0:
121,176,29066,1,0,0:0:0:0:
169,326,29209,1,8,2:2:0:0:
266,203,29352,1,0,0:0:0:0:
266,203,29495,1,12,2:2:0:0:
465,332,29638,2,0,L|416:336,1,37.5000014305115
274,343,29780,5,8,0:0:0:0:
264,343,29851,1,0,0:0:0:0:
254,343,29923,1,0,0:0:0:0:
244,343,29994,1,0,0:0:0:0:
234,343,30066,1,12,0:0:0:0:
224,343,30138,1,0,0:0:0:0:
214,343,30209,1,0,0:0:0:0:
204,343,30280,1,0,0:0:0:0:
194,343,30352,1,8,0:0:0:0:
90,266,30495,1,0,0:0:0:0:
90,266,30638,1,12,0:0:0:0:
264,218,30780,2,0,L|223:195,1,37.5000014305115
109,131,30923,5,8,0:0:0:0:
102,121,30995,1,0,0:0:0:0:
99,109,31066,1,0,0:0:0:0:
96,99,31138,1,0,0:0:0:0:
96,87,31209,1,12,0:0:0:0:
96,76,31280,1,0,0:0:0:0:
100,66,31352,1,0,0:0:0:0:
105,56,31423,1,0,0:0:0:0:
112,49,31495,1,8,0:0:0:0:
234,106,31638,1,0,0:0:0:0:
234,106,31780,1,12,0:0:0:0:
356,29,31923,1,0,0:0:0:0:
356,29,31995,1,0,0:0:0:0:
356,29,32066,6,0,L|303:25,1,37.5000014305115,8|0,2:2|0:0,0:0:0:0:
431,135,32209,2,0,L|474:141,1,37.5000014305115
333,191,32352,1,12,2:2:0:0:
333,191,32423,1,0,0:0:0:0:
333,191,32495,1,0,0:0:0:0:
481,254,32638,1,8,2:2:0:0:
355,372,32780,1,0,0:0:0:0:
355,372,32923,1,12,2:2:0:0:
258,231,33066,1,0,0:0:0:0:
258,231,33138,1,0,0:0:0:0:
258,231,33209,6,0,L|252:172,1,37.5000014305115,8|0,2:2|0:0,0:0:0:0:
191,307,33352,2,0,L|185:366,1,37.5000014305115
118,240,33495,2,0,L|112:181,1,37.5000014305115,12|0,2:2|0:0,0:0:0:0:
55,306,33638,2,0,L|61:365,1,37.5000014305115
184,177,33780,1,8,2:2:0:0:
0,141,33923,1,0,0:0:0:0:
0,141,34066,1,12,2:2:0:0:
91,44,34209,2,0,L|154:62,1,37.5000014305115
272,80,34352,5,8,0:0:0:0:
282,80,34422,1,0,0:0:0:0:
292,80,34495,1,0,0:0:0:0:
302,80,34565,1,0,0:0:0:0:
312,80,34638,1,12,0:0:0:0:
322,80,34709,1,0,0:0:0:0:
332,80,34780,1,0,0:0:0:0:
342,80,34852,1,0,0:0:0:0:
352,80,34923,1,8,0:0:0:0:
475,174,35066,1,0,0:0:0:0:
475,174,35209,1,12,0:0:0:0:
331,258,35352,1,0,0:0:0:0:
331,258,35423,1,0,0:0:0:0:
331,258,35495,6,0,L|277:239,1,37.5000014305115,8|0,2:2|0:0,0:0:0:0:
423,262,35638,2,0,L|437:311,1,37.5000014305115
381,183,35780,1,12,2:2:0:0:
381,183,35852,1,0,0:0:0:0:
381,183,35923,1,0,0:0:0:0:
512,244,36066,1,8,2:2:0:0:
389,342,36209,1,0,0:0:0:0:
389,342,36352,1,12,2:2:0:0:
255,278,36495,1,0,0:0:0:0:
255,278,36566,1,0,0:0:0:0:
255,278,36638,6,0,L|249:219,1,37.5000014305115,8|0,2:2|0:0,0:0:0:0:
166,155,36780,2,0,L|172:214,1,37.5000014305115
116,303,36923,2,0,L|110:244,1,37.5000014305115,12|0,2:2|0:0,0:0:0:0:
26,168,37066,2,0,L|32:227,1,37.5000014305115
29,323,37209,1,8,2:2:0:0:
114,202,37352,1,0,0:0:0:0:
114,202,37495,1,12,2:2:0:0:
3,82,37638,2,0,L|71:93,1,37.5000014305115
212,135,37780,5,8,0:0:0:0:
221,132,37851,1,0,0:0:0:0:
231,129,37923,1,0,0:0:0:0:
240,126,37994,1,0,0:0:0:0:
250,123,38066,1,12,0:0:0:0:
260,121,38138,1,0,0:0:0:0:
269,118,38209,1,0,0:0:0:0:
279,115,38280,1,0,0:0:0:0:
309,103,38352,5,8,0:0:0:0:
287,94,38422,1,0,0:0:0:0:
264,83,38495,1,0,0:0:0:0:
238,74,38565,1,0,0:0:0:0:
210,63,38638,1,12,0:0:0:0:
177,50,38709,1,0,0:0:0:0:
135,33,38780,1,0,0:0:0:0:
95,17,38852,1,0,0:0:0:0:
50,3,38923,6,0,L|42:60,1,37.5000014305115,8|0,2:2|0:0,0:0:0:0:
122,138,39066,2,0,L|117:86,1,37.5000014305115
11,149,39209,2,0,L|1:192,1,37.5000014305115,12|0,2:2|0:0,0:0:0:0:
123,259,39352,1,0,0:0:0:0:
123,259,39423,1,0,0:0:0:0:
123,259,39495,1,8,2:2:0:0:
0,316,39638,1,0,0:0:0:0:
11,149,39780,1,12,2:2:0:0:
130,274,39923,1,0,0:0:0:0:
140,299,39994,1,0,0:0:0:0:
147,321,40066,6,0,L|162:376,1,37.5000014305115,8|0,2:2|0:0,0:0:0:0:
230,222,40209,2,0,L|245:167,1,37.5000014305115
293,345,40352,2,0,L|308:390,1,37.5000014305115,12|0,2:2|0:0,0:0:0:0:
374,231,40495,1,0,0:0:0:0:
374,231,40566,1,0,0:0:0:0:
374,231,40638,1,8,2:2:0:0:
429,352,40780,1,0,0:0:0:0:
503,248,40923,1,12,2:2:0:0:
340,208,41066,1,0,0:0:0:0:
340,185,41137,1,0,0:0:0:0:
341,163,41209,6,0,L|345:99,1,37.5000014305115,8|0,2:2|0:0,0:0:0:0:
489,124,41352,2,0,L|431:152,1,37.5000014305115
379,3,41495,2,0,L|432:38,1,37.5000014305115,12|0,2:2|0:0,0:0:0:0:
261,135,41638,1,0,0:0:0:0:
296,2,41780,1,8,2:2:0:0:
401,99,41923,1,0,0:0:0:0:
183,14,42066,1,12,2:2:0:0:
182,146,42209,1,0,0:0:0:0:
186,163,42280,1,0,0:0:0:0:
192,185,42352,6,0,L|208:244,1,37.5000014305115,8|0,2:2|0:0,0:0:0:0:
320,217,42495,2,0,L|369:212,1,37.5000014305115
225,328,42638,2,0,L|156:321,1,37.5000014305115,12|0,2:2|0:0,0:0:0:0:
368,342,42780,1,0,0:0:0:0:
368,342,42852,1,0,0:0:0:0:
368,342,42923,1,8,2:2:0:0:
357,213,43066,1,0,0:0:0:0:
473,278,43209,1,12,2:2:0:0:
403,76,43352,1,8,2:2:0:0:
386,72,43422,1,0,0:0:0:0:
369,68,43495,6,0,L|308:56,1,37.5000014305115,8|0,2:2|0:0,0:0:0:0:
357,213,43638,2,0,L|369:159,1,37.5000014305115
230,104,43780,2,0,L|240:152,1,37.5000014305115,12|0,2:2|0:0,0:0:0:0:
272,275,43923,1,0,0:0:0:0:
365,176,44066,1,8,2:2:0:0:
237,140,44209,1,0,0:0:0:0:
375,275,44352,1,12,2:2:0:0:
160,287,44495,1,0,0:0:0:0:
130,281,44565,1,0,0:0:0:0:
101,272,44638,6,0,L|50:251,1,37.5000014305115,8|0,2:2|0:0,0:0:0:0:
171,165,44780,2,0,L|229:146,1,37.5000014305115
68,87,44923,2,0,L|21:70,1,37.5000014305115,12|0,2:2|0:0,0:0:0:0:
166,0,45066,1,0,0:0:0:0:
166,0,45138,1,0,0:0:0:0:
166,0,45209,1,8,2:2:0:0:
271,114,45352,1,0,0:0:0:0:
271,114,45495,1,12,2:2:0:0:
142,212,45638,1,0,0:0:0:0:
145,233,45708,1,0,0:0:0:0:
150,257,45780,6,0,L|160:313,1,37.5000014305115,8|0,2:2|0:0,0:0:0:0:
261,150,45923,2,0,L|275:94,1,37.5000014305115
289,279,46066,2,0,L|299:335,1,37.5000014305115,12|0,2:2|0:0,0:0:0:0:
387,192,46209,2,0,L|397:155,1,37.5000014305115
425,330,46352,1,8,2:2:0:0:
494,209,46495,1,0,0:0:0:0:
494,209,46638,1,12,2:2:0:0:
339,361,46780,1,0,3:0:0:0:
324,348,46851,1,0,3:0:0:0:
306,332,46923,6,0,L|261:295,1,37.5000014305115,8|0,3:2|3:0,3:0:0:0:
299,186,47066,2,0,L|299:235,1,37.5000014305115,0|0,3:0|3:0,3:0:0:0:
173,264,47209,2,0,L|226:237,1,37.5000014305115,12|0,3:2|3:0,3:0:0:0:
377,262,47352,1,0,3:0:0:0:
210,356,47495,1,8,3:2:0:0:
205,165,47638,1,0,3:0:0:0:
312,341,47780,1,12,3:2:0:0:
310,130,47923,2,0,L|359:156,1,37.5000014305115
460,210,48066,5,8,0:0:0:0:
450,211,48137,1,0,0:0:0:0:
440,213,48209,1,0,0:0:0:0:
430,215,48280,1,0,0:0:0:0:
420,217,48352,1,12,0:0:0:0:
410,219,48423,1,0,0:0:0:0:
401,221,48495,1,0,0:0:0:0:
391,223,48566,1,0,0:0:0:0:
381,227,48638,2,0,L|332:237,1,37.5000014305115,8|0,0:0|0:0,0:0:0:0:
238,218,48780,1,0,0:0:0:0:
196,336,48923,1,12,0:0:0:0:
69,245,49066,2,0,L|115:248,1,37.5000014305115
253,120,49209,5,8,0:0:0:0:
243,123,49280,1,0,0:0:0:0:
232,125,49352,1,0,0:0:0:0:
223,128,49422,1,0,0:0:0:0:
213,130,49495,1,12,0:0:0:0:
203,133,49566,1,0,0:0:0:0:
194,134,49638,1,0,0:0:0:0:
183,138,49709,1,0,0:0:0:0:
174,141,49780,2,0,L|125:153,1,37.5000014305115,8|0,0:0|0:0,0:0:0:0:
196,13,49923,1,0,0:0:0:0:
334,104,50066,1,12,0:0:0:0:
457,5,50209,2,0,L|446:56,1,37.5000014305115
363,178,50352,5,8,0:0:0:0:
365,188,50422,1,0,0:0:0:0:
368,199,50495,1,0,0:0:0:0:
371,208,50565,1,0,0:0:0:0:
374,218,50638,1,12,0:0:0:0:
377,228,50709,1,0,0:0:0:0:
378,236,50780,1,0,0:0:0:0:
382,247,50852,1,0,0:0:0:0:
385,256,50923,2,12,L|400:311,1,42.5000008106232,8|0,0:0|0:0,0:0:0:0:
245,364,51066,1,0,0:0:0:0:
185,239,51209,1,12,0:0:0:0:
96,370,51352,2,0,L|86:311,1,42.5000008106232
14,213,51495,5,8,0:0:0:0:
18,197,51566,1,0,0:0:0:0:
22,182,51638,1,0,0:0:0:0:
27,167,51709,1,0,0:0:0:0:
31,151,51780,1,12,0:0:0:0:
35,136,51852,1,0,0:0:0:0:
40,121,51923,1,0,0:0:0:0:
44,105,51995,1,0,0:0:0:0:
49,90,52066,2,0,L|62:41,1,42.5000008106232,8|0,0:0|0:0,0:0:0:0:
147,145,52209,1,0,0:0:0:0:
255,42,52352,1,12,0:0:0:0:
325,193,52495,2,0,L|397:176,1,42.5000008106232
512,128,52638,5,8,0:0:0:0:
493,121,52709,1,0,0:0:0:0:
476,117,52780,1,0,0:0:0:0:
457,110,52852,1,0,0:0:0:0:
440,106,52923,1,12,0:0:0:0:
423,100,52995,1,0,0:0:0:0:
405,94,53066,1,0,0:0:0:0:
387,89,53138,1,0,0:0:0:0:
371,84,53209,2,0,L|314:68,1,44.999998626709,8|0,0:0|0:0,0:0:0:0:
173,44,53352,1,0,0:0:0:0:
287,171,53495,1,12,0:0:0:0:
125,208,53638,2,0,L|184:225,1,44.999998626709
373,264,53780,5,8,0:0:0:0:
354,271,53852,1,0,0:0:0:0:
337,275,53923,1,0,0:0:0:0:
318,282,53995,1,0,0:0:0:0:
301,286,54066,1,12,0:0:0:0:
284,292,54138,1,0,0:0:0:0:
266,298,54209,1,0,0:0:0:0:
248,303,54280,1,0,0:0:0:0:
232,308,54352,2,0,L|175:323,1,44.999998626709,8|0,0:0|0:0,0:0:0:0:
43,216,54495,1,0,0:0:0:0:
99,368,54638,1,12,0:0:0:0:
197,236,54780,2,0,L|210:168,1,44.999998626709
254,333,54923,5,8,0:0:0:0:
272,349,54995,1,0,0:0:0:0:
293,359,55066,1,0,0:0:0:0:
316,365,55138,1,0,0:0:0:0:
339,366,55209,1,12,0:0:0:0:
363,362,55280,1,0,0:0:0:0:
385,353,55352,1,0,0:0:0:0:
404,339,55423,1,0,0:0:0:0:
419,322,55495,2,0,P|435:289|436:252,1,47.4999987316132,8|0,0:0|0:0,0:0:0:0:
329,147,55638,1,0,0:0:0:0:
333,273,55780,1,12,0:0:0:0:
495,147,55923,2,0,L|456:110,1,47.4999987316132
317,2,56066,5,8,0:0:0:0:
292,1,56138,1,0,0:0:0:0:
269,7,56209,1,0,0:0:0:0:
248,17,56280,1,0,0:0:0:0:
229,32,56352,1,12,0:0:0:0:
214,50,56423,1,0,0:0:0:0:
203,70,56495,1,0,0:0:0:0:
198,93,56566,1,0,0:0:0:0:
196,117,56638,2,0,P|204:152|227:181,1,47.4999987316132,8|0,0:0|0:0,0:0:0:0:
379,192,56780,1,0,0:0:0:0:
294,99,56923,1,12,0:0:0:0:
247,266,57066,2,0,L|300:269,1,47.4999987316132
486,335,57209,5,8,0:0:0:0:
462,336,57280,1,0,0:0:0:0:
438,337,57352,1,0,0:0:0:0:
414,338,57423,1,0,0:0:0:0:
391,339,57495,1,12,0:0:0:0:
367,341,57566,1,0,0:0:0:0:
343,342,57638,1,0,0:0:0:0:
319,343,57709,1,0,0:0:0:0:
295,346,57780,2,0,L|240:350,1,47.4999987316132,8|0,0:0|0:0,0:0:0:0:
141,288,57923,2,0,L|73:280,1,47.4999987316132
259,224,58066,2,0,L|336:215,1,47.4999987316132,12|0,0:0|0:0,0:0:0:0:
128,156,58209,2,0,L|67:149,1,47.4999987316132
258,79,58352,5,8,0:0:0:0:
281,80,58423,1,0,0:0:0:0:
305,81,58495,1,0,0:0:0:0:
329,82,58566,1,0,0:0:0:0:
352,83,58638,1,12,0:0:0:0:
376,85,58709,1,0,0:0:0:0:
400,86,58780,1,0,0:0:0:0:
424,87,58852,1,0,0:0:0:0:
446,88,58923,2,0,L|502:90,1,47.4999987316132,8|0,0:0|0:0,0:0:0:0:
355,174,59066,2,0,L|283:159,1,47.4999987316132
460,243,59209,2,0,L|512:207,1,47.4999987316132,12|0,0:0|0:0,0:0:0:0:
359,325,59352,2,0,L|326:273,1,47.4999987316132
246,115,59495,5,8,0:0:0:0:
245,138,59566,1,0,0:0:0:0:
244,162,59638,1,0,0:0:0:0:
243,186,59709,1,0,0:0:0:0:
242,209,59780,1,12,0:0:0:0:
240,233,59852,1,0,0:0:0:0:
239,257,59923,1,0,0:0:0:0:
238,281,59995,1,0,0:0:0:0:
237,303,60066,2,0,L|235:359,1,47.4999987316132,8|0,0:0|0:0,0:0:0:0:
95,219,60209,2,0,L|167:202,1,47.4999987316132
48,349,60352,2,0,L|-17:346,1,47.4999987316132,12|0,0:0|0:0,0:0:0:0:
189,308,60495,2,0,L|255:301,1,47.4999987316132
95,219,60638,5,8,0:0:0:0:
79,194,60709,1,0,0:0:0:0:
69,166,60780,1,0,0:0:0:0:
65,136,60852,1,0,0:0:0:0:
69,107,60923,1,12,0:0:0:0:
79,79,60995,1,0,0:0:0:0:
96,54,61066,1,0,0:0:0:0:
117,34,61138,1,0,0:0:0:0:
143,19,61209,2,0,P|188:12|211:18,1,47.4999987316132,8|0,0:0|0:0,0:0:0:0:
296,141,61352,2,0,P|251:148|228:142,1,47.4999987316132
342,18,61495,2,0,P|375:48|384:70,1,47.4999987316132,12|0,0:0|0:0,0:0:0:0:
205,219,61638,2,0,P|171:188|162:166,1,47.4999987316132
380,148,61780,5,8,0:0:0:0:
395,172,61852,1,0,0:0:0:0:
405,200,61923,1,0,0:0:0:0:
409,230,61995,1,0,0:0:0:0:
405,259,62066,1,12,0:0:0:0:
395,287,62138,1,0,0:0:0:0:
378,312,62209,1,0,0:0:0:0:
357,332,62280,1,0,0:0:0:0:
331,347,62352,2,0,P|286:354|263:348,1,47.4999987316132,8|0,0:0|0:0,0:0:0:0:
167,238,62495,2,0,P|212:230|235:236,1,47.4999987316132
115,351,62638,2,0,P|70:359|47:353,1,47.4999987316132,12|0,0:0|0:0,0:0:0:0:
54,207,62780,2,0,P|80:167|104:153,1,47.4999987316132
244,22,62923,5,8,0:0:0:0:
272,30,62995,1,0,0:0:0:0:
297,45,63066,1,0,0:0:0:0:
318,67,63138,1,0,0:0:0:0:
331,93,63209,2,0,P|338:130|334:155,1,47.4999987316132,12|0,0:0|0:0,0:0:0:0:
192,158,63352,2,0,P|232:111|256:110,1,47.4999987316132
411,62,63495,5,8,0:0:0:0:
432,82,63566,1,0,0:0:0:0:
448,106,63638,1,0,0:0:0:0:
458,135,63709,1,0,0:0:0:0:
459,164,63780,2,0,P|450:200|436:221,1,47.4999987316132,12|0,0:0|0:0,0:0:0:0:
296,371,63923,2,0,P|304:334|318:313,1,47.4999987316132
490,259,64066,5,8,0:0:0:0:
454,253,64138,1,0,0:0:0:0:
419,248,64209,1,0,0:0:0:0:
384,243,64280,1,0,0:0:0:0:
348,238,64352,2,0,L|286:229,1,47.4999987316132,12|0,0:0|0:0,0:0:0:0:
114,177,64495,2,0,L|182:166,1,47.4999987316132
414,129,64638,5,8,0:0:0:0:
378,123,64709,1,0,0:0:0:0:
343,118,64780,1,0,0:0:0:0:
308,113,64852,1,0,0:0:0:0:
272,108,64923,2,0,L|210:99,1,47.4999987316132,12|0,0:0|0:0,0:0:0:0:
56,0,65066,2,0,L|68:75,1,47.4999987316132
82,155,65209,6,0,L|87:183,7,26.2499991989136,8|0|0|0|0|0|0|0,0:0|0:0|0:0|0:0|0:0|0:0|0:0|0:0,0:0:0:0:
174,217,65495,2,0,L|169:245,7,26.2499991989136,12|0|0|0|0|0|0|0,0:0|0:0|0:0|0:0|0:0|0:0|0:0|0:0,0:0:0:0:
267,169,65780,2,0,L|262:141,7,26.2499991989136,8|0|0|0|0|0|0|0,0:0|0:0|0:0|0:0|0:0|0:0|0:0|0:0,0:0:0:0:
175,107,66066,2,0,L|180:79,6,26.2499991989136,12|0|0|0|0|0|0,0:0|0:0|0:0|0:0|0:0|0:0|0:0,0:0:0:0:
267,169,66352,6,0,L|381:150,1,112.500004291535,6|0,2:2|0:0,0:0:0:0:
377,150,66638,1,10,2:2:0:0:
492,262,66780,2,0,P|409:251|389:258,1,75.0000028610231,2|0,2:2|0:0,0:0:0:0:
391,78,67066,2,0,P|380:161|387:181,1,75.0000028610231,2|0,2:2|0:0,0:0:0:0:
210,182,67352,2,0,P|293:193|313:186,1,75.0000028610231,2|0,2:2|0:0,0:0:0:0:
311,366,67638,2,0,P|322:283|315:263,1,75.0000028610231,2|0,2:2|0:0,0:0:0:0:
117,286,67923,2,0,L|227:306,1,112.500004291535,2|0,2:2|0:0,0:0:0:0:
228,307,68209,1,2,2:2:0:0:
0,262,68352,1,2,2:2:0:0:
242,46,68638,6,0,L|130:55,1,112.500004291535,2|0,2:2|0:0,0:0:0:0:
129,55,68923,1,2,2:2:0:0:
274,138,69066,2,0,L|358:160,1,75.0000028610231,2|0,2:2|0:0,0:0:0:0:
449,22,69352,2,0,L|352:44,1,75.0000028610231,2|0,2:2|0:0,0:0:0:0:
473,174,69638,1,2,2:2:0:0:
396,117,69780,1,2,2:2:0:0:
301,132,69923,1,2,2:2:0:0:
254,215,70066,1,2,2:2:0:0:
189,42,70209,2,0,B|173:15|173:15|169:143,2,150.000005722046,2|0|0,2:2|0:0|0:0,0:0:0:0:
13,235,70923,6,0,P|75:210|131:231,1,112.500004291535,6|0,2:2|0:0,0:0:0:0:
116,221,71209,1,10,2:2:0:0:
252,369,71352,2,0,P|224:314|225:279,1,75.0000028610231,2|0,2:2|0:0,0:0:0:0:
391,238,71638,2,0,P|372:297|347:320,1,75.0000028610231,2|8,2:2|2:2,0:0:0:0:
239,191,71923,2,0,P|259:132|284:108,1,75.0000028610231,2|0,2:2|0:0,0:0:0:0:
463,126,72209,2,0,P|405:107|381:81,1,75.0000028610231,2|8,2:2|2:2,0:0:0:0:
185,77,72495,2,0,P|243:97|273:136,1,97.4999955368044,2|0,2:2|0:0,0:0:0:0:
267,123,72780,1,2,2:2:0:0:
410,384,72923,2,0,B|418:337|418:337|405:302|405:302|416:249,1,127.50000243187,10|0,2:2|0:0,0:0:0:0:
412,260,73209,5,14,2:2:0:0:
460,110,73352,1,2,2:2:0:0:
280,252,73495,1,2,2:2:0:0:
353,14,73638,1,14,2:2:0:0:
353,14,73923,1,10,2:2:0:0:
280,252,74066,1,14,2:2:0:0:
89,5,74209,2,0,B|101:175|101:175|131:114,1,212.500004053116,14|0,2:2|0:0,0:0:0:0:
143,253,74638,6,0,L|174:303,3,42.5000008106232
223,161,74923,1,8,2:2:0:0:
251,138,74995,1,8,2:2:0:0:
293,133,75065,1,10,2:2:0:0:
332,148,75138,1,8,2:2:0:0:
359,180,75208,1,10,2:2:0:0:
368,236,75280,1,8,2:2:0:0:
419,257,75352,1,10,2:2:0:0:
463,221,75423,1,8,2:2:0:0:
448,167,75495,1,12,2:2:0:0:
248,0,75780,5,2,2:2:0:0:
248,0,75923,1,10,2:2:0:0:
373,105,76066,1,2,2:2:0:0:
137,113,76209,1,10,2:2:0:0:
137,113,76280,1,8,2:2:0:0:
137,113,76352,2,0,L|233:109,1,85.0000016212464,8|2,2:2|2:2,0:0:0:0:
480,76,76638,1,12,2:2:0:0:
404,213,76780,1,2,2:2:0:0:
328,0,76923,1,2,2:2:0:0:
256,292,77066,2,0,L|251:171,1,85.0000016212464,10|0,2:2|0:0,0:0:0:0:
99,279,77352,1,10,2:2:0:0:
99,279,77423,1,8,2:2:0:0:
99,279,77495,2,0,B|-22:292,1,85.0000016212464,10|0,2:2|0:0,0:0:0:0:
77,24,77780,6,0,B|57:56|76:99|76:99|102:148|66:200,1,170.000003242493,8|2,2:2|2:2,0:0:0:0:
244,41,78209,1,8,2:2:0:0:
102,125,78352,1,6,2:2:0:0:
319,222,78495,1,10,2:2:0:0:
319,222,78566,1,8,2:2:0:0:
319,222,78638,2,0,P|316:166|331:108,1,85.0000016212464,8|2,2:2|2:2,0:0:0:0:
500,41,78923,6,0,L|262:44,1,212.500004053116,8|0,2:2|0:0,0:0:0:0:
287,43,79352,1,10,2:2:0:0:
457,260,79638,1,10,2:2:0:0:
457,260,79709,1,8,2:2:0:0:
457,260,79780,1,14,2:2:0:0:
372,123,79923,1,0,0:0:0:0:
310,347,80066,6,0,L|318:238,1,85.0000016212464,12|0,2:2|0:0,0:0:0:0:
151,174,80352,1,2,2:2:0:0:
315,265,80495,1,10,2:2:0:0:
161,365,80638,1,6,2:2:0:0:
207,260,80780,1,10,2:2:0:0:
207,260,80852,1,8,2:2:0:0:
207,260,80923,1,8,2:2:0:0:
61,296,81066,1,2,2:2:0:0:
116,75,81209,6,0,L|125:209,1,127.50000243187,12|0,2:2|0:0,0:0:0:0:
124,202,81495,1,2,2:2:0:0:
287,0,81638,2,0,L|278:134,1,127.50000243187,10|0,2:2|0:0,0:0:0:0:
278,127,81923,1,8,2:2:0:0:
278,127,81995,1,8,2:2:0:0:
278,127,82066,1,10,2:2:0:0:
462,86,82209,1,2,2:2:0:0:
360,210,82352,6,0,P|403:201|447:215,1,85.0000016212464,12|0,2:2|0:0,0:0:0:0:
404,371,82638,2,0,P|361:380|317:366,1,85.0000016212464,0|8,0:0|2:2,0:0:0:0:
260,197,82923,1,0,0:0:0:0:
268,222,83066,1,8,2:2:0:0:
119,261,83209,1,8,2:2:0:0:
110,294,83352,1,0,0:0:0:0:
194,109,83495,1,8,2:2:0:0:
202,134,83638,1,0,0:0:0:0:
53,173,83780,1,0,0:0:0:0:
44,206,83923,1,8,2:2:0:0:
92,27,84066,6,0,L|108:89,1,42.5000008106232
156,230,84209,1,14,2:2:0:0:
156,230,84280,1,12,2:2:0:0:
156,230,84352,1,14,2:2:0:0:
330,29,84495,1,2,2:2:0:0:
454,148,84638,5,12,2:2:0:0:
454,148,84923,2,0,L|330:157,1,85.0000016212464,6|10,2:2|2:2,0:0:0:0:
192,206,85209,2,0,L|316:215,1,85.0000016212464,6|10,2:2|2:2,0:0:0:0:
236,296,85423,1,8,2:2:0:0:
236,296,85495,2,0,L|245:420,1,85.0000016212464,12|2,2:2|2:2,0:0:0:0:
512,319,85780,5,12,2:2:0:0:
512,319,86066,2,0,P|469:315|432:296,1,85.0000016212464,6|10,2:2|2:2,0:0:0:0:
495,113,86352,2,0,P|499:164|492:202,1,85.0000016212464,4|10,2:2|2:2,0:0:0:0:
325,194,86566,1,8,2:2:0:0:
325,194,86638,2,0,P|321:143|328:105,1,85.0000016212464,14|0,2:2|0:0,0:0:0:0:
133,246,86923,5,12,2:2:0:0:
133,246,87209,2,0,L|239:241,1,85.0000016212464,6|10,2:2|2:2,0:0:0:0:
306,137,87495,2,0,L|200:132,1,85.0000016212464,4|10,2:2|2:2,0:0:0:0:
121,49,87709,1,8,2:2:0:0:
121,49,87780,2,0,L|128:160,1,85.0000016212464,12|2,2:2|2:2,0:0:0:0:
230,371,88066,5,12,2:2:0:0:
230,371,88352,2,0,P|241:279|233:258,1,85.0000016212464,4|10,2:2|2:2,0:0:0:0:
53,287,88638,2,0,P|145:298|166:290,1,85.0000016212464,4|10,2:2|2:2,0:0:0:0:
153,174,88852,1,8,2:2:0:0:
153,174,88923,2,0,P|61:163|40:171,1,85.0000016212464,14|0,2:2|0:0,0:0:0:0:
416,363,89209,5,14,2:2:0:0:
357,271,89352,1,2,2:2:0:0:
488,123,89495,1,6,2:2:0:0:
456,221,89638,2,0,L|442:46,1,170.000003242493,10|10,2:2|2:2,0:0:0:0:
375,143,89995,1,8,2:2:0:0:
375,143,90066,2,0,P|318:136|273:149,1,85.0000016212464,14|2,2:2|2:2,0:0:0:0:
151,263,90352,6,0,P|208:256|253:269,1,85.0000016212464,12|0,2:2|0:0,0:0:0:0:
327,297,90638,2,0,P|320:240|333:195,1,85.0000016212464,4|8,2:2|2:2,0:0:0:0:
361,121,90923,2,0,P|304:128|259:115,1,85.0000016212464,4|8,2:2|2:2,0:0:0:0:
185,87,91209,2,0,P|192:144|179:189,1,85.0000016212464,14|0,2:2|0:0,0:0:0:0:
150,326,91495,6,0,L|254:290,1,85.0000016212464,14|0,2:2|0:0,0:0:0:0:
390,298,91780,2,0,L|354:194,1,85.0000016212464,4|12,2:2|2:2,0:0:0:0:
362,58,92066,2,0,L|258:94,1,85.0000016212464,4|12,2:2|2:2,0:0:0:0:
122,86,92352,2,0,L|158:190,1,85.0000016212464,12|4,2:2|2:2,0:0:0:0:
312,292,92638,5,14,2:2:0:0:
356,135,92780,1,4,2:2:0:0:
199,91,92923,1,6,2:2:0:0:
155,248,93066,1,14,2:2:0:0:
374,259,93209,5,4,2:2:0:0:
323,73,93352,1,14,2:2:0:0:
138,124,93495,1,12,2:2:0:0:
188,309,93638,1,6,2:2:0:0:
362,246,93780,6,0,L|402:251,3,32.4999985122681,8|0|0|0,2:2|0:0|0:0|0:0,0:0:0:0:
287,172,94066,2,0,L|282:132,3,32.4999985122681,2|0|0|0,2:2|0:0|0:0|0:0,0:0:0:0:
269,273,94353,2,0,L|273:305,3,32.4999985122681,10|0|2|8,2:2|0:0|2:2|2:2,0:0:0:0:
418,166,94637,2,0,L|423:126,1,32.4999985122681,2|0,2:2|0:0,0:0:0:0:
288,5,94781,2,0,L|294:43,1,32.4999985122681,8|0,2:2|0:0,0:0:0:0:
222,176,94924,6,0,L|180:129,1,42.5000008106232,10|0,2:2|0:0,0:0:0:0:
82,231,95066,2,0,L|143:218,1,42.5000008106232,2|0,2:2|0:0,0:0:0:0:
115,91,95209,2,0,L|95:150,1,42.5000008106232,14|0,2:2|0:0,0:0:0:0:
226,44,95352,1,2,2:2:0:0:
183,38,95422,1,0,0:0:0:0:
141,33,95494,1,8,2:2:0:0:
99,28,95565,1,0,0:0:0:0:
57,23,95638,2,0,L|-9:15,1,42.5000008106232,2|0,2:2|0:0,0:0:0:0:
39,263,95780,1,14,2:2:0:0:
77,246,95852,1,0,0:0:0:0:
104,213,95922,1,0,0:0:0:0:
112,172,95994,1,0,0:0:0:0:
101,131,96066,6,0,L|60:87,1,42.5000008106232,10|0,2:2|0:0,0:0:0:0:
224,192,96209,2,0,L|265:236,1,42.5000008106232,2|0,2:2|0:0,0:0:0:0:
190,99,96352,2,0,L|234:58,1,42.5000008106232,14|0,2:2|0:0,0:0:0:0:
135,227,96495,2,0,L|91:268,1,42.5000008106232,2|0,2:2|0:0,0:0:0:0:
242,347,96638,2,0,L|217:271,1,42.5000008106232,10|0,2:2|0:0,0:0:0:0:
350,173,96780,1,2,2:2:0:0:
324,206,96851,1,0,0:0:0:0:
314,247,96922,1,12,2:2:0:0:
319,289,96994,1,0,0:0:0:0:
340,326,97066,2,0,L|391:368,1,42.5000008106232,2|0,2:2|0:0,0:0:0:0:
448,257,97209,5,10,2:2:0:0:
448,257,97280,1,0,0:0:0:0:
448,257,97352,2,0,L|435:197,1,42.5000008106232
512,100,97495,1,14,2:2:0:0:
512,100,97566,1,0,0:0:0:0:
512,100,97638,2,0,L|499:160,1,42.5000008106232
367,133,97780,2,0,L|333:97,1,42.5000008106232,10|0,2:2|0:0,0:0:0:0:
414,0,97923,1,2,2:2:0:0:
414,0,97995,1,0,0:0:0:0:
414,0,98066,2,0,L|492:2,1,42.5000008106232,12|0,2:2|0:0,0:0:0:0:
298,76,98209,1,2,2:2:0:0:
279,55,98280,1,0,0:0:0:0:
265,37,98352,6,0,L|216:-25,1,42.5000008106232,8|0,2:2|0:0,0:0:0:0:
234,187,98495,1,2,2:2:0:0:
261,181,98566,1,0,0:0:0:0:
284,177,98638,2,0,L|362:165,1,42.5000008106232,12|0,2:2|0:0,0:0:0:0:
178,87,98780,1,2,2:2:0:0:
169,113,98852,1,0,0:0:0:0:
161,135,98923,2,0,L|131:208,1,42.5000008106232,8|0,2:2|0:0,0:0:0:0:
251,272,99066,1,2,2:2:0:0:
290,287,99137,1,0,0:0:0:0:
332,287,99208,1,12,2:2:0:0:
371,269,99280,1,0,0:0:0:0:
399,238,99352,2,0,P|403:209|398:182,1,42.5000008106232,8|0,2:2|0:0,0:0:0:0:
512,355,99495,5,14,2:2:0:0:
512,355,99566,1,0,0:0:0:0:
512,355,99638,2,0,L|455:377,1,42.5000008106232
411,245,99780,1,14,2:2:0:0:
411,245,99852,1,0,0:0:0:0:
411,245,99923,2,0,L|354:223,1,42.5000008106232
287,384,100066,2,0,L|341:368,1,42.5000008106232,10|0,2:2|0:0,0:0:0:0:
214,263,100209,1,2,2:2:0:0:
214,263,100280,1,0,0:0:0:0:
214,263,100352,2,0,L|161:256,1,42.5000008106232,12|0,2:2|0:0,0:0:0:0:
57,382,100495,1,2,2:2:0:0:
59,347,100566,1,0,0:0:0:0:
63,315,100638,6,0,P|68:284|77:256,1,42.5000008106232,8|0,2:2|0:0,0:0:0:0:
214,263,100780,1,2,2:2:0:0:
211,234,100852,1,0,0:0:0:0:
202,202,100923,2,0,P|200:172|192:145,1,42.5000008106232,12|0,2:2|0:0,0:0:0:0:
35,164,101066,1,2,2:2:0:0:
41,133,101138,1,0,0:0:0:0:
52,101,101209,2,0,P|62:76|79:52,1,42.5000008106232,8|0,2:2|0:0,0:0:0:0:
196,84,101352,1,2,2:2:0:0:
233,86,101423,1,0,0:0:0:0:
270,88,101495,2,0,L|330:92,1,42.5000008106232,12|0,2:2|0:0,0:0:0:0:
479,19,101638,5,2,2:2:0:0:
445,43,101708,1,0,0:0:0:0:
428,82,101780,1,8,2:2:0:0:
435,123,101851,1,0,0:0:0:0:
462,155,101923,1,0,0:0:0:0:
488,187,101994,1,0,0:0:0:0:
495,228,102065,1,12,2:2:0:0:
481,268,102137,1,0,0:0:0:0:
449,295,102208,1,0,0:0:0:0:
408,303,102280,1,0,0:0:0:0:
368,290,102351,1,8,2:2:0:0:
340,259,102422,1,0,0:0:0:0:
331,218,102495,6,0,P|340:186|361:147,1,42.5000008106232
290,328,102638,2,0,P|258:337|213:338,1,42.5000008106232,14|0,2:2|0:0,0:0:0:0:
408,303,102780,2,0,P|431:326|455:363,1,42.5000008106232,2|0,2:2|0:0,0:0:0:0:
238,382,102923,5,10,2:2:0:0:
221,348,102994,1,0,0:0:0:0:
223,316,103065,1,2,2:2:0:0:
237,286,103137,1,0,0:0:0:0:
277,269,103209,1,12,2:2:0:0:
287,234,103280,1,0,0:0:0:0:
280,203,103351,1,2,2:2:0:0:
261,175,103422,1,0,0:0:0:0:
216,158,103495,1,8,2:2:0:0:
200,126,103566,1,0,0:0:0:0:
210,96,103638,2,0,L|255:61,1,42.5000008106232,2|0,2:2|0:0,0:0:0:0:
354,144,103780,2,0,L|387:201,1,42.5000008106232,14|0,2:2|0:0,0:0:0:0:
370,38,103923,2,0,L|348:-7,1,42.5000008106232,8|0,2:2|0:0,0:0:0:0:
158,154,104066,6,0,P|203:167|211:167,1,42.5000008106232,14|0,2:2|0:0,0:0:0:0:
66,80,104209,2,0,P|32:112|28:119,1,42.5000008106232,2|0,2:2|0:0,0:0:0:0:
169,40,104352,2,0,P|157:-5|153:-12,1,42.5000008106232,14|0,2:2|0:0,0:0:0:0:
39,116,104495,1,2,2:2:0:0:
39,116,104566,1,0,0:0:0:0:
39,116,104638,2,0,L|48:178,1,42.5000008106232,8|0,2:2|0:0,0:0:0:0:
175,185,104780,2,0,L|166:247,1,42.5000008106232,2|0,2:2|0:0,0:0:0:0:
27,316,104923,1,14,2:2:0:0:
57,308,104995,1,0,0:0:0:0:
91,318,105066,2,0,L|137:339,1,42.5000008106232
209,215,105209,6,0,L|140:234,1,42.5000008106232,10|0,2:2|0:0,0:0:0:0:
230,343,105352,2,0,L|289:366,1,42.5000008106232,2|0,2:2|0:0,0:0:0:0:
338,192,105495,2,0,L|296:215,1,42.5000008106232,14|0,2:2|0:0,0:0:0:0:
363,349,105638,2,0,L|414:380,1,42.5000008106232,2|0,2:2|0:0,0:0:0:0:
498,270,105780,2,0,L|499:208,1,42.5000008106232,10|0,2:2|0:0,0:0:0:0:
342,196,105923,1,2,2:2:0:0:
342,196,105995,1,0,0:0:0:0:
342,196,106066,2,0,P|388:208|414:203,1,42.5000008106232,12|0,2:2|0:0,0:0:0:0:
482,83,106209,2,0,P|462:126|462:152,1,42.5000008106232,2|0,2:2|0:0,0:0:0:0:
348,40,106352,5,10,2:2:0:0:
348,40,106423,1,0,0:0:0:0:
348,40,106495,2,0,P|336:-6|341:-32,1,42.5000008106232
235,121,106638,1,14,2:2:0:0:
235,121,106709,1,0,0:0:0:0:
235,121,106780,2,0,P|247:167|242:193,1,42.5000008106232
144,54,106923,2,0,P|177:20|202:11,1,42.5000008106232,10|0,2:2|0:0,0:0:0:0:
122,167,107066,1,2,2:2:0:0:
87,158,107138,1,0,0:0:0:0:
57,135,107209,2,0,P|34:97|31:85,1,42.5000008106232,12|0,2:2|0:0,0:0:0:0:
216,150,107352,1,2,2:2:0:0:
217,187,107423,1,0,0:0:0:0:
218,223,107495,6,0,L|217:292,1,42.5000008106232,8|0,2:2|0:0,0:0:0:0:
75,354,107638,1,2,2:2:0:0:
71,310,107709,1,0,0:0:0:0:
94,275,107780,2,0,P|118:258|147:251,1,42.5000008106232,12|0,2:2|0:0,0:0:0:0:
321,280,107923,1,2,2:2:0:0:
325,324,107995,1,0,0:0:0:0:
302,359,108066,2,0,P|277:375|248:382,1,42.5000008106232,8|0,2:2|0:0,0:0:0:0:
247,211,108209,5,2,2:2:0:0:
276,187,108280,1,0,0:0:0:0:
316,179,108352,1,12,2:2:0:0:
360,189,108423,1,0,0:0:0:0:
390,211,108495,2,0,L|434:245,1,42.5000008106232,8|0,2:2|0:0,0:0:0:0:
500,384,108638,6,0,P|504:350|500:323,1,42.5000008106232,14|0,2:2|0:0,0:0:0:0:
374,295,108780,2,0,P|370:329|374:356,1,42.5000008106232,2|0,2:2|0:0,0:0:0:0:
512,226,108923,2,0,L|460:200,1,42.5000008106232,14|0,2:2|0:0,0:0:0:0:
325,155,109066,1,2,2:2:0:0:
325,155,109138,1,0,0:0:0:0:
325,155,109209,2,0,L|382:148,1,42.5000008106232,8|0,2:2|0:0,0:0:0:0:
465,28,109352,1,2,2:2:0:0:
465,28,109423,1,0,0:0:0:0:
465,28,109495,2,0,L|408:21,1,42.5000008106232,12|0,2:2|0:0,0:0:0:0:
481,170,109638,2,0,L|492:111,1,42.5000008106232,2|0,2:2|0:0,0:0:0:0:
317,154,109780,5,10,2:2:0:0:
304,191,109852,1,0,0:0:0:0:
309,223,109923,2,0,P|319:254|342:276,1,42.5000008106232
460,359,110066,1,14,2:2:0:0:
473,322,110138,1,0,0:0:0:0:
468,290,110209,2,0,P|458:259|435:237,1,42.5000008106232
354,328,110352,1,10,2:2:0:0:
317,341,110423,1,0,0:0:0:0:
285,336,110495,2,0,P|254:326|232:303,1,42.5000008106232
206,219,110638,1,14,2:2:0:0:
169,206,110709,1,0,0:0:0:0:
137,211,110780,2,0,P|106:221|84:244,1,42.5000008106232
153,357,110923,5,10,2:2:0:0:
153,357,110995,1,0,0:0:0:0:
153,357,111066,2,0,L|141:285,1,42.5000008106232
46,246,111209,2,0,L|56:177,1,42.5000008106232,14|0,2:2|0:0,0:0:0:0:
156,81,111352,5,2,2:2:0:0:
143,121,111422,1,0,0:0:0:0:
152,162,111494,1,8,2:2:0:0:
180,193,111565,1,0,0:0:0:0:
219,207,111637,1,0,0:0:0:0:
261,199,111708,1,0,0:0:0:0:
293,172,111780,1,12,2:2:0:0:
307,132,111852,1,0,0:0:0:0:
322,92,111923,1,0,0:0:0:0:
354,65,111994,1,0,0:0:0:0:
395,57,112066,1,8,2:2:0:0:
435,71,112137,1,0,0:0:0:0:
463,102,112209,1,0,0:0:0:0:
473,142,112280,1,0,0:0:0:0:
461,183,112352,1,12,2:2:0:0:
432,213,112422,1,0,0:0:0:0:
391,224,112495,1,0,0:0:0:0:
352,239,112565,1,0,0:0:0:0:
327,273,112637,1,8,2:2:0:0:
325,315,112708,1,0,0:0:0:0:
346,351,112780,1,0,0:0:0:0:
384,370,112851,1,0,0:0:0:0:
425,366,112922,1,12,2:2:0:0:
458,339,112994,1,0,0:0:0:0:
471,299,113066,1,8,2:2:0:0:
460,259,113138,1,0,0:0:0:0:
434,230,113209,6,0,L|392:183,1,42.5000008106232,14|0,2:2|0:0,0:0:0:0:
294,285,113352,2,0,L|355:272,1,42.5000008106232,2|0,2:2|0:0,0:0:0:0:
327,145,113495,2,0,L|307:204,1,42.5000008106232,14|0,2:2|0:0,0:0:0:0:
413,118,113637,1,2,2:2:0:0:
384,77,113709,1,0,0:0:0:0:
344,58,113780,1,8,2:2:0:0:
292,63,113852,1,0,0:0:0:0:
252,88,113923,2,0,L|225:126,1,42.5000008106232,2|0,2:2|0:0,0:0:0:0:
280,335,114066,5,14,2:2:0:0:
318,318,114138,1,0,0:0:0:0:
345,285,114209,1,0,0:0:0:0:
353,244,114280,1,0,0:0:0:0:
342,203,114352,6,0,L|301:159,1,42.5000008106232,10|0,2:2|0:0,0:0:0:0:
173,185,114495,2,0,L|214:229,1,42.5000008106232,2|0,2:2|0:0,0:0:0:0:
252,87,114638,2,0,L|268:18,1,42.5000008106232,14|0,2:2|0:0,0:0:0:0:
109,0,114780,2,0,L|138:71,1,42.5000008106232,2|0,2:2|0:0,0:0:0:0:
21,149,114923,2,0,L|42:77,1,42.5000008106232,10|0,2:2|0:0,0:0:0:0:
177,174,115065,5,2,2:2:0:0:
203,207,115137,1,0,0:0:0:0:
213,248,115209,1,12,2:2:0:0:
208,290,115281,1,0,0:0:0:0:
187,327,115352,2,0,L|136:369,1,42.5000008106232,2|0,2:2|0:0,0:0:0:0:
53,250,115495,5,10,2:2:0:0:
53,250,115566,1,0,0:0:0:0:
53,250,115638,2,0,L|40:190,1,42.5000008106232
230,319,115780,1,14,2:2:0:0:
230,319,115852,1,0,0:0:0:0:
230,319,115923,2,0,L|217:379,1,42.5000008106232
145,194,116065,2,0,L|154:258,1,42.5000008106232,10|0,2:2|0:0,0:0:0:0:
293,163,116209,1,2,2:2:0:0:
293,163,116280,1,0,0:0:0:0:
293,163,116351,2,0,L|279:235,1,42.5000008106232,12|0,2:2|0:0,0:0:0:0:
182,89,116494,1,2,2:2:0:0:
163,68,116566,1,0,0:0:0:0:
149,50,116638,6,0,L|102:-9,1,42.5000008106232,8|0,2:2|0:0,0:0:0:0:
118,200,116780,1,2,2:2:0:0:
145,194,116852,1,0,0:0:0:0:
168,190,116923,2,0,L|246:178,1,42.5000008106232,12|0,2:2|0:0,0:0:0:0:
62,100,117065,1,2,2:2:0:0:
53,126,117138,1,0,0:0:0:0:
45,148,117209,2,0,L|15:221,1,42.5000008106232,8|0,2:2|0:0,0:0:0:0:
152,107,117351,5,2,2:2:0:0:
191,92,117422,1,0,0:0:0:0:
233,92,117495,1,12,2:2:0:0:
272,110,117566,1,0,0:0:0:0:
300,141,117638,2,0,P|304:170|299:197,1,42.5000008106232,12|0,2:2|0:0,0:0:0:0:
141,247,117780,1,14,2:2:0:0:
141,247,117852,1,0,0:0:0:0:
141,247,117923,6,0,L|201:223,1,42.5000008106232
336,290,118066,1,14,2:2:0:0:
336,290,118138,1,0,0:0:0:0:
336,290,118209,2,0,L|279:268,1,42.5000008106232
151,364,118352,2,0,L|205:348,1,42.5000008106232,10|0,2:2|0:0,0:0:0:0:
189,187,118495,1,2,2:2:0:0:
189,187,118566,1,0,0:0:0:0:
189,187,118638,2,0,L|182:240,1,42.5000008106232,12|0,2:2|0:0,0:0:0:0:
32,371,118780,1,2,2:2:0:0:
30,336,118852,1,0,0:0:0:0:
27,301,118923,6,0,L|31:241,1,42.5000008106232,8|0,2:2|0:0,0:0:0:0:
158,171,119066,1,2,2:2:0:0:
160,205,119138,1,0,0:0:0:0:
164,238,119209,2,0,L|168:298,1,42.5000008106232,12|0,2:2|0:0,0:0:0:0:
38,169,119351,1,2,2:2:0:0:
41,133,119423,1,0,0:0:0:0:
43,101,119495,2,0,L|47:41,1,42.5000008106232,8|0,2:2|0:0,0:0:0:0:
171,24,119637,1,2,2:2:0:0:
169,46,119709,1,0,0:0:0:0:
167,71,119780,2,0,L|163:131,1,42.5000008106232,12|0,2:2|0:0,0:0:0:0:
239,209,119923,5,2,2:2:0:0:
268,238,119995,1,0,0:0:0:0:
310,245,120065,1,8,2:2:0:0:
348,229,120138,1,0,0:0:0:0:
371,194,120208,1,0,0:0:0:0:
371,152,120280,1,0,0:0:0:0:
347,118,120352,1,12,2:2:0:0:
319,86,120423,1,0,0:0:0:0:
317,44,120494,1,0,0:0:0:0:
340,9,120566,1,0,0:0:0:0:
380,0,120637,1,8,2:2:0:0:
419,9,120709,1,0,0:0:0:0:
439,39,120781,6,0,P|455:67|469:109,1,42.5000008106232,2|0,2:2|0:0,0:0:0:0:
306,68,120923,2,0,P|321:38|352:5,1,42.5000008106232,14|0,2:2|0:0,0:0:0:0:
391,169,121066,2,0,P|358:169|315:161,1,42.5000008106232,2|0,2:2|0:0,0:0:0:0:
215,76,121208,5,10,2:2:0:0:
200,110,121280,1,0,0:0:0:0:
204,141,121352,1,2,2:2:0:0:
221,170,121423,1,0,0:0:0:0:
268,191,121495,1,12,2:2:0:0:
276,217,121566,1,0,0:0:0:0:
272,249,121638,1,2,2:2:0:0:
255,279,121709,1,0,0:0:0:0:
212,300,121780,1,8,2:2:0:0:
198,333,121852,1,0,0:0:0:0:
212,362,121923,2,0,L|259:391,1,42.5000008106232,2|0,2:2|0:0,0:0:0:0:
158,243,122066,2,0,L|110:213,1,42.5000008106232,14|0,2:2|0:0,0:0:0:0:
336,306,122209,2,0,L|383:335,1,42.5000008106232,12|0,2:2|0:0,0:0:0:0:
303,66,122352,6,0,L|248:128,1,42.5000008106232,14|0,2:2|0:0,0:0:0:0:
382,200,122495,2,0,L|354:120,1,42.5000008106232,2|0,2:2|0:0,0:0:0:0:
231,201,122638,2,0,L|313:217,1,42.5000008106232,14|0,2:2|0:0,0:0:0:0:
170,139,122780,1,2,2:2:0:0:
140,169,122852,1,0,0:0:0:0:
124,208,122922,1,8,2:2:0:0:
124,250,122995,1,0,0:0:0:0:
140,289,123066,2,0,L|184:343,1,42.5000008106232,2|0,2:2|0:0,0:0:0:0:
33,228,123209,2,0,L|50:167,1,42.5000008106232,14|0,2:2|0:0,0:0:0:0:
34,354,123352,1,0,0:0:0:0:
34,354,123423,1,0,0:0:0:0:
34,354,123495,6,0,L|-7:395,1,42.5000008106232,10|0,2:2|0:0,0:0:0:0:
133,272,123638,2,0,L|147:337,1,42.5000008106232,2|0,2:2|0:0,0:0:0:0:
248,342,123780,2,0,L|234:407,1,42.5000008106232,14|0,2:2|0:0,0:0:0:0:
288,219,123923,2,0,L|302:284,1,42.5000008106232,2|0,2:2|0:0,0:0:0:0:
403,289,124066,2,0,L|389:354,1,42.5000008106232,10|0,2:2|0:0,0:0:0:0:
512,213,124209,1,2,2:2:0:0:
512,213,124281,1,0,0:0:0:0:
512,213,124352,2,0,P|466:225|440:220,1,42.5000008106232,12|0,2:2|0:0,0:0:0:0:
351,139,124495,2,0,P|394:159|420:159,1,42.5000008106232,2|0,2:2|0:0,0:0:0:0:
485,85,124638,5,10,2:2:0:0:
485,85,124710,1,0,0:0:0:0:
485,85,124780,2,0,P|473:39|478:13,1,42.5000008106232
340,0,124923,1,14,2:2:0:0:
340,0,124996,1,0,0:0:0:0:
340,0,125066,2,0,P|328:46|333:72,1,42.5000008106232
330,167,125209,2,0,P|297:133|272:124,1,42.5000008106232,10|0,2:2|0:0,0:0:0:0:
148,23,125352,1,2,2:2:0:0:
171,50,125424,1,0,0:0:0:0:
205,66,125495,2,0,P|249:69|261:66,1,42.5000008106232,12|0,2:2|0:0,0:0:0:0:
225,197,125638,1,2,2:2:0:0:
188,198,125710,1,0,0:0:0:0:
152,199,125780,6,0,L|83:198,1,42.5000008106232,8|0,2:2|0:0,0:0:0:0:
0,66,125923,1,2,2:2:0:0:
44,62,125996,1,0,0:0:0:0:
79,85,126066,2,0,P|96:109|103:138,1,42.5000008106232,12|0,2:2|0:0,0:0:0:0:
130,276,126209,1,2,2:2:0:0:
86,280,126281,1,0,0:0:0:0:
51,257,126352,2,0,P|35:232|28:203,1,42.5000008106232,8|0,2:2|0:0,0:0:0:0:
191,194,126495,5,2,2:2:0:0:
220,216,126567,1,0,0:0:0:0:
237,254,126638,1,12,2:2:0:0:
237,299,126710,1,0,0:0:0:0:
223,333,126780,2,0,L|199:383,1,42.5000008106232,12|0,2:2|0:0,0:0:0:0:
328,267,126923,6,0,L|305:199,1,42.5000008106232,14|0,2:2|0:0,0:0:0:0:
423,344,127066,2,0,L|375:397,1,42.5000008106232,2|0,2:2|0:0,0:0:0:0:
434,223,127209,2,0,L|504:237,1,42.5000008106232,14|0,2:2|0:0,0:0:0:0:
328,160,127352,1,2,2:2:0:0:
337,129,127423,1,0,0:0:0:0:
363,104,127495,2,0,P|389:92|424:88,1,42.5000008106232,8|0,2:2|0:0,0:0:0:0:
273,19,127638,2,0,P|247:31|212:35,1,42.5000008106232,2|0,2:2|0:0,0:0:0:0:
198,196,127780,2,0,P|224:184|259:180,1,42.5000008106232,14|0,2:2|0:0,0:0:0:0:
118,48,127923,2,0,P|130:74|134:109,1,42.5000008106232,2|0,2:2|0:0,0:0:0:0:
11,225,128066,5,10,2:2:0:0:
18,196,128138,1,0,0:0:0:0:
24,167,128209,2,0,L|36:100,1,42.5000008106232
113,279,128352,1,14,2:2:0:0:
120,308,128423,1,0,0:0:0:0:
126,336,128495,2,0,L|137:403,1,42.5000008106232
226,230,128638,1,10,2:2:0:0:
233,201,128709,1,0,0:0:0:0:
239,172,128780,2,0,L|250:104,1,42.5000008106232
340,280,128923,1,14,2:2:0:0:
347,309,128995,1,0,0:0:0:0:
353,337,129066,2,0,L|364:404,1,42.5000008106232
494,145,129209,5,10,2:2:0:0:
464,114,129280,1,0,0:0:0:0:
425,100,129351,1,0,0:0:0:0:
383,104,129423,1,0,0:0:0:0:
347,126,129495,2,0,L|304:176,1,42.5000008106232,12|0,2:2|0:0,0:0:0:0:
192,313,129638,5,2,2:2:0:0:
173,275,129709,1,0,0:0:0:0:
177,233,129780,1,8,2:2:0:0:
201,199,129852,1,0,0:0:0:0:
240,182,129922,1,0,0:0:0:0:
281,187,129995,1,0,0:0:0:0:
315,212,130066,1,12,2:2:0:0:
331,251,130138,1,0,0:0:0:0:
363,279,130208,1,0,0:0:0:0:
403,291,130280,1,0,0:0:0:0:
445,285,130351,1,8,2:2:0:0:
480,262,130423,1,0,0:0:0:0:
502,227,130494,1,0,0:0:0:0:
507,185,130566,1,0,0:0:0:0:
494,145,130637,1,12,2:2:0:0:
465,114,130709,1,0,0:0:0:0:
426,98,130780,1,0,0:0:0:0:
384,101,130852,1,0,0:0:0:0:
347,121,130923,1,8,2:2:0:0:
313,145,130995,1,0,0:0:0:0:
271,145,131065,1,0,0:0:0:0:
238,120,131138,1,0,0:0:0:0:
227,80,131208,1,12,2:2:0:0:
241,41,131280,1,0,0:0:0:0:
277,19,131352,1,12,2:2:0:0:
318,22,131423,1,0,0:0:0:0:
350,49,131495,6,0,P|358:72|358:106,1,42.5000008106232,14|0,2:2|0:0,0:0:0:0:
227,188,131638,2,0,P|242:169|272:152,1,42.5000008106232,2|0,2:2|0:0,0:0:0:0:
399,222,131780,2,0,P|375:217|345:200,1,42.5000008106232,14|0,2:2|0:0,0:0:0:0:
482,128,131923,1,2,2:2:0:0:
482,128,131995,1,0,0:0:0:0:
482,128,132066,2,0,L|476:193,1,42.5000008106232,8|0,2:2|0:0,0:0:0:0:
415,310,132209,2,0,L|402:235,1,42.5000008106232,2|0,2:2|0:0,0:0:0:0:
343,110,132352,2,0,L|337:175,1,42.5000008106232,14|0,2:2|0:0,0:0:0:0:
276,292,132495,2,0,L|263:217,1,42.5000008106232,2|0,2:2|0:0,0:0:0:0:
127,362,132638,5,10,2:2:0:0:
169,367,132709,1,0,0:0:0:0:
211,373,132780,2,0,L|271:378,1,42.5000008106232
139,247,132923,1,14,2:2:0:0:
97,252,132995,1,0,0:0:0:0:
55,258,133066,2,0,L|-5:263,1,42.5000008106232
138,141,133209,1,10,2:2:0:0:
180,146,133280,1,0,0:0:0:0:
222,152,133352,2,0,L|282:157,1,42.5000008106232
146,41,133495,1,14,2:2:0:0:
104,46,133566,1,0,0:0:0:0:
62,52,133638,2,0,L|2:57,1,42.5000008106232
290,40,133780,6,0,L|369:50,1,42.5000008106232,10|0,2:2|0:0,0:0:0:0:
222,152,133923,2,0,L|173:215,1,42.5000008106232,2|0,2:2|0:0,0:0:0:0:
146,41,134066,2,0,L|115:-32,1,42.5000008106232,14|0,2:2|0:0,0:0:0:0:
28,130,134209,1,2,2:2:0:0:
28,130,134280,1,0,0:0:0:0:
28,130,134352,2,0,P|58:162|71:168,1,42.5000008106232,8|0,2:2|0:0,0:0:0:0:
213,202,134495,2,0,P|164:212|153:217,1,42.5000008106232,2|0,2:2|0:0,0:0:0:0:
16,261,134638,2,0,P|71:271|84:277,1,42.5000008106232,14|0,2:2|0:0,0:0:0:0:
219,355,134780,5,2,2:2:0:0:
255,334,134852,1,0,0:0:0:0:
276,298,134922,1,8,2:2:0:0:
274,256,134995,1,0,0:0:0:0:
251,221,135065,1,0,0:0:0:0:
216,204,135138,1,0,0:0:0:0:
174,195,135208,1,12,2:2:0:0:
143,167,135280,1,0,0:0:0:0:
128,128,135351,1,0,0:0:0:0:
135,86,135422,1,0,0:0:0:0:
162,53,135494,1,8,2:2:0:0:
200,37,135565,1,0,0:0:0:0:
242,42,135638,1,0,0:0:0:0:
276,67,135708,1,0,0:0:0:0:
294,105,135780,5,12,2:2:0:0:
174,272,135924,1,8,2:2:0:0:
470,211,136067,5,12,2:2:0:0:
470,211,136138,1,0,0:0:0:0:
470,211,136210,2,0,L|459:135,1,42.5000008106232
359,266,136353,1,12,2:2:0:0:
359,266,136423,1,0,0:0:0:0:
359,266,136496,2,0,L|370:190,1,42.5000008106232
281,170,136637,1,8,2:2:0:0:
281,170,136709,1,0,0:0:0:0:
281,170,136781,2,0,L|270:94,1,42.5000008106232
168,211,136924,1,12,2:2:0:0:
168,211,136995,1,0,0:0:0:0:
168,211,137067,2,0,L|179:135,1,42.5000008106232
204,310,137209,5,8,2:2:0:0:
204,310,137280,1,0,0:0:0:0:
204,310,137352,2,0,L|264:357,1,42.5000008106232
106,286,137495,1,12,2:2:0:0:
106,286,137565,1,0,0:0:0:0:
106,286,137638,2,0,L|34:314,1,42.5000008106232
0,177,137780,1,8,2:2:0:0:
0,177,137851,1,0,0:0:0:0:
0,177,137923,2,0,L|71:205,1,42.5000008106232
155,138,138066,1,12,2:2:0:0:
155,138,138137,1,0,0:0:0:0:
155,138,138209,2,0,L|83:166,1,42.5000008106232
238,309,138352,6,0,L|273:249,1,42.5000008106232,8|0,2:2|0:0,0:0:0:0:
272,75,138495,2,0,L|237:134,1,42.5000008106232,8|0,2:2|0:0,0:0:0:0:
372,209,138638,2,0,L|312:174,1,42.5000008106232,12|0,2:2|0:0,0:0:0:0:
138,176,138780,2,0,L|198:210,1,42.5000008106232,8|0,2:2|0:0,0:0:0:0:
360,310,138923,6,0,L|334:236,1,42.5000008106232,8|0,2:2|0:0,0:0:0:0:
150,74,139066,2,0,L|177:144,1,42.5000008106232,8|0,2:2|0:0,0:0:0:0:
372,87,139209,2,0,L|297:115,1,42.5000008106232,12|0,2:2|0:0,0:0:0:0:
138,297,139352,2,0,L|211:270,1,42.5000008106232,8|0,2:2|0:0,0:0:0:0:
255,193,139495,5,12,2:2:0:0:
255,201,139566,1,12,2:2:0:0:
255,209,139638,1,12,2:2:0:0:
255,217,139709,1,12,2:2:0:0:
255,225,139780,1,12,2:2:0:0:
255,233,139852,1,12,2:2:0:0:
255,241,139923,1,12,2:2:0:0:
255,249,139995,1,12,2:2:0:0:
255,257,140066,1,12,2:2:0:0:
255,265,140138,1,12,2:2:0:0:
255,273,140209,1,12,2:2:0:0:
255,281,140280,1,12,2:2:0:0:
255,289,140352,1,12,2:2:0:0:
255,297,140423,1,12,2:2:0:0:
255,305,140495,1,12,2:2:0:0:
255,313,140566,1,12,2:2:0:0:
255,321,140638,1,12,2:2:0:0:
129,113,144066,5,8,2:2:0:0:
129,113,144138,1,8,2:2:0:0:
226,243,144280,1,8,2:2:0:0:
226,243,144352,1,8,2:2:0:0:
69,332,144495,1,8,2:2:0:0:
69,332,144566,1,8,2:2:0:0:
69,332,144638,6,0,L|57:299,15,21.2500004053116,8|0|0|0|0|0|0|0|0|0|0|0|0|0|0|0,2:2|0:0|0:0|0:0|0:0|0:0|0:0|0:0|0:0|0:0|0:0|0:0|0:0|0:0|0:0|0:0,0:0:0:0:
173,372,145209,6,0,L|181:315,1,37.5000014305115,8|0,2:2|0:0,0:0:0:0:
256,243,145352,2,0,L|264:300,1,37.5000014305115
329,384,145495,2,0,L|339:341,1,37.5000014305115,12|0,2:2|0:0,0:0:0:0:
372,237,145638,1,0,0:0:0:0:
372,237,145709,1,0,0:0:0:0:
372,237,145780,1,8,2:2:0:0:
452,347,145923,1,0,0:0:0:0:
508,231,146066,1,12,2:2:0:0:
328,143,146209,1,0,0:0:0:0:
364,137,146280,1,0,0:0:0:0:
401,127,146352,6,0,L|456:112,1,37.5000014305115,8|0,2:2|0:0,0:0:0:0:
352,246,146495,2,0,L|297:231,1,37.5000014305115
241,89,146638,2,0,L|277:79,1,37.5000014305115,12|0,2:2|0:0,0:0:0:0:
199,198,146780,1,0,0:0:0:0:
199,198,146852,1,0,0:0:0:0:
199,198,146923,1,8,2:2:0:0:
116,89,147066,1,0,0:0:0:0:
89,246,147209,1,12,2:2:0:0:
4,116,147352,1,0,0:0:0:0:
5,78,147422,1,0,0:0:0:0:
7,37,147495,6,0,L|11:-27,1,37.5000014305115,8|0,2:2|0:0,0:0:0:0:
130,111,147638,2,0,L|72:139,1,37.5000014305115
210,8,147780,2,0,L|263:43,1,37.5000014305115,12|0,2:2|0:0,0:0:0:0:
387,162,147923,1,0,0:0:0:0:
325,51,148066,1,8,2:2:0:0:
303,243,148209,1,0,0:0:0:0:
303,243,148352,1,12,2:2:0:0:
102,205,148495,1,0,0:0:0:0:
138,211,148565,1,0,0:0:0:0:
172,218,148638,6,0,L|233:230,1,37.5000014305115,8|0,2:2|0:0,0:0:0:0:
41,289,148780,2,0,L|-20:277,1,37.5000014305115
198,377,148923,2,0,L|259:389,1,37.5000014305115,12|0,2:2|0:0,0:0:0:0:
138,211,149066,1,0,0:0:0:0:
138,211,149138,1,0,0:0:0:0:
138,211,149209,1,8,2:2:0:0:
267,158,149352,1,0,0:0:0:0:
260,351,149495,1,12,2:2:0:0:
415,252,149638,1,8,2:2:0:0:
379,246,149708,1,0,0:0:0:0:
345,239,149780,6,0,L|284:227,1,37.5000014305115,8|0,2:2|0:0,0:0:0:0:
382,384,149923,2,0,L|394:330,1,37.5000014305115
512,232,150066,2,0,L|500:286,1,37.5000014305115,12|0,2:2|0:0,0:0:0:0:
385,125,150209,1,0,0:0:0:0:
345,239,150352,1,8,2:2:0:0:
508,81,150495,1,0,0:0:0:0:
508,81,150638,1,12,2:2:0:0:
338,2,150780,1,0,0:0:0:0:
301,8,150851,1,0,0:0:0:0:
264,14,150923,6,0,L|213:28,1,37.5000014305115,8|0,2:2|0:0,0:0:0:0:
244,165,151066,2,0,L|257:114,1,37.5000014305115
119,72,151209,2,0,L|156:109,1,37.5000014305115,12|0,2:2|0:0,0:0:0:0:
77,197,151352,1,0,0:0:0:0:
77,197,151423,1,0,0:0:0:0:
77,197,151495,1,8,2:2:0:0:
1,78,151638,1,0,0:0:0:0:
1,78,151780,1,12,2:2:0:0:
0,240,151923,1,0,0:0:0:0:
6,277,151994,1,0,0:0:0:0:
12,314,152066,6,0,L|22:370,1,37.5000014305115,8|0,2:2|0:0,0:0:0:0:
129,247,152209,2,0,L|115:303,1,37.5000014305115
224,319,152352,2,0,L|234:375,1,37.5000014305115,12|0,2:2|0:0,0:0:0:0:
334,240,152495,2,0,L|320:296,1,37.5000014305115
224,213,152638,1,8,2:2:0:0:
419,185,152780,1,0,0:0:0:0:
419,185,152923,1,12,2:2:0:0:
349,384,153066,1,0,0:0:0:0:
352,346,153137,1,0,0:0:0:0:
356,309,153209,6,0,L|362:251,1,37.5000014305115,8|0,2:2|0:0,0:0:0:0:
493,257,153352,2,0,L|450:283,1,37.5000014305115
387,165,153495,2,0,L|436:195,1,37.5000014305115,12|0,2:2|0:0,0:0:0:0:
296,243,153638,1,0,0:0:0:0:
343,74,153780,1,8,2:2:0:0:
491,159,153923,1,0,0:0:0:0:
491,159,154066,1,12,2:2:0:0:
272,142,154209,1,8,2:2:0:0:
234,138,154280,1,0,0:0:0:0:
197,134,154353,5,8,2:2:0:0:
210,121,154423,1,0,0:0:0:0:
220,105,154495,1,0,0:0:0:0:
226,87,154566,1,0,0:0:0:0:
226,68,154638,1,12,2:2:0:0:
222,50,154709,1,0,0:0:0:0:
213,34,154780,1,0,0:0:0:0:
203,22,154852,1,0,0:0:0:0:
185,8,154923,2,0,L|134:6,1,37.5000014305115,8|0,2:2|0:0,0:0:0:0:
18,90,155066,2,0,L|69:88,3,37.5000014305115,0|0|12|0,0:0|0:0|2:2|0:0,0:0:0:0:
179,187,155352,1,0,0:0:0:0:
141,184,155422,1,0,0:0:0:0:
105,191,155495,5,8,2:2:0:0:
96,208,155565,1,0,0:0:0:0:
90,225,155637,1,0,0:0:0:0:
87,244,155708,1,0,0:0:0:0:
88,262,155780,1,12,2:2:0:0:
92,281,155851,1,0,0:0:0:0:
99,298,155922,1,0,0:0:0:0:
109,314,155994,1,0,0:0:0:0:
124,329,156066,2,0,L|172:338,1,37.5000014305115,8|0,2:2|0:0,0:0:0:0:
283,247,156209,2,0,L|235:256,3,37.5000014305115,0|0|12|0,0:0|0:0|2:2|0:0,0:0:0:0:
336,360,156495,1,0,0:0:0:0:
336,360,156566,1,0,0:0:0:0:
336,360,156638,5,8,2:2:0:0:
479,268,156780,1,0,0:0:0:0:
360,140,156923,1,12,2:2:0:0:
360,140,156996,1,0,0:0:0:0:
360,140,157066,1,0,0:0:0:0:
363,258,157209,1,8,2:2:0:0:
486,116,157352,2,0,L|490:67,1,37.5000014305115
341,0,157495,2,0,L|345:49,1,37.5000014305115,12|0,2:2|0:0,0:0:0:0:
242,124,157638,1,0,0:0:0:0:
242,124,157709,1,0,0:0:0:0:
242,124,157780,5,8,2:2:0:0:
158,9,157923,1,0,0:0:0:0:
56,89,158065,1,12,2:2:0:0:
56,89,158138,1,0,0:0:0:0:
56,89,158209,1,0,0:0:0:0:
242,124,158352,1,8,2:2:0:0:
26,188,158495,2,0,L|81:196,1,37.5000014305115
172,249,158638,2,0,L|117:257,1,37.5000014305115,12|0,2:2|0:0,0:0:0:0:
21,377,158780,1,0,0:0:0:0:
64,376,158852,1,0,0:0:0:0:
107,372,158923,5,8,2:2:0:0:
113,354,158995,1,0,0:0:0:0:
123,338,159065,1,0,0:0:0:0:
137,326,159138,1,0,0:0:0:0:
154,318,159208,1,12,2:2:0:0:
172,314,159280,1,0,0:0:0:0:
191,315,159351,1,0,0:0:0:0:
209,320,159423,1,0,0:0:0:0:
227,330,159495,2,0,L|268:354,1,37.5000014305115,8|0,2:2|0:0,0:0:0:0:
319,240,159638,2,0,L|351:221,3,37.5000014305115,0|0|12|0,0:0|0:0|2:2|0:0,0:0:0:0:
408,367,159923,1,0,0:0:0:0:
408,367,159995,1,0,0:0:0:0:
408,367,160066,6,0,L|355:363,1,37.5000014305115,8|0,2:2|0:0,0:0:0:0:
466,233,160209,2,0,L|480:282,1,37.5000014305115
374,141,160352,1,12,2:2:0:0:
374,141,160423,1,0,0:0:0:0:
374,141,160495,1,0,0:0:0:0:
500,86,160638,1,8,2:2:0:0:
306,37,160780,1,0,0:0:0:0:
306,37,160923,1,12,2:2:0:0:
276,186,161066,1,0,0:0:0:0:
276,186,161138,1,0,0:0:0:0:
276,186,161209,6,0,L|270:127,1,37.5000014305115,8|0,2:2|0:0,0:0:0:0:
191,68,161352,2,0,L|197:9,1,37.5000014305115
118,213,161495,2,0,L|112:154,1,37.5000014305115,12|0,2:2|0:0,0:0:0:0:
0,109,161638,2,0,L|6:50,1,37.5000014305115
112,20,161780,1,8,2:2:0:0:
17,200,161923,1,0,0:0:0:0:
17,200,162066,1,12,2:2:0:0:
176,157,162209,1,0,0:0:0:0:
213,155,162280,1,0,0:0:0:0:
250,154,162352,5,8,2:2:0:0:
241,170,162423,1,0,0:0:0:0:
235,188,162494,1,0,0:0:0:0:
233,207,162566,1,0,0:0:0:0:
234,225,162637,1,12,2:2:0:0:
240,243,162709,1,0,0:0:0:0:
249,260,162780,1,0,0:0:0:0:
261,274,162852,1,0,0:0:0:0:
276,285,162922,1,8,2:2:0:0:
390,187,163066,1,0,0:0:0:0:
403,360,163209,1,12,2:2:0:0:
510,255,163352,1,8,2:2:0:0:
511,217,163423,1,0,0:0:0:0:
512,180,163495,6,0,L|514:93,1,75.0000028610231,10|0,2:2|0:0,0:0:0:0:
390,187,163780,1,14,2:2:0:0:
407,6,163923,2,0,L|405:93,1,75.0000028610231,2|8,2:2|2:2,0:0:0:0:
304,184,164209,1,0,0:0:0:0:
202,11,164352,2,0,P|242:0|291:18,1,75.0000028610231,14|0,2:2|0:0,0:0:0:0:
266,112,164566,1,0,0:0:0:0:
266,112,164638,6,0,P|226:123|177:105,1,75.0000028610231,10|0,2:2|0:0,0:0:0:0:
93,3,164923,1,14,2:2:0:0:
28,125,165066,2,0,L|33:228,1,75.0000028610231,2|8,2:2|2:2,0:0:0:0:
186,159,165352,1,0,0:0:0:0:
46,271,165495,1,12,2:2:0:0:
180,327,165638,1,0,0:0:0:0:
217,325,165709,1,0,0:0:0:0:
254,324,165780,6,0,L|354:319,1,75.0000028610231,10|0,2:2|0:0,0:0:0:0:
453,375,166066,1,14,2:2:0:0:
404,183,166209,2,0,L|406:270,1,75.0000028610231,2|8,2:2|2:2,0:0:0:0:
512,211,166495,1,0,0:0:0:0:
434,89,166638,2,0,P|394:78|345:96,1,75.0000028610231,14|0,2:2|0:0,0:0:0:0:
238,154,166852,1,0,0:0:0:0:
238,154,166923,6,0,P|278:165|327:147,1,75.0000028610231,10|0,2:2|0:0,0:0:0:0:
286,43,167209,1,14,2:2:0:0:
141,77,167352,2,0,L|136:180,1,75.0000028610231,2|8,2:2|2:2,0:0:0:0:
23,103,167638,1,0,0:0:0:0:
137,228,167780,1,12,2:2:0:0:
0,338,167923,1,8,2:2:0:0:
37,336,167995,1,0,0:0:0:0:
75,335,168066,6,0,L|174:329,1,75.0000028610231,10|0,2:2|0:0,0:0:0:0:
310,291,168352,1,14,2:2:0:0:
137,228,168495,2,0,P|126:194|129:149,1,75.0000028610231,2|8,2:2|2:2,0:0:0:0:
323,185,168780,1,0,0:0:0:0:
165,82,168923,2,0,P|125:71|76:89,1,75.0000028610231,14|0,2:2|0:0,0:0:0:0:
213,150,169138,1,0,0:0:0:0:
213,150,169209,6,0,P|253:139|302:157,1,75.0000028610231,10|0,2:2|0:0,0:0:0:0:
359,264,169495,1,14,2:2:0:0:
424,159,169638,2,0,L|429:56,1,75.0000028610231,2|8,2:2|2:2,0:0:0:0:
320,86,169923,1,0,0:0:0:0:
495,0,170066,1,12,2:2:0:0:
507,175,170209,1,0,0:0:0:0:
508,212,170280,1,0,0:0:0:0:
509,249,170352,6,0,L|514:348,1,75.0000028610231,10|0,2:2|0:0,0:0:0:0:
265,281,170638,1,14,2:2:0:0:
336,355,170780,2,0,P|370:366|415:363,1,75.0000028610231,2|8,2:2|2:2,0:0:0:0:
382,197,171066,1,0,0:0:0:0:
265,281,171209,2,0,P|225:292|176:274,1,75.0000028610231,14|0,2:2|0:0,0:0:0:0:
63,200,171423,1,0,0:0:0:0:
63,200,171495,6,0,P|103:189|152:207,1,75.0000028610231,10|0,2:2|0:0,0:0:0:0:
99,283,171780,1,14,2:2:0:0:
11,124,171923,2,0,L|16:21,1,75.0000028610231,2|8,2:2|2:2,0:0:0:0:
165,156,172209,1,0,0:0:0:0:
104,49,172352,1,12,2:2:0:0:
39,203,172495,1,8,2:2:0:0:
38,240,172566,1,0,0:0:0:0:
37,277,172638,6,0,L|32:376,1,75.0000028610231,10|0,2:2|0:0,0:0:0:0:
203,359,172923,1,14,2:2:0:0:
143,194,173066,2,0,L|171:286,1,75.0000028610231,2|8,2:2|2:2,0:0:0:0:
313,225,173352,1,0,0:0:0:0:
179,110,173495,2,0,P|139:99|90:117,1,75.0000028610231,14|0,2:2|0:0,0:0:0:0:
263,65,173709,1,0,0:0:0:0:
263,65,173780,6,0,P|303:54|352:72,1,75.0000028610231,10|0,2:2|0:0,0:0:0:0:
394,171,174066,1,14,2:2:0:0:
484,89,174209,2,0,L|479:-14,1,75.0000028610231,2|8,2:2|2:2,0:0:0:0:
325,122,174495,1,0,0:0:0:0:
480,199,174638,1,12,2:2:0:0:
267,222,174780,1,0,0:0:0:0:
303,229,174852,1,0,0:0:0:0:
341,220,174923,6,0,P|380:195|396:162,1,75.0000028610231,10|0,2:2|0:0,0:0:0:0:
183,136,175209,1,14,2:2:0:0:
236,312,175352,2,0,P|269:324|314:324,1,75.0000028610231,2|8,2:2|2:2,0:0:0:0:
166,221,175638,1,0,0:0:0:0:
25,363,175780,2,0,P|14:323|32:274,1,75.0000028610231,14|0,2:2|0:0,0:0:0:0:
83,197,175995,1,0,0:0:0:0:
83,197,176066,6,0,P|94:157|76:108,1,75.0000028610231,10|0,2:2|0:0,0:0:0:0:
12,46,176352,1,14,2:2:0:0:
228,49,176495,2,0,L|125:44,1,75.0000028610231,2|8,2:2|2:2,0:0:0:0:
250,170,176780,1,0,0:0:0:0:
378,36,176923,1,12,2:2:0:0:
377,180,177066,1,8,2:2:0:0:
375,206,177138,1,0,0:0:0:0:
374,231,177209,6,0,L|369:330,1,75.0000028610231,10|0,2:2|0:0,0:0:0:0:
252,226,177495,1,14,2:2:0:0:
422,105,177637,2,0,P|388:94|343:97,1,75.0000028610231,2|8,2:2|2:2,0:0:0:0:
201,150,177924,1,0,0:0:0:0:
130,2,178067,2,0,L|139:110,1,75.0000028610231,14|0,2:2|0:0,0:0:0:0:
18,190,178280,1,0,0:0:0:0:
18,190,178353,6,0,L|32:95,1,75.0000028610231,10|0,2:2|0:0,0:0:0:0:
160,221,178637,1,14,2:2:0:0:
0,307,178781,2,0,L|74:303,1,75.0000028610231,2|8,2:2|2:2,0:0:0:0:
192,366,179067,1,0,0:0:0:0:
160,221,179210,1,12,2:2:0:0:
336,222,179353,1,0,0:0:0:0:
335,259,179423,1,0,0:0:0:0:
334,296,179496,6,0,L|329:395,1,75.0000028610231,10|0,2:2|0:0,0:0:0:0:
226,252,179780,1,14,2:2:0:0:
426,146,179923,2,0,P|437:180|434:225,1,75.0000028610231,2|8,2:2|2:2,0:0:0:0:
280,130,180209,1,0,0:0:0:0:
481,45,180352,2,0,P|441:34|392:52,1,75.0000028610231,14|0,2:2|0:0,0:0:0:0:
229,45,180565,1,0,0:0:0:0:
229,45,180638,6,0,P|269:34|318:52,1,75.0000028610231,10|0,2:2|0:0,0:0:0:0:
377,220,180923,1,14,2:2:0:0:
146,131,181066,2,0,L|141:28,1,75.0000028610231,2|8,2:2|2:2,0:0:0:0:
260,187,181352,1,0,0:0:0:0:
24,74,181495,1,8,2:2:0:0:
153,200,181638,1,8,2:2:0:0:
154,257,181708,1,0,0:0:0:0:
155,311,181780,6,0,L|157:358,1,37.5000014305115,12|0,2:2|0:0,0:0:0:0:
108,206,192066,5,2,2:2:0:0:
174,140,192209,1,2,2:2:0:0:
261,248,192352,1,2,2:2:0:0:
332,102,192495,1,2,2:2:0:0:
332,102,192780,5,2,2:2:0:0:
420,272,192923,1,2,2:2:0:0:
420,272,193209,5,2,2:2:0:0:
239,196,193352,1,2,2:2:0:0:
324,351,193495,1,2,2:2:0:0:
454,167,193638,1,2,2:2:0:0:
174,100,193780,1,2,2:2:0:0:
184,366,193923,1,2,2:2:0:0:
184,366,194209,5,2,2:2:0:0:
68,180,194352,1,2,2:2:0:0:
68,180,194638,1,2,2:2:0:0:
68,180,194923,5,2,2:2:0:0:
392,129,195066,1,2,2:2:0:0:
392,129,195352,5,2,2:2:0:0:
392,129,195638,1,2,2:2:0:0:
392,129,195923,1,2,2:2:0:0:
392,129,196209,1,2,2:2:0:0:
392,129,196638,5,2,2:2:0:0:
282,24,196780,1,2,2:2:0:0:
318,264,196923,1,2,2:2:0:0:
512,87,197066,1,2,2:2:0:0:
512,87,197352,5,2,2:2:0:0:
512,87,197638,1,2,2:2:0:0:
194,100,197780,1,2,2:2:0:0:
194,100,198066,5,2,2:2:0:0:
194,100,198352,1,2,2:2:0:0:
194,100,198638,1,2,2:2:0:0:
194,100,198923,1,2,2:2:0:0:
194,100,199209,1,2,2:2:0:0:
256,192,199352,12,0,199995,0:0:0:0:
149,292,200066,5,8,2:2:0:0:
158,267,200138,1,8,2:2:0:0:
237,164,200280,1,8,2:2:0:0:
229,141,200352,1,8,2:2:0:0:
113,69,200495,1,8,2:2:0:0:
120,48,200567,1,8,2:2:0:0:
128,28,200638,6,0,L|137:-3,14,18.7500007152558,8|0|0|0|0|0|0|0|0|0|0|0|0|0|0,2:2|0:0|0:0|0:0|0:0|0:0|0:0|0:0|0:0|0:0|0:0|0:0|0:0|0:0|0:0,0:0:0:0:
202,80,201209,6,0,L|242:85,3,32.4999985122681
312,6,201495,2,0,L|348:1,3,32.4999985122681,2|0|0|0,2:2|0:0|0:0|0:0,0:0:0:0:
346,143,201780,2,0,L|355:179,3,32.4999985122681,10|0|2|8,2:2|0:0|2:2|2:2,0:0:0:0:
459,72,202066,2,0,L|454:112,1,32.4999985122681,2|0,2:2|0:0,0:0:0:0:
504,221,202209,2,0,L|510:177,1,32.4999985122681,8|0,2:2|0:0,0:0:0:0:
351,272,202352,6,0,L|402:235,1,47.4999987316132,10|0,2:2|0:0,0:0:0:0:
475,357,202494,2,0,L|418:330,1,47.4999987316132,2|0,2:2|0:0,0:0:0:0:
474,213,202637,2,0,L|480:274,1,47.4999987316132,14|0,2:2|0:0,0:0:0:0:
296,360,202780,1,2,2:2:0:0:
263,325,202852,1,0,0:0:0:0:
251,280,202922,1,8,2:2:0:0:
262,234,202995,1,0,0:0:0:0:
293,198,203066,2,0,L|351:176,1,47.4999987316132,2|0,2:2|0:0,0:0:0:0:
512,113,203209,1,14,2:2:0:0:
464,111,203280,1,0,0:0:0:0:
417,109,203351,1,0,0:0:0:0:
369,108,203423,1,0,0:0:0:0:
322,106,203495,6,0,L|250:104,1,47.4999987316132,10|0,2:2|0:0,0:0:0:0:
157,209,203638,2,0,L|229:207,1,47.4999987316132,2|0,2:2|0:0,0:0:0:0:
192,42,203780,2,0,L|120:40,1,47.4999987316132,14|0,2:2|0:0,0:0:0:0:
8,150,203923,2,0,L|80:148,1,47.4999987316132,2|0,2:2|0:0,0:0:0:0:
49,2,204066,2,0,L|44:72,1,47.4999987316132,10|0,2:2|0:0,0:0:0:0:
56,261,204209,1,2,2:2:0:0:
87,295,204280,1,0,0:0:0:0:
132,308,204351,1,12,2:2:0:0:
177,294,204423,1,0,0:0:0:0:
207,258,204495,2,0,L|236:202,1,47.4999987316132,2|0,2:2|0:0,0:0:0:0:
83,159,204638,5,10,2:2:0:0:
83,159,204709,1,0,0:0:0:0:
83,159,204780,2,0,L|91:216,1,47.4999987316132
154,383,204923,1,14,2:2:0:0:
154,383,204995,1,0,0:0:0:0:
154,383,205066,2,0,L|165:325,1,47.4999987316132
322,349,205209,2,0,L|266:368,1,47.4999987316132,10|0,2:2|0:0,0:0:0:0:
213,224,205352,1,2,2:2:0:0:
213,224,205423,1,0,0:0:0:0:
213,224,205495,2,0,L|248:263,1,47.4999987316132,12|0,2:2|0:0,0:0:0:0:
377,233,205638,1,2,2:2:0:0:
418,208,205709,1,0,0:0:0:0:
435,164,205780,6,0,L|433:107,1,47.4999987316132,8|0,2:2|0:0,0:0:0:0:
261,26,205923,1,2,2:2:0:0:
261,72,205995,1,0,0:0:0:0:
290,110,206066,2,0,L|339:137,1,47.4999987316132,12|0,2:2|0:0,0:0:0:0:
496,23,206209,1,2,2:2:0:0:
455,1,206280,1,0,0:0:0:0:
408,6,206352,2,0,L|359:35,1,47.4999987316132,8|0,2:2|0:0,0:0:0:0:
246,142,206495,1,2,2:2:0:0:
198,138,206566,1,0,0:0:0:0:
151,135,206637,1,12,2:2:0:0:
103,131,206709,1,0,0:0:0:0:
56,128,206780,2,0,L|5:123,1,47.4999987316132,8|0,2:2|0:0,0:0:0:0:
158,230,206923,5,14,2:2:0:0:
158,230,206995,1,0,0:0:0:0:
158,230,207066,2,0,L|217:198,1,47.4999987316132
46,307,207209,1,14,2:2:0:0:
46,307,207280,1,0,0:0:0:0:
46,307,207352,2,0,L|-13:275,1,47.4999987316132
161,376,207495,2,0,L|221:346,1,47.4999987316132,10|0,2:2|0:0,0:0:0:0:
268,227,207638,1,2,2:2:0:0:
291,223,207709,1,0,0:0:0:0:
317,224,207780,2,0,P|350:227|384:241,1,47.4999987316132,12|0,2:2|0:0,0:0:0:0:
443,353,207923,1,2,2:2:0:0:
439,329,207995,1,0,0:0:0:0:
440,304,208066,6,0,P|443:271|457:237,1,47.4999987316132,8|0,2:2|0:0,0:0:0:0:
507,152,208209,1,2,2:2:0:0:
511,128,208280,1,0,0:0:0:0:
510,103,208352,2,0,P|507:70|493:36,1,47.4999987316132,12|0,2:2|0:0,0:0:0:0:
334,147,208495,1,2,2:2:0:0:
358,151,208566,1,0,0:0:0:0:
383,150,208638,2,0,P|416:147|450:133,1,47.4999987316132,8|0,2:2|0:0,0:0:0:0:
355,4,208780,1,2,2:2:0:0:
331,0,208852,1,0,0:0:0:0:
306,1,208923,2,0,P|273:4|239:18,1,47.4999987316132,12|0,2:2|0:0,0:0:0:0:
263,154,209066,5,2,2:2:0:0:
267,200,209138,1,0,0:0:0:0:
241,239,209208,1,8,2:2:0:0:
196,254,209280,1,0,0:0:0:0:
153,239,209351,1,0,0:0:0:0:
128,201,209423,1,0,0:0:0:0:
130,154,209495,1,12,2:2:0:0:
148,112,209566,1,0,0:0:0:0:
137,65,209637,1,0,0:0:0:0:
101,35,209709,1,0,0:0:0:0:
55,33,209780,1,8,2:2:0:0:
16,59,209852,1,0,0:0:0:0:
5,106,209923,2,0,L|31:165,1,47.4999987316132
36,305,210066,2,0,L|83:248,1,47.4999987316132,14|0,2:2|0:0,0:0:0:0:
159,183,210209,2,0,L|172:246,1,47.4999987316132,2|0,2:2|0:0,0:0:0:0:
195,354,210352,5,10,2:2:0:0:
236,376,210423,1,0,0:0:0:0:
283,378,210494,1,2,2:2:0:0:
325,357,210566,1,0,0:0:0:0:
335,317,210638,1,12,2:2:0:0:
376,294,210709,1,0,0:0:0:0:
423,292,210780,1,2,2:2:0:0:
465,313,210852,1,0,0:0:0:0:
489,352,210923,1,8,2:2:0:0:
488,300,210995,1,0,0:0:0:0:
486,247,211066,2,0,L|486:189,1,47.4999987316132,2|0,2:2|0:0,0:0:0:0:
334,162,211209,2,0,L|384:190,1,47.4999987316132,14|0,2:2|0:0,0:0:0:0:
479,82,211352,2,0,L|428:110,1,47.4999987316132,8|0,2:2|0:0,0:0:0:0:
328,4,211495,5,14,2:2:0:0:
328,4,211566,1,0,0:0:0:0:
328,4,211638,2,0,L|380:22,1,47.4999987316132,2|0,2:2|0:0,0:0:0:0:
258,106,211780,2,0,L|202:126,1,47.4999987316132,14|0,2:2|0:0,0:0:0:0:
85,0,211923,1,2,2:2:0:0:
74,35,211995,1,0,0:0:0:0:
77,68,212066,2,0,P|81:99|96:120,1,47.4999987316132,8|0,2:2|0:0,0:0:0:0:
190,185,212209,2,0,P|188:216|174:238,1,47.4999987316132,2|0,2:2|0:0,0:0:0:0:
0,310,212352,1,14,2:2:0:0:
45,298,212423,1,0,0:0:0:0:
92,302,212495,2,0,L|147:338,1,47.4999987316132
345,352,212638,6,0,L|276:345,1,47.4999987316132,10|0,2:2|0:0,0:0:0:0:
171,248,212780,2,0,L|248:236,1,47.4999987316132,2|0,2:2|0:0,0:0:0:0:
375,238,212923,2,0,L|297:225,1,47.4999987316132,14|0,2:2|0:0,0:0:0:0:
156,139,213066,2,0,L|223:109,1,47.4999987316132,2|0,2:2|0:0,0:0:0:0:
408,137,213209,2,0,L|341:114,1,47.4999987316132,10|0,2:2|0:0,0:0:0:0:
152,1,213352,1,2,2:2:0:0:
141,47,213423,1,0,0:0:0:0:
145,93,213495,2,0,L|157:141,1,47.4999987316132,12|0,2:2|0:0,0:0:0:0:
352,181,213638,2,0,L|333:246,1,47.4999987316132,2|0,2:2|0:0,0:0:0:0:
227,370,213780,5,10,2:2:0:0:
227,370,213852,1,0,0:0:0:0:
227,370,213923,2,0,L|246:302,1,47.4999987316132
148,147,214066,1,14,2:2:0:0:
148,147,214138,1,0,0:0:0:0:
148,147,214209,2,0,L|158:219,1,47.4999987316132
95,384,214352,2,0,L|113:321,1,47.4999987316132,10|0,2:2|0:0,0:0:0:0:
259,220,214495,1,2,2:2:0:0:
259,220,214566,1,0,0:0:0:0:
259,220,214638,2,0,L|251:142,1,47.4999987316132,12|0,2:2|0:0,0:0:0:0:
16,177,214780,1,2,2:2:0:0:
21,224,214852,1,0,0:0:0:0:
27,271,214923,6,0,L|33:333,1,47.4999987316132,8|0,2:2|0:0,0:0:0:0:
185,216,215066,1,2,2:2:0:0:
190,174,215138,1,0,0:0:0:0:
195,136,215209,2,0,L|201:73,1,47.4999987316132,12|0,2:2|0:0,0:0:0:0:
45,45,215352,1,2,2:2:0:0:
49,77,215423,1,0,0:0:0:0:
54,113,215495,2,0,L|60:175,1,47.4999987316132,8|0,2:2|0:0,0:0:0:0:
147,38,215638,1,2,2:2:0:0:
171,16,215709,1,0,0:0:0:0:
203,8,215780,1,12,2:2:0:0:
240,10,215852,1,0,0:0:0:0:
274,29,215923,2,0,L|332:71,1,47.4999987316132,8|0,2:2|0:0,0:0:0:0:
279,200,216066,6,0,P|256:208|233:212,1,47.4999987316132,14|0,2:2|0:0,0:0:0:0:
376,138,216209,2,0,P|384:160|388:183,1,47.4999987316132,2|0,2:2|0:0,0:0:0:0:
211,98,216352,2,0,P|202:75|198:52,1,47.4999987316132,14|0,2:2|0:0,0:0:0:0:
339,46,216495,1,2,2:2:0:0:
384,35,216566,1,0,0:0:0:0:
423,53,216638,2,0,L|470:91,1,47.4999987316132,8|0,2:2|0:0,0:0:0:0:
340,184,216780,1,2,2:2:0:0:
313,221,216852,1,0,0:0:0:0:
313,263,216923,2,0,L|329:320,1,47.4999987316132,12|0,2:2|0:0,0:0:0:0:
496,240,217066,2,0,L|483:183,1,47.4999987316132,2|0,2:2|0:0,0:0:0:0:
350,106,217209,5,10,2:2:0:0:
303,98,217280,1,0,0:0:0:0:
256,90,217352,2,0,L|186:75,1,47.4999987316132
366,229,217495,1,14,2:2:0:0:
412,221,217566,1,0,0:0:0:0:
459,213,217638,2,0,L|528:198,1,47.4999987316132
377,366,217780,1,10,2:2:0:0:
330,358,217852,1,0,0:0:0:0:
283,350,217923,2,0,L|213:335,1,47.4999987316132
81,253,218066,1,14,2:2:0:0:
128,245,218138,1,0,0:0:0:0:
175,237,218209,2,0,L|244:222,1,47.4999987316132
297,116,218352,5,10,2:2:0:0:
264,150,218423,1,0,0:0:0:0:
255,196,218494,1,0,0:0:0:0:
273,239,218566,1,0,0:0:0:0:
310,267,218637,1,14,2:2:0:0:
357,270,218709,1,0,0:0:0:0:
398,247,218780,1,2,2:2:0:0:
355,228,218852,1,0,0:0:0:0:
309,233,218922,1,8,2:2:0:0:
270,259,218995,1,0,0:0:0:0:
249,301,219066,1,0,0:0:0:0:
227,342,219138,1,0,0:0:0:0:
189,370,219209,1,12,2:2:0:0:
142,377,219280,1,0,0:0:0:0:
97,362,219352,1,0,0:0:0:0:
64,329,219423,1,0,0:0:0:0:
50,284,219495,1,8,2:2:0:0:
57,237,219566,1,0,0:0:0:0:
85,199,219638,1,0,0:0:0:0:
127,178,219709,1,0,0:0:0:0:
174,178,219780,1,12,2:2:0:0:
216,200,219853,1,0,0:0:0:0:
237,241,219924,1,0,0:0:0:0:
275,269,219995,1,0,0:0:0:0:
322,276,220067,1,8,2:2:0:0:
367,261,220138,1,0,0:0:0:0:
400,228,220210,1,0,0:0:0:0:
414,183,220280,1,0,0:0:0:0:
407,136,220353,1,12,2:2:0:0:
379,98,220423,1,0,0:0:0:0:
337,77,220496,1,8,2:2:0:0:
290,77,220566,1,0,0:0:0:0:
248,99,220638,6,0,L|209:146,1,47.4999987316132,14|0,2:2|0:0,0:0:0:0:
134,243,220780,2,0,L|205:229,1,47.4999987316132,2|0,2:2|0:0,0:0:0:0:
88,107,220923,2,0,L|110:170,1,47.4999987316132,14|0,2:2|0:0,0:0:0:0:
47,286,221065,1,2,2:2:0:0:
76,327,221138,1,0,0:0:0:0:
116,346,221209,1,8,2:2:0:0:
168,341,221280,1,0,0:0:0:0:
208,316,221352,2,0,L|238:274,1,47.4999987316132,2|0,2:2|0:0,0:0:0:0:
179,102,221495,5,14,2:2:0:0:
141,119,221566,1,0,0:0:0:0:
114,152,221638,1,0,0:0:0:0:
106,193,221709,1,0,0:0:0:0:
117,234,221780,6,0,L|162:280,1,47.4999987316132,10|0,2:2|0:0,0:0:0:0:
330,266,221923,2,0,L|287:314,1,47.4999987316132,2|0,2:2|0:0,0:0:0:0:
245,181,222066,2,0,L|261:112,1,47.4999987316132,14|0,2:2|0:0,0:0:0:0:
401,140,222209,2,0,L|430:211,1,47.4999987316132,2|0,2:2|0:0,0:0:0:0:
317,40,222352,2,0,L|337:-32,1,47.4999987316132,10|0,2:2|0:0,0:0:0:0:
471,50,222494,5,2,2:2:0:0:
497,83,222566,1,0,0:0:0:0:
507,124,222638,1,12,2:2:0:0:
500,168,222709,1,0,0:0:0:0:
481,203,222780,2,0,L|427:245,1,47.4999987316132,2|0,2:2|0:0,0:0:0:0:
296,224,222923,5,10,2:2:0:0:
296,224,222994,1,0,0:0:0:0:
296,224,223066,2,0,L|282:157,1,47.4999987316132
402,324,223209,1,14,2:2:0:0:
409,331,223280,1,0,0:0:0:0:
409,331,223352,2,0,L|396:391,1,47.4999987316132
246,353,223495,2,0,L|236:275,1,47.4999987316132,10|0,2:2|0:0,0:0:0:0:
408,185,223638,1,2,2:2:0:0:
408,185,223708,1,0,0:0:0:0:
408,185,223780,2,0,L|391:264,1,47.4999987316132,12|0,2:2|0:0,0:0:0:0:
265,72,223922,1,2,2:2:0:0:
226,68,223994,1,0,0:0:0:0:
197,62,224065,6,0,L|121:50,1,47.4999987316132,8|0,2:2|0:0,0:0:0:0:
263,247,224208,1,2,2:2:0:0:
284,217,224280,1,0,0:0:0:0:
302,192,224351,2,0,L|347:127,1,47.4999987316132,12|0,2:2|0:0,0:0:0:0:
117,155,224494,1,2,2:2:0:0:
131,189,224565,1,0,0:0:0:0:
144,217,224638,2,0,L|178:287,1,47.4999987316132,8|0,2:2|0:0,0:0:0:0:
272,373,224780,5,2,2:2:0:0:
312,384,224852,1,0,0:0:0:0:
353,381,224923,1,12,2:2:0:0:
392,361,224995,1,0,0:0:0:0:
418,328,225066,2,0,L|444:276,1,47.4999987316132,12|0,2:2|0:0,0:0:0:0:
290,213,225209,5,14,2:2:0:0:
290,213,225280,1,0,0:0:0:0:
290,213,225352,2,0,L|311:295,1,47.4999987316132
467,201,225495,1,14,2:2:0:0:
467,201,225566,1,0,0:0:0:0:
467,201,225638,2,0,L|488:119,1,47.4999987316132
303,57,225780,2,0,L|324:139,1,47.4999987316132,10|0,2:2|0:0,0:0:0:0:
457,68,225923,1,2,2:2:0:0:
457,68,225995,1,0,0:0:0:0:
457,68,226066,2,0,L|478:-14,1,47.4999987316132,12|0,2:2|0:0,0:0:0:0:
320,170,226209,1,2,2:2:0:0:
271,177,226280,1,0,0:0:0:0:
227,158,226352,6,0,L|170:127,1,47.4999987316132,8|0,2:2|0:0,0:0:0:0:
51,9,226495,1,2,2:2:0:0:
97,0,226565,1,0,0:0:0:0:
145,3,226638,2,0,L|208:22,1,47.4999987316132,12|0,2:2|0:0,0:0:0:0:
22,120,226780,1,2,2:2:0:0:
1,161,226851,1,0,0:0:0:0:
6,208,226923,2,0,L|23:253,1,47.4999987316132,8|0,2:2|0:0,0:0:0:0:
186,241,227066,1,2,2:2:0:0:
207,282,227137,1,0,0:0:0:0:
202,329,227209,2,0,L|184:374,1,47.4999987316132,12|0,2:2|0:0,0:0:0:0:
93,180,227352,5,2,2:2:0:0:
107,135,227422,1,0,0:0:0:0:
141,101,227494,1,8,2:2:0:0:
186,87,227565,1,0,0:0:0:0:
232,94,227637,1,0,0:0:0:0:
270,121,227708,1,0,0:0:0:0:
292,163,227780,1,12,2:2:0:0:
312,205,227851,1,0,0:0:0:0:
351,232,227922,1,0,0:0:0:0:
397,239,227994,1,0,0:0:0:0:
442,222,228065,1,8,2:2:0:0:
473,187,228137,1,0,0:0:0:0:
484,142,228208,1,2,2:2:0:0:
473,96,228280,1,0,0:0:0:0:
442,61,228352,2,0,P|432:30|430:-11,1,47.4999987316132,14|0,2:2|0:0,0:0:0:0:
344,170,228494,2,0,P|322:195|281:217,1,47.4999987316132,2|0,2:2|0:0,0:0:0:0:
283,47,228638,5,10,2:2:0:0:
240,25,228708,1,0,0:0:0:0:
193,25,228780,1,2,2:2:0:0:
151,46,228851,1,0,0:0:0:0:
132,89,228923,1,12,2:2:0:0:
89,110,228994,1,0,0:0:0:0:
42,110,229065,1,2,2:2:0:0:
0,89,229137,1,0,0:0:0:0:
27,45,229209,1,8,2:2:0:0:
48,87,229280,1,0,0:0:0:0:
45,135,229352,2,0,P|40:158|25:193,1,47.4999987316132,2|0,2:2|0:0,0:0:0:0:
13,329,229495,2,0,P|9:305|9:281,1,47.4999987316132,14|0,2:2|0:0,0:0:0:0:
132,191,229638,2,0,P|135:214|135:238,1,47.4999987316132,12|0,2:2|0:0,0:0:0:0:
104,352,229780,6,0,P|125:362|148:369,1,47.4999987316132,14|0,2:2|0:0,0:0:0:0:
277,248,229923,2,0,P|255:237|232:230,1,47.4999987316132,2|0,2:2|0:0,0:0:0:0:
293,384,230066,2,0,P|313:372|332:357,1,47.4999987316132,14|0,2:2|0:0,0:0:0:0:
486,256,230209,1,2,2:2:0:0:
439,249,230280,1,0,0:0:0:0:
392,242,230352,2,0,L|334:233,1,47.4999987316132,8|0,2:2|0:0,0:0:0:0:
466,132,230495,2,0,L|524:123,1,47.4999987316132,2|0,2:2|0:0,0:0:0:0:
343,150,230638,1,14,2:2:0:0:
331,100,230708,1,0,0:0:0:0:
338,55,230780,2,0,L|350:3,1,47.4999987316132
258,150,230923,6,0,P|205:148|189:143,1,47.4999987316132,10|0,2:2|0:0,0:0:0:0:
149,19,231066,2,0,P|202:21|218:26,1,47.4999987316132,2|0,2:2|0:0,0:0:0:0:
140,206,231209,2,0,P|87:204|71:199,1,47.4999987316132,14|0,2:2|0:0,0:0:0:0:
25,68,231352,2,0,P|78:70|94:75,1,47.4999987316132,2|0,2:2|0:0,0:0:0:0:
0,239,231495,2,0,P|2:186|7:170,1,47.4999987316132,10|0,2:2|0:0,0:0:0:0:
163,291,231638,1,2,2:2:0:0:
163,291,231709,1,0,0:0:0:0:
163,291,231780,2,0,L|221:294,1,47.4999987316132,12|0,2:2|0:0,0:0:0:0:
47,362,231923,2,0,L|-13:365,1,47.4999987316132,2|0,2:2|0:0,0:0:0:0:
70,227,232066,5,10,2:2:0:0:
70,227,232138,1,0,0:0:0:0:
70,227,232209,2,0,P|82:181|75:149,1,47.4999987316132
241,155,232352,1,14,2:2:0:0:
241,155,232423,1,0,0:0:0:0:
241,155,232495,2,0,P|195:167|162:159,1,47.4999987316132
102,42,232638,2,0,P|133:73|147:98,1,47.4999987316132,10|0,2:2|0:0,0:0:0:0:
247,56,232780,1,2,2:2:0:0:
280,45,232852,1,0,0:0:0:0:
317,49,232923,2,0,P|355:69|365:82,1,47.4999987316132,12|0,2:2|0:0,0:0:0:0:
283,268,233066,1,2,2:2:0:0:
284,228,233138,1,0,0:0:0:0:
285,189,233209,6,0,L|285:111,1,47.4999987316132,8|0,2:2|0:0,0:0:0:0:
464,102,233352,1,2,2:2:0:0:
416,97,233423,1,0,0:0:0:0:
379,122,233495,2,0,P|360:147|348:188,1,47.4999987316132,12|0,2:2|0:0,0:0:0:0:
396,302,233638,1,2,2:2:0:0:
443,306,233709,1,0,0:0:0:0:
481,281,233780,2,0,P|498:254|506:215,1,47.4999987316132,8|0,2:2|0:0,0:0:0:0:
344,196,233923,5,2,2:2:0:0:
313,220,233995,1,0,0:0:0:0:
294,261,234066,1,12,2:2:0:0:
294,309,234138,1,0,0:0:0:0:
308,347,234209,2,0,L|347:398,1,47.4999987316132,12|0,2:2|0:0,0:0:0:0:
199,263,234352,6,0,L|224:191,1,47.4999987316132,14|0,2:2|0:0,0:0:0:0:
120,346,234495,2,0,L|172:402,1,47.4999987316132,2|0,2:2|0:0,0:0:0:0:
37,264,234638,2,0,L|62:210,1,47.4999987316132,14|0,2:2|0:0,0:0:0:0:
69,89,234780,1,2,2:2:0:0:
78,120,234851,1,0,0:0:0:0:
104,145,234923,2,0,P|130:157|174:162,1,47.4999987316132,8|0,2:2|0:0,0:0:0:0:
246,15,235066,2,0,P|220:3|171:4,1,47.4999987316132,2|0,2:2|0:0,0:0:0:0:
257,168,235209,2,0,P|283:180|335:182,1,47.4999987316132,14|0,2:2|0:0,0:0:0:0:
386,37,235352,2,0,P|374:63|374:105,1,47.4999987316132,2|0,2:2|0:0,0:0:0:0:
489,214,235495,5,10,2:2:0:0:
480,179,235565,1,0,0:0:0:0:
472,144,235638,2,0,L|455:56,1,47.4999987316132
394,238,235780,1,14,2:2:0:0:
386,272,235851,1,0,0:0:0:0:
378,304,235923,2,0,L|362:390,1,47.4999987316132
295,214,236066,1,10,2:2:0:0:
286,179,236137,1,0,0:0:0:0:
279,145,236209,2,0,L|262:56,1,47.4999987316132
194,252,236352,1,14,2:2:0:0:
185,286,236422,1,0,0:0:0:0:
178,320,236495,2,0,L|159:408,1,47.4999987316132
7,193,236638,5,10,2:2:0:0:
39,158,236708,1,0,0:0:0:0:
83,142,236780,1,0,0:0:0:0:
129,147,236851,1,0,0:0:0:0:
169,172,236923,2,0,L|208:217,1,47.4999987316132,12|0,2:2|0:0,0:0:0:0:
355,370,237066,1,2,2:2:0:0:
402,366,237137,1,0,0:0:0:0:
443,341,237208,1,8,2:2:0:0:
468,302,237280,1,0,0:0:0:0:
473,255,237351,1,0,0:0:0:0:
455,211,237422,1,0,0:0:0:0:
422,179,237494,1,12,2:2:0:0:
376,166,237565,1,0,0:0:0:0:
330,174,237637,1,0,0:0:0:0:
291,202,237709,1,0,0:0:0:0:
252,227,237780,1,8,2:2:0:0:
205,231,237851,1,0,0:0:0:0:
160,217,237923,1,0,0:0:0:0:
125,186,237994,1,0,0:0:0:0:
107,142,238066,1,12,2:2:0:0:
108,95,238137,1,0,0:0:0:0:
129,52,238209,1,0,0:0:0:0:
166,23,238280,1,0,0:0:0:0:
212,12,238352,1,8,2:2:0:0:
259,21,238422,1,0,0:0:0:0:
297,48,238495,1,0,0:0:0:0:
320,88,238566,1,0,0:0:0:0:
342,129,238638,1,12,2:2:0:0:
380,158,238708,1,0,0:0:0:0:
426,168,238780,1,12,2:2:0:0:
472,157,238851,1,0,0:0:0:0:
509,130,238923,6,0,L|506:58,1,47.4999987316132,14|0,2:2|0:0,0:0:0:0:
444,236,239066,2,0,L|447:308,1,47.4999987316132,2|0,2:2|0:0,0:0:0:0:
365,81,239209,2,0,L|362:9,1,47.4999987316132,14|0,2:2|0:0,0:0:0:0:
284,243,239352,1,2,2:2:0:0:
287,290,239422,1,0,0:0:0:0:
291,337,239495,2,0,L|295:406,1,47.4999987316132,8|0,2:2|0:0,0:0:0:0:
165,171,239638,2,0,L|157:108,1,47.4999987316132,2|0,2:2|0:0,0:0:0:0:
134,343,239780,2,0,L|60:370,1,47.4999987316132,14|0,2:2|0:0,0:0:0:0:
284,243,239923,2,0,L|357:216,1,47.4999987316132,2|0,2:2|0:0,0:0:0:0:
152,120,240066,5,10,2:2:0:0:
113,93,240138,1,0,0:0:0:0:
67,79,240209,2,0,L|2:63,1,47.4999987316132
206,192,240352,1,14,2:2:0:0:
251,172,240423,1,0,0:0:0:0:
285,138,240495,2,0,L|324:88,1,47.4999987316132
123,201,240638,1,10,2:2:0:0:
117,248,240709,1,0,0:0:0:0:
131,296,240780,2,0,L|146:348,1,47.4999987316132
355,384,240923,1,14,2:2:0:0:
357,336,240995,1,0,0:0:0:0:
347,289,241066,2,0,L|334:227,1,47.4999987316132
274,75,241209,6,0,L|237:138,1,47.4999987316132,10|0,2:2|0:0,0:0:0:0:
240,309,241352,2,0,L|277:247,1,47.4999987316132,10|0,2:2|0:0,0:0:0:0:
140,175,241495,2,0,L|201:211,1,47.4999987316132,14|0,2:2|0:0,0:0:0:0:
374,208,241638,2,0,L|308:170,1,47.4999987316132,10|0,2:2|0:0,0:0:0:0:
138,296,241780,6,0,L|212:271,1,47.4999987316132,8|0,2:2|0:0,0:0:0:0:
374,86,241923,2,0,L|300:115,1,47.4999987316132,10|0,2:2|0:0,0:0:0:0:
361,308,242066,2,0,L|329:231,1,47.4999987316132,14|0,2:2|0:0,0:0:0:0:
151,74,242209,2,0,L|177:149,1,47.4999987316132,10|0,2:2|0:0,0:0:0:0:
257,191,242352,5,12,2:2:0:0:
257,183,242424,1,12,2:2:0:0:
257,175,242495,1,12,2:2:0:0:
257,167,242567,1,12,2:2:0:0:
257,159,242638,1,12,2:2:0:0:
257,151,242710,1,12,2:2:0:0:
257,143,242780,1,12,2:2:0:0:
257,135,242853,1,12,2:2:0:0:
257,127,242923,1,12,2:2:0:0:
257,119,242996,1,12,2:2:0:0:
257,111,243066,1,12,2:2:0:0:
257,103,243137,1,12,2:2:0:0:
257,95,243209,1,12,2:2:0:0:
257,87,243281,1,12,2:2:0:0:
257,79,243352,1,12,2:2:0:0:
257,71,243424,1,12,2:2:0:0:
257,63,243495,1,12,2:2:0:0:
