osu file format v14

[General]
AudioFilename: audio.mp3
AudioLeadIn: 0
PreviewTime: 131494
Countdown: 0
SampleSet: Normal
StackLeniency: 0.7
Mode: 1
LetterboxInBreaks: 0
WidescreenStoryboard: 1

[Editor]
DistanceSpacing: 0.8
BeatDivisor: 4
GridSize: 32
TimelineZoom: 2.899999

[Metadata]
Title:FUWANITY
TitleUnicode:FUWANITY
Artist:DJ SHARPNEL
ArtistUnicode:DJ SHARPNEL
Creator:Eriha
Version:Hivie's Oni
Source:けいおん!
Tags:dtn Dtnt0r Hivie fuwatanity electronic japanese anime k-on! Sharpnelsound hardcore j-core 妄殺オタクティクス SRPC-0024 htt 放課後ティータイム k on houkago tea time ho-kago hirasawa yui 平沢 唯 akiyama mio 秋山 澪 tainaka ritsu 田井中 律 kotobuki tsumugi 琴吹 紬 toyosaki aki 豊崎 愛生 hikasa youko 日笠 陽子 satou satomi 佐藤 聡美 kotobuki minako 寿 美菜子 jcore hokago bootleg remix fuwa fuwa time ふわふわ時間
BeatmapID:3964446
BeatmapSetID:1904848

[Difficulty]
HPDrainRate:6
CircleSize:2
OverallDifficulty:5.5
ApproachRate:10
SliderMultiplier:1.4
SliderTickRate:1

[Events]
//Background and Video events
0,0,"bg.jpg",0,30
//Break Periods
2,10266,19683
2,111990,120348
//Storyboard Layer 0 (Background)
//Storyboard Layer 1 (Fail)
//Storyboard Layer 2 (Pass)
//Storyboard Layer 3 (Foreground)
//Storyboard Layer 4 (Overlay)
//Storyboard Sound Samples

[TimingPoints]
0,314.579171713041,4,1,0,20,1,0
0,-142.857142857143,4,1,0,20,0,0
9909,-83.3333333333333,4,1,0,20,0,0
10223,-142.857142857143,4,1,0,20,0,0
21388,-134.617148097203,4,1,0,20,0,0
22646,-127.275880006936,4,1,0,20,0,0
23905,-120.688946438114,4,1,0,20,0,0
25163,-114.754739104944,4,1,0,20,0,0
26421,-109.376746265321,4,1,0,20,0,0
27679,-104.480267606135,4,1,0,20,0,0
28901,-100,4,1,0,80,0,0
111675,-142.857142857143,4,1,0,20,0,0
120641,-142.857142857143,4,1,0,50,0,0
121109,-139.30977762313,4,1,0,51,0,0
121424,-135.923828335982,4,1,0,53,0,0
121739,-132.698565746655,4,1,0,54,0,0
122053,-129.632355105525,4,1,0,56,0,0
122368,-126.695530846794,4,1,0,57,0,0
122682,-123.897539772967,4,1,0,59,0,0
122997,-121.212121212121,4,1,0,60,0,0
123312,-118.6406433103,4,1,0,61,0,0
123626,-116.183667277836,4,1,0,63,0,0
123941,-113.819037035123,4,1,0,64,0,0
124255,-111.55580323218,4,1,0,66,0,0
124570,-109.374029876693,4,1,0,67,0,0
124884,-107.282493514086,4,1,0,69,0,0
125199,-105.263157894737,4,1,0,70,0,0
125514,-103.318436147377,4,1,0,71,0,0
125828,-101.450109996429,4,1,0,73,0,0
126143,-99.6425177609847,4,1,0,74,0,0
126457,-97.903652490941,4,1,0,76,0,0
126772,-96.2191804765078,4,1,0,77,0,0
127086,-94.5967715951928,4,1,0,79,0,0
127401,-93.0232558139535,4,1,0,80,0,0
127716,-91.5012310281422,4,1,0,81,0,0
128030,-90.0328116854576,4,1,0,83,0,0
128345,-88.606321550007,4,1,0,84,0,0
128659,-87.228648391697,4,1,0,86,0,0
128974,-85.8889723162134,4,1,0,87,0,0
129289,-84.5898238672378,4,1,0,89,0,0
129603,-83.3333333333333,4,1,0,90,0,0
131491,-100,4,1,0,90,0,0
131569,-99.0176940998678,4,1,0,90,0,0
131648,-98.0422719620924,4,1,0,90,0,0
131727,-97.0858801012533,4,1,0,90,0,0
131805,-96.1597260441509,4,1,0,90,0,0
131884,-95.2395372781782,4,1,0,90,0,0
131962,-94.3481130377392,4,1,0,90,0,0
132083,-100,4,1,0,100,0,0
132123,314.579171713041,4,1,0,20,1,0
132123,-92.5925925925926,4,1,0,100,0,1
149739,-92.5925925925926,4,1,0,100,0,0
152256,-92.5925925925926,4,1,0,100,0,1
169872,-92.5925925925926,4,1,0,100,0,0
172389,-92.5925925925926,4,1,0,100,0,1
190005,-92.5925925925926,4,1,0,100,0,0
192522,-92.5925925925926,4,1,0,100,0,1
210138,-92.5925925925926,4,1,0,100,0,0
212616,-92.5925925925926,4,1,0,80,0,0
212812,-100,4,1,0,80,0,0
228934,-83.3333333333333,4,1,0,80,0,0
230350,-41.6666666666667,4,1,0,40,0,0
230507,-142.857142857143,4,1,0,40,0,0

[HitObjects]
256,192,10066,5,4,0:0:0:0:
256,192,20133,12,0,28626,0:0:0:0:
256,192,28941,5,12,0:0:0:0:
256,192,29255,1,0,0:0:0:0:
256,192,29570,1,8,0:0:0:0:
256,192,29649,1,8,0:0:0:0:
256,192,29727,1,0,0:0:0:0:
256,192,29806,1,0,0:0:0:0:
256,192,29885,1,8,0:0:0:0:
256,192,30042,1,0,0:0:0:0:
256,192,30120,1,0,0:0:0:0:
256,192,30199,1,8,0:0:0:0:
256,192,30278,1,8,0:0:0:0:
256,192,30356,1,0,0:0:0:0:
256,192,30514,1,8,0:0:0:0:
256,192,30592,1,8,0:0:0:0:
256,192,30671,1,8,0:0:0:0:
256,192,30828,1,0,0:0:0:0:
256,192,30986,1,8,0:0:0:0:
256,192,31143,1,0,0:0:0:0:
256,192,31221,1,0,0:0:0:0:
256,192,31300,1,0,0:0:0:0:
256,192,31457,1,8,0:0:0:0:
256,192,31536,1,8,0:0:0:0:
256,192,31615,1,0,0:0:0:0:
256,192,31772,1,8,0:0:0:0:
256,192,31851,1,8,0:0:0:0:
256,192,31929,1,8,0:0:0:0:
256,192,32087,1,0,0:0:0:0:
256,192,32244,1,8,0:0:0:0:
256,192,32401,1,0,0:0:0:0:
256,192,32480,1,0,0:0:0:0:
256,192,32558,1,0,0:0:0:0:
256,192,32716,1,8,0:0:0:0:
256,192,32794,1,8,0:0:0:0:
256,192,32873,1,0,0:0:0:0:
256,192,33030,1,8,0:0:0:0:
256,192,33109,1,8,0:0:0:0:
256,192,33188,1,8,0:0:0:0:
256,192,33345,1,0,0:0:0:0:
256,192,33502,1,8,0:0:0:0:
256,192,33659,1,0,0:0:0:0:
256,192,33738,1,0,0:0:0:0:
256,192,33817,1,0,0:0:0:0:
256,192,33974,1,8,0:0:0:0:
256,192,34053,1,8,0:0:0:0:
256,192,34131,1,0,0:0:0:0:
256,192,34289,1,8,0:0:0:0:
256,192,34367,1,8,0:0:0:0:
256,192,34446,1,8,0:0:0:0:
256,192,34603,1,0,0:0:0:0:
256,192,34760,1,8,0:0:0:0:
256,192,34918,1,0,0:0:0:0:
256,192,35232,1,8,0:0:0:0:
256,192,35311,1,8,0:0:0:0:
256,192,35390,1,0,0:0:0:0:
256,192,35547,1,8,0:0:0:0:
256,192,35626,1,8,0:0:0:0:
256,192,35704,1,8,0:0:0:0:
256,192,35862,1,0,0:0:0:0:
256,192,36019,1,8,0:0:0:0:
256,192,36176,1,0,0:0:0:0:
256,192,36255,1,0,0:0:0:0:
256,192,36333,1,0,0:0:0:0:
256,192,36491,1,8,0:0:0:0:
256,192,36569,1,8,0:0:0:0:
256,192,36648,1,0,0:0:0:0:
256,192,36805,1,8,0:0:0:0:
256,192,36884,1,8,0:0:0:0:
256,192,36963,1,8,0:0:0:0:
256,192,37120,1,0,0:0:0:0:
256,192,37277,1,8,0:0:0:0:
256,192,37434,1,0,0:0:0:0:
256,192,37513,1,0,0:0:0:0:
256,192,37592,1,0,0:0:0:0:
256,192,37749,1,8,0:0:0:0:
256,192,37828,1,8,0:0:0:0:
256,192,37906,1,0,0:0:0:0:
256,192,38064,1,8,0:0:0:0:
256,192,38142,1,8,0:0:0:0:
256,192,38221,1,8,0:0:0:0:
256,192,38378,1,0,0:0:0:0:
256,192,38535,1,8,0:0:0:0:
256,192,38693,1,0,0:0:0:0:
256,192,38771,1,0,0:0:0:0:
256,192,38850,1,0,0:0:0:0:
256,192,39007,1,8,0:0:0:0:
256,192,39086,1,8,0:0:0:0:
256,192,39165,1,0,0:0:0:0:
256,192,39322,1,8,0:0:0:0:
256,192,39401,1,8,0:0:0:0:
256,192,39479,1,8,0:0:0:0:
256,192,39636,1,0,0:0:0:0:
256,192,39794,1,8,0:0:0:0:
256,192,39951,1,8,0:0:0:0:
256,192,40266,1,8,0:0:0:0:
256,192,40423,1,0,0:0:0:0:
256,192,40580,1,8,0:0:0:0:
256,192,40659,1,8,0:0:0:0:
256,192,40738,1,8,0:0:0:0:
256,192,40895,1,0,0:0:0:0:
256,192,40973,1,0,0:0:0:0:
256,192,41052,1,8,0:0:0:0:
256,192,41209,1,0,0:0:0:0:
256,192,41288,1,0,0:0:0:0:
256,192,41367,1,0,0:0:0:0:
256,192,41524,1,8,0:0:0:0:
256,192,41681,1,0,0:0:0:0:
256,192,41839,1,8,0:0:0:0:
256,192,41917,1,8,0:0:0:0:
256,192,41996,1,8,0:0:0:0:
256,192,42153,1,0,0:0:0:0:
256,192,42232,1,0,0:0:0:0:
256,192,42310,1,8,0:0:0:0:
256,192,42468,1,0,0:0:0:0:
256,192,42546,1,0,0:0:0:0:
256,192,42625,1,0,0:0:0:0:
256,192,42782,1,8,0:0:0:0:
256,192,42940,1,0,0:0:0:0:
256,192,43097,1,8,0:0:0:0:
256,192,43175,1,8,0:0:0:0:
256,192,43254,1,8,0:0:0:0:
256,192,43411,1,0,0:0:0:0:
256,192,43490,1,0,0:0:0:0:
256,192,43569,1,8,0:0:0:0:
256,192,43726,1,0,0:0:0:0:
256,192,43805,1,0,0:0:0:0:
256,192,43883,1,0,0:0:0:0:
256,192,44041,1,8,0:0:0:0:
256,192,44198,1,0,0:0:0:0:
256,192,44355,1,8,0:0:0:0:
256,192,44434,1,8,0:0:0:0:
256,192,44512,1,8,0:0:0:0:
256,192,44670,1,0,0:0:0:0:
256,192,44748,1,0,0:0:0:0:
256,192,44827,1,8,0:0:0:0:
256,192,44984,1,8,0:0:0:0:
256,192,45299,1,8,0:0:0:0:
256,192,45456,1,0,0:0:0:0:
256,192,45613,1,8,0:0:0:0:
256,192,45692,1,8,0:0:0:0:
256,192,45771,1,8,0:0:0:0:
256,192,45928,1,0,0:0:0:0:
256,192,46007,1,0,0:0:0:0:
256,192,46085,1,8,0:0:0:0:
256,192,46243,1,0,0:0:0:0:
256,192,46321,1,0,0:0:0:0:
256,192,46400,1,0,0:0:0:0:
256,192,46557,1,8,0:0:0:0:
256,192,46715,1,0,0:0:0:0:
256,192,46872,1,8,0:0:0:0:
256,192,46950,1,8,0:0:0:0:
256,192,47029,1,8,0:0:0:0:
256,192,47186,1,0,0:0:0:0:
256,192,47265,1,0,0:0:0:0:
256,192,47344,1,8,0:0:0:0:
256,192,47501,1,0,0:0:0:0:
256,192,47580,1,0,0:0:0:0:
256,192,47658,1,0,0:0:0:0:
256,192,47816,1,8,0:0:0:0:
256,192,47973,1,0,0:0:0:0:
256,192,48130,1,8,0:0:0:0:
256,192,48209,1,8,0:0:0:0:
256,192,48287,1,8,0:0:0:0:
256,192,48445,1,0,0:0:0:0:
256,192,48523,1,0,0:0:0:0:
256,192,48602,1,8,0:0:0:0:
256,192,48759,1,0,0:0:0:0:
256,192,48838,1,0,0:0:0:0:
256,192,48917,1,0,0:0:0:0:
256,192,49074,1,12,0:0:0:0:
256,192,49388,1,0,0:0:0:0:
256,192,49546,1,0,0:0:0:0:
256,192,49703,1,8,0:0:0:0:
256,192,49782,1,8,0:0:0:0:
256,192,49860,1,8,0:0:0:0:
256,192,50018,1,0,0:0:0:0:
256,192,50096,1,0,0:0:0:0:
256,192,50175,1,0,0:0:0:0:
256,192,50254,1,0,0:0:0:0:
256,192,50332,1,8,0:0:0:0:
256,192,50647,1,8,0:0:0:0:
256,192,50804,1,0,0:0:0:0:
256,192,50883,1,0,0:0:0:0:
256,192,50961,1,8,0:0:0:0:
256,192,51119,1,0,0:0:0:0:
256,192,51197,1,8,0:0:0:0:
256,192,51276,1,0,0:0:0:0:
256,192,51433,1,8,0:0:0:0:
256,192,51590,1,0,0:0:0:0:
256,192,51669,1,0,0:0:0:0:
256,192,51748,1,0,0:0:0:0:
256,192,51905,1,8,0:0:0:0:
256,192,52062,1,0,0:0:0:0:
256,192,52220,1,8,0:0:0:0:
256,192,52377,1,0,0:0:0:0:
256,192,52456,1,0,0:0:0:0:
256,192,52534,1,8,0:0:0:0:
256,192,52613,1,8,0:0:0:0:
256,192,52692,1,0,0:0:0:0:
256,192,52849,1,8,0:0:0:0:
256,192,53006,1,0,0:0:0:0:
256,192,53163,1,8,0:0:0:0:
256,192,53242,1,8,0:0:0:0:
256,192,53321,1,0,0:0:0:0:
256,192,53478,1,8,0:0:0:0:
256,192,53635,1,0,0:0:0:0:
256,192,53714,1,8,0:0:0:0:
256,192,53793,1,0,0:0:0:0:
256,192,53950,1,8,0:0:0:0:
256,192,54107,1,0,0:0:0:0:
256,192,54264,1,0,0:0:0:0:
256,192,54422,1,8,0:0:0:0:
256,192,54500,1,8,0:0:0:0:
256,192,54579,1,0,0:0:0:0:
256,192,54658,1,0,0:0:0:0:
256,192,54736,1,8,0:0:0:0:
256,192,54894,1,0,0:0:0:0:
256,192,55051,1,8,0:0:0:0:
256,192,55129,1,0,0:0:0:0:
256,192,55208,1,8,0:0:0:0:
256,192,55365,1,0,0:0:0:0:
256,192,55680,1,8,0:0:0:0:
256,192,55837,1,0,0:0:0:0:
256,192,55916,1,0,0:0:0:0:
256,192,55995,1,8,0:0:0:0:
256,192,56152,1,0,0:0:0:0:
256,192,56231,1,8,0:0:0:0:
256,192,56309,1,0,0:0:0:0:
256,192,56466,1,8,0:0:0:0:
256,192,56624,1,0,0:0:0:0:
256,192,56702,1,0,0:0:0:0:
256,192,56781,1,0,0:0:0:0:
256,192,56938,1,8,0:0:0:0:
256,192,57096,1,0,0:0:0:0:
256,192,57253,1,8,0:0:0:0:
256,192,57410,1,0,0:0:0:0:
256,192,57489,1,8,0:0:0:0:
256,192,57567,1,0,0:0:0:0:
256,192,57646,1,0,0:0:0:0:
256,192,57725,1,8,0:0:0:0:
256,192,57882,1,0,0:0:0:0:
256,192,58039,1,8,0:0:0:0:
256,192,58197,1,0,0:0:0:0:
256,192,58354,1,0,0:0:0:0:
256,192,58433,1,0,0:0:0:0:
256,192,58511,1,8,0:0:0:0:
256,192,58669,1,0,0:0:0:0:
256,192,58747,1,8,0:0:0:0:
256,192,58826,1,0,0:0:0:0:
256,192,58983,1,8,0:0:0:0:
256,192,59140,1,0,0:0:0:0:
256,192,59298,1,8,0:0:0:0:
256,192,59376,1,8,0:0:0:0:
256,192,59455,1,0,0:0:0:0:
256,192,59534,1,0,0:0:0:0:
256,192,59612,1,8,0:0:0:0:
256,192,59770,1,0,0:0:0:0:
256,192,59927,1,8,0:0:0:0:
256,192,60005,1,0,0:0:0:0:
256,192,60084,1,8,0:0:0:0:
256,192,60241,1,0,0:0:0:0:
256,192,60399,1,8,0:0:0:0:
256,192,60713,1,8,0:0:0:0:
256,192,60871,1,0,0:0:0:0:
256,192,60949,1,0,0:0:0:0:
256,192,61028,1,8,0:0:0:0:
256,192,61185,1,0,0:0:0:0:
256,192,61264,1,8,0:0:0:0:
256,192,61342,1,0,0:0:0:0:
256,192,61500,1,8,0:0:0:0:
256,192,61657,1,0,0:0:0:0:
256,192,61736,1,0,0:0:0:0:
256,192,61814,1,0,0:0:0:0:
256,192,61972,1,8,0:0:0:0:
256,192,62129,1,0,0:0:0:0:
256,192,62208,1,0,0:0:0:0:
256,192,62286,1,8,0:0:0:0:
256,192,62443,1,0,0:0:0:0:
256,192,62601,1,8,0:0:0:0:
256,192,62679,1,8,0:0:0:0:
256,192,62758,1,0,0:0:0:0:
256,192,62837,1,0,0:0:0:0:
256,192,62915,1,8,0:0:0:0:
256,192,63073,1,0,0:0:0:0:
256,192,63151,1,0,0:0:0:0:
256,192,63230,1,0,0:0:0:0:
256,192,63387,1,8,0:0:0:0:
256,192,63544,1,0,0:0:0:0:
256,192,63702,1,8,0:0:0:0:
256,192,63780,1,8,0:0:0:0:
256,192,63859,1,0,0:0:0:0:
256,192,64016,1,8,0:0:0:0:
256,192,64174,1,0,0:0:0:0:
256,192,64331,1,0,0:0:0:0:
256,192,64488,1,8,0:0:0:0:
256,192,64567,1,8,0:0:0:0:
256,192,64646,1,0,0:0:0:0:
256,192,64724,1,0,0:0:0:0:
256,192,64803,1,8,0:0:0:0:
256,192,64960,1,0,0:0:0:0:
256,192,65117,1,8,0:0:0:0:
256,192,65196,1,0,0:0:0:0:
256,192,65275,1,8,0:0:0:0:
256,192,65432,1,0,0:0:0:0:
256,192,65747,1,8,0:0:0:0:
256,192,65904,1,0,0:0:0:0:
256,192,65982,1,0,0:0:0:0:
256,192,66061,1,8,0:0:0:0:
256,192,66218,1,0,0:0:0:0:
256,192,66297,1,8,0:0:0:0:
256,192,66376,1,0,0:0:0:0:
256,192,66533,1,8,0:0:0:0:
256,192,66690,1,0,0:0:0:0:
256,192,66769,1,0,0:0:0:0:
256,192,66848,1,0,0:0:0:0:
256,192,67005,1,8,0:0:0:0:
256,192,67162,1,0,0:0:0:0:
256,192,67241,1,0,0:0:0:0:
256,192,67319,1,8,0:0:0:0:
256,192,67477,1,0,0:0:0:0:
256,192,67634,1,8,0:0:0:0:
256,192,67713,1,8,0:0:0:0:
256,192,67791,1,0,0:0:0:0:
256,192,67949,1,8,0:0:0:0:
256,192,68106,1,0,0:0:0:0:
256,192,68263,1,8,0:0:0:0:
256,192,68420,1,0,0:0:0:0:
256,192,68499,1,0,0:0:0:0:
256,192,68578,1,8,0:0:0:0:
256,192,68735,1,0,0:0:0:0:
256,192,68814,1,8,0:0:0:0:
256,192,68892,1,0,0:0:0:0:
256,192,68971,1,0,0:0:0:0:
256,192,69050,1,8,0:0:0:0:
256,192,69207,1,0,0:0:0:0:
256,192,70465,1,4,0:0:0:0:
256,192,70780,1,0,0:0:0:0:
256,192,70937,1,8,0:0:0:0:
256,192,71094,1,0,0:0:0:0:
256,192,71173,1,0,0:0:0:0:
256,192,71252,1,8,0:0:0:0:
256,192,71409,1,0,0:0:0:0:
256,192,71488,1,0,0:0:0:0:
256,192,71566,1,0,0:0:0:0:
256,192,71724,1,8,0:0:0:0:
256,192,71881,1,0,0:0:0:0:
256,192,71959,1,8,0:0:0:0:
256,192,72038,1,0,0:0:0:0:
256,192,72195,1,8,0:0:0:0:
256,192,72353,1,0,0:0:0:0:
256,192,72510,1,8,0:0:0:0:
256,192,72589,1,8,0:0:0:0:
256,192,72667,1,0,0:0:0:0:
256,192,72825,1,0,0:0:0:0:
256,192,72982,1,8,0:0:0:0:
256,192,73296,1,8,0:0:0:0:
256,192,73454,1,0,0:0:0:0:
256,192,73611,1,8,0:0:0:0:
256,192,73690,1,8,0:0:0:0:
256,192,73768,1,0,0:0:0:0:
256,192,73926,1,8,0:0:0:0:
256,192,74004,1,8,0:0:0:0:
256,192,74083,1,8,0:0:0:0:
256,192,74240,1,0,0:0:0:0:
256,192,74397,1,8,0:0:0:0:
256,192,74476,1,8,0:0:0:0:
256,192,74555,1,8,0:0:0:0:
256,192,74712,1,0,0:0:0:0:
256,192,74869,1,8,0:0:0:0:
256,192,75027,1,0,0:0:0:0:
256,192,75105,1,0,0:0:0:0:
256,192,75184,1,8,0:0:0:0:
256,192,75341,1,8,0:0:0:0:
256,192,75499,1,4,0:0:0:0:
256,192,75813,1,0,0:0:0:0:
256,192,75970,1,8,0:0:0:0:
256,192,76128,1,0,0:0:0:0:
256,192,76206,1,0,0:0:0:0:
256,192,76285,1,8,0:0:0:0:
256,192,76442,1,0,0:0:0:0:
256,192,76521,1,0,0:0:0:0:
256,192,76600,1,0,0:0:0:0:
256,192,76757,1,8,0:0:0:0:
256,192,76914,1,0,0:0:0:0:
256,192,76993,1,8,0:0:0:0:
256,192,77071,1,0,0:0:0:0:
256,192,77229,1,8,0:0:0:0:
256,192,77386,1,0,0:0:0:0:
256,192,77543,1,8,0:0:0:0:
256,192,77622,1,8,0:0:0:0:
256,192,77701,1,0,0:0:0:0:
256,192,77858,1,0,0:0:0:0:
256,192,78015,1,8,0:0:0:0:
256,192,78330,1,8,0:0:0:0:
256,192,78487,1,0,0:0:0:0:
256,192,78644,1,8,0:0:0:0:
256,192,78723,1,8,0:0:0:0:
256,192,78802,1,0,0:0:0:0:
256,192,78959,1,8,0:0:0:0:
256,192,79038,1,8,0:0:0:0:
256,192,79116,1,8,0:0:0:0:
256,192,79273,1,0,0:0:0:0:
256,192,79431,1,8,0:0:0:0:
256,192,79509,1,8,0:0:0:0:
256,192,79588,1,8,0:0:0:0:
256,192,79745,1,0,0:0:0:0:
256,192,79903,1,8,0:0:0:0:
256,192,79981,1,8,0:0:0:0:
256,192,80060,1,0,0:0:0:0:
256,192,80139,1,0,0:0:0:0:
256,192,80217,1,8,0:0:0:0:
256,192,80374,1,8,0:0:0:0:
256,192,80532,1,4,0:0:0:0:
256,192,80846,1,8,0:0:0:0:
256,192,81004,1,8,0:0:0:0:
256,192,81161,1,0,0:0:0:0:
256,192,81240,1,8,0:0:0:0:
256,192,81318,1,0,0:0:0:0:
256,192,81476,1,8,0:0:0:0:
256,192,81633,1,0,0:0:0:0:
256,192,81790,1,8,0:0:0:0:
256,192,81869,1,8,0:0:0:0:
256,192,81947,1,0,0:0:0:0:
256,192,82026,1,0,0:0:0:0:
256,192,82105,1,8,0:0:0:0:
256,192,82262,1,0,0:0:0:0:
256,192,82419,1,8,0:0:0:0:
256,192,82498,1,0,0:0:0:0:
256,192,82577,1,8,0:0:0:0:
256,192,82655,1,8,0:0:0:0:
256,192,82734,1,0,0:0:0:0:
256,192,82891,1,0,0:0:0:0:
256,192,83048,1,8,0:0:0:0:
256,192,83363,1,8,0:0:0:0:
256,192,83520,1,8,0:0:0:0:
256,192,83678,1,0,0:0:0:0:
256,192,83756,1,0,0:0:0:0:
256,192,83835,1,0,0:0:0:0:
256,192,83992,1,8,0:0:0:0:
256,192,84149,1,0,0:0:0:0:
256,192,84307,1,8,0:0:0:0:
256,192,84385,1,0,0:0:0:0:
256,192,84464,1,0,0:0:0:0:
256,192,84543,1,0,0:0:0:0:
256,192,84621,1,8,0:0:0:0:
256,192,84779,1,0,0:0:0:0:
256,192,84936,1,8,0:0:0:0:
256,192,85015,1,8,0:0:0:0:
256,192,85093,1,0,0:0:0:0:
256,192,85172,1,0,0:0:0:0:
256,192,85250,1,8,0:0:0:0:
256,192,85408,1,8,0:0:0:0:
256,192,85565,1,4,0:0:0:0:
256,192,85880,1,8,0:0:0:0:
256,192,86037,1,8,0:0:0:0:
256,192,86194,1,0,0:0:0:0:
256,192,86273,1,8,0:0:0:0:
256,192,86351,1,0,0:0:0:0:
256,192,86509,1,8,0:0:0:0:
256,192,86666,1,0,0:0:0:0:
256,192,86823,1,8,0:0:0:0:
256,192,86902,1,8,0:0:0:0:
256,192,86981,1,0,0:0:0:0:
256,192,87059,1,0,0:0:0:0:
256,192,87138,1,8,0:0:0:0:
256,192,87295,1,0,0:0:0:0:
256,192,87453,1,8,0:0:0:0:
256,192,87531,1,0,0:0:0:0:
256,192,87610,1,8,0:0:0:0:
256,192,87688,1,8,0:0:0:0:
256,192,87767,1,0,0:0:0:0:
256,192,87924,1,0,0:0:0:0:
256,192,88082,1,8,0:0:0:0:
256,192,88396,1,8,0:0:0:0:
256,192,88554,1,8,0:0:0:0:
256,192,88711,1,0,0:0:0:0:
256,192,88789,1,0,0:0:0:0:
256,192,88868,1,0,0:0:0:0:
256,192,89025,1,8,0:0:0:0:
256,192,89183,1,0,0:0:0:0:
256,192,89340,1,8,0:0:0:0:
256,192,89419,1,8,0:0:0:0:
256,192,89497,1,0,0:0:0:0:
256,192,89576,1,8,0:0:0:0:
256,192,89655,1,0,0:0:0:0:
256,192,89812,1,8,0:0:0:0:
256,192,89969,1,0,0:0:0:0:
256,192,90126,1,8,0:0:0:0:
256,192,90205,1,0,0:0:0:0:
256,192,90284,1,8,0:0:0:0:
256,192,90362,1,8,0:0:0:0:
256,192,90441,1,0,0:0:0:0:
256,192,90598,1,12,0:0:0:0:
256,192,90913,1,0,0:0:0:0:
256,192,91070,1,8,0:0:0:0:
256,192,91149,1,8,0:0:0:0:
256,192,91227,1,0,0:0:0:0:
256,192,91385,1,8,0:0:0:0:
256,192,91542,1,0,0:0:0:0:
256,192,91621,1,0,0:0:0:0:
256,192,91699,1,0,0:0:0:0:
256,192,91857,1,8,0:0:0:0:
256,192,91935,1,8,0:0:0:0:
256,192,92014,1,0,0:0:0:0:
256,192,92093,1,0,0:0:0:0:
256,192,92171,1,8,0:0:0:0:
256,192,92328,1,8,0:0:0:0:
256,192,92486,1,0,0:0:0:0:
256,192,92564,1,0,0:0:0:0:
256,192,92643,1,8,0:0:0:0:
256,192,92722,1,8,0:0:0:0:
256,192,92800,1,0,0:0:0:0:
256,192,92958,1,0,0:0:0:0:
256,192,93115,1,8,0:0:0:0:
256,192,93272,1,0,0:0:0:0:
256,192,93430,1,8,0:0:0:0:
256,192,93587,1,0,0:0:0:0:
256,192,93665,1,0,0:0:0:0:
256,192,93744,1,8,0:0:0:0:
256,192,93823,1,8,0:0:0:0:
256,192,93901,1,0,0:0:0:0:
256,192,94059,1,8,0:0:0:0:
256,192,94137,1,8,0:0:0:0:
256,192,94216,1,8,0:0:0:0:
256,192,94373,1,0,0:0:0:0:
256,192,94531,1,8,0:0:0:0:
256,192,94609,1,0,0:0:0:0:
256,192,94688,1,8,0:0:0:0:
256,192,94845,1,0,0:0:0:0:
256,192,95002,1,8,0:0:0:0:
256,192,95081,1,8,0:0:0:0:
256,192,95160,1,0,0:0:0:0:
256,192,95238,1,0,0:0:0:0:
256,192,95317,1,8,0:0:0:0:
256,192,95474,1,8,0:0:0:0:
256,192,95632,1,4,0:0:0:0:
256,192,95946,1,0,0:0:0:0:
256,192,96103,1,8,0:0:0:0:
256,192,96182,1,8,0:0:0:0:
256,192,96261,1,0,0:0:0:0:
256,192,96418,1,8,0:0:0:0:
256,192,96575,1,0,0:0:0:0:
256,192,96654,1,0,0:0:0:0:
256,192,96733,1,0,0:0:0:0:
256,192,96890,1,8,0:0:0:0:
256,192,96969,1,8,0:0:0:0:
256,192,97047,1,0,0:0:0:0:
256,192,97126,1,0,0:0:0:0:
256,192,97204,1,8,0:0:0:0:
256,192,97362,1,8,0:0:0:0:
256,192,97519,1,0,0:0:0:0:
256,192,97598,1,0,0:0:0:0:
256,192,97676,1,8,0:0:0:0:
256,192,97755,1,8,0:0:0:0:
256,192,97834,1,0,0:0:0:0:
256,192,97991,1,0,0:0:0:0:
256,192,98148,1,8,0:0:0:0:
256,192,98305,1,0,0:0:0:0:
256,192,98463,1,8,0:0:0:0:
256,192,98541,1,8,0:0:0:0:
256,192,98620,1,0,0:0:0:0:
256,192,98699,1,8,0:0:0:0:
256,192,98777,1,0,0:0:0:0:
256,192,98935,1,8,0:0:0:0:
256,192,99092,1,0,0:0:0:0:
256,192,99171,1,8,0:0:0:0:
256,192,99249,1,0,0:0:0:0:
256,192,99407,1,8,0:0:0:0:
256,192,99564,1,0,0:0:0:0:
256,192,99642,1,0,0:0:0:0:
256,192,99721,1,8,0:0:0:0:
256,192,99800,1,8,0:0:0:0:
256,192,99878,1,0,0:0:0:0:
256,192,100036,1,8,0:0:0:0:
256,192,100114,1,8,0:0:0:0:
256,192,100193,1,0,0:0:0:0:
256,192,100272,1,0,0:0:0:0:
256,192,100350,1,8,0:0:0:0:
256,192,100508,1,8,0:0:0:0:
256,192,100665,1,4,0:0:0:0:
256,192,100979,1,8,0:0:0:0:
256,192,101137,1,0,0:0:0:0:
256,192,101215,1,0,0:0:0:0:
256,192,101294,1,8,0:0:0:0:
256,192,101373,1,8,0:0:0:0:
256,192,101451,1,0,0:0:0:0:
256,192,101609,1,8,0:0:0:0:
256,192,101766,1,0,0:0:0:0:
256,192,101923,1,8,0:0:0:0:
256,192,102002,1,8,0:0:0:0:
256,192,102080,1,0,0:0:0:0:
256,192,102159,1,0,0:0:0:0:
256,192,102238,1,8,0:0:0:0:
256,192,102395,1,8,0:0:0:0:
256,192,102552,1,0,0:0:0:0:
256,192,102631,1,0,0:0:0:0:
256,192,102710,1,8,0:0:0:0:
256,192,102788,1,0,0:0:0:0:
256,192,102867,1,8,0:0:0:0:
256,192,103024,1,0,0:0:0:0:
256,192,103181,1,8,0:0:0:0:
256,192,103339,1,0,0:0:0:0:
256,192,103496,1,8,0:0:0:0:
256,192,103575,1,0,0:0:0:0:
256,192,103653,1,8,0:0:0:0:
256,192,103732,1,8,0:0:0:0:
256,192,103811,1,0,0:0:0:0:
256,192,103968,1,0,0:0:0:0:
256,192,104125,1,8,0:0:0:0:
256,192,104204,1,8,0:0:0:0:
256,192,104282,1,0,0:0:0:0:
256,192,104440,1,8,0:0:0:0:
256,192,104597,1,0,0:0:0:0:
256,192,104676,1,0,0:0:0:0:
256,192,104754,1,8,0:0:0:0:
256,192,104833,1,8,0:0:0:0:
256,192,104912,1,0,0:0:0:0:
256,192,105069,1,8,0:0:0:0:
256,192,105226,1,0,0:0:0:0:
256,192,105305,1,0,0:0:0:0:
256,192,105384,1,8,0:0:0:0:
256,192,105462,1,8,0:0:0:0:
256,192,105541,1,8,0:0:0:0:
256,192,105698,1,4,0:0:0:0:
256,192,106013,1,8,0:0:0:0:
256,192,106170,1,0,0:0:0:0:
256,192,106249,1,0,0:0:0:0:
256,192,106327,1,8,0:0:0:0:
256,192,106406,1,8,0:0:0:0:
256,192,106485,1,0,0:0:0:0:
256,192,106642,1,8,0:0:0:0:
256,192,106799,1,0,0:0:0:0:
256,192,106956,1,8,0:0:0:0:
256,192,107035,1,8,0:0:0:0:
256,192,107114,1,0,0:0:0:0:
256,192,107192,1,0,0:0:0:0:
256,192,107271,1,8,0:0:0:0:
256,192,107428,1,8,0:0:0:0:
256,192,107586,1,0,0:0:0:0:
256,192,107664,1,0,0:0:0:0:
256,192,107743,1,8,0:0:0:0:
256,192,107822,1,8,0:0:0:0:
256,192,107900,1,0,0:0:0:0:
256,192,108057,1,0,0:0:0:0:
256,192,108215,1,8,0:0:0:0:
256,192,108372,1,0,0:0:0:0:
256,192,108529,1,8,0:0:0:0:
256,192,108608,1,0,0:0:0:0:
256,192,108687,1,8,0:0:0:0:
256,192,108765,1,8,0:0:0:0:
256,192,108844,1,0,0:0:0:0:
256,192,109001,1,0,0:0:0:0:
256,192,109158,1,8,0:0:0:0:
256,192,109237,1,8,0:0:0:0:
256,192,109316,1,0,0:0:0:0:
256,192,109473,1,8,0:0:0:0:
256,192,109552,1,8,0:0:0:0:
256,192,109630,1,0,0:0:0:0:
256,192,109709,1,0,0:0:0:0:
256,192,109788,1,8,0:0:0:0:
256,192,109945,1,0,0:0:0:0:
256,192,110102,1,8,0:0:0:0:
256,192,110181,1,0,0:0:0:0:
256,192,110259,1,8,0:0:0:0:
256,192,110338,1,8,0:0:0:0:
256,192,110417,1,0,0:0:0:0:
256,192,110574,1,0,0:0:0:0:
256,192,110731,1,12,0:0:0:0:
256,192,120798,5,8,0:0:0:0:
256,192,121112,1,8,0:0:0:0:
256,192,121427,1,8,0:0:0:0:
256,192,121742,1,8,0:0:0:0:
256,192,122056,1,8,0:0:0:0:
256,192,122371,1,8,0:0:0:0:
256,192,122685,1,8,0:0:0:0:
256,192,123000,1,8,0:0:0:0:
256,192,123315,1,8,0:0:0:0:
256,192,123629,1,8,0:0:0:0:
256,192,123944,1,8,0:0:0:0:
256,192,124258,1,8,0:0:0:0:
256,192,124573,1,8,0:0:0:0:
256,192,124887,1,8,0:0:0:0:
256,192,125202,1,8,0:0:0:0:
256,192,125517,1,8,0:0:0:0:
256,192,125831,1,8,0:0:0:0:
256,192,126146,1,8,0:0:0:0:
256,192,126460,1,8,0:0:0:0:
256,192,126775,1,8,0:0:0:0:
256,192,127089,1,8,0:0:0:0:
256,192,127404,1,8,0:0:0:0:
256,192,127719,1,8,0:0:0:0:
256,192,128033,1,8,0:0:0:0:
256,192,128348,1,8,0:0:0:0:
256,192,128662,1,8,0:0:0:0:
256,192,128977,1,8,0:0:0:0:
256,192,129292,1,8,0:0:0:0:
256,192,129606,1,4,0:0:0:0:
256,192,130864,1,4,0:0:0:0:
256,192,131179,1,4,0:0:0:0:
256,192,131494,1,8,0:0:0:0:
256,192,131572,1,8,0:0:0:0:
256,192,131651,1,0,0:0:0:0:
256,192,131730,1,0,0:0:0:0:
256,192,131808,1,8,0:0:0:0:
256,192,131965,1,0,0:0:0:0:
256,192,132123,1,12,0:0:0:0:
256,192,132437,1,8,0:0:0:0:
256,192,132594,1,0,0:0:0:0:
256,192,132673,1,0,0:0:0:0:
256,192,132752,1,8,0:0:0:0:
256,192,132909,1,0,0:0:0:0:
256,192,133066,1,8,0:0:0:0:
256,192,133145,1,8,0:0:0:0:
256,192,133224,1,0,0:0:0:0:
256,192,133302,1,0,0:0:0:0:
256,192,133381,1,8,0:0:0:0:
256,192,133538,1,0,0:0:0:0:
256,192,133695,1,8,0:0:0:0:
256,192,133774,1,0,0:0:0:0:
256,192,133853,1,8,0:0:0:0:
256,192,133931,1,8,0:0:0:0:
256,192,134010,1,0,0:0:0:0:
256,192,134167,1,8,0:0:0:0:
256,192,134325,1,0,0:0:0:0:
256,192,134403,1,0,0:0:0:0:
256,192,134482,1,8,0:0:0:0:
256,192,134639,1,8,0:0:0:0:
256,192,134718,1,8,0:0:0:0:
256,192,134796,1,0,0:0:0:0:
256,192,134954,1,0,0:0:0:0:
256,192,135111,1,8,0:0:0:0:
256,192,135190,1,8,0:0:0:0:
256,192,135268,1,8,0:0:0:0:
256,192,135426,1,0,0:0:0:0:
256,192,135583,1,8,0:0:0:0:
256,192,135662,1,8,0:0:0:0:
256,192,135740,1,0,0:0:0:0:
256,192,135819,1,0,0:0:0:0:
256,192,135897,1,8,0:0:0:0:
256,192,136055,1,0,0:0:0:0:
256,192,136212,1,8,0:0:0:0:
256,192,136369,1,0,0:0:0:0:
256,192,136527,1,8,0:0:0:0:
256,192,136605,1,8,0:0:0:0:
256,192,136684,1,8,0:0:0:0:
256,192,136763,1,8,0:0:0:0:
256,192,136841,1,0,0:0:0:0:
256,192,136998,1,0,0:0:0:0:
256,192,137156,1,12,0:0:0:0:
256,192,137470,1,8,0:0:0:0:
256,192,137628,1,0,0:0:0:0:
256,192,137785,1,8,0:0:0:0:
256,192,137864,1,0,0:0:0:0:
256,192,137942,1,0,0:0:0:0:
256,192,138021,1,0,0:0:0:0:
256,192,138100,1,8,0:0:0:0:
256,192,138257,1,0,0:0:0:0:
256,192,138414,1,8,0:0:0:0:
256,192,138493,1,8,0:0:0:0:
256,192,138571,1,0,0:0:0:0:
256,192,138729,1,8,0:0:0:0:
256,192,138807,1,8,0:0:0:0:
256,192,138886,1,8,0:0:0:0:
256,192,139043,1,0,0:0:0:0:
256,192,139201,1,8,0:0:0:0:
256,192,139358,1,0,0:0:0:0:
256,192,139436,1,0,0:0:0:0:
256,192,139515,1,0,0:0:0:0:
256,192,139672,1,8,0:0:0:0:
256,192,139751,1,8,0:0:0:0:
256,192,139830,1,8,0:0:0:0:
256,192,139908,1,8,0:0:0:0:
256,192,139987,1,0,0:0:0:0:
256,192,140144,1,8,0:0:0:0:
256,192,140302,1,0,0:0:0:0:
256,192,140459,1,8,0:0:0:0:
256,192,140616,1,0,0:0:0:0:
256,192,140695,1,0,0:0:0:0:
256,192,140773,1,8,0:0:0:0:
256,192,140852,1,8,0:0:0:0:
256,192,140931,1,0,0:0:0:0:
256,192,141088,1,8,0:0:0:0:
256,192,141167,1,8,0:0:0:0:
256,192,141245,1,8,0:0:0:0:
256,192,141403,1,0,0:0:0:0:
256,192,141560,1,8,0:0:0:0:
256,192,141639,1,8,0:0:0:0:
256,192,141717,1,0,0:0:0:0:
256,192,141796,1,0,0:0:0:0:
256,192,141874,1,8,0:0:0:0:
256,192,141953,1,8,0:0:0:0:
256,192,142032,1,0,0:0:0:0:
256,192,142189,1,12,0:0:0:0:
256,192,142504,1,8,0:0:0:0:
256,192,142661,1,0,0:0:0:0:
256,192,142740,1,0,0:0:0:0:
256,192,142818,1,8,0:0:0:0:
256,192,142975,1,0,0:0:0:0:
256,192,143133,1,8,0:0:0:0:
256,192,143211,1,8,0:0:0:0:
256,192,143290,1,0,0:0:0:0:
256,192,143369,1,0,0:0:0:0:
256,192,143447,1,8,0:0:0:0:
256,192,143605,1,0,0:0:0:0:
256,192,143762,1,8,0:0:0:0:
256,192,143841,1,0,0:0:0:0:
256,192,143919,1,8,0:0:0:0:
256,192,143998,1,8,0:0:0:0:
256,192,144077,1,0,0:0:0:0:
256,192,144234,1,0,0:0:0:0:
256,192,144391,1,8,0:0:0:0:
256,192,144470,1,8,0:0:0:0:
256,192,144548,1,8,0:0:0:0:
256,192,144706,1,0,0:0:0:0:
256,192,144784,1,0,0:0:0:0:
256,192,144863,1,8,0:0:0:0:
256,192,144942,1,8,0:0:0:0:
256,192,145020,1,0,0:0:0:0:
256,192,145178,1,8,0:0:0:0:
256,192,145335,1,0,0:0:0:0:
256,192,145492,1,8,0:0:0:0:
256,192,145649,1,0,0:0:0:0:
256,192,145807,1,8,0:0:0:0:
256,192,145885,1,0,0:0:0:0:
256,192,145964,1,8,0:0:0:0:
256,192,146043,1,8,0:0:0:0:
256,192,146121,1,0,0:0:0:0:
256,192,146279,1,8,0:0:0:0:
256,192,146436,1,0,0:0:0:0:
256,192,146593,1,8,0:0:0:0:
256,192,146672,1,8,0:0:0:0:
256,192,146750,1,8,0:0:0:0:
256,192,146829,1,8,0:0:0:0:
256,192,146908,1,0,0:0:0:0:
256,192,147065,1,0,0:0:0:0:
256,192,147222,1,8,0:0:0:0:
256,192,147537,1,8,0:0:0:0:
256,192,147694,1,0,0:0:0:0:
256,192,147851,1,8,0:0:0:0:
256,192,147930,1,0,0:0:0:0:
256,192,148009,1,0,0:0:0:0:
256,192,148087,1,0,0:0:0:0:
256,192,148166,1,8,0:0:0:0:
256,192,148323,1,0,0:0:0:0:
256,192,148481,1,8,0:0:0:0:
256,192,148559,1,8,0:0:0:0:
256,192,148638,1,0,0:0:0:0:
256,192,148795,1,0,0:0:0:0:
256,192,148952,1,8,0:0:0:0:
256,192,149031,1,0,0:0:0:0:
256,192,149110,1,0,0:0:0:0:
256,192,149267,1,8,0:0:0:0:
256,192,149424,1,0,0:0:0:0:
256,192,149503,1,0,0:0:0:0:
256,192,149582,1,0,0:0:0:0:
256,192,149660,1,0,0:0:0:0:
256,192,149739,1,8,0:0:0:0:
256,192,149896,1,0,0:0:0:0:
256,192,150054,1,8,0:0:0:0:
256,192,150211,1,0,0:0:0:0:
256,192,150368,1,8,0:0:0:0:
256,192,150447,1,8,0:0:0:0:
256,192,150525,1,8,0:0:0:0:
256,192,150683,1,0,0:0:0:0:
256,192,150761,1,0,0:0:0:0:
256,192,150840,1,8,0:0:0:0:
256,192,150997,1,0,0:0:0:0:
256,192,151076,1,0,0:0:0:0:
256,192,151155,1,0,0:0:0:0:
256,192,151312,1,8,0:0:0:0:
256,192,151469,1,0,0:0:0:0:
256,192,151548,1,0,0:0:0:0:
256,192,151626,1,8,0:0:0:0:
256,192,151705,1,8,0:0:0:0:
256,192,151784,1,0,0:0:0:0:
256,192,151862,1,0,0:0:0:0:
256,192,151941,1,8,0:0:0:0:
256,192,152098,1,0,0:0:0:0:
256,192,152256,1,12,0:0:0:0:
256,192,152570,1,0,0:0:0:0:
256,192,152727,1,8,0:0:0:0:
256,192,152806,1,8,0:0:0:0:
256,192,152885,1,0,0:0:0:0:
256,192,153042,1,8,0:0:0:0:
256,192,153199,1,0,0:0:0:0:
256,192,153278,1,0,0:0:0:0:
256,192,153357,1,8,0:0:0:0:
256,192,153435,1,8,0:0:0:0:
256,192,153514,1,0,0:0:0:0:
256,192,153671,1,8,0:0:0:0:
256,192,153828,1,0,0:0:0:0:
256,192,153907,1,8,0:0:0:0:
256,192,153986,1,0,0:0:0:0:
256,192,154064,1,0,0:0:0:0:
256,192,154143,1,8,0:0:0:0:
256,192,154300,1,0,0:0:0:0:
256,192,154458,1,8,0:0:0:0:
256,192,154536,1,0,0:0:0:0:
256,192,154615,1,8,0:0:0:0:
256,192,154694,1,8,0:0:0:0:
256,192,154772,1,0,0:0:0:0:
256,192,154929,1,0,0:0:0:0:
256,192,155087,1,8,0:0:0:0:
256,192,155244,1,0,0:0:0:0:
256,192,155323,1,0,0:0:0:0:
256,192,155401,1,8,0:0:0:0:
256,192,155559,1,0,0:0:0:0:
256,192,155716,1,8,0:0:0:0:
256,192,155795,1,8,0:0:0:0:
256,192,155873,1,0,0:0:0:0:
256,192,155952,1,0,0:0:0:0:
256,192,156031,1,8,0:0:0:0:
256,192,156188,1,0,0:0:0:0:
256,192,156345,1,8,0:0:0:0:
256,192,156502,1,0,0:0:0:0:
256,192,156660,1,8,0:0:0:0:
256,192,156738,1,0,0:0:0:0:
256,192,156817,1,0,0:0:0:0:
256,192,156896,1,0,0:0:0:0:
256,192,156974,1,8,0:0:0:0:
256,192,157132,1,0,0:0:0:0:
256,192,157289,1,12,0:0:0:0:
256,192,157603,1,8,0:0:0:0:
256,192,157761,1,0,0:0:0:0:
256,192,157918,1,8,0:0:0:0:
256,192,157997,1,8,0:0:0:0:
256,192,158075,1,8,0:0:0:0:
256,192,158154,1,8,0:0:0:0:
256,192,158233,1,0,0:0:0:0:
256,192,158390,1,0,0:0:0:0:
256,192,158547,1,8,0:0:0:0:
256,192,158626,1,8,0:0:0:0:
256,192,158704,1,0,0:0:0:0:
256,192,158862,1,8,0:0:0:0:
256,192,158940,1,8,0:0:0:0:
256,192,159019,1,8,0:0:0:0:
256,192,159176,1,0,0:0:0:0:
256,192,159334,1,8,0:0:0:0:
256,192,159491,1,0,0:0:0:0:
256,192,159570,1,0,0:0:0:0:
256,192,159648,1,0,0:0:0:0:
256,192,159805,1,8,0:0:0:0:
256,192,159884,1,8,0:0:0:0:
256,192,159963,1,0,0:0:0:0:
256,192,160041,1,0,0:0:0:0:
256,192,160120,1,8,0:0:0:0:
256,192,160277,1,8,0:0:0:0:
256,192,160435,1,0,0:0:0:0:
256,192,160592,1,8,0:0:0:0:
256,192,160749,1,0,0:0:0:0:
256,192,160828,1,0,0:0:0:0:
256,192,160906,1,8,0:0:0:0:
256,192,160985,1,0,0:0:0:0:
256,192,161064,1,8,0:0:0:0:
256,192,161221,1,0,0:0:0:0:
256,192,161378,1,8,0:0:0:0:
256,192,161457,1,8,0:0:0:0:
256,192,161536,1,8,0:0:0:0:
256,192,161693,1,0,0:0:0:0:
256,192,161772,1,0,0:0:0:0:
256,192,161850,1,0,0:0:0:0:
256,192,161929,1,0,0:0:0:0:
256,192,162008,1,8,0:0:0:0:
256,192,162086,1,8,0:0:0:0:
256,192,162165,1,0,0:0:0:0:
256,192,162322,1,12,0:0:0:0:
256,192,162637,1,0,0:0:0:0:
256,192,162794,1,8,0:0:0:0:
256,192,162873,1,8,0:0:0:0:
256,192,162951,1,0,0:0:0:0:
256,192,163109,1,8,0:0:0:0:
256,192,163266,1,0,0:0:0:0:
256,192,163344,1,0,0:0:0:0:
256,192,163423,1,8,0:0:0:0:
256,192,163502,1,0,0:0:0:0:
256,192,163580,1,8,0:0:0:0:
256,192,163738,1,0,0:0:0:0:
256,192,163895,1,8,0:0:0:0:
256,192,163974,1,0,0:0:0:0:
256,192,164052,1,8,0:0:0:0:
256,192,164131,1,8,0:0:0:0:
256,192,164210,1,0,0:0:0:0:
256,192,164367,1,0,0:0:0:0:
256,192,164524,1,8,0:0:0:0:
256,192,164603,1,8,0:0:0:0:
256,192,164681,1,8,0:0:0:0:
256,192,164839,1,0,0:0:0:0:
256,192,164917,1,0,0:0:0:0:
256,192,164996,1,0,0:0:0:0:
256,192,165075,1,0,0:0:0:0:
256,192,165153,1,8,0:0:0:0:
256,192,165311,1,0,0:0:0:0:
256,192,165468,1,8,0:0:0:0:
256,192,165547,1,8,0:0:0:0:
256,192,165625,1,0,0:0:0:0:
256,192,165782,1,8,0:0:0:0:
256,192,165940,1,0,0:0:0:0:
256,192,166018,1,0,0:0:0:0:
256,192,166097,1,8,0:0:0:0:
256,192,166176,1,8,0:0:0:0:
256,192,166254,1,0,0:0:0:0:
256,192,166412,1,8,0:0:0:0:
256,192,166569,1,0,0:0:0:0:
256,192,166726,1,8,0:0:0:0:
256,192,166805,1,8,0:0:0:0:
256,192,166883,1,8,0:0:0:0:
256,192,166962,1,8,0:0:0:0:
256,192,167041,1,0,0:0:0:0:
256,192,167198,1,0,0:0:0:0:
256,192,167355,1,8,0:0:0:0:
256,192,167670,1,8,0:0:0:0:
256,192,167827,1,0,0:0:0:0:
256,192,167985,1,8,0:0:0:0:
256,192,168063,1,8,0:0:0:0:
256,192,168142,1,0,0:0:0:0:
256,192,168220,1,0,0:0:0:0:
256,192,168299,1,8,0:0:0:0:
256,192,168456,1,0,0:0:0:0:
256,192,168614,1,8,0:0:0:0:
256,192,168692,1,8,0:0:0:0:
256,192,168771,1,0,0:0:0:0:
256,192,168928,1,8,0:0:0:0:
256,192,169086,1,0,0:0:0:0:
256,192,169164,1,8,0:0:0:0:
256,192,169243,1,0,0:0:0:0:
256,192,169400,1,8,0:0:0:0:
256,192,169557,1,0,0:0:0:0:
256,192,169636,1,0,0:0:0:0:
256,192,169715,1,0,0:0:0:0:
256,192,169793,1,0,0:0:0:0:
256,192,169872,1,8,0:0:0:0:
256,192,170029,1,0,0:0:0:0:
256,192,170187,1,8,0:0:0:0:
256,192,170344,1,0,0:0:0:0:
256,192,170501,1,8,0:0:0:0:
256,192,170580,1,8,0:0:0:0:
256,192,170658,1,8,0:0:0:0:
256,192,170816,1,0,0:0:0:0:
256,192,170894,1,0,0:0:0:0:
256,192,170973,1,8,0:0:0:0:
256,192,171130,1,0,0:0:0:0:
256,192,171209,1,0,0:0:0:0:
256,192,171288,1,0,0:0:0:0:
256,192,171445,1,8,0:0:0:0:
256,192,171602,1,0,0:0:0:0:
256,192,171681,1,0,0:0:0:0:
256,192,171759,1,8,0:0:0:0:
256,192,171838,1,8,0:0:0:0:
256,192,171917,1,0,0:0:0:0:
256,192,171995,1,0,0:0:0:0:
256,192,172074,1,8,0:0:0:0:
256,192,172231,1,0,0:0:0:0:
256,192,172389,1,12,0:0:0:0:
256,192,172703,1,8,0:0:0:0:
256,192,172861,1,0,0:0:0:0:
256,192,172939,1,0,0:0:0:0:
256,192,173018,1,8,0:0:0:0:
256,192,173175,1,0,0:0:0:0:
256,192,173332,1,8,0:0:0:0:
256,192,173411,1,0,0:0:0:0:
256,192,173490,1,0,0:0:0:0:
256,192,173568,1,0,0:0:0:0:
256,192,173647,1,8,0:0:0:0:
256,192,173804,1,0,0:0:0:0:
256,192,173962,1,8,0:0:0:0:
256,192,174040,1,0,0:0:0:0:
256,192,174119,1,8,0:0:0:0:
256,192,174197,1,8,0:0:0:0:
256,192,174276,1,0,0:0:0:0:
256,192,174433,1,8,0:0:0:0:
256,192,174591,1,0,0:0:0:0:
256,192,174669,1,0,0:0:0:0:
256,192,174748,1,8,0:0:0:0:
256,192,174827,1,0,0:0:0:0:
256,192,174905,1,8,0:0:0:0:
256,192,174984,1,8,0:0:0:0:
256,192,175063,1,0,0:0:0:0:
256,192,175220,1,0,0:0:0:0:
256,192,175377,1,8,0:0:0:0:
256,192,175456,1,8,0:0:0:0:
256,192,175534,1,8,0:0:0:0:
256,192,175692,1,0,0:0:0:0:
256,192,175849,1,8,0:0:0:0:
256,192,175928,1,8,0:0:0:0:
256,192,176006,1,0,0:0:0:0:
256,192,176085,1,0,0:0:0:0:
256,192,176164,1,8,0:0:0:0:
256,192,176321,1,0,0:0:0:0:
256,192,176478,1,8,0:0:0:0:
256,192,176635,1,0,0:0:0:0:
256,192,176793,1,8,0:0:0:0:
256,192,176871,1,0,0:0:0:0:
256,192,176950,1,0,0:0:0:0:
256,192,177029,1,0,0:0:0:0:
256,192,177107,1,8,0:0:0:0:
256,192,177265,1,0,0:0:0:0:
256,192,177422,1,12,0:0:0:0:
256,192,177736,1,8,0:0:0:0:
256,192,177894,1,0,0:0:0:0:
256,192,178051,1,8,0:0:0:0:
256,192,178130,1,8,0:0:0:0:
256,192,178208,1,8,0:0:0:0:
256,192,178287,1,8,0:0:0:0:
256,192,178366,1,0,0:0:0:0:
256,192,178523,1,0,0:0:0:0:
256,192,178680,1,8,0:0:0:0:
256,192,178759,1,8,0:0:0:0:
256,192,178838,1,0,0:0:0:0:
256,192,178995,1,8,0:0:0:0:
256,192,179073,1,8,0:0:0:0:
256,192,179152,1,8,0:0:0:0:
256,192,179309,1,0,0:0:0:0:
256,192,179467,1,8,0:0:0:0:
256,192,179624,1,0,0:0:0:0:
256,192,179703,1,0,0:0:0:0:
256,192,179781,1,0,0:0:0:0:
256,192,179939,1,8,0:0:0:0:
256,192,180017,1,8,0:0:0:0:
256,192,180096,1,8,0:0:0:0:
256,192,180174,1,8,0:0:0:0:
256,192,180253,1,0,0:0:0:0:
256,192,180410,1,8,0:0:0:0:
256,192,180568,1,0,0:0:0:0:
256,192,180725,1,8,0:0:0:0:
256,192,180882,1,0,0:0:0:0:
256,192,180961,1,0,0:0:0:0:
256,192,181040,1,8,0:0:0:0:
256,192,181118,1,8,0:0:0:0:
256,192,181197,1,0,0:0:0:0:
256,192,181354,1,8,0:0:0:0:
256,192,181433,1,8,0:0:0:0:
256,192,181511,1,8,0:0:0:0:
256,192,181669,1,0,0:0:0:0:
256,192,181826,1,8,0:0:0:0:
256,192,181905,1,8,0:0:0:0:
256,192,181983,1,0,0:0:0:0:
256,192,182062,1,0,0:0:0:0:
256,192,182141,1,8,0:0:0:0:
256,192,182219,1,8,0:0:0:0:
256,192,182298,1,0,0:0:0:0:
256,192,182455,1,12,0:0:0:0:
256,192,182770,1,8,0:0:0:0:
256,192,182927,1,0,0:0:0:0:
256,192,183006,1,0,0:0:0:0:
256,192,183084,1,8,0:0:0:0:
256,192,183242,1,0,0:0:0:0:
256,192,183399,1,8,0:0:0:0:
256,192,183478,1,8,0:0:0:0:
256,192,183556,1,0,0:0:0:0:
256,192,183635,1,0,0:0:0:0:
256,192,183713,1,8,0:0:0:0:
256,192,183871,1,0,0:0:0:0:
256,192,184028,1,8,0:0:0:0:
256,192,184107,1,0,0:0:0:0:
256,192,184185,1,8,0:0:0:0:
256,192,184264,1,8,0:0:0:0:
256,192,184343,1,0,0:0:0:0:
256,192,184500,1,0,0:0:0:0:
256,192,184657,1,8,0:0:0:0:
256,192,184736,1,8,0:0:0:0:
256,192,184815,1,8,0:0:0:0:
256,192,184972,1,0,0:0:0:0:
256,192,185050,1,0,0:0:0:0:
256,192,185129,1,8,0:0:0:0:
256,192,185208,1,8,0:0:0:0:
256,192,185286,1,0,0:0:0:0:
256,192,185444,1,8,0:0:0:0:
256,192,185601,1,0,0:0:0:0:
256,192,185680,1,0,0:0:0:0:
256,192,185758,1,8,0:0:0:0:
256,192,185916,1,0,0:0:0:0:
256,192,186073,1,8,0:0:0:0:
256,192,186151,1,0,0:0:0:0:
256,192,186230,1,8,0:0:0:0:
256,192,186309,1,8,0:0:0:0:
256,192,186387,1,0,0:0:0:0:
256,192,186545,1,8,0:0:0:0:
256,192,186702,1,0,0:0:0:0:
256,192,186859,1,8,0:0:0:0:
256,192,186938,1,8,0:0:0:0:
256,192,187017,1,8,0:0:0:0:
256,192,187095,1,8,0:0:0:0:
256,192,187174,1,0,0:0:0:0:
256,192,187331,1,0,0:0:0:0:
256,192,187488,1,8,0:0:0:0:
256,192,187803,1,8,0:0:0:0:
256,192,187960,1,0,0:0:0:0:
256,192,188118,1,8,0:0:0:0:
256,192,188196,1,0,0:0:0:0:
256,192,188275,1,0,0:0:0:0:
256,192,188354,1,0,0:0:0:0:
256,192,188432,1,8,0:0:0:0:
256,192,188589,1,0,0:0:0:0:
256,192,188747,1,8,0:0:0:0:
256,192,188825,1,8,0:0:0:0:
256,192,188904,1,0,0:0:0:0:
256,192,189061,1,0,0:0:0:0:
256,192,189219,1,8,0:0:0:0:
256,192,189297,1,0,0:0:0:0:
256,192,189376,1,0,0:0:0:0:
256,192,189533,1,8,0:0:0:0:
256,192,189690,1,0,0:0:0:0:
256,192,189769,1,0,0:0:0:0:
256,192,189848,1,0,0:0:0:0:
256,192,189926,1,0,0:0:0:0:
256,192,190005,1,8,0:0:0:0:
256,192,190162,1,0,0:0:0:0:
256,192,190320,1,8,0:0:0:0:
256,192,190477,1,0,0:0:0:0:
256,192,190634,1,8,0:0:0:0:
256,192,190713,1,8,0:0:0:0:
256,192,190792,1,8,0:0:0:0:
256,192,190949,1,0,0:0:0:0:
256,192,191027,1,0,0:0:0:0:
256,192,191106,1,8,0:0:0:0:
256,192,191263,1,0,0:0:0:0:
256,192,191342,1,0,0:0:0:0:
256,192,191421,1,0,0:0:0:0:
256,192,191578,1,8,0:0:0:0:
256,192,191735,1,0,0:0:0:0:
256,192,191814,1,0,0:0:0:0:
256,192,191893,1,8,0:0:0:0:
256,192,191971,1,8,0:0:0:0:
256,192,192050,1,0,0:0:0:0:
256,192,192128,1,0,0:0:0:0:
256,192,192207,1,8,0:0:0:0:
256,192,192364,1,0,0:0:0:0:
256,192,192522,1,12,0:0:0:0:
256,192,192836,1,0,0:0:0:0:
256,192,192994,1,8,0:0:0:0:
256,192,193072,1,8,0:0:0:0:
256,192,193151,1,0,0:0:0:0:
256,192,193308,1,8,0:0:0:0:
256,192,193465,1,0,0:0:0:0:
256,192,193544,1,0,0:0:0:0:
256,192,193623,1,8,0:0:0:0:
256,192,193701,1,8,0:0:0:0:
256,192,193780,1,0,0:0:0:0:
256,192,193937,1,8,0:0:0:0:
256,192,194095,1,0,0:0:0:0:
256,192,194173,1,8,0:0:0:0:
256,192,194252,1,0,0:0:0:0:
256,192,194331,1,0,0:0:0:0:
256,192,194409,1,8,0:0:0:0:
256,192,194566,1,0,0:0:0:0:
256,192,194724,1,8,0:0:0:0:
256,192,194802,1,0,0:0:0:0:
256,192,194881,1,8,0:0:0:0:
256,192,194960,1,8,0:0:0:0:
256,192,195038,1,0,0:0:0:0:
256,192,195196,1,0,0:0:0:0:
256,192,195353,1,8,0:0:0:0:
256,192,195510,1,0,0:0:0:0:
256,192,195589,1,0,0:0:0:0:
256,192,195667,1,8,0:0:0:0:
256,192,195825,1,0,0:0:0:0:
256,192,195982,1,8,0:0:0:0:
256,192,196061,1,8,0:0:0:0:
256,192,196139,1,0,0:0:0:0:
256,192,196218,1,0,0:0:0:0:
256,192,196297,1,8,0:0:0:0:
256,192,196454,1,0,0:0:0:0:
256,192,196611,1,8,0:0:0:0:
256,192,196769,1,0,0:0:0:0:
256,192,196926,1,8,0:0:0:0:
256,192,197004,1,0,0:0:0:0:
256,192,197083,1,0,0:0:0:0:
256,192,197162,1,0,0:0:0:0:
256,192,197240,1,8,0:0:0:0:
256,192,197398,1,0,0:0:0:0:
256,192,197555,1,12,0:0:0:0:
256,192,197870,1,8,0:0:0:0:
256,192,198027,1,0,0:0:0:0:
256,192,198184,1,8,0:0:0:0:
256,192,198263,1,8,0:0:0:0:
256,192,198341,1,8,0:0:0:0:
256,192,198420,1,8,0:0:0:0:
256,192,198499,1,0,0:0:0:0:
256,192,198656,1,0,0:0:0:0:
256,192,198813,1,8,0:0:0:0:
256,192,198892,1,8,0:0:0:0:
256,192,198971,1,0,0:0:0:0:
256,192,199128,1,8,0:0:0:0:
256,192,199207,1,8,0:0:0:0:
256,192,199285,1,8,0:0:0:0:
256,192,199442,1,0,0:0:0:0:
256,192,199600,1,8,0:0:0:0:
256,192,199757,1,0,0:0:0:0:
256,192,199836,1,0,0:0:0:0:
256,192,199914,1,0,0:0:0:0:
256,192,200072,1,8,0:0:0:0:
256,192,200150,1,8,0:0:0:0:
256,192,200229,1,0,0:0:0:0:
256,192,200308,1,0,0:0:0:0:
256,192,200386,1,8,0:0:0:0:
256,192,200543,1,8,0:0:0:0:
256,192,200701,1,0,0:0:0:0:
256,192,200858,1,8,0:0:0:0:
256,192,201015,1,0,0:0:0:0:
256,192,201094,1,0,0:0:0:0:
256,192,201173,1,8,0:0:0:0:
256,192,201251,1,0,0:0:0:0:
256,192,201330,1,8,0:0:0:0:
256,192,201487,1,0,0:0:0:0:
256,192,201644,1,8,0:0:0:0:
256,192,201723,1,8,0:0:0:0:
256,192,201802,1,8,0:0:0:0:
256,192,201959,1,0,0:0:0:0:
256,192,202038,1,0,0:0:0:0:
256,192,202116,1,0,0:0:0:0:
256,192,202195,1,0,0:0:0:0:
256,192,202274,1,8,0:0:0:0:
256,192,202352,1,8,0:0:0:0:
256,192,202431,1,0,0:0:0:0:
256,192,202588,1,12,0:0:0:0:
256,192,202903,1,0,0:0:0:0:
256,192,203060,1,8,0:0:0:0:
256,192,203139,1,8,0:0:0:0:
256,192,203217,1,0,0:0:0:0:
256,192,203375,1,8,0:0:0:0:
256,192,203532,1,0,0:0:0:0:
256,192,203611,1,0,0:0:0:0:
256,192,203689,1,8,0:0:0:0:
256,192,203768,1,0,0:0:0:0:
256,192,203847,1,8,0:0:0:0:
256,192,204004,1,0,0:0:0:0:
256,192,204161,1,8,0:0:0:0:
256,192,204240,1,0,0:0:0:0:
256,192,204318,1,8,0:0:0:0:
256,192,204397,1,8,0:0:0:0:
256,192,204476,1,0,0:0:0:0:
256,192,204633,1,0,0:0:0:0:
256,192,204790,1,8,0:0:0:0:
256,192,204869,1,8,0:0:0:0:
256,192,204948,1,8,0:0:0:0:
256,192,205105,1,0,0:0:0:0:
256,192,205184,1,0,0:0:0:0:
256,192,205262,1,0,0:0:0:0:
256,192,205341,1,0,0:0:0:0:
256,192,205419,1,8,0:0:0:0:
256,192,205577,1,0,0:0:0:0:
256,192,205734,1,8,0:0:0:0:
256,192,205813,1,8,0:0:0:0:
256,192,205891,1,0,0:0:0:0:
256,192,206049,1,8,0:0:0:0:
256,192,206206,1,0,0:0:0:0:
256,192,206285,1,0,0:0:0:0:
256,192,206363,1,8,0:0:0:0:
256,192,206442,1,8,0:0:0:0:
256,192,206520,1,0,0:0:0:0:
256,192,206678,1,8,0:0:0:0:
256,192,206835,1,0,0:0:0:0:
256,192,206992,1,8,0:0:0:0:
256,192,207071,1,8,0:0:0:0:
256,192,207150,1,8,0:0:0:0:
256,192,207228,1,8,0:0:0:0:
256,192,207307,1,0,0:0:0:0:
256,192,207464,1,0,0:0:0:0:
256,192,207622,1,8,0:0:0:0:
256,192,207936,1,8,0:0:0:0:
256,192,208093,1,0,0:0:0:0:
256,192,208251,1,8,0:0:0:0:
256,192,208329,1,8,0:0:0:0:
256,192,208408,1,0,0:0:0:0:
256,192,208487,1,0,0:0:0:0:
256,192,208565,1,8,0:0:0:0:
256,192,208723,1,0,0:0:0:0:
256,192,208880,1,8,0:0:0:0:
256,192,208958,1,8,0:0:0:0:
256,192,209037,1,0,0:0:0:0:
256,192,209194,1,8,0:0:0:0:
256,192,209352,1,0,0:0:0:0:
256,192,209430,1,8,0:0:0:0:
256,192,209509,1,0,0:0:0:0:
256,192,209666,1,8,0:0:0:0:
256,192,209824,1,0,0:0:0:0:
256,192,209902,1,0,0:0:0:0:
256,192,209981,1,0,0:0:0:0:
256,192,210059,1,0,0:0:0:0:
256,192,210138,1,8,0:0:0:0:
256,192,210295,1,0,0:0:0:0:
256,192,210453,1,8,0:0:0:0:
256,192,210610,1,0,0:0:0:0:
256,192,210767,1,8,0:0:0:0:
256,192,210846,1,8,0:0:0:0:
256,192,210925,1,8,0:0:0:0:
256,192,211082,1,0,0:0:0:0:
256,192,211161,1,0,0:0:0:0:
256,192,211239,1,8,0:0:0:0:
256,192,211396,1,0,0:0:0:0:
256,192,211475,1,0,0:0:0:0:
256,192,211554,1,0,0:0:0:0:
256,192,211711,1,8,0:0:0:0:
256,192,211868,1,0,0:0:0:0:
256,192,211947,1,0,0:0:0:0:
256,192,212026,1,8,0:0:0:0:
256,192,212104,1,8,0:0:0:0:
256,192,212183,1,0,0:0:0:0:
256,192,212262,1,0,0:0:0:0:
256,192,212340,1,8,0:0:0:0:
256,192,212497,1,0,0:0:0:0:
256,192,212655,1,12,0:0:0:0:
256,192,212969,1,8,0:0:0:0:
256,192,213127,1,0,0:0:0:0:
256,192,213284,1,8,0:0:0:0:
256,192,213363,1,8,0:0:0:0:
256,192,213441,1,0,0:0:0:0:
256,192,213599,1,8,0:0:0:0:
256,192,213677,1,8,0:0:0:0:
256,192,213756,1,8,0:0:0:0:
256,192,213913,1,0,0:0:0:0:
256,192,213992,1,0,0:0:0:0:
256,192,214070,1,8,0:0:0:0:
256,192,214228,1,0,0:0:0:0:
256,192,214385,1,8,0:0:0:0:
256,192,214542,1,0,0:0:0:0:
256,192,214621,1,0,0:0:0:0:
256,192,214700,1,8,0:0:0:0:
256,192,214857,1,0,0:0:0:0:
256,192,214935,1,0,0:0:0:0:
256,192,215014,1,0,0:0:0:0:
256,192,215171,1,8,0:0:0:0:
256,192,215250,1,8,0:0:0:0:
256,192,215329,1,0,0:0:0:0:
256,192,215486,1,8,0:0:0:0:
256,192,215643,1,8,0:0:0:0:
256,192,215801,1,0,0:0:0:0:
256,192,215879,1,0,0:0:0:0:
256,192,215958,1,8,0:0:0:0:
256,192,216115,1,0,0:0:0:0:
256,192,216194,1,0,0:0:0:0:
256,192,216272,1,0,0:0:0:0:
256,192,216430,1,8,0:0:0:0:
256,192,216508,1,8,0:0:0:0:
256,192,216587,1,0,0:0:0:0:
256,192,216744,1,8,0:0:0:0:
256,192,216902,1,8,0:0:0:0:
256,192,217059,1,0,0:0:0:0:
256,192,217138,1,0,0:0:0:0:
256,192,217216,1,0,0:0:0:0:
256,192,217373,1,8,0:0:0:0:
256,192,217688,1,8,0:0:0:0:
256,192,217767,1,8,0:0:0:0:
256,192,217845,1,0,0:0:0:0:
256,192,218003,1,8,0:0:0:0:
256,192,218160,1,8,0:0:0:0:
256,192,218317,1,0,0:0:0:0:
256,192,218396,1,0,0:0:0:0:
256,192,218474,1,8,0:0:0:0:
256,192,218632,1,0,0:0:0:0:
256,192,218710,1,0,0:0:0:0:
256,192,218789,1,0,0:0:0:0:
256,192,218946,1,8,0:0:0:0:
256,192,219025,1,8,0:0:0:0:
256,192,219104,1,0,0:0:0:0:
256,192,219261,1,8,0:0:0:0:
256,192,219418,1,8,0:0:0:0:
256,192,219576,1,0,0:0:0:0:
256,192,219654,1,0,0:0:0:0:
256,192,219733,1,8,0:0:0:0:
256,192,219890,1,0,0:0:0:0:
256,192,219969,1,0,0:0:0:0:
256,192,220047,1,0,0:0:0:0:
256,192,220205,1,8,0:0:0:0:
256,192,220283,1,8,0:0:0:0:
256,192,220362,1,0,0:0:0:0:
256,192,220519,1,8,0:0:0:0:
256,192,220677,1,8,0:0:0:0:
256,192,220834,1,0,0:0:0:0:
256,192,220912,1,0,0:0:0:0:
256,192,220991,1,8,0:0:0:0:
256,192,221148,1,0,0:0:0:0:
256,192,221227,1,0,0:0:0:0:
256,192,221306,1,0,0:0:0:0:
256,192,221463,1,8,0:0:0:0:
256,192,221542,1,8,0:0:0:0:
256,192,221620,1,0,0:0:0:0:
256,192,221778,1,8,0:0:0:0:
256,192,221935,1,8,0:0:0:0:
256,192,222092,1,0,0:0:0:0:
256,192,222171,1,0,0:0:0:0:
256,192,222249,1,0,0:0:0:0:
256,192,222407,1,8,0:0:0:0:
256,192,222721,1,8,0:0:0:0:
256,192,222800,1,8,0:0:0:0:
256,192,222879,1,0,0:0:0:0:
256,192,223036,1,8,0:0:0:0:
256,192,223193,1,8,0:0:0:0:
256,192,223350,1,0,0:0:0:0:
256,192,223429,1,0,0:0:0:0:
256,192,223508,1,8,0:0:0:0:
256,192,223665,1,0,0:0:0:0:
256,192,223744,1,0,0:0:0:0:
256,192,223822,1,0,0:0:0:0:
256,192,223980,1,8,0:0:0:0:
256,192,224058,1,8,0:0:0:0:
256,192,224137,1,0,0:0:0:0:
256,192,224294,1,8,0:0:0:0:
256,192,224451,1,8,0:0:0:0:
256,192,224609,1,0,0:0:0:0:
256,192,224687,1,0,0:0:0:0:
256,192,224766,1,8,0:0:0:0:
256,192,224923,1,0,0:0:0:0:
256,192,225002,1,0,0:0:0:0:
256,192,225081,1,0,0:0:0:0:
256,192,225238,1,8,0:0:0:0:
256,192,225317,1,8,0:0:0:0:
256,192,225395,1,0,0:0:0:0:
256,192,225553,1,8,0:0:0:0:
256,192,225710,1,8,0:0:0:0:
256,192,225867,1,0,0:0:0:0:
256,192,225946,1,0,0:0:0:0:
256,192,226024,1,8,0:0:0:0:
256,192,226182,1,0,0:0:0:0:
256,192,226260,1,0,0:0:0:0:
256,192,226339,1,0,0:0:0:0:
256,192,226496,1,8,0:0:0:0:
256,192,226575,1,8,0:0:0:0:
256,192,226654,1,0,0:0:0:0:
256,192,226811,1,8,0:0:0:0:
256,192,226968,1,8,0:0:0:0:
256,192,227125,1,0,0:0:0:0:
256,192,227204,1,0,0:0:0:0:
256,192,227283,1,0,0:0:0:0:
256,192,227440,1,8,0:0:0:0:
256,192,227755,1,8,0:0:0:0:
256,192,227833,1,8,0:0:0:0:
256,192,227912,1,0,0:0:0:0:
256,192,228069,1,8,0:0:0:0:
256,192,228226,1,0,0:0:0:0:
256,192,228384,1,8,0:0:0:0:
256,192,228462,1,8,0:0:0:0:
256,192,228541,1,0,0:0:0:0:
256,192,228698,1,8,0:0:0:0:
256,192,228777,1,8,0:0:0:0:
256,192,228856,1,8,0:0:0:0:
256,192,229013,1,4,0:0:0:0:
256,192,229170,1,4,0:0:0:0:
256,192,229642,1,12,0:0:0:0:
256,192,229799,1,12,0:0:0:0:
256,192,230271,1,4,0:0:0:0:
256,192,230428,8,4,234361,0:0:0:0:
