osu file format v14

[General]
AudioFilename: audio.ogg
AudioLeadIn: 0
PreviewTime: 203425
Countdown: 0
SampleSet: Normal
StackLeniency: 0.7
Mode: 1
LetterboxInBreaks: 0
WidescreenStoryboard: 0

[Editor]
Bookmarks: 988,11050,21113,31176,41239,61365,96585,101616,121742,141868,161994,172057,189667,192182,197214,284006,294069,304132,314195,334321,349415,354447,364510,374572,394698,412308,414824
DistanceSpacing: 2.6
BeatDivisor: 4
GridSize: 32
TimelineZoom: 2.711999

[Metadata]
Title:FAKE PROMISE
TitleUnicode:FAKE PROMISE
Artist:DJ SHARPNEL
ArtistUnicode:DJ SHARPNEL
Creator:KyeX
Version:DECEPTION
Source:今日の5の2
Tags:japanese electronic jcore j-core techno hardcore nerdcore marathon Kyou no 5-2 ニセモノ go ni kyo no gononi nisemono 約束 yakusoku Friends Mousatsu Otactics 妄殺オタクティクス SHARPNELSOUND
BeatmapID:3610921
BeatmapSetID:1764190

[Difficulty]
HPDrainRate:5.2
CircleSize:3
OverallDifficulty:7.2
ApproachRate:10
SliderMultiplier:1.4
SliderTickRate:1

[Events]
//Background and Video events
0,0,"bg.jpg",0,0
//Break Periods
2,101816,117519
//Storyboard Layer 0 (Background)
//Storyboard Layer 1 (Fail)
//Storyboard Layer 2 (Pass)
//Storyboard Layer 3 (Foreground)
//Storyboard Layer 4 (Overlay)
//Storyboard Sound Samples

[TimingPoints]
988,314.465408805031,4,1,0,85,1,0
988,-90.909090909091,4,1,0,85,0,0
1302,-111.111111111111,4,1,0,85,0,0
10579,-111.111111111111,4,1,0,85,0,0
10736,-109.090909090909,4,1,0,85,0,0
10893,-107.142857142857,4,1,0,85,0,0
11050,-105.263157894737,4,1,0,85,0,0
19855,-90.909090909091,4,1,0,85,0,0
20484,-111.111111111111,4,1,0,85,0,0
20563,-109.584275526178,4,1,0,85,0,0
20642,-108.098833218943,4,1,0,85,0,0
20720,-106.671181848967,4,1,0,85,0,0
20799,-105.263157894737,4,1,0,85,0,0
21113,-100,4,1,0,90,0,0
30233,-100,4,1,0,90,0,0
30390,-101.693087458212,4,1,0,90,0,0
30547,-103.444493198771,4,1,0,90,0,0
30704,-105.257283178926,4,1,0,90,0,0
30783,-106.193693693694,4,1,0,90,0,0
30862,-107.146915123281,4,1,0,90,0,0
31019,-109.093012494216,4,1,0,90,0,0
31176,-100,4,1,0,90,0,0
39981,-100,4,1,0,90,0,0
40138,-101.907732188424,4,1,0,90,0,0
40217,-102.895468673319,4,1,0,90,0,0
40296,-103.90253974809,4,1,0,90,0,0
40453,-105.963611859838,4,1,0,90,0,0
40610,-108.108108108108,4,1,0,90,0,0
40689,-109.220350755339,4,1,0,90,0,0
40767,-110.341198140514,4,1,0,90,0,0
40846,-111.500110791048,4,1,0,90,0,0
40925,-112.683625940523,4,1,0,90,0,0
41082,-115.111863476232,4,1,0,90,0,0
41239,-100,4,1,0,90,0,0
41554,-125,4,1,0,85,0,0
50044,-125,4,1,0,85,0,0
50359,-117.636057602394,4,1,0,85,0,0
50516,-114.280523255814,4,1,0,85,0,0
50594,-112.683625940523,4,1,0,85,0,0
50673,-111.111111111111,4,1,0,85,0,0
50752,-109.581881533101,4,1,0,85,0,0
50830,-108.112753523548,4,1,0,85,0,0
50987,-105.271966527197,4,1,0,85,0,0
51145,-102.559921734877,4,1,0,85,0,0
51302,-100,4,1,0,85,0,0
51616,-111.111111111111,4,1,0,85,0,0
56333,-111.111111111111,4,1,0,85,0,0
56491,-110.086926083659,4,1,0,85,0,0
56648,-109.08775580992,4,1,0,85,0,0
56805,-108.106559725007,4,1,0,85,0,0
56884,-107.619482148968,4,1,0,85,0,0
56962,-107.142857142857,4,1,0,85,0,0
57120,-106.190208216095,4,1,0,85,0,0
57277,-105.260222011491,4,1,0,85,0,0
57591,-103.448275862069,4,1,0,85,0,0
57749,-102.559921734877,4,1,0,85,0,0
57827,-102.126968663744,4,1,0,85,0,0
57906,-101.692175037724,4,1,0,85,0,0
58063,-100.838988938171,4,1,0,85,0,0
58220,-100,4,1,0,85,0,0
58377,-99.174856782467,4,1,0,85,0,0
58456,-98.764785931121,4,1,0,85,0,0
58535,-98.358092259578,4,1,0,85,0,0
58692,-97.559714610692,4,1,0,85,0,0
58849,-96.774193548387,4,1,0,85,0,0
58928,-96.38369598529,4,1,0,85,0,0
59006,-96.001221001221,4,1,0,85,0,0
59085,-95.616924246263,4,1,0,85,0,0
59164,-95.235691934995,4,1,0,85,0,0
59242,-94.86225618339,4,1,0,85,0,0
59321,-94.48700615893,4,1,0,85,0,0
59399,-94.119407451743,4,1,0,85,0,0
59478,-93.75,4,1,0,85,0,0
59557,-93.38348097194,4,1,0,85,0,0
59635,-93.024402267685,4,1,0,85,0,0
59714,-92.663523865645,4,1,0,85,0,0
59793,-92.305434623098,4,1,0,85,0,0
59871,-91.954583109985,4,1,0,85,0,0
59950,-91.601941747573,4,1,0,85,0,0
60028,-91.256407776381,4,1,0,85,0,0
60107,-90.909090909091,4,1,0,85,0,0
61365,-100,4,1,0,90,0,0
96585,-100,4,1,0,90,0,0
96742,-99.379863332938,4,1,0,90,0,0
96821,-99.070719798393,4,1,0,90,0,0
96899,-98.76737065243,4,1,0,90,0,0
97057,-98.158551810237,4,1,0,90,0,0
97214,-97.560975609756,4,1,0,90,0,0
97293,-97.263027678986,4,1,0,90,0,0
97371,-96.970631311185,4,1,0,90,0,0
97450,-96.676272814601,4,1,0,90,0,0
97607,-96.096554885036,4,1,0,90,0,0
97686,-95.807471154945,4,1,0,90,0,0
97843,-95.238095238095,4,1,0,90,0,0
98000,-94.675446848542,4,1,0,90,0,0
98079,-94.394837547835,4,1,0,90,0,0
98157,-94.119407451743,4,1,0,90,0,0
98315,-93.566381554481,4,1,0,90,0,0
98472,-93.023255813953,4,1,0,90,0,0
98629,-92.486399058962,4,1,0,90,0,0
98708,-92.218597661547,4,1,0,90,0,0
98865,-91.690962099125,4,1,0,90,0,0
98943,-91.431063304019,4,1,0,90,0,0
99101,-90.909090909091,4,1,0,90,0,0
101616,314.465408805031,52,1,0,90,1,0
101616,-76.923076923077,4,1,0,90,0,0
101694,-76.923076923077,4,1,0,40,0,0
117968,314.465408805031,4,1,0,40,1,8
117969,314.465408805031,4,1,0,40,1,0
117969,-125,4,1,0,40,0,0
118283,-125,4,1,0,43,0,0
118755,-125,4,1,0,47,0,0
118912,-125,4,1,0,49,0,0
119226,-125,4,1,0,52,0,0
119541,-125,4,1,0,55,0,0
119855,-125,4,1,0,58,0,0
120013,-125,4,1,0,60,0,0
120170,-125,4,1,0,61,0,0
120484,-125,4,1,0,64,0,0
120799,-125,4,1,0,67,0,0
120956,-125,4,1,0,69,0,0
121035,-125,4,1,0,69,0,0
121113,-125,4,1,0,70,0,0
121270,-123.067892780278,4,1,0,70,0,0
121428,-121.206281915406,4,1,0,70,0,0
121585,-119.400151860289,4,1,0,70,0,0
121742,-117.647058823529,4,1,0,80,0,0
139667,-117.647058823529,4,1,0,80,0,0
139981,-116.667991836951,4,1,0,80,0,0
140138,-116.184543918919,4,1,0,80,0,0
140296,-115.702044893024,4,1,0,80,0,0
140453,-115.226552888517,4,1,0,80,0,0
140767,-114.287197860685,4,1,0,80,0,0
140925,-113.820297349709,4,1,0,80,0,0
141082,-113.360115368768,4,1,0,80,0,0
141239,-112.903639488061,4,1,0,80,0,0
141553,-111.998778750254,4,1,0,80,0,0
141711,-111.553179088214,4,1,0,80,0,0
141868,-100,4,1,0,90,0,0
159478,-100,4,1,0,90,0,0
159557,-99.375938067778,4,1,0,90,0,0
159635,-98.76737065243,4,1,0,90,0,0
159714,-98.158551810237,4,1,0,90,0,0
159792,-97.557192710353,4,1,0,90,0,0
159871,-96.970631311185,4,1,0,90,0,0
159950,-96.38369598529,4,1,0,90,0,0
160028,-95.811119573496,4,1,0,90,0,0
160107,-95.238095238095,4,1,0,90,0,0
160185,-94.671884406984,4,1,0,90,0,0
160264,-94.119407451743,4,1,0,90,0,0
160343,-93.566381554481,4,1,0,90,0,0
160421,-93.026695259928,4,1,0,90,0,0
160500,-92.486399058962,4,1,0,90,0,0
160579,-91.95234266501,4,1,0,90,0,0
160657,-91.431063304019,4,1,0,90,0,0
160736,-90.909090909091,4,1,0,90,0,0
161994,-83.333333333333,4,1,0,90,0,0
162308,-117.647058823529,4,1,0,90,0,0
189038,-117.647058823529,4,1,0,90,0,0
189352,-111.120925713276,4,1,0,90,0,0
189509,-108.103463091862,4,1,0,90,0,0
189667,-105.263157894737,4,1,0,90,0,0
189745,-104.750203044628,4,1,0,90,0,0
189824,-104.23574270557,4,1,0,90,0,0
189903,-103.726311013961,4,1,0,90,0,0
189981,-103.228189710017,4,1,0,90,0,0
190060,-102.728535250388,4,1,0,90,0,0
190138,-102.239928452376,4,1,0,90,0,0
190217,-101.749772428441,4,1,0,90,0,0
190296,-101.264293767112,4,1,0,90,0,0
190374,-100.789484230353,4,1,0,90,0,0
190453,-100.31310452107,4,1,0,90,0,0
190532,-99.841206828106,4,1,0,90,0,0
190610,-99.37961828743,4,1,0,90,0,0
190689,-98.91644215453,4,1,0,90,0,0
190767,-98.463345404718,4,1,0,90,0,0
190846,-98.008651260668,4,1,0,90,0,0
190925,-97.558137279621,4,1,0,90,0,0
191003,-97.117371073311,4,1,0,90,0,0
191082,-96.67499519508,4,1,0,90,0,0
191160,-96.242155212001,4,1,0,90,0,0
191239,-95.807698900973,4,1,0,90,0,0
191318,-95.377147407941,4,1,0,90,0,0
191396,-94.955825719248,4,1,0,90,0,0
191475,-94.532879775978,4,1,0,90,0,0
191554,-94.113684840774,4,1,0,90,0,0
191632,-93.703427719821,4,1,0,90,0,0
191711,-93.291540701449,4,1,0,90,0,0
191789,-92.888404646267,4,1,0,90,0,0
191868,-92.483636096198,4,1,0,90,0,0
191947,-92.0823798627,4,1,0,90,0,0
192025,-91.689604258189,4,1,0,90,0,0
192182,-90.909090909091,4,1,0,90,0,0
192340,-93.033574914953,4,1,0,90,0,0
192497,-95.245305875227,4,1,0,90,0,0
192654,-97.564758802544,4,1,0,90,0,0
192811,-100,4,1,0,90,0,0
192968,-102.576647097195,4,1,0,90,0,0
193126,-105.271966527197,4,1,0,90,0,0
193283,-108.112753523548,4,1,0,90,0,0
193440,-90.909090909091,4,1,0,90,0,0
193597,-93.033574914953,4,1,0,90,0,0
193755,-95.245305875227,4,1,0,90,0,0
193912,-97.564758802544,4,1,0,90,0,0
194069,-100,4,1,0,90,0,0
194226,-102.559921734877,4,1,0,90,0,0
194384,-105.271966527197,4,1,0,90,0,0
194541,-108.112753523548,4,1,0,90,0,0
194698,-90.909090909091,4,1,0,90,0,0
194855,-93.019816622301,4,1,0,90,0,0
195013,-95.245305875227,4,1,0,90,0,0
195170,-97.564758802544,4,1,0,90,0,0
195327,-100,4,1,0,90,0,0
195484,-102.559921734877,4,1,0,90,0,0
195641,-105.271966527197,4,1,0,90,0,0
195799,-108.112753523548,4,1,0,90,0,0
195956,-90.909090909091,4,1,0,90,0,0
196113,-93.019816622301,4,1,0,90,0,0
196270,-95.245305875227,4,1,0,90,0,0
196428,-97.564758802544,4,1,0,90,0,0
196585,-100,4,1,0,90,0,0
196742,-102.559921734877,4,1,0,90,0,0
196899,-105.254350736278,4,1,0,90,0,0
197057,-108.112753523548,4,1,0,90,0,0
197214,-90.909090909091,4,1,0,90,0,0
202245,-76.923076923077,4,1,0,90,0,0
203503,-90.909090909091,4,1,0,90,0,1
208377,-86.95652173913,4,1,0,90,0,1
208535,-90.909090909091,4,1,0,90,0,1
210893,-86.95652173913,4,1,0,90,0,1
211050,-90.909090909091,4,1,0,90,0,1
218440,-86.95652173913,4,1,0,90,0,1
218597,-90.909090909091,4,1,0,90,0,1
221113,-86.95652173913,4,1,0,90,0,1
221270,-90.909090909091,4,1,0,90,0,1
222371,-83.333333333333,4,1,0,90,0,1
222528,-90.909090909091,4,1,0,90,0,1
228503,-86.95652173913,4,1,0,90,0,1
228660,-90.909090909091,4,1,0,90,0,1
231019,-86.95652173913,4,1,0,90,0,1
231176,-90.909090909091,4,1,0,90,0,1
238566,-86.95652173913,4,1,0,90,0,1
238723,-90.909090909091,4,1,0,90,0,1
241239,-86.95652173913,4,1,0,90,0,1
241396,-90.909090909091,4,1,0,90,0,1
242497,-83.333333333333,4,1,0,90,0,1
242654,-90.909090909091,4,1,0,90,0,1
242969,-90.909090909091,4,1,0,90,0,1
243047,-90.500863557858,4,1,0,90,0,1
243126,-90.091122700441,4,1,0,90,0,1
243204,-89.690192274776,4,1,0,90,0,1
243283,-89.287742814949,4,1,0,90,0,1
243362,-88.888888888889,4,1,0,90,0,1
243440,-88.498564431684,4,1,0,90,0,1
243519,-88.106714493891,4,1,0,90,0,1
243598,-87.718319290218,4,1,0,90,0,1
243676,-87.338185454747,4,1,0,90,0,1
243755,-86.95652173913,4,1,0,95,0,1
248629,-83.333333333333,4,1,0,95,0,1
248786,-86.95652173913,4,1,0,95,0,1
251145,-83.333333333333,4,1,0,95,0,1
251302,-86.95652173913,4,1,0,95,0,1
258692,-83.333333333333,4,1,0,95,0,1
258849,-86.95652173913,4,1,0,95,0,1
261365,-83.333333333333,4,1,0,95,0,1
261522,-86.95652173913,4,1,0,95,0,1
262623,-79.999999999999,4,1,0,95,0,1
262780,-86.95652173913,4,1,0,95,0,1
268755,-83.333333333333,4,1,0,95,0,1
268912,-86.95652173913,4,1,0,95,0,1
271270,-83.333333333333,4,1,0,95,0,1
271428,-86.95652173913,4,1,0,95,0,1
278818,-83.333333333333,4,1,0,95,0,1
278975,-86.95652173913,4,1,0,95,0,1
284006,-86.95652173913,4,1,0,95,0,0
284163,-90.909090909091,4,1,0,90,0,0
286365,-86.95652173913,4,1,0,90,0,0
286522,-90.909090909091,4,1,0,90,0,0
289509,-86.95652173913,4,1,0,90,0,0
289667,-90.909090909091,4,1,0,90,0,0
290138,-86.95652173913,4,1,0,90,0,0
290296,-90.909090909091,4,1,0,90,0,0
290767,-86.95652173913,4,1,0,90,0,0
290924,-90.909090909091,4,1,0,90,0,0
291396,-86.95652173913,4,1,0,90,0,0
291553,-90.909090909091,4,1,0,90,0,0
292968,-86.95652173913,4,1,0,90,0,0
294069,-100,4,1,0,90,0,0
303189,-100,4,1,0,90,0,0
303346,-101.693087458212,4,1,0,90,0,0
303503,-103.444493198771,4,1,0,90,0,0
303660,-105.257283178926,4,1,0,90,0,0
303739,-106.193693693694,4,1,0,90,0,0
303818,-107.146915123281,4,1,0,90,0,0
303975,-109.093012494216,4,1,0,90,0,0
304132,-95.238095238095,4,1,0,90,0,0
308535,-95.238095238095,4,1,0,90,0,0
308613,-94.679009558215,4,1,0,90,0,0
308692,-94.119407451743,4,1,0,90,0,0
308770,-93.566381554481,4,1,0,90,0,0
308849,-93.026695259928,4,1,0,90,0,0
308928,-92.486399058962,4,1,0,90,0,0
309006,-91.959064327485,4,1,0,90,0,0
309085,-91.431063304019,4,1,0,90,0,0
309163,-90.909090909091,4,1,0,90,0,0
313566,-111.111111111111,4,1,0,90,0,0
313645,-109.584275526178,4,1,0,90,0,0
313723,-108.098833218943,4,1,0,90,0,0
313802,-106.671181848967,4,1,0,90,0,0
313880,-105.263157894737,4,1,0,90,0,0
314195,-100,4,1,0,90,0,0
349415,-100,4,1,0,90,0,0
349572,-101.446604625449,4,1,0,90,0,0
349730,-102.945301542777,4,1,0,90,0,0
349887,-104.479028278611,4,1,0,90,0,0
349965,-105.258126195029,4,1,0,90,0,0
350044,-106.059146517677,4,1,0,90,0,0
350201,-107.68779342723,4,1,0,90,0,0
350358,-109.378104510232,4,1,0,90,0,0
350516,-111.111111111111,4,1,0,90,0,0
351302,-111.111111111111,4,1,0,90,0,0
351459,-108.112753523548,4,1,0,90,0,0
351616,-105.271966527197,4,1,0,90,0,0
351774,-102.559921734877,4,1,0,90,0,0
351931,-100,4,1,0,90,0,0
352010,-99.686992353104,4,1,0,90,0,0
352088,-99.379863332938,4,1,0,90,0,0
352167,-99.070719798393,4,1,0,90,0,0
352245,-98.76737065243,4,1,0,90,0,0
352298,-98.562306577349,4,1,0,90,0,0
352350,-98.361937526878,4,1,0,90,0,0
352403,-98.158551810237,4,1,0,90,0,0
352481,-97.860754570206,4,1,0,90,0,0
352560,-97.560975609756,4,1,0,90,0,0
352612,-97.364653070702,4,1,0,90,0,0
352665,-97.165366494169,4,1,0,90,0,0
352717,-96.970631311185,4,1,0,90,0,0
352796,-96.676272814601,4,1,0,90,0,0
352874,-96.387388422787,4,1,0,90,0,0
352927,-96.192078299434,4,1,0,90,0,0
352979,-96.001221001221,4,1,0,90,0,0
353032,-95.807471154945,4,1,0,90,0,0
353189,-86.95652173913,4,1,0,90,0,0
354446,-100,4,1,0,90,0,0
372057,-100,4,1,0,90,0,0
372135,-99.3837889082,4,1,0,90,0,0
372214,-98.76737065243,4,1,0,90,0,0
372292,-98.158551810237,4,1,0,90,0,0
372371,-97.564758802544,4,1,0,90,0,0
372450,-96.970631311185,4,1,0,90,0,0
372528,-96.391081143207,4,1,0,90,0,0
372607,-95.811119573496,4,1,0,90,0,0
372685,-95.238095238095,4,1,0,90,0,0
372764,-94.679009558215,4,1,0,90,0,0
372843,-94.119407451743,4,1,0,90,0,0
372921,-93.57334126748,4,1,0,90,0,0
373000,-93.026695259928,4,1,0,90,0,0
373079,-92.486399058962,4,1,0,90,0,0
373157,-91.959064327485,4,1,0,90,0,0
373236,-91.431063304019,4,1,0,90,0,0
373314,-90.909090909091,4,1,0,90,0,0
374572,-83.333333333333,4,1,0,90,0,0
374730,-95.238095238095,4,1,0,90,0,0
411994,-95.238095238095,4,1,0,90,0,0
412151,-93.023255813953,4,1,0,90,0,0
412308,-90.909090909091,4,1,0,90,0,0
412387,-90.393044477977,4,1,0,90,0,0
412465,-89.889246159343,4,1,0,90,0,0
412544,-89.384680972005,4,1,0,90,0,0
412623,-88.885748604536,4,1,0,90,0,0
412701,-88.398566509732,4,1,0,90,0,0
412780,-87.910552061495,4,1,0,90,0,0
412858,-87.433972755074,4,1,0,90,0,0
412937,-86.95652173913,4,1,0,90,0,0
413016,-86.484256840368,4,1,0,90,0,0
413094,-86.022975929978,4,1,0,90,0,0
413173,-85.560769910903,4,1,0,90,0,0
413252,-85.10350426194,4,1,0,90,0,0
413330,-84.656796769852,4,1,0,90,0,0
413409,-84.20911707611,4,1,0,90,0,0
413487,-83.771725377905,4,1,0,90,0,0
413566,-83.333333333333,4,1,0,90,0,0
414824,-66.666666666667,4,1,0,90,0,0

[HitObjects]
256,192,988,5,4,0:0:0:0:
256,192,1302,1,8,0:0:0:0:
256,192,1616,1,8,0:0:0:0:
256,192,1931,1,8,0:0:0:0:
256,192,2245,1,8,0:0:0:0:
256,192,2560,1,8,0:0:0:0:
256,192,2874,1,8,0:0:0:0:
256,192,3189,1,8,0:0:0:0:
256,192,3346,1,8,0:0:0:0:
256,192,3425,1,8,0:0:0:0:
256,192,3503,1,8,0:0:0:0:
256,192,3818,1,8,0:0:0:0:
256,192,4132,1,8,0:0:0:0:
256,192,4447,1,8,0:0:0:0:
256,192,4761,1,8,0:0:0:0:
256,192,5076,1,8,0:0:0:0:
256,192,5233,1,8,0:0:0:0:
256,192,5311,1,8,0:0:0:0:
256,192,5390,1,8,0:0:0:0:
256,192,5469,1,8,0:0:0:0:
256,192,5547,1,8,0:0:0:0:
256,192,5704,1,8,0:0:0:0:
256,192,5862,1,8,0:0:0:0:
256,192,6019,1,8,0:0:0:0:
256,192,6333,1,8,0:0:0:0:
256,192,6648,1,8,0:0:0:0:
256,192,6962,1,8,0:0:0:0:
256,192,7277,1,8,0:0:0:0:
256,192,7591,1,8,0:0:0:0:
256,192,7906,1,8,0:0:0:0:
256,192,8220,1,8,0:0:0:0:
256,192,8377,1,8,0:0:0:0:
256,192,8456,1,8,0:0:0:0:
256,192,8535,1,8,0:0:0:0:
256,192,8849,1,8,0:0:0:0:
256,192,9164,1,8,0:0:0:0:
256,192,9478,1,8,0:0:0:0:
256,192,9793,1,8,0:0:0:0:
256,192,10107,1,8,0:0:0:0:
256,192,10264,1,8,0:0:0:0:
256,192,10343,1,8,0:0:0:0:
256,192,10421,1,8,0:0:0:0:
256,192,10500,1,8,0:0:0:0:
256,192,10579,1,8,0:0:0:0:
256,192,10736,1,8,0:0:0:0:
256,192,10893,1,8,0:0:0:0:
256,192,11050,1,0,0:0:0:0:
256,192,11365,1,8,0:0:0:0:
256,192,11679,1,0,0:0:0:0:
256,192,11994,1,8,0:0:0:0:
256,192,12308,1,0,0:0:0:0:
256,192,12623,1,8,0:0:0:0:
256,192,12937,1,0,0:0:0:0:
256,192,13252,1,8,0:0:0:0:
256,192,13409,1,8,0:0:0:0:
256,192,13487,1,8,0:0:0:0:
256,192,13566,1,0,0:0:0:0:
256,192,13881,1,8,0:0:0:0:
256,192,14195,1,0,0:0:0:0:
256,192,14510,1,8,0:0:0:0:
256,192,14824,1,0,0:0:0:0:
256,192,15138,1,8,0:0:0:0:
256,192,15296,1,8,0:0:0:0:
256,192,15374,1,8,0:0:0:0:
256,192,15453,1,0,0:0:0:0:
256,192,15532,1,0,0:0:0:0:
256,192,15610,1,8,0:0:0:0:
256,192,15767,1,8,0:0:0:0:
256,192,15925,1,8,0:0:0:0:
256,192,16082,1,0,0:0:0:0:
256,192,16396,1,8,0:0:0:0:
256,192,16711,1,0,0:0:0:0:
256,192,17025,1,8,0:0:0:0:
256,192,17340,1,0,0:0:0:0:
256,192,17654,1,8,0:0:0:0:
256,192,17969,1,0,0:0:0:0:
256,192,18283,1,8,0:0:0:0:
256,192,18440,1,8,0:0:0:0:
256,192,18519,1,8,0:0:0:0:
256,192,18598,1,0,0:0:0:0:
256,192,18912,1,8,0:0:0:0:
256,192,19226,1,0,0:0:0:0:
256,192,19541,1,8,0:0:0:0:
256,192,19855,1,4,0:0:0:0:
256,192,20484,1,8,0:0:0:0:
256,192,20563,1,8,0:0:0:0:
256,192,20642,1,8,0:0:0:0:
256,192,20720,1,8,0:0:0:0:
256,192,20799,1,0,0:0:0:0:
256,192,21113,1,12,0:0:0:0:
256,192,21271,1,0,0:0:0:0:
256,192,21428,1,8,0:0:0:0:
256,192,21506,1,0,0:0:0:0:
256,192,21585,1,8,0:0:0:0:
256,192,21664,1,8,0:0:0:0:
256,192,21742,1,0,0:0:0:0:
256,192,21899,1,8,0:0:0:0:
256,192,21978,1,0,0:0:0:0:
256,192,22057,1,8,0:0:0:0:
256,192,22214,1,0,0:0:0:0:
256,192,22371,1,0,0:0:0:0:
256,192,22450,1,8,0:0:0:0:
256,192,22528,1,0,0:0:0:0:
256,192,22607,1,0,0:0:0:0:
256,192,22686,1,8,0:0:0:0:
256,192,22843,1,0,0:0:0:0:
256,192,23000,1,8,0:0:0:0:
256,192,23157,1,0,0:0:0:0:
256,192,23236,1,0,0:0:0:0:
256,192,23315,1,8,0:0:0:0:
256,192,23472,1,0,0:0:0:0:
256,192,23629,1,8,0:0:0:0:
256,192,23786,1,0,0:0:0:0:
256,192,23865,1,0,0:0:0:0:
256,192,23943,1,8,0:0:0:0:
256,192,24022,1,0,0:0:0:0:
256,192,24101,1,8,0:0:0:0:
256,192,24179,1,8,0:0:0:0:
256,192,24258,1,0,0:0:0:0:
256,192,24415,1,8,0:0:0:0:
256,192,24494,1,0,0:0:0:0:
256,192,24572,1,8,0:0:0:0:
256,192,24730,1,0,0:0:0:0:
256,192,24887,1,8,0:0:0:0:
256,192,24965,1,0,0:0:0:0:
256,192,25044,1,0,0:0:0:0:
256,192,25123,1,0,0:0:0:0:
256,192,25201,1,8,0:0:0:0:
256,192,25359,1,0,0:0:0:0:
256,192,25516,1,8,0:0:0:0:
256,192,25594,1,8,0:0:0:0:
256,192,25673,1,0,0:0:0:0:
256,192,25752,1,0,0:0:0:0:
256,192,25830,1,8,0:0:0:0:
256,192,25987,1,0,0:0:0:0:
256,192,26145,1,8,0:0:0:0:
256,192,26302,1,0,0:0:0:0:
256,192,26381,1,0,0:0:0:0:
256,192,26459,1,8,0:0:0:0:
256,192,26538,1,0,0:0:0:0:
256,192,26616,1,8,0:0:0:0:
256,192,26695,1,8,0:0:0:0:
256,192,26774,1,0,0:0:0:0:
256,192,26931,1,8,0:0:0:0:
256,192,27010,1,0,0:0:0:0:
256,192,27088,1,8,0:0:0:0:
256,192,27245,1,0,0:0:0:0:
256,192,27403,1,0,0:0:0:0:
256,192,27481,1,8,0:0:0:0:
256,192,27560,1,0,0:0:0:0:
256,192,27638,1,0,0:0:0:0:
256,192,27717,1,8,0:0:0:0:
256,192,27874,1,0,0:0:0:0:
256,192,28032,1,8,0:0:0:0:
256,192,28189,1,0,0:0:0:0:
256,192,28267,1,0,0:0:0:0:
256,192,28346,1,8,0:0:0:0:
256,192,28503,1,0,0:0:0:0:
256,192,28660,1,8,0:0:0:0:
256,192,28818,1,0,0:0:0:0:
256,192,28896,1,0,0:0:0:0:
256,192,28975,1,8,0:0:0:0:
256,192,29054,1,0,0:0:0:0:
256,192,29132,1,8,0:0:0:0:
256,192,29211,1,8,0:0:0:0:
256,192,29289,1,0,0:0:0:0:
256,192,29447,1,8,0:0:0:0:
256,192,29525,1,0,0:0:0:0:
256,192,29604,1,8,0:0:0:0:
256,192,29761,1,0,0:0:0:0:
256,192,29918,1,8,0:0:0:0:
256,192,29997,1,8,0:0:0:0:
256,192,30076,1,0,0:0:0:0:
256,192,30154,1,0,0:0:0:0:
256,192,30233,1,8,0:0:0:0:
256,192,30390,1,0,0:0:0:0:
256,192,30547,1,8,0:0:0:0:
256,192,30704,1,8,0:0:0:0:
256,192,30783,1,8,0:0:0:0:
256,192,30862,1,0,0:0:0:0:
256,192,31019,1,0,0:0:0:0:
256,192,31176,1,12,0:0:0:0:
256,192,31333,1,0,0:0:0:0:
256,192,31412,1,0,0:0:0:0:
256,192,31491,1,8,0:0:0:0:
256,192,31569,1,0,0:0:0:0:
256,192,31648,1,8,0:0:0:0:
256,192,31726,1,8,0:0:0:0:
256,192,31805,1,0,0:0:0:0:
256,192,31962,1,8,0:0:0:0:
256,192,32041,1,0,0:0:0:0:
256,192,32120,1,8,0:0:0:0:
256,192,32277,1,0,0:0:0:0:
256,192,32434,1,0,0:0:0:0:
256,192,32513,1,8,0:0:0:0:
256,192,32591,1,0,0:0:0:0:
256,192,32670,1,0,0:0:0:0:
256,192,32749,1,8,0:0:0:0:
256,192,32906,1,0,0:0:0:0:
256,192,33063,1,8,0:0:0:0:
256,192,33142,1,0,0:0:0:0:
256,192,33220,1,0,0:0:0:0:
256,192,33299,1,0,0:0:0:0:
256,192,33377,1,8,0:0:0:0:
256,192,33535,1,0,0:0:0:0:
256,192,33692,1,8,0:0:0:0:
256,192,33849,1,0,0:0:0:0:
256,192,33928,1,0,0:0:0:0:
256,192,34006,1,8,0:0:0:0:
256,192,34085,1,0,0:0:0:0:
256,192,34164,1,8,0:0:0:0:
256,192,34242,1,8,0:0:0:0:
256,192,34321,1,0,0:0:0:0:
256,192,34478,1,8,0:0:0:0:
256,192,34557,1,0,0:0:0:0:
256,192,34635,1,8,0:0:0:0:
256,192,34793,1,0,0:0:0:0:
256,192,34950,1,8,0:0:0:0:
256,192,35028,1,0,0:0:0:0:
256,192,35107,1,0,0:0:0:0:
256,192,35186,1,0,0:0:0:0:
256,192,35264,1,8,0:0:0:0:
256,192,35421,1,0,0:0:0:0:
256,192,35579,1,8,0:0:0:0:
256,192,35657,1,8,0:0:0:0:
256,192,35736,1,0,0:0:0:0:
256,192,35815,1,0,0:0:0:0:
256,192,35893,1,8,0:0:0:0:
256,192,36050,1,0,0:0:0:0:
256,192,36208,1,8,0:0:0:0:
256,192,36286,1,8,0:0:0:0:
256,192,36365,1,0,0:0:0:0:
256,192,36443,1,0,0:0:0:0:
256,192,36522,1,8,0:0:0:0:
256,192,36601,1,0,0:0:0:0:
256,192,36679,1,8,0:0:0:0:
256,192,36758,1,8,0:0:0:0:
256,192,36837,1,0,0:0:0:0:
256,192,36994,1,8,0:0:0:0:
256,192,37072,1,0,0:0:0:0:
256,192,37151,1,8,0:0:0:0:
256,192,37308,1,0,0:0:0:0:
256,192,37465,1,0,0:0:0:0:
256,192,37544,1,8,0:0:0:0:
256,192,37623,1,0,0:0:0:0:
256,192,37701,1,0,0:0:0:0:
256,192,37780,1,8,0:0:0:0:
256,192,37937,1,0,0:0:0:0:
256,192,38094,1,8,0:0:0:0:
256,192,38173,1,8,0:0:0:0:
256,192,38252,1,0,0:0:0:0:
256,192,38330,1,0,0:0:0:0:
256,192,38409,1,8,0:0:0:0:
256,192,38566,1,0,0:0:0:0:
256,192,38723,1,8,0:0:0:0:
256,192,38881,1,0,0:0:0:0:
256,192,38959,1,0,0:0:0:0:
256,192,39038,1,8,0:0:0:0:
256,192,39116,1,0,0:0:0:0:
256,192,39195,1,8,0:0:0:0:
256,192,39274,1,8,0:0:0:0:
256,192,39352,1,0,0:0:0:0:
256,192,39510,1,8,0:0:0:0:
256,192,39588,1,0,0:0:0:0:
256,192,39667,1,8,0:0:0:0:
256,192,39824,1,0,0:0:0:0:
256,192,39981,1,8,0:0:0:0:
256,192,40138,1,0,0:0:0:0:
256,192,40217,1,0,0:0:0:0:
256,192,40296,1,8,0:0:0:0:
256,192,40453,1,0,0:0:0:0:
256,192,40610,1,8,0:0:0:0:
256,192,40689,1,8,0:0:0:0:
256,192,40767,1,8,0:0:0:0:
256,192,40846,1,8,0:0:0:0:
256,192,40925,1,0,0:0:0:0:
256,192,41082,1,0,0:0:0:0:
256,192,41239,1,12,0:0:0:0:
256,192,41554,1,8,0:0:0:0:
256,192,41711,1,8,0:0:0:0:
256,192,41868,1,8,0:0:0:0:
256,192,42025,1,0,0:0:0:0:
256,192,42182,1,8,0:0:0:0:
256,192,42497,1,0,0:0:0:0:
256,192,42654,1,0,0:0:0:0:
256,192,42811,1,8,0:0:0:0:
256,192,42969,1,8,0:0:0:0:
256,192,43126,1,0,0:0:0:0:
256,192,43283,1,0,0:0:0:0:
256,192,43440,1,8,0:0:0:0:
256,192,43598,1,8,0:0:0:0:
256,192,43676,1,8,0:0:0:0:
256,192,43755,1,0,0:0:0:0:
256,192,43912,1,0,0:0:0:0:
256,192,44069,1,8,0:0:0:0:
256,192,44226,1,8,0:0:0:0:
256,192,44384,1,8,0:0:0:0:
256,192,44541,1,0,0:0:0:0:
256,192,44698,1,8,0:0:0:0:
256,192,45013,1,0,0:0:0:0:
256,192,45170,1,0,0:0:0:0:
256,192,45327,1,8,0:0:0:0:
256,192,45484,1,8,0:0:0:0:
256,192,45563,1,8,0:0:0:0:
256,192,45642,1,0,0:0:0:0:
256,192,45720,1,0,0:0:0:0:
256,192,45799,1,8,0:0:0:0:
256,192,45956,1,8,0:0:0:0:
256,192,46113,1,8,0:0:0:0:
256,192,46271,1,0,0:0:0:0:
256,192,46428,1,0,0:0:0:0:
256,192,46585,1,8,0:0:0:0:
256,192,46742,1,8,0:0:0:0:
256,192,46899,1,8,0:0:0:0:
256,192,47057,1,0,0:0:0:0:
256,192,47214,1,8,0:0:0:0:
256,192,47528,1,0,0:0:0:0:
256,192,47686,1,0,0:0:0:0:
256,192,47843,1,8,0:0:0:0:
256,192,48000,1,8,0:0:0:0:
256,192,48157,1,0,0:0:0:0:
256,192,48315,1,0,0:0:0:0:
256,192,48472,1,8,0:0:0:0:
256,192,48629,1,8,0:0:0:0:
256,192,48708,1,8,0:0:0:0:
256,192,48786,1,0,0:0:0:0:
256,192,48943,1,0,0:0:0:0:
256,192,49101,1,8,0:0:0:0:
256,192,49258,1,8,0:0:0:0:
256,192,49415,1,8,0:0:0:0:
256,192,49572,1,0,0:0:0:0:
256,192,49730,1,8,0:0:0:0:
256,192,50044,1,8,0:0:0:0:
256,192,50359,1,8,0:0:0:0:
256,192,50516,1,8,0:0:0:0:
256,192,50594,1,8,0:0:0:0:
256,192,50673,1,0,0:0:0:0:
256,192,50752,1,0,0:0:0:0:
256,192,50830,1,8,0:0:0:0:
256,192,50987,1,8,0:0:0:0:
256,192,51145,1,8,0:0:0:0:
256,192,51302,1,4,0:0:0:0:
256,192,51616,1,8,0:0:0:0:
256,192,51774,1,0,0:0:0:0:
256,192,51852,1,0,0:0:0:0:
256,192,51931,1,8,0:0:0:0:
256,192,52088,1,0,0:0:0:0:
256,192,52245,1,8,0:0:0:0:
256,192,52560,1,0,0:0:0:0:
256,192,52717,1,0,0:0:0:0:
256,192,52796,1,0,0:0:0:0:
256,192,52874,1,8,0:0:0:0:
256,192,53032,1,0,0:0:0:0:
256,192,53189,1,8,0:0:0:0:
256,192,53346,1,0,0:0:0:0:
256,192,53503,1,8,0:0:0:0:
256,192,53660,1,8,0:0:0:0:
256,192,53739,1,8,0:0:0:0:
256,192,53818,1,0,0:0:0:0:
256,192,53975,1,0,0:0:0:0:
256,192,54132,1,8,0:0:0:0:
256,192,54289,1,0,0:0:0:0:
256,192,54368,1,8,0:0:0:0:
256,192,54447,1,0,0:0:0:0:
256,192,54604,1,0,0:0:0:0:
256,192,54761,1,8,0:0:0:0:
256,192,55076,1,0,0:0:0:0:
256,192,55233,1,0,0:0:0:0:
256,192,55390,1,8,0:0:0:0:
256,192,55547,1,8,0:0:0:0:
256,192,55626,1,8,0:0:0:0:
256,192,55704,1,0,0:0:0:0:
256,192,55783,1,0,0:0:0:0:
256,192,55862,1,8,0:0:0:0:
256,192,56019,1,8,0:0:0:0:
256,192,56176,1,8,0:0:0:0:
256,192,56255,1,8,0:0:0:0:
256,192,56333,1,0,0:0:0:0:
256,192,56491,1,0,0:0:0:0:
256,192,56648,1,8,0:0:0:0:
256,192,56805,1,0,0:0:0:0:
256,192,56884,1,0,0:0:0:0:
256,192,56962,1,8,0:0:0:0:
256,192,57120,1,0,0:0:0:0:
256,192,57277,1,8,0:0:0:0:
256,192,57591,1,0,0:0:0:0:
256,192,57749,1,0,0:0:0:0:
256,192,57827,1,0,0:0:0:0:
256,192,57906,1,8,0:0:0:0:
256,192,58063,1,8,0:0:0:0:
256,192,58220,1,0,0:0:0:0:
256,192,58377,1,8,0:0:0:0:
256,192,58456,1,8,0:0:0:0:
256,192,58535,1,0,0:0:0:0:
256,192,58692,1,0,0:0:0:0:
256,192,58849,1,8,0:0:0:0:
256,192,58928,1,8,0:0:0:0:
256,192,59006,1,0,0:0:0:0:
256,192,59085,1,0,0:0:0:0:
256,192,59164,1,8,0:0:0:0:
256,192,59242,1,0,0:0:0:0:
256,192,59321,1,8,0:0:0:0:
256,192,59399,1,8,0:0:0:0:
256,192,59478,1,0,0:0:0:0:
256,192,59557,1,8,0:0:0:0:
256,192,59635,1,0,0:0:0:0:
256,192,59714,1,0,0:0:0:0:
256,192,59793,1,8,0:0:0:0:
256,192,59871,1,8,0:0:0:0:
256,192,59950,1,8,0:0:0:0:
256,192,60028,1,8,0:0:0:0:
256,192,60107,1,4,0:0:0:0:
256,192,61365,1,12,0:0:0:0:
256,192,61522,1,0,0:0:0:0:
256,192,61679,1,8,0:0:0:0:
256,192,61837,1,0,0:0:0:0:
256,192,61915,1,0,0:0:0:0:
256,192,61994,1,8,0:0:0:0:
256,192,62151,1,0,0:0:0:0:
256,192,62308,1,8,0:0:0:0:
256,192,62387,1,8,0:0:0:0:
256,192,62465,1,0,0:0:0:0:
256,192,62544,1,0,0:0:0:0:
256,192,62623,1,8,0:0:0:0:
256,192,62780,1,0,0:0:0:0:
256,192,62859,1,0,0:0:0:0:
256,192,62937,1,8,0:0:0:0:
256,192,63016,1,0,0:0:0:0:
256,192,63094,1,8,0:0:0:0:
256,192,63173,1,8,0:0:0:0:
256,192,63252,1,0,0:0:0:0:
256,192,63409,1,0,0:0:0:0:
256,192,63566,1,8,0:0:0:0:
256,192,63645,1,0,0:0:0:0:
256,192,63723,1,8,0:0:0:0:
256,192,63802,1,8,0:0:0:0:
256,192,63881,1,8,0:0:0:0:
256,192,64038,1,0,0:0:0:0:
256,192,64195,1,8,0:0:0:0:
256,192,64274,1,0,0:0:0:0:
256,192,64352,1,8,0:0:0:0:
256,192,64431,1,8,0:0:0:0:
256,192,64510,1,0,0:0:0:0:
256,192,64667,1,0,0:0:0:0:
256,192,64824,1,8,0:0:0:0:
256,192,64981,1,0,0:0:0:0:
256,192,65060,1,0,0:0:0:0:
256,192,65138,1,8,0:0:0:0:
256,192,65296,1,0,0:0:0:0:
256,192,65453,1,0,0:0:0:0:
256,192,65532,1,8,0:0:0:0:
256,192,65610,1,0,0:0:0:0:
256,192,65689,1,0,0:0:0:0:
256,192,65767,1,8,0:0:0:0:
256,192,65925,1,8,0:0:0:0:
256,192,66003,1,8,0:0:0:0:
256,192,66082,1,0,0:0:0:0:
256,192,66239,1,8,0:0:0:0:
256,192,66396,1,0,0:0:0:0:
256,192,66475,1,0,0:0:0:0:
256,192,66554,1,8,0:0:0:0:
256,192,66632,1,0,0:0:0:0:
256,192,66711,1,8,0:0:0:0:
256,192,66868,1,0,0:0:0:0:
256,192,66947,1,0,0:0:0:0:
256,192,67025,1,8,0:0:0:0:
256,192,67182,1,0,0:0:0:0:
256,192,67340,1,8,0:0:0:0:
256,192,67418,1,8,0:0:0:0:
256,192,67497,1,0,0:0:0:0:
256,192,67576,1,0,0:0:0:0:
256,192,67654,1,8,0:0:0:0:
256,192,67811,1,8,0:0:0:0:
256,192,67890,1,0,0:0:0:0:
256,192,67969,1,8,0:0:0:0:
256,192,68047,1,0,0:0:0:0:
256,192,68126,1,8,0:0:0:0:
256,192,68204,1,8,0:0:0:0:
256,192,68283,1,0,0:0:0:0:
256,192,68440,1,0,0:0:0:0:
256,192,68598,1,8,0:0:0:0:
256,192,68676,1,0,0:0:0:0:
256,192,68755,1,8,0:0:0:0:
256,192,68833,1,8,0:0:0:0:
256,192,68912,1,0,0:0:0:0:
256,192,69069,1,0,0:0:0:0:
256,192,69226,1,8,0:0:0:0:
256,192,69305,1,0,0:0:0:0:
256,192,69384,1,8,0:0:0:0:
256,192,69462,1,8,0:0:0:0:
256,192,69541,1,0,0:0:0:0:
256,192,69698,1,8,0:0:0:0:
256,192,69777,1,8,0:0:0:0:
256,192,69855,1,8,0:0:0:0:
256,192,70013,1,0,0:0:0:0:
256,192,70170,1,8,0:0:0:0:
256,192,70249,1,8,0:0:0:0:
256,192,70327,1,0,0:0:0:0:
256,192,70406,1,8,0:0:0:0:
256,192,70484,1,0,0:0:0:0:
256,192,70563,1,0,0:0:0:0:
256,192,70642,1,8,0:0:0:0:
256,192,70720,1,0,0:0:0:0:
256,192,70799,1,8,0:0:0:0:
256,192,70877,1,8,0:0:0:0:
256,192,70956,1,0,0:0:0:0:
256,192,71035,1,0,0:0:0:0:
256,192,71113,1,8,0:0:0:0:
256,192,71271,1,0,0:0:0:0:
256,192,71349,1,0,0:0:0:0:
256,192,71428,1,12,0:0:0:0:
256,192,71585,1,0,0:0:0:0:
256,192,71742,1,8,0:0:0:0:
256,192,71899,1,0,0:0:0:0:
256,192,71978,1,0,0:0:0:0:
256,192,72057,1,8,0:0:0:0:
256,192,72214,1,0,0:0:0:0:
256,192,72371,1,8,0:0:0:0:
256,192,72450,1,8,0:0:0:0:
256,192,72528,1,0,0:0:0:0:
256,192,72607,1,0,0:0:0:0:
256,192,72686,1,8,0:0:0:0:
256,192,72843,1,0,0:0:0:0:
256,192,72921,1,0,0:0:0:0:
256,192,73000,1,8,0:0:0:0:
256,192,73079,1,0,0:0:0:0:
256,192,73157,1,8,0:0:0:0:
256,192,73236,1,8,0:0:0:0:
256,192,73315,1,0,0:0:0:0:
256,192,73472,1,0,0:0:0:0:
256,192,73629,1,8,0:0:0:0:
256,192,73708,1,0,0:0:0:0:
256,192,73786,1,8,0:0:0:0:
256,192,73865,1,8,0:0:0:0:
256,192,73943,1,8,0:0:0:0:
256,192,74101,1,0,0:0:0:0:
256,192,74258,1,8,0:0:0:0:
256,192,74337,1,0,0:0:0:0:
256,192,74415,1,8,0:0:0:0:
256,192,74494,1,8,0:0:0:0:
256,192,74572,1,0,0:0:0:0:
256,192,74730,1,0,0:0:0:0:
256,192,74887,1,8,0:0:0:0:
256,192,74965,1,0,0:0:0:0:
256,192,75044,1,0,0:0:0:0:
256,192,75123,1,0,0:0:0:0:
256,192,75201,1,8,0:0:0:0:
256,192,75359,1,0,0:0:0:0:
256,192,75516,1,0,0:0:0:0:
256,192,75594,1,8,0:0:0:0:
256,192,75673,1,0,0:0:0:0:
256,192,75752,1,0,0:0:0:0:
256,192,75830,1,8,0:0:0:0:
256,192,75987,1,8,0:0:0:0:
256,192,76066,1,8,0:0:0:0:
256,192,76145,1,0,0:0:0:0:
256,192,76302,1,8,0:0:0:0:
256,192,76459,1,0,0:0:0:0:
256,192,76538,1,0,0:0:0:0:
256,192,76616,1,8,0:0:0:0:
256,192,76695,1,0,0:0:0:0:
256,192,76774,1,8,0:0:0:0:
256,192,76931,1,0,0:0:0:0:
256,192,77010,1,0,0:0:0:0:
256,192,77088,1,8,0:0:0:0:
256,192,77245,1,0,0:0:0:0:
256,192,77403,1,8,0:0:0:0:
256,192,77481,1,8,0:0:0:0:
256,192,77560,1,0,0:0:0:0:
256,192,77638,1,0,0:0:0:0:
256,192,77717,1,8,0:0:0:0:
256,192,77874,1,8,0:0:0:0:
256,192,77953,1,0,0:0:0:0:
256,192,78032,1,8,0:0:0:0:
256,192,78110,1,0,0:0:0:0:
256,192,78189,1,8,0:0:0:0:
256,192,78267,1,8,0:0:0:0:
256,192,78346,1,0,0:0:0:0:
256,192,78503,1,0,0:0:0:0:
256,192,78660,1,8,0:0:0:0:
256,192,78739,1,0,0:0:0:0:
256,192,78818,1,8,0:0:0:0:
256,192,78896,1,8,0:0:0:0:
256,192,78975,1,0,0:0:0:0:
256,192,79132,1,0,0:0:0:0:
256,192,79289,1,8,0:0:0:0:
256,192,79368,1,0,0:0:0:0:
256,192,79447,1,8,0:0:0:0:
256,192,79525,1,8,0:0:0:0:
256,192,79604,1,0,0:0:0:0:
256,192,79761,1,8,0:0:0:0:
256,192,79840,1,8,0:0:0:0:
256,192,79918,1,8,0:0:0:0:
256,192,80076,1,0,0:0:0:0:
256,192,80233,1,8,0:0:0:0:
256,192,80311,1,8,0:0:0:0:
256,192,80390,1,0,0:0:0:0:
256,192,80469,1,8,0:0:0:0:
256,192,80547,1,0,0:0:0:0:
256,192,80626,1,0,0:0:0:0:
256,192,80704,1,8,0:0:0:0:
256,192,80783,1,0,0:0:0:0:
256,192,80862,1,8,0:0:0:0:
256,192,80940,1,8,0:0:0:0:
256,192,81019,1,0,0:0:0:0:
256,192,81098,1,0,0:0:0:0:
256,192,81176,1,8,0:0:0:0:
256,192,81333,1,0,0:0:0:0:
256,192,81412,1,0,0:0:0:0:
256,192,81491,1,12,0:0:0:0:
256,192,81648,1,0,0:0:0:0:
256,192,81805,1,8,0:0:0:0:
256,192,81962,1,0,0:0:0:0:
256,192,82041,1,0,0:0:0:0:
256,192,82120,1,8,0:0:0:0:
256,192,82277,1,0,0:0:0:0:
256,192,82434,1,8,0:0:0:0:
256,192,82513,1,8,0:0:0:0:
256,192,82591,1,0,0:0:0:0:
256,192,82670,1,0,0:0:0:0:
256,192,82749,1,8,0:0:0:0:
256,192,82906,1,0,0:0:0:0:
256,192,82984,1,0,0:0:0:0:
256,192,83063,1,8,0:0:0:0:
256,192,83142,1,0,0:0:0:0:
256,192,83220,1,8,0:0:0:0:
256,192,83299,1,8,0:0:0:0:
256,192,83377,1,0,0:0:0:0:
256,192,83535,1,0,0:0:0:0:
256,192,83692,1,8,0:0:0:0:
256,192,83771,1,0,0:0:0:0:
256,192,83849,1,8,0:0:0:0:
256,192,83928,1,8,0:0:0:0:
256,192,84006,1,8,0:0:0:0:
256,192,84164,1,0,0:0:0:0:
256,192,84321,1,8,0:0:0:0:
256,192,84399,1,0,0:0:0:0:
256,192,84478,1,8,0:0:0:0:
256,192,84557,1,8,0:0:0:0:
256,192,84635,1,0,0:0:0:0:
256,192,84793,1,0,0:0:0:0:
256,192,84950,1,8,0:0:0:0:
256,192,85028,1,0,0:0:0:0:
256,192,85107,1,0,0:0:0:0:
256,192,85186,1,0,0:0:0:0:
256,192,85264,1,8,0:0:0:0:
256,192,85421,1,0,0:0:0:0:
256,192,85579,1,0,0:0:0:0:
256,192,85657,1,8,0:0:0:0:
256,192,85736,1,0,0:0:0:0:
256,192,85815,1,0,0:0:0:0:
256,192,85893,1,8,0:0:0:0:
256,192,85972,1,0,0:0:0:0:
256,192,86050,1,8,0:0:0:0:
256,192,86129,1,8,0:0:0:0:
256,192,86208,1,0,0:0:0:0:
256,192,86365,1,8,0:0:0:0:
256,192,86522,1,0,0:0:0:0:
256,192,86601,1,0,0:0:0:0:
256,192,86679,1,8,0:0:0:0:
256,192,86758,1,0,0:0:0:0:
256,192,86837,1,8,0:0:0:0:
256,192,86994,1,0,0:0:0:0:
256,192,87072,1,0,0:0:0:0:
256,192,87151,1,8,0:0:0:0:
256,192,87308,1,0,0:0:0:0:
256,192,87465,1,8,0:0:0:0:
256,192,87544,1,8,0:0:0:0:
256,192,87623,1,0,0:0:0:0:
256,192,87701,1,0,0:0:0:0:
256,192,87780,1,8,0:0:0:0:
256,192,87937,1,8,0:0:0:0:
256,192,88016,1,0,0:0:0:0:
256,192,88094,1,8,0:0:0:0:
256,192,88173,1,0,0:0:0:0:
256,192,88252,1,8,0:0:0:0:
256,192,88330,1,8,0:0:0:0:
256,192,88409,1,0,0:0:0:0:
256,192,88566,1,0,0:0:0:0:
256,192,88723,1,8,0:0:0:0:
256,192,88802,1,0,0:0:0:0:
256,192,88881,1,8,0:0:0:0:
256,192,88959,1,8,0:0:0:0:
256,192,89038,1,0,0:0:0:0:
256,192,89195,1,0,0:0:0:0:
256,192,89352,1,8,0:0:0:0:
256,192,89431,1,0,0:0:0:0:
256,192,89510,1,8,0:0:0:0:
256,192,89588,1,8,0:0:0:0:
256,192,89667,1,0,0:0:0:0:
256,192,89824,1,8,0:0:0:0:
256,192,89903,1,8,0:0:0:0:
256,192,89981,1,8,0:0:0:0:
256,192,90060,1,8,0:0:0:0:
256,192,90138,1,0,0:0:0:0:
256,192,90296,1,8,0:0:0:0:
256,192,90374,1,8,0:0:0:0:
256,192,90453,1,0,0:0:0:0:
256,192,90532,1,8,0:0:0:0:
256,192,90610,1,0,0:0:0:0:
256,192,90689,1,0,0:0:0:0:
256,192,90767,1,8,0:0:0:0:
256,192,90846,1,0,0:0:0:0:
256,192,90925,1,8,0:0:0:0:
256,192,91003,1,8,0:0:0:0:
256,192,91082,1,0,0:0:0:0:
256,192,91160,1,0,0:0:0:0:
256,192,91239,1,8,0:0:0:0:
256,192,91396,1,0,0:0:0:0:
256,192,91475,1,0,0:0:0:0:
256,192,91554,1,12,0:0:0:0:
256,192,91711,1,0,0:0:0:0:
256,192,91868,1,8,0:0:0:0:
256,192,91947,1,0,0:0:0:0:
256,192,92025,1,0,0:0:0:0:
256,192,92104,1,0,0:0:0:0:
256,192,92182,1,8,0:0:0:0:
256,192,92340,1,0,0:0:0:0:
256,192,92497,1,8,0:0:0:0:
256,192,92576,1,8,0:0:0:0:
256,192,92654,1,0,0:0:0:0:
256,192,92733,1,0,0:0:0:0:
256,192,92811,1,8,0:0:0:0:
256,192,92969,1,0,0:0:0:0:
256,192,93047,1,0,0:0:0:0:
256,192,93126,1,8,0:0:0:0:
256,192,93204,1,0,0:0:0:0:
256,192,93283,1,8,0:0:0:0:
256,192,93362,1,8,0:0:0:0:
256,192,93440,1,0,0:0:0:0:
256,192,93598,1,0,0:0:0:0:
256,192,93755,1,8,0:0:0:0:
256,192,93833,1,0,0:0:0:0:
256,192,93912,1,8,0:0:0:0:
256,192,93991,1,8,0:0:0:0:
256,192,94069,1,8,0:0:0:0:
256,192,94226,1,0,0:0:0:0:
256,192,94384,1,8,0:0:0:0:
256,192,94462,1,0,0:0:0:0:
256,192,94541,1,8,0:0:0:0:
256,192,94620,1,8,0:0:0:0:
256,192,94698,1,0,0:0:0:0:
256,192,94855,1,0,0:0:0:0:
256,192,95013,1,8,0:0:0:0:
256,192,95091,1,0,0:0:0:0:
256,192,95170,1,0,0:0:0:0:
256,192,95249,1,0,0:0:0:0:
256,192,95327,1,8,0:0:0:0:
256,192,95484,1,0,0:0:0:0:
256,192,95642,1,0,0:0:0:0:
256,192,95720,1,8,0:0:0:0:
256,192,95799,1,0,0:0:0:0:
256,192,95877,1,0,0:0:0:0:
256,192,95956,1,8,0:0:0:0:
256,192,96035,1,0,0:0:0:0:
256,192,96113,1,8,0:0:0:0:
256,192,96192,1,8,0:0:0:0:
256,192,96271,1,0,0:0:0:0:
256,192,96428,1,8,0:0:0:0:
256,192,96585,1,0,0:0:0:0:
256,192,96742,1,0,0:0:0:0:
256,192,96821,1,8,0:0:0:0:
256,192,96899,1,0,0:0:0:0:
256,192,97057,1,8,0:0:0:0:
256,192,97214,1,0,0:0:0:0:
256,192,97293,1,8,0:0:0:0:
256,192,97371,1,8,0:0:0:0:
256,192,97450,1,0,0:0:0:0:
256,192,97607,1,0,0:0:0:0:
256,192,97686,1,8,0:0:0:0:
256,192,97843,1,0,0:0:0:0:
256,192,98000,1,8,0:0:0:0:
256,192,98079,1,8,0:0:0:0:
256,192,98157,1,0,0:0:0:0:
256,192,98315,1,8,0:0:0:0:
256,192,98472,1,0,0:0:0:0:
256,192,98629,1,8,0:0:0:0:
256,192,98708,1,0,0:0:0:0:
256,192,98865,1,0,0:0:0:0:
256,192,98943,1,8,0:0:0:0:
256,192,99101,1,8,0:0:0:0:
256,192,99179,1,8,0:0:0:0:
256,192,99258,1,0,0:0:0:0:
256,192,99337,1,0,0:0:0:0:
256,192,99415,1,8,0:0:0:0:
256,192,99494,1,8,0:0:0:0:
256,192,99572,1,8,0:0:0:0:
256,192,99651,1,8,0:0:0:0:
256,192,99730,1,0,0:0:0:0:
256,192,99808,1,8,0:0:0:0:
256,192,99887,1,0,0:0:0:0:
256,192,99965,1,0,0:0:0:0:
256,192,100044,1,8,0:0:0:0:
256,192,100123,1,8,0:0:0:0:
256,192,100201,1,0,0:0:0:0:
256,192,100280,1,0,0:0:0:0:
256,192,100359,1,8,0:0:0:0:
256,192,100411,1,8,0:0:0:0:
256,192,100463,1,8,0:0:0:0:
256,192,100516,1,0,0:0:0:0:
256,192,100594,1,0,0:0:0:0:
256,192,100673,1,8,0:0:0:0:
256,192,100725,1,0,0:0:0:0:
256,192,100778,1,0,0:0:0:0:
256,192,100830,1,8,0:0:0:0:
256,192,100909,1,0,0:0:0:0:
256,192,100987,1,8,0:0:0:0:
256,192,101040,1,8,0:0:0:0:
256,192,101092,1,8,0:0:0:0:
256,192,101145,1,0,0:0:0:0:
256,192,101223,1,0,0:0:0:0:
256,192,101302,1,8,0:0:0:0:
256,192,101354,1,0,0:0:0:0:
256,192,101407,1,0,0:0:0:0:
256,192,101459,1,8,0:0:0:0:
256,192,101616,1,4,0:0:0:0:
256,192,117969,5,0,0:0:0:0:
256,192,118283,1,8,0:0:0:0:
256,192,118755,1,0,0:0:0:0:
256,192,118912,1,8,0:0:0:0:
256,192,119226,1,0,0:0:0:0:
256,192,119541,1,8,0:0:0:0:
256,192,119855,1,0,0:0:0:0:
256,192,120013,1,0,0:0:0:0:
256,192,120170,1,8,0:0:0:0:
256,192,120484,1,0,0:0:0:0:
256,192,120799,1,8,0:0:0:0:
256,192,120956,1,8,0:0:0:0:
256,192,121035,1,8,0:0:0:0:
256,192,121113,1,0,0:0:0:0:
256,192,121270,1,8,0:0:0:0:
256,192,121428,1,8,0:0:0:0:
256,192,121585,1,8,0:0:0:0:
256,192,121742,1,0,0:0:0:0:
256,192,122057,1,8,0:0:0:0:
256,192,122371,1,0,0:0:0:0:
256,192,122685,1,8,0:0:0:0:
256,192,122843,1,0,0:0:0:0:
256,192,123157,1,0,0:0:0:0:
256,192,123314,1,8,0:0:0:0:
256,192,123629,1,0,0:0:0:0:
256,192,123786,1,8,0:0:0:0:
256,192,123943,1,0,0:0:0:0:
256,192,124101,1,0,0:0:0:0:
256,192,124258,1,8,0:0:0:0:
256,192,124572,1,8,0:0:0:0:
256,192,124887,1,0,0:0:0:0:
256,192,125044,1,8,0:0:0:0:
256,192,125201,1,0,0:0:0:0:
256,192,125358,1,8,0:0:0:0:
256,192,125673,1,8,0:0:0:0:
256,192,125830,1,0,0:0:0:0:
256,192,126145,1,8,0:0:0:0:
256,192,126459,1,8,0:0:0:0:
256,192,126616,1,8,0:0:0:0:
256,192,126774,1,0,0:0:0:0:
256,192,127088,1,8,0:0:0:0:
256,192,127402,1,0,0:0:0:0:
256,192,127560,1,0,0:0:0:0:
256,192,127717,1,8,0:0:0:0:
256,192,127874,1,0,0:0:0:0:
256,192,128189,1,0,0:0:0:0:
256,192,128346,1,8,0:0:0:0:
256,192,128503,1,8,0:0:0:0:
256,192,128660,1,0,0:0:0:0:
256,192,128975,1,8,0:0:0:0:
256,192,129132,1,8,0:0:0:0:
256,192,129289,1,0,0:0:0:0:
256,192,129604,1,8,0:0:0:0:
256,192,129918,1,0,0:0:0:0:
256,192,130075,1,0,0:0:0:0:
256,192,130233,1,8,0:0:0:0:
256,192,130390,1,0,0:0:0:0:
256,192,130704,1,8,0:0:0:0:
256,192,130862,1,8,0:0:0:0:
256,192,131176,1,8,0:0:0:0:
256,192,131255,1,8,0:0:0:0:
256,192,131333,1,0,0:0:0:0:
256,192,131491,1,8,0:0:0:0:
256,192,131648,1,8,0:0:0:0:
256,192,131805,1,0,0:0:0:0:
256,192,132119,1,8,0:0:0:0:
256,192,132434,1,0,0:0:0:0:
256,192,132591,1,0,0:0:0:0:
256,192,132748,1,8,0:0:0:0:
256,192,132906,1,8,0:0:0:0:
256,192,133220,1,8,0:0:0:0:
256,192,133377,1,0,0:0:0:0:
256,192,133692,1,8,0:0:0:0:
256,192,133849,1,0,0:0:0:0:
256,192,134006,1,8,0:0:0:0:
256,192,134163,1,8,0:0:0:0:
256,192,134321,1,0,0:0:0:0:
256,192,134635,1,8,0:0:0:0:
256,192,134950,1,0,0:0:0:0:
256,192,135107,1,0,0:0:0:0:
256,192,135264,1,8,0:0:0:0:
256,192,135421,1,0,0:0:0:0:
256,192,135736,1,0,0:0:0:0:
256,192,135893,1,8,0:0:0:0:
256,192,136207,1,8,0:0:0:0:
256,192,136286,1,8,0:0:0:0:
256,192,136365,1,0,0:0:0:0:
256,192,136522,1,8,0:0:0:0:
256,192,136679,1,8,0:0:0:0:
256,192,136836,1,0,0:0:0:0:
256,192,137151,1,8,0:0:0:0:
256,192,137465,1,0,0:0:0:0:
256,192,137780,1,8,0:0:0:0:
256,192,137937,1,8,0:0:0:0:
256,192,138252,1,8,0:0:0:0:
256,192,138409,1,0,0:0:0:0:
256,192,138566,1,0,0:0:0:0:
256,192,138723,1,8,0:0:0:0:
256,192,139038,1,8,0:0:0:0:
256,192,139195,1,8,0:0:0:0:
256,192,139352,1,0,0:0:0:0:
256,192,139667,1,8,0:0:0:0:
256,192,139981,1,8,0:0:0:0:
256,192,140138,1,0,0:0:0:0:
256,192,140296,1,8,0:0:0:0:
256,192,140453,1,0,0:0:0:0:
256,192,140767,1,0,0:0:0:0:
256,192,140924,1,8,0:0:0:0:
256,192,141082,1,8,0:0:0:0:
256,192,141239,1,0,0:0:0:0:
256,192,141553,1,8,0:0:0:0:
256,192,141711,1,8,0:0:0:0:
256,192,141868,1,4,0:0:0:0:
256,192,142025,1,0,0:0:0:0:
256,192,142104,1,0,0:0:0:0:
256,192,142182,1,8,0:0:0:0:
256,192,142340,1,8,0:0:0:0:
256,192,142497,1,0,0:0:0:0:
256,192,142654,1,8,0:0:0:0:
256,192,142706,1,8,0:0:0:0:
256,192,142759,1,8,0:0:0:0:
256,192,142811,1,0,0:0:0:0:
256,192,142968,1,8,0:0:0:0:
256,192,143047,1,0,0:0:0:0:
256,192,143126,1,8,0:0:0:0:
256,192,143283,1,0,0:0:0:0:
256,192,143440,1,8,0:0:0:0:
256,192,143519,1,8,0:0:0:0:
256,192,143597,1,0,0:0:0:0:
256,192,143755,1,8,0:0:0:0:
256,192,143912,1,0,0:0:0:0:
256,192,143991,1,0,0:0:0:0:
256,192,144069,1,8,0:0:0:0:
256,192,144122,1,0,0:0:0:0:
256,192,144174,1,0,0:0:0:0:
256,192,144226,1,8,0:0:0:0:
256,192,144384,1,0,0:0:0:0:
256,192,144541,1,0,0:0:0:0:
256,192,144619,1,0,0:0:0:0:
256,192,144698,1,8,0:0:0:0:
256,192,144855,1,8,0:0:0:0:
256,192,145013,1,0,0:0:0:0:
256,192,145170,1,8,0:0:0:0:
256,192,145222,1,8,0:0:0:0:
256,192,145275,1,8,0:0:0:0:
256,192,145327,1,0,0:0:0:0:
256,192,145484,1,0,0:0:0:0:
256,192,145641,1,8,0:0:0:0:
256,192,145799,1,0,0:0:0:0:
256,192,145956,1,8,0:0:0:0:
256,192,146035,1,0,0:0:0:0:
256,192,146113,1,8,0:0:0:0:
256,192,146192,1,8,0:0:0:0:
256,192,146270,1,0,0:0:0:0:
256,192,146428,1,0,0:0:0:0:
256,192,146506,1,0,0:0:0:0:
256,192,146585,1,8,0:0:0:0:
256,192,146637,1,8,0:0:0:0:
256,192,146690,1,8,0:0:0:0:
256,192,146742,1,0,0:0:0:0:
256,192,146821,1,0,0:0:0:0:
256,192,146899,1,8,0:0:0:0:
256,192,147057,1,0,0:0:0:0:
256,192,147135,1,0,0:0:0:0:
256,192,147214,1,8,0:0:0:0:
256,192,147371,1,8,0:0:0:0:
256,192,147528,1,0,0:0:0:0:
256,192,147685,1,8,0:0:0:0:
256,192,147738,1,0,0:0:0:0:
256,192,147790,1,0,0:0:0:0:
256,192,147843,1,8,0:0:0:0:
256,192,148000,1,0,0:0:0:0:
256,192,148079,1,0,0:0:0:0:
256,192,148157,1,8,0:0:0:0:
256,192,148314,1,0,0:0:0:0:
256,192,148472,1,8,0:0:0:0:
256,192,148550,1,8,0:0:0:0:
256,192,148629,1,0,0:0:0:0:
256,192,148707,1,8,0:0:0:0:
256,192,148786,1,0,0:0:0:0:
256,192,148943,1,0,0:0:0:0:
256,192,149022,1,0,0:0:0:0:
256,192,149101,1,8,0:0:0:0:
256,192,149153,1,8,0:0:0:0:
256,192,149205,1,8,0:0:0:0:
256,192,149258,1,0,0:0:0:0:
256,192,149336,1,0,0:0:0:0:
256,192,149415,1,8,0:0:0:0:
256,192,149572,1,0,0:0:0:0:
256,192,149651,1,0,0:0:0:0:
256,192,149730,1,8,0:0:0:0:
256,192,149887,1,8,0:0:0:0:
256,192,150044,1,0,0:0:0:0:
256,192,150201,1,8,0:0:0:0:
256,192,150254,1,8,0:0:0:0:
256,192,150306,1,8,0:0:0:0:
256,192,150358,1,0,0:0:0:0:
256,192,150516,1,0,0:0:0:0:
256,192,150673,1,8,0:0:0:0:
256,192,150830,1,0,0:0:0:0:
256,192,150909,1,0,0:0:0:0:
256,192,150987,1,8,0:0:0:0:
256,192,151066,1,0,0:0:0:0:
256,192,151145,1,8,0:0:0:0:
256,192,151223,1,8,0:0:0:0:
256,192,151302,1,0,0:0:0:0:
256,192,151459,1,0,0:0:0:0:
256,192,151538,1,0,0:0:0:0:
256,192,151616,1,8,0:0:0:0:
256,192,151669,1,0,0:0:0:0:
256,192,151721,1,0,0:0:0:0:
256,192,151774,1,8,0:0:0:0:
256,192,151931,1,4,0:0:0:0:
256,192,152088,1,8,0:0:0:0:
256,192,152167,1,0,0:0:0:0:
256,192,152245,1,8,0:0:0:0:
256,192,152402,1,8,0:0:0:0:
256,192,152560,1,0,0:0:0:0:
256,192,152717,1,8,0:0:0:0:
256,192,152769,1,8,0:0:0:0:
256,192,152822,1,8,0:0:0:0:
256,192,152874,1,0,0:0:0:0:
256,192,153031,1,0,0:0:0:0:
256,192,153110,1,0,0:0:0:0:
256,192,153189,1,8,0:0:0:0:
256,192,153346,1,0,0:0:0:0:
256,192,153503,1,8,0:0:0:0:
256,192,153582,1,0,0:0:0:0:
256,192,153660,1,8,0:0:0:0:
256,192,153739,1,8,0:0:0:0:
256,192,153818,1,0,0:0:0:0:
256,192,153975,1,0,0:0:0:0:
256,192,154053,1,0,0:0:0:0:
256,192,154132,1,8,0:0:0:0:
256,192,154184,1,0,0:0:0:0:
256,192,154237,1,0,0:0:0:0:
256,192,154289,1,8,0:0:0:0:
256,192,154446,1,8,0:0:0:0:
256,192,154604,1,0,0:0:0:0:
256,192,154682,1,0,0:0:0:0:
256,192,154761,1,8,0:0:0:0:
256,192,154840,1,0,0:0:0:0:
256,192,154918,1,8,0:0:0:0:
256,192,154997,1,8,0:0:0:0:
256,192,155075,1,0,0:0:0:0:
256,192,155233,1,8,0:0:0:0:
256,192,155285,1,8,0:0:0:0:
256,192,155337,1,8,0:0:0:0:
256,192,155390,1,0,0:0:0:0:
256,192,155547,1,0,0:0:0:0:
256,192,155704,1,8,0:0:0:0:
256,192,155783,1,8,0:0:0:0:
256,192,155862,1,0,0:0:0:0:
256,192,155940,1,0,0:0:0:0:
256,192,156019,1,8,0:0:0:0:
256,192,156176,1,8,0:0:0:0:
256,192,156255,1,8,0:0:0:0:
256,192,156333,1,0,0:0:0:0:
256,192,156491,1,0,0:0:0:0:
256,192,156569,1,0,0:0:0:0:
256,192,156648,1,8,0:0:0:0:
256,192,156700,1,8,0:0:0:0:
256,192,156753,1,8,0:0:0:0:
256,192,156805,1,0,0:0:0:0:
256,192,156884,1,0,0:0:0:0:
256,192,156962,1,8,0:0:0:0:
256,192,157119,1,0,0:0:0:0:
256,192,157198,1,0,0:0:0:0:
256,192,157277,1,8,0:0:0:0:
256,192,157434,1,8,0:0:0:0:
256,192,157591,1,0,0:0:0:0:
256,192,157748,1,8,0:0:0:0:
256,192,157801,1,0,0:0:0:0:
256,192,157853,1,0,0:0:0:0:
256,192,157906,1,8,0:0:0:0:
256,192,158063,1,0,0:0:0:0:
256,192,158141,1,0,0:0:0:0:
256,192,158220,1,8,0:0:0:0:
256,192,158377,1,0,0:0:0:0:
256,192,158535,1,8,0:0:0:0:
256,192,158613,1,8,0:0:0:0:
256,192,158692,1,0,0:0:0:0:
256,192,158770,1,8,0:0:0:0:
256,192,158849,1,0,0:0:0:0:
256,192,159006,1,0,0:0:0:0:
256,192,159085,1,0,0:0:0:0:
256,192,159163,1,8,0:0:0:0:
256,192,159216,1,8,0:0:0:0:
256,192,159268,1,8,0:0:0:0:
256,192,159321,1,0,0:0:0:0:
256,192,159478,1,8,0:0:0:0:
256,192,159557,1,8,0:0:0:0:
256,192,159635,1,0,0:0:0:0:
256,192,159714,1,0,0:0:0:0:
256,192,159792,1,8,0:0:0:0:
256,192,159871,1,0,0:0:0:0:
256,192,159950,1,0,0:0:0:0:
256,192,160028,1,0,0:0:0:0:
256,192,160107,1,8,0:0:0:0:
256,192,160185,1,0,0:0:0:0:
256,192,160264,1,8,0:0:0:0:
256,192,160343,1,8,0:0:0:0:
256,192,160421,1,0,0:0:0:0:
256,192,160500,1,8,0:0:0:0:
256,192,160579,1,0,0:0:0:0:
256,192,160657,1,0,0:0:0:0:
256,192,160736,1,8,0:0:0:0:
256,192,160788,1,8,0:0:0:0:
256,192,160841,1,8,0:0:0:0:
256,192,160893,1,0,0:0:0:0:
256,192,160972,1,0,0:0:0:0:
256,192,161050,1,8,0:0:0:0:
256,192,161103,1,0,0:0:0:0:
256,192,161155,1,0,0:0:0:0:
256,192,161207,1,8,0:0:0:0:
256,192,161286,1,0,0:0:0:0:
256,192,161365,1,8,0:0:0:0:
256,192,161417,1,8,0:0:0:0:
256,192,161470,1,8,0:0:0:0:
256,192,161522,1,0,0:0:0:0:
256,192,161601,1,8,0:0:0:0:
256,192,161679,1,0,0:0:0:0:
256,192,161732,1,0,0:0:0:0:
256,192,161784,1,0,0:0:0:0:
256,192,161836,1,8,0:0:0:0:
256,192,161994,1,4,0:0:0:0:
256,192,162308,1,8,0:0:0:0:
256,192,162465,1,0,0:0:0:0:
256,192,162623,1,8,0:0:0:0:
256,192,162780,1,8,0:0:0:0:
256,192,162937,1,0,0:0:0:0:
256,192,163094,1,8,0:0:0:0:
256,192,163409,1,8,0:0:0:0:
256,192,163566,1,8,0:0:0:0:
256,192,163645,1,0,0:0:0:0:
256,192,163723,1,0,0:0:0:0:
256,192,163880,1,0,0:0:0:0:
256,192,164195,1,8,0:0:0:0:
256,192,164352,1,0,0:0:0:0:
256,192,164509,1,0,0:0:0:0:
256,192,164824,1,8,0:0:0:0:
256,192,164981,1,0,0:0:0:0:
256,192,165138,1,0,0:0:0:0:
256,192,165453,1,8,0:0:0:0:
256,192,165610,1,0,0:0:0:0:
256,192,165767,1,0,0:0:0:0:
256,192,166082,1,0,0:0:0:0:
256,192,166239,1,0,0:0:0:0:
256,192,166396,1,8,0:0:0:0:
256,192,166711,1,0,0:0:0:0:
256,192,167025,1,0,0:0:0:0:
256,192,167182,1,0,0:0:0:0:
256,192,167340,1,8,0:0:0:0:
256,192,167497,1,0,0:0:0:0:
256,192,167654,1,8,0:0:0:0:
256,192,167811,1,8,0:0:0:0:
256,192,167968,1,0,0:0:0:0:
256,192,168126,1,8,0:0:0:0:
256,192,168440,1,8,0:0:0:0:
256,192,168597,1,8,0:0:0:0:
256,192,168676,1,0,0:0:0:0:
256,192,168755,1,0,0:0:0:0:
256,192,168912,1,0,0:0:0:0:
256,192,169226,1,8,0:0:0:0:
256,192,169384,1,8,0:0:0:0:
256,192,169541,1,0,0:0:0:0:
256,192,169855,1,8,0:0:0:0:
256,192,170013,1,8,0:0:0:0:
256,192,170170,1,0,0:0:0:0:
256,192,170484,1,8,0:0:0:0:
256,192,170641,1,8,0:0:0:0:
256,192,170799,1,0,0:0:0:0:
256,192,171113,1,0,0:0:0:0:
256,192,171270,1,8,0:0:0:0:
256,192,171585,1,0,0:0:0:0:
256,192,171742,1,8,0:0:0:0:
256,192,171899,1,8,0:0:0:0:
256,192,172057,1,0,0:0:0:0:
256,192,172214,1,0,0:0:0:0:
256,192,172371,1,8,0:0:0:0:
256,192,172528,1,0,0:0:0:0:
256,192,172685,1,8,0:0:0:0:
256,192,172843,1,8,0:0:0:0:
256,192,173000,1,0,0:0:0:0:
256,192,173157,1,8,0:0:0:0:
256,192,173472,1,8,0:0:0:0:
256,192,173629,1,8,0:0:0:0:
256,192,173707,1,0,0:0:0:0:
256,192,173786,1,0,0:0:0:0:
256,192,173943,1,8,0:0:0:0:
256,192,174258,1,8,0:0:0:0:
256,192,174415,1,8,0:0:0:0:
256,192,174572,1,0,0:0:0:0:
256,192,174730,1,0,0:0:0:0:
256,192,174887,1,8,0:0:0:0:
256,192,175044,1,8,0:0:0:0:
256,192,175201,1,0,0:0:0:0:
256,192,175358,1,0,0:0:0:0:
256,192,175516,1,8,0:0:0:0:
256,192,175673,1,8,0:0:0:0:
256,192,175830,1,0,0:0:0:0:
256,192,175987,1,0,0:0:0:0:
256,192,176145,1,8,0:0:0:0:
256,192,176302,1,0,0:0:0:0:
256,192,176459,1,8,0:0:0:0:
256,192,176774,1,0,0:0:0:0:
256,192,177088,1,0,0:0:0:0:
256,192,177245,1,0,0:0:0:0:
256,192,177402,1,8,0:0:0:0:
256,192,177560,1,0,0:0:0:0:
256,192,177717,1,8,0:0:0:0:
256,192,177874,1,8,0:0:0:0:
256,192,178031,1,0,0:0:0:0:
256,192,178189,1,8,0:0:0:0:
256,192,178503,1,8,0:0:0:0:
256,192,178660,1,8,0:0:0:0:
256,192,178739,1,0,0:0:0:0:
256,192,178818,1,0,0:0:0:0:
256,192,178975,1,8,0:0:0:0:
256,192,179289,1,8,0:0:0:0:
256,192,179446,1,8,0:0:0:0:
256,192,179604,1,0,0:0:0:0:
256,192,179761,1,0,0:0:0:0:
256,192,179918,1,8,0:0:0:0:
256,192,180075,1,8,0:0:0:0:
256,192,180233,1,0,0:0:0:0:
256,192,180390,1,0,0:0:0:0:
256,192,180547,1,8,0:0:0:0:
256,192,180704,1,8,0:0:0:0:
256,192,180862,1,0,0:0:0:0:
256,192,181019,1,0,0:0:0:0:
256,192,181176,1,8,0:0:0:0:
256,192,181333,1,0,0:0:0:0:
256,192,181648,1,0,0:0:0:0:
256,192,181805,1,8,0:0:0:0:
256,192,181962,1,8,0:0:0:0:
256,192,182119,1,4,0:0:0:0:
256,192,182277,1,0,0:0:0:0:
256,192,182434,1,8,0:0:0:0:
256,192,182591,1,0,0:0:0:0:
256,192,182748,1,8,0:0:0:0:
256,192,182906,1,8,0:0:0:0:
256,192,183063,1,0,0:0:0:0:
256,192,183220,1,8,0:0:0:0:
256,192,183535,1,8,0:0:0:0:
256,192,183692,1,8,0:0:0:0:
256,192,183770,1,0,0:0:0:0:
256,192,183849,1,0,0:0:0:0:
256,192,184006,1,8,0:0:0:0:
256,192,184321,1,8,0:0:0:0:
256,192,184478,1,8,0:0:0:0:
256,192,184635,1,0,0:0:0:0:
256,192,184792,1,0,0:0:0:0:
256,192,184950,1,8,0:0:0:0:
256,192,185107,1,8,0:0:0:0:
256,192,185264,1,0,0:0:0:0:
256,192,185421,1,0,0:0:0:0:
256,192,185579,1,8,0:0:0:0:
256,192,185736,1,8,0:0:0:0:
256,192,185893,1,0,0:0:0:0:
256,192,186050,1,0,0:0:0:0:
256,192,186207,1,8,0:0:0:0:
256,192,186365,1,0,0:0:0:0:
256,192,186522,1,8,0:0:0:0:
256,192,186836,1,0,0:0:0:0:
256,192,187151,1,0,0:0:0:0:
256,192,187308,1,0,0:0:0:0:
256,192,187465,1,8,0:0:0:0:
256,192,187623,1,0,0:0:0:0:
256,192,187780,1,8,0:0:0:0:
256,192,187937,1,8,0:0:0:0:
256,192,188094,1,0,0:0:0:0:
256,192,188252,1,8,0:0:0:0:
256,192,188566,1,8,0:0:0:0:
256,192,188723,1,8,0:0:0:0:
256,192,188802,1,0,0:0:0:0:
256,192,188880,1,0,0:0:0:0:
256,192,189038,1,8,0:0:0:0:
256,192,189352,1,8,0:0:0:0:
256,192,189509,1,8,0:0:0:0:
256,192,189667,1,8,0:0:0:0:
256,192,189745,1,8,0:0:0:0:
256,192,189824,1,0,0:0:0:0:
256,192,189902,1,0,0:0:0:0:
256,192,189981,1,8,0:0:0:0:
256,192,190060,1,0,0:0:0:0:
256,192,190138,1,8,0:0:0:0:
256,192,190217,1,0,0:0:0:0:
256,192,190296,1,8,0:0:0:0:
256,192,190374,1,0,0:0:0:0:
256,192,190453,1,0,0:0:0:0:
256,192,190531,1,0,0:0:0:0:
256,192,190610,1,8,0:0:0:0:
256,192,190689,1,0,0:0:0:0:
256,192,190767,1,8,0:0:0:0:
256,192,190846,1,0,0:0:0:0:
256,192,190924,1,8,0:0:0:0:
256,192,191003,1,8,0:0:0:0:
256,192,191082,1,8,0:0:0:0:
256,192,191160,1,8,0:0:0:0:
256,192,191239,1,0,0:0:0:0:
256,192,191318,1,8,0:0:0:0:
256,192,191396,1,0,0:0:0:0:
256,192,191475,1,0,0:0:0:0:
256,192,191553,1,8,0:0:0:0:
256,192,191632,1,8,0:0:0:0:
256,192,191711,1,0,0:0:0:0:
256,192,191789,1,0,0:0:0:0:
256,192,191868,1,8,0:0:0:0:
256,192,191946,1,0,0:0:0:0:
256,192,192025,1,8,0:0:0:0:
256,192,192182,1,4,0:0:0:0:
256,192,192340,1,0,0:0:0:0:
256,192,192497,1,8,0:0:0:0:
256,192,192654,1,0,0:0:0:0:
256,192,192811,1,8,0:0:0:0:
256,192,192968,1,0,0:0:0:0:
256,192,193126,1,8,0:0:0:0:
256,192,193283,1,8,0:0:0:0:
256,192,193440,1,0,0:0:0:0:
256,192,193597,1,0,0:0:0:0:
256,192,193755,1,8,0:0:0:0:
256,192,193912,1,0,0:0:0:0:
256,192,194069,1,8,0:0:0:0:
256,192,194226,1,0,0:0:0:0:
256,192,194384,1,8,0:0:0:0:
256,192,194541,1,8,0:0:0:0:
256,192,194698,1,0,0:0:0:0:
256,192,194855,1,0,0:0:0:0:
256,192,195013,1,8,0:0:0:0:
256,192,195170,1,0,0:0:0:0:
256,192,195327,1,8,0:0:0:0:
256,192,195484,1,0,0:0:0:0:
256,192,195641,1,8,0:0:0:0:
256,192,195799,1,8,0:0:0:0:
256,192,195956,1,0,0:0:0:0:
256,192,196113,1,0,0:0:0:0:
256,192,196270,1,8,0:0:0:0:
256,192,196428,1,0,0:0:0:0:
256,192,196585,1,8,0:0:0:0:
256,192,196742,1,0,0:0:0:0:
256,192,196899,1,8,0:0:0:0:
256,192,197057,1,8,0:0:0:0:
256,192,197214,1,8,0:0:0:0:
256,192,197292,1,8,0:0:0:0:
256,192,197371,1,0,0:0:0:0:
256,192,197450,1,0,0:0:0:0:
256,192,197528,1,8,0:0:0:0:
256,192,197607,1,0,0:0:0:0:
256,192,197685,1,0,0:0:0:0:
256,192,197764,1,0,0:0:0:0:
256,192,197843,1,8,0:0:0:0:
256,192,197921,1,0,0:0:0:0:
256,192,198000,1,8,0:0:0:0:
256,192,198079,1,8,0:0:0:0:
256,192,198157,1,0,0:0:0:0:
256,192,198236,1,8,0:0:0:0:
256,192,198314,1,0,0:0:0:0:
256,192,198393,1,0,0:0:0:0:
256,192,198472,1,8,0:0:0:0:
256,192,198550,1,8,0:0:0:0:
256,192,198629,1,0,0:0:0:0:
256,192,198707,1,0,0:0:0:0:
256,192,198786,1,8,0:0:0:0:
256,192,198865,1,0,0:0:0:0:
256,192,198943,1,0,0:0:0:0:
256,192,199022,1,0,0:0:0:0:
256,192,199101,1,8,0:0:0:0:
256,192,199179,1,0,0:0:0:0:
256,192,199258,1,8,0:0:0:0:
256,192,199336,1,8,0:0:0:0:
256,192,199415,1,0,0:0:0:0:
256,192,199494,1,8,0:0:0:0:
256,192,199572,1,0,0:0:0:0:
256,192,199651,1,0,0:0:0:0:
256,192,199730,1,8,0:0:0:0:
256,192,199782,1,8,0:0:0:0:
256,192,199834,1,8,0:0:0:0:
256,192,199887,1,0,0:0:0:0:
256,192,199965,1,0,0:0:0:0:
256,192,200044,1,8,0:0:0:0:
256,192,200096,1,0,0:0:0:0:
256,192,200149,1,0,0:0:0:0:
256,192,200201,1,8,0:0:0:0:
256,192,200280,1,0,0:0:0:0:
256,192,200358,1,8,0:0:0:0:
256,192,200411,1,8,0:0:0:0:
256,192,200463,1,8,0:0:0:0:
256,192,200516,1,0,0:0:0:0:
256,192,200568,1,0,0:0:0:0:
256,192,200620,1,0,0:0:0:0:
256,192,200673,1,8,0:0:0:0:
256,192,200752,1,8,0:0:0:0:
256,192,200830,1,0,0:0:0:0:
256,192,200909,1,0,0:0:0:0:
256,192,200987,1,8,0:0:0:0:
256,192,201040,1,8,0:0:0:0:
256,192,201092,1,8,0:0:0:0:
256,192,201145,1,0,0:0:0:0:
256,192,201223,1,0,0:0:0:0:
256,192,201302,1,8,0:0:0:0:
256,192,201354,1,8,0:0:0:0:
256,192,201407,1,8,0:0:0:0:
256,192,201459,1,0,0:0:0:0:
256,192,201538,1,0,0:0:0:0:
256,192,201616,1,8,0:0:0:0:
256,192,201669,1,0,0:0:0:0:
256,192,201721,1,0,0:0:0:0:
256,192,201774,1,8,0:0:0:0:
256,192,201826,1,8,0:0:0:0:
256,192,201878,1,8,0:0:0:0:
256,192,201931,1,0,0:0:0:0:
256,192,202009,1,0,0:0:0:0:
256,192,202088,1,8,0:0:0:0:
256,192,202245,1,12,0:0:0:0:
256,192,202402,1,12,0:0:0:0:
256,192,202560,1,12,0:0:0:0:
256,192,202717,1,12,0:0:0:0:
256,192,203503,1,4,0:0:0:0:
256,192,203660,1,0,0:0:0:0:
256,192,203818,1,8,0:0:0:0:
256,192,203975,1,0,0:0:0:0:
256,192,204053,1,0,0:0:0:0:
256,192,204132,1,8,0:0:0:0:
256,192,204289,1,0,0:0:0:0:
256,192,204446,1,8,0:0:0:0:
256,192,204525,1,8,0:0:0:0:
256,192,204604,1,8,0:0:0:0:
256,192,204682,1,8,0:0:0:0:
256,192,204761,1,0,0:0:0:0:
256,192,204918,1,0,0:0:0:0:
256,192,205075,1,8,0:0:0:0:
256,192,205233,1,0,0:0:0:0:
256,192,205311,1,8,0:0:0:0:
256,192,205390,1,0,0:0:0:0:
256,192,205468,1,0,0:0:0:0:
256,192,205547,1,8,0:0:0:0:
256,192,205704,1,0,0:0:0:0:
256,192,205862,1,0,0:0:0:0:
256,192,205940,1,0,0:0:0:0:
256,192,206019,1,8,0:0:0:0:
256,192,206176,1,0,0:0:0:0:
256,192,206333,1,8,0:0:0:0:
256,192,206412,1,0,0:0:0:0:
256,192,206491,1,0,0:0:0:0:
256,192,206569,1,0,0:0:0:0:
256,192,206648,1,8,0:0:0:0:
256,192,206805,1,0,0:0:0:0:
256,192,206962,1,0,0:0:0:0:
256,192,207041,1,0,0:0:0:0:
256,192,207119,1,8,0:0:0:0:
256,192,207198,1,0,0:0:0:0:
256,192,207277,1,8,0:0:0:0:
256,192,207434,1,0,0:0:0:0:
256,192,207591,1,8,0:0:0:0:
256,192,207670,1,8,0:0:0:0:
256,192,207748,1,0,0:0:0:0:
256,192,207827,1,0,0:0:0:0:
256,192,207906,1,0,0:0:0:0:
256,192,208063,1,8,0:0:0:0:
256,192,208141,1,8,0:0:0:0:
256,192,208220,1,0,0:0:0:0:
256,192,208377,1,12,0:0:0:0:
256,192,208535,1,0,0:0:0:0:
256,192,208692,1,0,0:0:0:0:
256,192,208770,1,0,0:0:0:0:
256,192,208849,1,8,0:0:0:0:
256,192,209006,1,0,0:0:0:0:
256,192,209163,1,8,0:0:0:0:
256,192,209242,1,8,0:0:0:0:
256,192,209321,1,0,0:0:0:0:
256,192,209478,1,0,0:0:0:0:
256,192,209557,1,8,0:0:0:0:
256,192,209635,1,0,0:0:0:0:
256,192,209714,1,0,0:0:0:0:
256,192,209792,1,8,0:0:0:0:
256,192,209950,1,0,0:0:0:0:
256,192,210107,1,8,0:0:0:0:
256,192,210185,1,8,0:0:0:0:
256,192,210264,1,0,0:0:0:0:
256,192,210343,1,8,0:0:0:0:
256,192,210421,1,0,0:0:0:0:
256,192,210500,1,0,0:0:0:0:
256,192,210579,1,8,0:0:0:0:
256,192,210736,1,0,0:0:0:0:
256,192,210893,1,12,0:0:0:0:
256,192,211050,1,0,0:0:0:0:
256,192,211207,1,0,0:0:0:0:
256,192,211286,1,0,0:0:0:0:
256,192,211365,1,8,0:0:0:0:
256,192,211443,1,8,0:0:0:0:
256,192,211522,1,0,0:0:0:0:
256,192,211679,1,8,0:0:0:0:
256,192,211836,1,0,0:0:0:0:
256,192,211915,1,0,0:0:0:0:
256,192,211994,1,8,0:0:0:0:
256,192,212151,1,0,0:0:0:0:
256,192,212308,1,8,0:0:0:0:
256,192,212465,1,0,0:0:0:0:
256,192,212544,1,0,0:0:0:0:
256,192,212623,1,8,0:0:0:0:
256,192,212780,1,8,0:0:0:0:
256,192,212858,1,8,0:0:0:0:
256,192,212937,1,0,0:0:0:0:
256,192,213016,1,8,0:0:0:0:
256,192,213094,1,0,0:0:0:0:
256,192,213173,1,0,0:0:0:0:
256,192,213252,1,8,0:0:0:0:
256,192,213409,1,0,0:0:0:0:
256,192,213487,1,0,0:0:0:0:
256,192,213566,1,12,0:0:0:0:
256,192,213723,1,0,0:0:0:0:
256,192,213880,1,8,0:0:0:0:
256,192,214038,1,0,0:0:0:0:
256,192,214116,1,0,0:0:0:0:
256,192,214195,1,8,0:0:0:0:
256,192,214352,1,0,0:0:0:0:
256,192,214509,1,8,0:0:0:0:
256,192,214588,1,8,0:0:0:0:
256,192,214667,1,8,0:0:0:0:
256,192,214745,1,0,0:0:0:0:
256,192,214824,1,8,0:0:0:0:
256,192,214981,1,0,0:0:0:0:
256,192,215138,1,8,0:0:0:0:
256,192,215296,1,0,0:0:0:0:
256,192,215374,1,8,0:0:0:0:
256,192,215453,1,0,0:0:0:0:
256,192,215531,1,0,0:0:0:0:
256,192,215610,1,8,0:0:0:0:
256,192,215767,1,0,0:0:0:0:
256,192,215924,1,0,0:0:0:0:
256,192,216003,1,0,0:0:0:0:
256,192,216082,1,8,0:0:0:0:
256,192,216239,1,0,0:0:0:0:
256,192,216396,1,8,0:0:0:0:
256,192,216475,1,8,0:0:0:0:
256,192,216553,1,0,0:0:0:0:
256,192,216632,1,0,0:0:0:0:
256,192,216711,1,8,0:0:0:0:
256,192,216868,1,0,0:0:0:0:
256,192,217025,1,0,0:0:0:0:
256,192,217104,1,8,0:0:0:0:
256,192,217182,1,0,0:0:0:0:
256,192,217261,1,0,0:0:0:0:
256,192,217340,1,8,0:0:0:0:
256,192,217497,1,0,0:0:0:0:
256,192,217654,1,8,0:0:0:0:
256,192,217733,1,0,0:0:0:0:
256,192,217811,1,8,0:0:0:0:
256,192,217890,1,0,0:0:0:0:
256,192,217968,1,0,0:0:0:0:
256,192,218126,1,8,0:0:0:0:
256,192,218204,1,8,0:0:0:0:
256,192,218283,1,0,0:0:0:0:
256,192,218440,1,12,0:0:0:0:
256,192,218597,1,0,0:0:0:0:
256,192,218755,1,0,0:0:0:0:
256,192,218833,1,0,0:0:0:0:
256,192,218912,1,8,0:0:0:0:
256,192,219069,1,0,0:0:0:0:
256,192,219226,1,8,0:0:0:0:
256,192,219305,1,0,0:0:0:0:
256,192,219384,1,0,0:0:0:0:
256,192,219541,1,8,0:0:0:0:
256,192,219619,1,8,0:0:0:0:
256,192,219698,1,0,0:0:0:0:
256,192,219777,1,0,0:0:0:0:
256,192,219855,1,8,0:0:0:0:
256,192,220013,1,0,0:0:0:0:
256,192,220170,1,8,0:0:0:0:
256,192,220248,1,0,0:0:0:0:
256,192,220327,1,8,0:0:0:0:
256,192,220406,1,8,0:0:0:0:
256,192,220484,1,0,0:0:0:0:
256,192,220563,1,0,0:0:0:0:
256,192,220641,1,8,0:0:0:0:
256,192,220720,1,8,0:0:0:0:
256,192,220799,1,0,0:0:0:0:
256,192,220956,1,8,0:0:0:0:
256,192,221113,1,4,0:0:0:0:
256,192,221270,1,0,0:0:0:0:
256,192,221349,1,0,0:0:0:0:
256,192,221428,1,8,0:0:0:0:
256,192,221585,1,0,0:0:0:0:
256,192,221663,1,0,0:0:0:0:
256,192,221742,1,8,0:0:0:0:
256,192,221821,1,8,0:0:0:0:
256,192,221899,1,0,0:0:0:0:
256,192,222057,1,8,0:0:0:0:
256,192,222214,1,0,0:0:0:0:
256,192,222371,1,12,0:0:0:0:
256,192,222528,1,0,0:0:0:0:
256,192,222607,1,0,0:0:0:0:
256,192,222685,1,8,0:0:0:0:
256,192,222843,1,8,0:0:0:0:
256,192,222921,1,0,0:0:0:0:
256,192,223000,1,8,0:0:0:0:
256,192,223079,1,8,0:0:0:0:
256,192,223157,1,0,0:0:0:0:
256,192,223236,1,0,0:0:0:0:
256,192,223314,1,8,0:0:0:0:
256,192,223393,1,0,0:0:0:0:
256,192,223472,1,0,0:0:0:0:
256,192,223550,1,0,0:0:0:0:
256,192,223629,1,12,0:0:0:0:
256,192,223786,1,0,0:0:0:0:
256,192,223943,1,8,0:0:0:0:
256,192,224022,1,0,0:0:0:0:
256,192,224101,1,0,0:0:0:0:
256,192,224179,1,0,0:0:0:0:
256,192,224258,1,8,0:0:0:0:
256,192,224415,1,0,0:0:0:0:
256,192,224572,1,8,0:0:0:0:
256,192,224651,1,8,0:0:0:0:
256,192,224730,1,0,0:0:0:0:
256,192,224808,1,0,0:0:0:0:
256,192,224887,1,8,0:0:0:0:
256,192,225044,1,0,0:0:0:0:
256,192,225201,1,8,0:0:0:0:
256,192,225280,1,8,0:0:0:0:
256,192,225358,1,0,0:0:0:0:
256,192,225437,1,8,0:0:0:0:
256,192,225516,1,0,0:0:0:0:
256,192,225594,1,0,0:0:0:0:
256,192,225673,1,8,0:0:0:0:
256,192,225830,1,0,0:0:0:0:
256,192,225987,1,0,0:0:0:0:
256,192,226066,1,0,0:0:0:0:
256,192,226145,1,8,0:0:0:0:
256,192,226302,1,0,0:0:0:0:
256,192,226459,1,8,0:0:0:0:
256,192,226538,1,8,0:0:0:0:
256,192,226616,1,0,0:0:0:0:
256,192,226695,1,0,0:0:0:0:
256,192,226774,1,8,0:0:0:0:
256,192,226931,1,0,0:0:0:0:
256,192,227088,1,8,0:0:0:0:
256,192,227167,1,0,0:0:0:0:
256,192,227245,1,8,0:0:0:0:
256,192,227324,1,8,0:0:0:0:
256,192,227402,1,0,0:0:0:0:
256,192,227560,1,0,0:0:0:0:
256,192,227717,1,8,0:0:0:0:
256,192,227796,1,8,0:0:0:0:
256,192,227874,1,0,0:0:0:0:
256,192,227953,1,0,0:0:0:0:
256,192,228031,1,0,0:0:0:0:
256,192,228189,1,8,0:0:0:0:
256,192,228267,1,8,0:0:0:0:
256,192,228346,1,0,0:0:0:0:
256,192,228503,1,12,0:0:0:0:
256,192,228660,1,0,0:0:0:0:
256,192,228818,1,0,0:0:0:0:
256,192,228896,1,0,0:0:0:0:
256,192,228975,1,8,0:0:0:0:
256,192,229132,1,0,0:0:0:0:
256,192,229289,1,8,0:0:0:0:
256,192,229368,1,8,0:0:0:0:
256,192,229446,1,0,0:0:0:0:
256,192,229604,1,0,0:0:0:0:
256,192,229682,1,8,0:0:0:0:
256,192,229761,1,0,0:0:0:0:
256,192,229840,1,0,0:0:0:0:
256,192,229918,1,8,0:0:0:0:
256,192,230075,1,0,0:0:0:0:
256,192,230233,1,8,0:0:0:0:
256,192,230311,1,8,0:0:0:0:
256,192,230390,1,0,0:0:0:0:
256,192,230468,1,0,0:0:0:0:
256,192,230547,1,8,0:0:0:0:
256,192,230626,1,0,0:0:0:0:
256,192,230704,1,8,0:0:0:0:
256,192,230783,1,8,0:0:0:0:
256,192,230862,1,0,0:0:0:0:
256,192,231019,1,12,0:0:0:0:
256,192,231176,1,0,0:0:0:0:
256,192,231333,1,0,0:0:0:0:
256,192,231412,1,0,0:0:0:0:
256,192,231491,1,8,0:0:0:0:
256,192,231569,1,8,0:0:0:0:
256,192,231648,1,0,0:0:0:0:
256,192,231805,1,8,0:0:0:0:
256,192,231962,1,0,0:0:0:0:
256,192,232041,1,0,0:0:0:0:
256,192,232119,1,8,0:0:0:0:
256,192,232277,1,0,0:0:0:0:
256,192,232434,1,8,0:0:0:0:
256,192,232513,1,8,0:0:0:0:
256,192,232591,1,0,0:0:0:0:
256,192,232670,1,0,0:0:0:0:
256,192,232748,1,8,0:0:0:0:
256,192,232827,1,0,0:0:0:0:
256,192,232906,1,8,0:0:0:0:
256,192,232984,1,8,0:0:0:0:
256,192,233063,1,0,0:0:0:0:
256,192,233141,1,8,0:0:0:0:
256,192,233220,1,0,0:0:0:0:
256,192,233299,1,0,0:0:0:0:
256,192,233377,1,8,0:0:0:0:
256,192,233535,1,0,0:0:0:0:
256,192,233613,1,0,0:0:0:0:
256,192,233692,1,12,0:0:0:0:
256,192,233849,1,0,0:0:0:0:
256,192,234006,1,8,0:0:0:0:
256,192,234085,1,8,0:0:0:0:
256,192,234163,1,0,0:0:0:0:
256,192,234242,1,0,0:0:0:0:
256,192,234321,1,8,0:0:0:0:
256,192,234478,1,0,0:0:0:0:
256,192,234635,1,8,0:0:0:0:
256,192,234714,1,0,0:0:0:0:
256,192,234792,1,8,0:0:0:0:
256,192,234871,1,8,0:0:0:0:
256,192,234950,1,0,0:0:0:0:
256,192,235107,1,0,0:0:0:0:
256,192,235264,1,8,0:0:0:0:
256,192,235343,1,8,0:0:0:0:
256,192,235421,1,8,0:0:0:0:
256,192,235500,1,0,0:0:0:0:
256,192,235579,1,8,0:0:0:0:
256,192,235736,1,0,0:0:0:0:
256,192,235814,1,8,0:0:0:0:
256,192,235893,1,0,0:0:0:0:
256,192,236050,1,8,0:0:0:0:
256,192,236129,1,8,0:0:0:0:
256,192,236207,1,0,0:0:0:0:
256,192,236365,1,0,0:0:0:0:
256,192,236522,1,8,0:0:0:0:
256,192,236601,1,8,0:0:0:0:
256,192,236679,1,0,0:0:0:0:
256,192,236758,1,0,0:0:0:0:
256,192,236836,1,8,0:0:0:0:
256,192,236994,1,0,0:0:0:0:
256,192,237151,1,0,0:0:0:0:
256,192,237230,1,8,0:0:0:0:
256,192,237308,1,0,0:0:0:0:
256,192,237387,1,0,0:0:0:0:
256,192,237465,1,8,0:0:0:0:
256,192,237623,1,0,0:0:0:0:
256,192,237780,1,8,0:0:0:0:
256,192,237858,1,0,0:0:0:0:
256,192,237937,1,8,0:0:0:0:
256,192,238016,1,8,0:0:0:0:
256,192,238094,1,8,0:0:0:0:
256,192,238252,1,0,0:0:0:0:
256,192,238330,1,0,0:0:0:0:
256,192,238409,1,0,0:0:0:0:
256,192,238566,1,12,0:0:0:0:
256,192,238723,1,0,0:0:0:0:
256,192,238880,1,0,0:0:0:0:
256,192,238959,1,0,0:0:0:0:
256,192,239038,1,8,0:0:0:0:
256,192,239195,1,0,0:0:0:0:
256,192,239352,1,8,0:0:0:0:
256,192,239431,1,0,0:0:0:0:
256,192,239509,1,0,0:0:0:0:
256,192,239667,1,8,0:0:0:0:
256,192,239745,1,8,0:0:0:0:
256,192,239824,1,0,0:0:0:0:
256,192,239902,1,0,0:0:0:0:
256,192,239981,1,8,0:0:0:0:
256,192,240138,1,0,0:0:0:0:
256,192,240296,1,8,0:0:0:0:
256,192,240374,1,8,0:0:0:0:
256,192,240453,1,0,0:0:0:0:
256,192,240531,1,8,0:0:0:0:
256,192,240610,1,0,0:0:0:0:
256,192,240689,1,0,0:0:0:0:
256,192,240767,1,8,0:0:0:0:
256,192,240846,1,8,0:0:0:0:
256,192,240924,1,0,0:0:0:0:
256,192,241082,1,8,0:0:0:0:
256,192,241239,1,4,0:0:0:0:
256,192,241396,1,0,0:0:0:0:
256,192,241475,1,0,0:0:0:0:
256,192,241553,1,8,0:0:0:0:
256,192,241711,1,0,0:0:0:0:
256,192,241789,1,0,0:0:0:0:
256,192,241868,1,8,0:0:0:0:
256,192,241946,1,8,0:0:0:0:
256,192,242025,1,0,0:0:0:0:
256,192,242182,1,8,0:0:0:0:
256,192,242340,1,0,0:0:0:0:
256,192,242497,1,12,0:0:0:0:
256,192,242654,1,0,0:0:0:0:
256,192,242733,1,0,0:0:0:0:
256,192,242811,1,8,0:0:0:0:
256,192,242968,1,8,0:0:0:0:
256,192,243047,1,0,0:0:0:0:
256,192,243126,1,8,0:0:0:0:
256,192,243204,1,8,0:0:0:0:
256,192,243283,1,0,0:0:0:0:
256,192,243362,1,0,0:0:0:0:
256,192,243440,1,8,0:0:0:0:
256,192,243519,1,0,0:0:0:0:
256,192,243597,1,0,0:0:0:0:
256,192,243676,1,0,0:0:0:0:
256,192,243755,1,12,0:0:0:0:
256,192,243912,1,0,0:0:0:0:
256,192,244069,1,8,0:0:0:0:
256,192,244148,1,8,0:0:0:0:
256,192,244226,1,0,0:0:0:0:
256,192,244305,1,0,0:0:0:0:
256,192,244384,1,8,0:0:0:0:
256,192,244541,1,0,0:0:0:0:
256,192,244698,1,8,0:0:0:0:
256,192,244777,1,8,0:0:0:0:
256,192,244855,1,8,0:0:0:0:
256,192,244934,1,8,0:0:0:0:
256,192,245013,1,0,0:0:0:0:
256,192,245170,1,0,0:0:0:0:
256,192,245327,1,8,0:0:0:0:
256,192,245406,1,8,0:0:0:0:
256,192,245484,1,0,0:0:0:0:
256,192,245563,1,8,0:0:0:0:
256,192,245641,1,0,0:0:0:0:
256,192,245720,1,0,0:0:0:0:
256,192,245799,1,8,0:0:0:0:
256,192,245877,1,8,0:0:0:0:
256,192,245956,1,0,0:0:0:0:
256,192,246113,1,0,0:0:0:0:
256,192,246192,1,0,0:0:0:0:
256,192,246270,1,8,0:0:0:0:
256,192,246428,1,0,0:0:0:0:
256,192,246585,1,8,0:0:0:0:
256,192,246663,1,0,0:0:0:0:
256,192,246742,1,0,0:0:0:0:
256,192,246821,1,0,0:0:0:0:
256,192,246899,1,8,0:0:0:0:
256,192,247057,1,0,0:0:0:0:
256,192,247214,1,0,0:0:0:0:
256,192,247292,1,0,0:0:0:0:
256,192,247371,1,8,0:0:0:0:
256,192,247450,1,0,0:0:0:0:
256,192,247528,1,8,0:0:0:0:
256,192,247607,1,8,0:0:0:0:
256,192,247685,1,0,0:0:0:0:
256,192,247843,1,8,0:0:0:0:
256,192,247921,1,8,0:0:0:0:
256,192,248000,1,0,0:0:0:0:
256,192,248079,1,0,0:0:0:0:
256,192,248157,1,0,0:0:0:0:
256,192,248314,1,8,0:0:0:0:
256,192,248393,1,8,0:0:0:0:
256,192,248472,1,0,0:0:0:0:
256,192,248629,1,12,0:0:0:0:
256,192,248786,1,0,0:0:0:0:
256,192,248943,1,0,0:0:0:0:
256,192,249022,1,0,0:0:0:0:
256,192,249101,1,8,0:0:0:0:
256,192,249258,1,0,0:0:0:0:
256,192,249336,1,0,0:0:0:0:
256,192,249415,1,8,0:0:0:0:
256,192,249494,1,8,0:0:0:0:
256,192,249572,1,0,0:0:0:0:
256,192,249730,1,0,0:0:0:0:
256,192,249808,1,8,0:0:0:0:
256,192,249887,1,0,0:0:0:0:
256,192,249965,1,0,0:0:0:0:
256,192,250044,1,8,0:0:0:0:
256,192,250201,1,0,0:0:0:0:
256,192,250358,1,8,0:0:0:0:
256,192,250437,1,8,0:0:0:0:
256,192,250516,1,0,0:0:0:0:
256,192,250594,1,8,0:0:0:0:
256,192,250673,1,0,0:0:0:0:
256,192,250752,1,0,0:0:0:0:
256,192,250830,1,8,0:0:0:0:
256,192,250987,1,0,0:0:0:0:
256,192,251145,1,12,0:0:0:0:
256,192,251302,1,0,0:0:0:0:
256,192,251459,1,0,0:0:0:0:
256,192,251538,1,0,0:0:0:0:
256,192,251616,1,8,0:0:0:0:
256,192,251695,1,8,0:0:0:0:
256,192,251774,1,0,0:0:0:0:
256,192,251852,1,0,0:0:0:0:
256,192,251931,1,8,0:0:0:0:
256,192,252088,1,0,0:0:0:0:
256,192,252167,1,0,0:0:0:0:
256,192,252245,1,8,0:0:0:0:
256,192,252402,1,0,0:0:0:0:
256,192,252560,1,8,0:0:0:0:
256,192,252638,1,8,0:0:0:0:
256,192,252717,1,0,0:0:0:0:
256,192,252874,1,8,0:0:0:0:
256,192,252953,1,0,0:0:0:0:
256,192,253031,1,8,0:0:0:0:
256,192,253110,1,8,0:0:0:0:
256,192,253189,1,0,0:0:0:0:
256,192,253267,1,8,0:0:0:0:
256,192,253346,1,0,0:0:0:0:
256,192,253424,1,0,0:0:0:0:
256,192,253503,1,8,0:0:0:0:
256,192,253582,1,8,0:0:0:0:
256,192,253660,1,0,0:0:0:0:
256,192,253739,1,0,0:0:0:0:
256,192,253818,1,12,0:0:0:0:
256,192,253975,1,0,0:0:0:0:
256,192,254132,1,8,0:0:0:0:
256,192,254211,1,0,0:0:0:0:
256,192,254289,1,8,0:0:0:0:
256,192,254368,1,0,0:0:0:0:
256,192,254446,1,8,0:0:0:0:
256,192,254604,1,0,0:0:0:0:
256,192,254761,1,8,0:0:0:0:
256,192,254840,1,8,0:0:0:0:
256,192,254918,1,8,0:0:0:0:
256,192,254997,1,0,0:0:0:0:
256,192,255075,1,8,0:0:0:0:
256,192,255233,1,0,0:0:0:0:
256,192,255390,1,8,0:0:0:0:
256,192,255468,1,8,0:0:0:0:
256,192,255547,1,0,0:0:0:0:
256,192,255626,1,8,0:0:0:0:
256,192,255704,1,0,0:0:0:0:
256,192,255783,1,0,0:0:0:0:
256,192,255862,1,8,0:0:0:0:
256,192,255940,1,8,0:0:0:0:
256,192,256019,1,0,0:0:0:0:
256,192,256176,1,0,0:0:0:0:
256,192,256255,1,0,0:0:0:0:
256,192,256333,1,8,0:0:0:0:
256,192,256491,1,0,0:0:0:0:
256,192,256648,1,8,0:0:0:0:
256,192,256726,1,8,0:0:0:0:
256,192,256805,1,0,0:0:0:0:
256,192,256884,1,0,0:0:0:0:
256,192,256962,1,8,0:0:0:0:
256,192,257119,1,0,0:0:0:0:
256,192,257277,1,8,0:0:0:0:
256,192,257355,1,0,0:0:0:0:
256,192,257434,1,0,0:0:0:0:
256,192,257513,1,0,0:0:0:0:
256,192,257591,1,8,0:0:0:0:
256,192,257748,1,0,0:0:0:0:
256,192,257906,1,8,0:0:0:0:
256,192,257984,1,0,0:0:0:0:
256,192,258063,1,8,0:0:0:0:
256,192,258141,1,0,0:0:0:0:
256,192,258220,1,0,0:0:0:0:
256,192,258377,1,8,0:0:0:0:
256,192,258456,1,8,0:0:0:0:
256,192,258535,1,0,0:0:0:0:
256,192,258692,1,12,0:0:0:0:
256,192,258849,1,0,0:0:0:0:
256,192,259006,1,0,0:0:0:0:
256,192,259085,1,0,0:0:0:0:
256,192,259163,1,8,0:0:0:0:
256,192,259321,1,0,0:0:0:0:
256,192,259478,1,8,0:0:0:0:
256,192,259557,1,0,0:0:0:0:
256,192,259635,1,0,0:0:0:0:
256,192,259714,1,0,0:0:0:0:
256,192,259792,1,8,0:0:0:0:
256,192,259871,1,8,0:0:0:0:
256,192,259950,1,0,0:0:0:0:
256,192,260028,1,0,0:0:0:0:
256,192,260107,1,8,0:0:0:0:
256,192,260264,1,0,0:0:0:0:
256,192,260421,1,8,0:0:0:0:
256,192,260500,1,0,0:0:0:0:
256,192,260579,1,8,0:0:0:0:
256,192,260657,1,8,0:0:0:0:
256,192,260736,1,0,0:0:0:0:
256,192,260814,1,0,0:0:0:0:
256,192,260893,1,8,0:0:0:0:
256,192,260972,1,8,0:0:0:0:
256,192,261050,1,0,0:0:0:0:
256,192,261207,1,8,0:0:0:0:
256,192,261365,1,4,0:0:0:0:
256,192,261522,1,0,0:0:0:0:
256,192,261601,1,0,0:0:0:0:
256,192,261679,1,8,0:0:0:0:
256,192,261836,1,0,0:0:0:0:
256,192,261915,1,0,0:0:0:0:
256,192,261994,1,8,0:0:0:0:
256,192,262072,1,8,0:0:0:0:
256,192,262151,1,0,0:0:0:0:
256,192,262308,1,8,0:0:0:0:
256,192,262387,1,8,0:0:0:0:
256,192,262465,1,0,0:0:0:0:
256,192,262623,1,12,0:0:0:0:
256,192,262780,1,0,0:0:0:0:
256,192,262858,1,0,0:0:0:0:
256,192,262937,1,8,0:0:0:0:
256,192,263094,1,8,0:0:0:0:
256,192,263173,1,0,0:0:0:0:
256,192,263252,1,8,0:0:0:0:
256,192,263330,1,8,0:0:0:0:
256,192,263409,1,0,0:0:0:0:
256,192,263487,1,0,0:0:0:0:
256,192,263566,1,8,0:0:0:0:
256,192,263645,1,0,0:0:0:0:
256,192,263723,1,0,0:0:0:0:
256,192,263802,1,0,0:0:0:0:
256,192,263880,1,12,0:0:0:0:
256,192,264038,1,0,0:0:0:0:
256,192,264195,1,8,0:0:0:0:
256,192,264274,1,0,0:0:0:0:
256,192,264352,1,0,0:0:0:0:
256,192,264431,1,0,0:0:0:0:
256,192,264509,1,8,0:0:0:0:
256,192,264667,1,0,0:0:0:0:
256,192,264824,1,8,0:0:0:0:
256,192,264902,1,8,0:0:0:0:
256,192,264981,1,0,0:0:0:0:
256,192,265060,1,0,0:0:0:0:
256,192,265138,1,8,0:0:0:0:
256,192,265296,1,0,0:0:0:0:
256,192,265453,1,8,0:0:0:0:
256,192,265531,1,8,0:0:0:0:
256,192,265610,1,0,0:0:0:0:
256,192,265689,1,8,0:0:0:0:
256,192,265767,1,0,0:0:0:0:
256,192,265846,1,0,0:0:0:0:
256,192,265924,1,8,0:0:0:0:
256,192,266003,1,8,0:0:0:0:
256,192,266082,1,0,0:0:0:0:
256,192,266239,1,0,0:0:0:0:
256,192,266318,1,0,0:0:0:0:
256,192,266396,1,8,0:0:0:0:
256,192,266553,1,0,0:0:0:0:
256,192,266711,1,8,0:0:0:0:
256,192,266789,1,8,0:0:0:0:
256,192,266868,1,0,0:0:0:0:
256,192,266946,1,0,0:0:0:0:
256,192,267025,1,8,0:0:0:0:
256,192,267182,1,0,0:0:0:0:
256,192,267340,1,8,0:0:0:0:
256,192,267418,1,0,0:0:0:0:
256,192,267497,1,8,0:0:0:0:
256,192,267575,1,8,0:0:0:0:
256,192,267654,1,0,0:0:0:0:
256,192,267811,1,0,0:0:0:0:
256,192,267968,1,8,0:0:0:0:
256,192,268047,1,8,0:0:0:0:
256,192,268126,1,0,0:0:0:0:
256,192,268204,1,0,0:0:0:0:
256,192,268283,1,0,0:0:0:0:
256,192,268362,1,0,0:0:0:0:
256,192,268440,1,8,0:0:0:0:
256,192,268519,1,8,0:0:0:0:
256,192,268597,1,0,0:0:0:0:
256,192,268755,1,12,0:0:0:0:
256,192,268912,1,0,0:0:0:0:
256,192,269069,1,0,0:0:0:0:
256,192,269148,1,0,0:0:0:0:
256,192,269226,1,8,0:0:0:0:
256,192,269384,1,0,0:0:0:0:
256,192,269541,1,8,0:0:0:0:
256,192,269619,1,8,0:0:0:0:
256,192,269698,1,0,0:0:0:0:
256,192,269777,1,0,0:0:0:0:
256,192,269855,1,8,0:0:0:0:
256,192,269934,1,0,0:0:0:0:
256,192,270013,1,0,0:0:0:0:
256,192,270091,1,0,0:0:0:0:
256,192,270170,1,8,0:0:0:0:
256,192,270327,1,0,0:0:0:0:
256,192,270484,1,8,0:0:0:0:
256,192,270563,1,8,0:0:0:0:
256,192,270641,1,0,0:0:0:0:
256,192,270720,1,0,0:0:0:0:
256,192,270799,1,8,0:0:0:0:
256,192,270877,1,0,0:0:0:0:
256,192,270956,1,8,0:0:0:0:
256,192,271035,1,8,0:0:0:0:
256,192,271113,1,0,0:0:0:0:
256,192,271270,1,12,0:0:0:0:
256,192,271428,1,0,0:0:0:0:
256,192,271585,1,0,0:0:0:0:
256,192,271663,1,0,0:0:0:0:
256,192,271742,1,8,0:0:0:0:
256,192,271821,1,8,0:0:0:0:
256,192,271899,1,0,0:0:0:0:
256,192,272057,1,8,0:0:0:0:
256,192,272214,1,0,0:0:0:0:
256,192,272292,1,0,0:0:0:0:
256,192,272371,1,8,0:0:0:0:
256,192,272528,1,0,0:0:0:0:
256,192,272685,1,8,0:0:0:0:
256,192,272764,1,8,0:0:0:0:
256,192,272843,1,0,0:0:0:0:
256,192,273000,1,8,0:0:0:0:
256,192,273079,1,0,0:0:0:0:
256,192,273157,1,8,0:0:0:0:
256,192,273236,1,8,0:0:0:0:
256,192,273314,1,0,0:0:0:0:
256,192,273393,1,8,0:0:0:0:
256,192,273472,1,0,0:0:0:0:
256,192,273550,1,0,0:0:0:0:
256,192,273629,1,8,0:0:0:0:
256,192,273707,1,0,0:0:0:0:
256,192,273786,1,0,0:0:0:0:
256,192,273865,1,0,0:0:0:0:
256,192,273943,1,12,0:0:0:0:
256,192,274101,1,0,0:0:0:0:
256,192,274258,1,8,0:0:0:0:
256,192,274336,1,8,0:0:0:0:
256,192,274415,1,0,0:0:0:0:
256,192,274494,1,0,0:0:0:0:
256,192,274572,1,8,0:0:0:0:
256,192,274730,1,0,0:0:0:0:
256,192,274887,1,8,0:0:0:0:
256,192,274965,1,0,0:0:0:0:
256,192,275044,1,8,0:0:0:0:
256,192,275123,1,8,0:0:0:0:
256,192,275201,1,0,0:0:0:0:
256,192,275358,1,0,0:0:0:0:
256,192,275516,1,8,0:0:0:0:
256,192,275594,1,8,0:0:0:0:
256,192,275673,1,8,0:0:0:0:
256,192,275752,1,0,0:0:0:0:
256,192,275830,1,8,0:0:0:0:
256,192,275987,1,0,0:0:0:0:
256,192,276066,1,8,0:0:0:0:
256,192,276145,1,0,0:0:0:0:
256,192,276302,1,8,0:0:0:0:
256,192,276380,1,8,0:0:0:0:
256,192,276459,1,0,0:0:0:0:
256,192,276616,1,0,0:0:0:0:
256,192,276774,1,8,0:0:0:0:
256,192,276852,1,8,0:0:0:0:
256,192,276931,1,0,0:0:0:0:
256,192,277009,1,0,0:0:0:0:
256,192,277088,1,8,0:0:0:0:
256,192,277245,1,0,0:0:0:0:
256,192,277402,1,0,0:0:0:0:
256,192,277481,1,8,0:0:0:0:
256,192,277560,1,0,0:0:0:0:
256,192,277638,1,0,0:0:0:0:
256,192,277717,1,8,0:0:0:0:
256,192,277874,1,0,0:0:0:0:
256,192,278031,1,8,0:0:0:0:
256,192,278110,1,0,0:0:0:0:
256,192,278189,1,8,0:0:0:0:
256,192,278267,1,8,0:0:0:0:
256,192,278346,1,8,0:0:0:0:
256,192,278503,1,0,0:0:0:0:
256,192,278582,1,0,0:0:0:0:
256,192,278660,1,0,0:0:0:0:
256,192,278818,1,12,0:0:0:0:
256,192,278975,1,0,0:0:0:0:
256,192,279132,1,0,0:0:0:0:
256,192,279211,1,0,0:0:0:0:
256,192,279289,1,8,0:0:0:0:
256,192,279446,1,0,0:0:0:0:
256,192,279604,1,8,0:0:0:0:
256,192,279682,1,8,0:0:0:0:
256,192,279761,1,0,0:0:0:0:
256,192,279918,1,8,0:0:0:0:
256,192,279997,1,8,0:0:0:0:
256,192,280075,1,0,0:0:0:0:
256,192,280154,1,0,0:0:0:0:
256,192,280233,1,8,0:0:0:0:
256,192,280390,1,0,0:0:0:0:
256,192,280547,1,8,0:0:0:0:
256,192,280626,1,8,0:0:0:0:
256,192,280704,1,0,0:0:0:0:
256,192,280783,1,8,0:0:0:0:
256,192,280862,1,0,0:0:0:0:
256,192,280940,1,0,0:0:0:0:
256,192,281019,1,8,0:0:0:0:
256,192,281097,1,8,0:0:0:0:
256,192,281176,1,0,0:0:0:0:
256,192,281333,1,8,0:0:0:0:
256,192,281491,1,8,0:0:0:0:
256,192,281569,1,8,0:0:0:0:
256,192,281648,1,8,0:0:0:0:
256,192,281726,1,8,0:0:0:0:
256,192,281805,1,0,0:0:0:0:
256,192,281884,1,0,0:0:0:0:
256,192,281962,1,8,0:0:0:0:
256,192,282041,1,0,0:0:0:0:
256,192,282119,1,8,0:0:0:0:
256,192,282198,1,8,0:0:0:0:
256,192,282277,1,0,0:0:0:0:
256,192,282355,1,0,0:0:0:0:
256,192,282434,1,8,0:0:0:0:
256,192,282513,1,0,0:0:0:0:
256,192,282591,1,0,0:0:0:0:
256,192,282670,1,0,0:0:0:0:
256,192,282748,1,8,0:0:0:0:
256,192,282801,1,8,0:0:0:0:
256,192,282853,1,8,0:0:0:0:
256,192,282906,1,0,0:0:0:0:
256,192,282984,1,0,0:0:0:0:
256,192,283063,1,8,0:0:0:0:
256,192,283115,1,0,0:0:0:0:
256,192,283168,1,0,0:0:0:0:
256,192,283220,1,8,0:0:0:0:
256,192,283299,1,0,0:0:0:0:
256,192,283377,1,8,0:0:0:0:
256,192,283430,1,8,0:0:0:0:
256,192,283482,1,8,0:0:0:0:
256,192,283535,1,0,0:0:0:0:
256,192,283613,1,0,0:0:0:0:
256,192,283692,1,8,0:0:0:0:
256,192,283744,1,0,0:0:0:0:
256,192,283797,1,0,0:0:0:0:
256,192,283849,1,8,0:0:0:0:
256,192,283928,1,0,0:0:0:0:
256,192,284006,1,8,0:0:0:0:
256,192,284163,1,0,0:0:0:0:
256,192,284242,1,0,0:0:0:0:
256,192,284321,1,8,0:0:0:0:
256,192,284478,1,0,0:0:0:0:
256,192,284635,1,8,0:0:0:0:
256,192,284714,1,0,0:0:0:0:
256,192,284792,1,8,0:0:0:0:
256,192,284871,1,8,0:0:0:0:
256,192,284950,1,0,0:0:0:0:
256,192,285028,1,0,0:0:0:0:
256,192,285107,1,8,0:0:0:0:
256,192,285264,1,0,0:0:0:0:
256,192,285421,1,8,0:0:0:0:
256,192,285500,1,0,0:0:0:0:
256,192,285579,1,0,0:0:0:0:
256,192,285657,1,0,0:0:0:0:
256,192,285736,1,8,0:0:0:0:
256,192,285893,1,0,0:0:0:0:
256,192,286050,1,8,0:0:0:0:
256,192,286129,1,8,0:0:0:0:
256,192,286207,1,0,0:0:0:0:
256,192,286365,1,12,0:0:0:0:
256,192,286522,1,0,0:0:0:0:
256,192,286679,1,0,0:0:0:0:
256,192,286758,1,0,0:0:0:0:
256,192,286836,1,8,0:0:0:0:
256,192,286994,1,0,0:0:0:0:
256,192,287151,1,8,0:0:0:0:
256,192,287230,1,0,0:0:0:0:
256,192,287308,1,0,0:0:0:0:
256,192,287387,1,0,0:0:0:0:
256,192,287465,1,8,0:0:0:0:
256,192,287623,1,0,0:0:0:0:
256,192,287701,1,0,0:0:0:0:
256,192,287780,1,8,0:0:0:0:
256,192,287937,1,8,0:0:0:0:
256,192,288016,1,8,0:0:0:0:
256,192,288094,1,0,0:0:0:0:
256,192,288252,1,0,0:0:0:0:
256,192,288409,1,8,0:0:0:0:
256,192,288566,1,8,0:0:0:0:
256,192,288645,1,8,0:0:0:0:
256,192,288723,1,0,0:0:0:0:
256,192,288802,1,8,0:0:0:0:
256,192,288880,1,0,0:0:0:0:
256,192,288959,1,0,0:0:0:0:
256,192,289038,1,12,0:0:0:0:
256,192,289195,1,0,0:0:0:0:
256,192,289274,1,0,0:0:0:0:
256,192,289352,1,0,0:0:0:0:
256,192,289509,1,12,0:0:0:0:
256,192,289667,1,0,0:0:0:0:
256,192,289824,1,8,0:0:0:0:
256,192,289902,1,8,0:0:0:0:
256,192,289981,1,0,0:0:0:0:
256,192,290138,1,12,0:0:0:0:
256,192,290296,1,0,0:0:0:0:
256,192,290453,1,0,0:0:0:0:
256,192,290531,1,0,0:0:0:0:
256,192,290610,1,0,0:0:0:0:
256,192,290767,1,12,0:0:0:0:
256,192,290924,1,0,0:0:0:0:
256,192,291082,1,8,0:0:0:0:
256,192,291160,1,8,0:0:0:0:
256,192,291239,1,0,0:0:0:0:
256,192,291396,1,12,0:0:0:0:
256,192,291553,1,8,0:0:0:0:
256,192,291632,1,8,0:0:0:0:
256,192,291711,1,0,0:0:0:0:
256,192,291789,1,0,0:0:0:0:
256,192,291868,1,8,0:0:0:0:
256,192,291946,1,8,0:0:0:0:
256,192,292025,1,8,0:0:0:0:
256,192,292104,1,8,0:0:0:0:
256,192,292182,1,0,0:0:0:0:
256,192,292261,1,0,0:0:0:0:
256,192,292340,1,8,0:0:0:0:
256,192,292418,1,0,0:0:0:0:
256,192,292497,1,8,0:0:0:0:
256,192,292575,1,8,0:0:0:0:
256,192,292654,1,0,0:0:0:0:
256,192,292733,1,0,0:0:0:0:
256,192,292811,1,12,0:0:0:0:
256,192,292968,1,12,0:0:0:0:
256,192,294069,1,4,0:0:0:0:
256,192,294226,1,8,0:0:0:0:
256,192,294384,1,8,0:0:0:0:
256,192,294462,1,0,0:0:0:0:
256,192,294541,1,8,0:0:0:0:
256,192,294619,1,8,0:0:0:0:
256,192,294698,1,0,0:0:0:0:
256,192,294855,1,8,0:0:0:0:
256,192,294934,1,0,0:0:0:0:
256,192,295013,1,8,0:0:0:0:
256,192,295170,1,0,0:0:0:0:
256,192,295327,1,8,0:0:0:0:
256,192,295406,1,8,0:0:0:0:
256,192,295484,1,0,0:0:0:0:
256,192,295563,1,0,0:0:0:0:
256,192,295641,1,8,0:0:0:0:
256,192,295799,1,0,0:0:0:0:
256,192,295956,1,8,0:0:0:0:
256,192,296113,1,0,0:0:0:0:
256,192,296192,1,0,0:0:0:0:
256,192,296270,1,8,0:0:0:0:
256,192,296428,1,0,0:0:0:0:
256,192,296585,1,8,0:0:0:0:
256,192,296742,1,0,0:0:0:0:
256,192,296821,1,0,0:0:0:0:
256,192,296899,1,8,0:0:0:0:
256,192,296978,1,0,0:0:0:0:
256,192,297057,1,8,0:0:0:0:
256,192,297135,1,8,0:0:0:0:
256,192,297214,1,0,0:0:0:0:
256,192,297371,1,8,0:0:0:0:
256,192,297450,1,0,0:0:0:0:
256,192,297528,1,8,0:0:0:0:
256,192,297685,1,0,0:0:0:0:
256,192,297843,1,8,0:0:0:0:
256,192,297921,1,0,0:0:0:0:
256,192,298000,1,0,0:0:0:0:
256,192,298079,1,0,0:0:0:0:
256,192,298157,1,8,0:0:0:0:
256,192,298314,1,0,0:0:0:0:
256,192,298472,1,8,0:0:0:0:
256,192,298550,1,8,0:0:0:0:
256,192,298629,1,0,0:0:0:0:
256,192,298707,1,0,0:0:0:0:
256,192,298786,1,8,0:0:0:0:
256,192,298943,1,0,0:0:0:0:
256,192,299101,1,8,0:0:0:0:
256,192,299258,1,0,0:0:0:0:
256,192,299336,1,0,0:0:0:0:
256,192,299415,1,8,0:0:0:0:
256,192,299494,1,0,0:0:0:0:
256,192,299572,1,8,0:0:0:0:
256,192,299651,1,8,0:0:0:0:
256,192,299730,1,0,0:0:0:0:
256,192,299887,1,8,0:0:0:0:
256,192,299965,1,0,0:0:0:0:
256,192,300044,1,8,0:0:0:0:
256,192,300201,1,0,0:0:0:0:
256,192,300358,1,0,0:0:0:0:
256,192,300437,1,8,0:0:0:0:
256,192,300516,1,0,0:0:0:0:
256,192,300594,1,0,0:0:0:0:
256,192,300673,1,8,0:0:0:0:
256,192,300830,1,0,0:0:0:0:
256,192,300987,1,8,0:0:0:0:
256,192,301145,1,0,0:0:0:0:
256,192,301223,1,0,0:0:0:0:
256,192,301302,1,8,0:0:0:0:
256,192,301459,1,0,0:0:0:0:
256,192,301616,1,8,0:0:0:0:
256,192,301774,1,0,0:0:0:0:
256,192,301852,1,0,0:0:0:0:
256,192,301931,1,8,0:0:0:0:
256,192,302009,1,0,0:0:0:0:
256,192,302088,1,8,0:0:0:0:
256,192,302167,1,8,0:0:0:0:
256,192,302245,1,0,0:0:0:0:
256,192,302402,1,8,0:0:0:0:
256,192,302481,1,0,0:0:0:0:
256,192,302560,1,8,0:0:0:0:
256,192,302717,1,0,0:0:0:0:
256,192,302874,1,8,0:0:0:0:
256,192,302953,1,8,0:0:0:0:
256,192,303031,1,0,0:0:0:0:
256,192,303110,1,0,0:0:0:0:
256,192,303189,1,8,0:0:0:0:
256,192,303346,1,0,0:0:0:0:
256,192,303503,1,8,0:0:0:0:
256,192,303660,1,8,0:0:0:0:
256,192,303739,1,8,0:0:0:0:
256,192,303818,1,0,0:0:0:0:
256,192,303975,1,0,0:0:0:0:
256,192,304132,1,12,0:0:0:0:
256,192,304289,1,0,0:0:0:0:
256,192,304446,1,8,0:0:0:0:
256,192,304604,1,0,0:0:0:0:
256,192,304761,1,8,0:0:0:0:
256,192,304918,1,0,0:0:0:0:
256,192,305075,1,8,0:0:0:0:
256,192,305233,1,8,0:0:0:0:
256,192,305311,1,8,0:0:0:0:
256,192,305390,1,8,0:0:0:0:
256,192,305547,1,0,0:0:0:0:
256,192,305704,1,8,0:0:0:0:
256,192,305862,1,0,0:0:0:0:
256,192,306019,1,8,0:0:0:0:
256,192,306176,1,0,0:0:0:0:
256,192,306333,1,8,0:0:0:0:
256,192,306491,1,8,0:0:0:0:
256,192,306569,1,8,0:0:0:0:
256,192,306648,1,8,0:0:0:0:
256,192,306805,1,0,0:0:0:0:
256,192,306962,1,8,0:0:0:0:
256,192,307119,1,0,0:0:0:0:
256,192,307277,1,8,0:0:0:0:
256,192,307434,1,0,0:0:0:0:
256,192,307591,1,8,0:0:0:0:
256,192,307748,1,8,0:0:0:0:
256,192,307827,1,8,0:0:0:0:
256,192,307906,1,8,0:0:0:0:
256,192,308063,1,0,0:0:0:0:
256,192,308220,1,8,0:0:0:0:
256,192,308377,1,0,0:0:0:0:
256,192,308535,1,8,0:0:0:0:
256,192,308613,1,8,0:0:0:0:
256,192,308692,1,0,0:0:0:0:
256,192,308770,1,0,0:0:0:0:
256,192,308849,1,8,0:0:0:0:
256,192,308928,1,0,0:0:0:0:
256,192,309006,1,8,0:0:0:0:
256,192,309085,1,8,0:0:0:0:
256,192,309163,1,0,0:0:0:0:
256,192,309321,1,0,0:0:0:0:
256,192,309478,1,8,0:0:0:0:
256,192,309635,1,0,0:0:0:0:
256,192,309714,1,0,0:0:0:0:
256,192,309792,1,8,0:0:0:0:
256,192,309950,1,0,0:0:0:0:
256,192,310107,1,8,0:0:0:0:
256,192,310264,1,8,0:0:0:0:
256,192,310343,1,8,0:0:0:0:
256,192,310421,1,8,0:0:0:0:
256,192,310579,1,0,0:0:0:0:
256,192,310736,1,8,0:0:0:0:
256,192,310893,1,0,0:0:0:0:
256,192,310972,1,0,0:0:0:0:
256,192,311050,1,8,0:0:0:0:
256,192,311207,1,0,0:0:0:0:
256,192,311365,1,8,0:0:0:0:
256,192,311522,1,8,0:0:0:0:
256,192,311601,1,8,0:0:0:0:
256,192,311679,1,8,0:0:0:0:
256,192,311836,1,0,0:0:0:0:
256,192,311994,1,8,0:0:0:0:
256,192,312151,1,0,0:0:0:0:
256,192,312230,1,0,0:0:0:0:
256,192,312308,1,8,0:0:0:0:
256,192,312465,1,0,0:0:0:0:
256,192,312623,1,8,0:0:0:0:
256,192,312780,1,8,0:0:0:0:
256,192,312858,1,8,0:0:0:0:
256,192,312937,1,4,0:0:0:0:
256,192,313566,1,8,0:0:0:0:
256,192,313645,1,8,0:0:0:0:
256,192,313723,1,8,0:0:0:0:
256,192,313802,1,8,0:0:0:0:
256,192,313880,1,0,0:0:0:0:
256,192,314195,1,12,0:0:0:0:
256,192,314352,1,0,0:0:0:0:
256,192,314509,1,8,0:0:0:0:
256,192,314588,1,0,0:0:0:0:
256,192,314667,1,8,0:0:0:0:
256,192,314745,1,8,0:0:0:0:
256,192,314824,1,0,0:0:0:0:
256,192,314981,1,8,0:0:0:0:
256,192,315060,1,0,0:0:0:0:
256,192,315138,1,8,0:0:0:0:
256,192,315296,1,0,0:0:0:0:
256,192,315453,1,0,0:0:0:0:
256,192,315531,1,8,0:0:0:0:
256,192,315610,1,0,0:0:0:0:
256,192,315689,1,0,0:0:0:0:
256,192,315767,1,8,0:0:0:0:
256,192,315924,1,0,0:0:0:0:
256,192,316082,1,8,0:0:0:0:
256,192,316160,1,8,0:0:0:0:
256,192,316239,1,0,0:0:0:0:
256,192,316318,1,0,0:0:0:0:
256,192,316396,1,8,0:0:0:0:
256,192,316553,1,0,0:0:0:0:
256,192,316711,1,8,0:0:0:0:
256,192,316868,1,0,0:0:0:0:
256,192,316946,1,0,0:0:0:0:
256,192,317025,1,8,0:0:0:0:
256,192,317104,1,0,0:0:0:0:
256,192,317182,1,8,0:0:0:0:
256,192,317261,1,8,0:0:0:0:
256,192,317340,1,0,0:0:0:0:
256,192,317497,1,8,0:0:0:0:
256,192,317575,1,0,0:0:0:0:
256,192,317654,1,8,0:0:0:0:
256,192,317811,1,0,0:0:0:0:
256,192,317968,1,8,0:0:0:0:
256,192,318047,1,0,0:0:0:0:
256,192,318126,1,0,0:0:0:0:
256,192,318204,1,0,0:0:0:0:
256,192,318283,1,8,0:0:0:0:
256,192,318440,1,0,0:0:0:0:
256,192,318597,1,8,0:0:0:0:
256,192,318676,1,8,0:0:0:0:
256,192,318755,1,0,0:0:0:0:
256,192,318833,1,0,0:0:0:0:
256,192,318912,1,8,0:0:0:0:
256,192,319069,1,0,0:0:0:0:
256,192,319226,1,8,0:0:0:0:
256,192,319384,1,0,0:0:0:0:
256,192,319462,1,0,0:0:0:0:
256,192,319541,1,8,0:0:0:0:
256,192,319619,1,0,0:0:0:0:
256,192,319698,1,8,0:0:0:0:
256,192,319777,1,8,0:0:0:0:
256,192,319855,1,0,0:0:0:0:
256,192,320013,1,8,0:0:0:0:
256,192,320091,1,0,0:0:0:0:
256,192,320170,1,8,0:0:0:0:
256,192,320327,1,0,0:0:0:0:
256,192,320484,1,0,0:0:0:0:
256,192,320563,1,8,0:0:0:0:
256,192,320641,1,0,0:0:0:0:
256,192,320720,1,0,0:0:0:0:
256,192,320799,1,8,0:0:0:0:
256,192,320956,1,0,0:0:0:0:
256,192,321113,1,8,0:0:0:0:
256,192,321192,1,0,0:0:0:0:
256,192,321270,1,0,0:0:0:0:
256,192,321349,1,0,0:0:0:0:
256,192,321428,1,8,0:0:0:0:
256,192,321585,1,0,0:0:0:0:
256,192,321742,1,8,0:0:0:0:
256,192,321899,1,0,0:0:0:0:
256,192,321978,1,0,0:0:0:0:
256,192,322057,1,8,0:0:0:0:
256,192,322135,1,0,0:0:0:0:
256,192,322214,1,8,0:0:0:0:
256,192,322292,1,8,0:0:0:0:
256,192,322371,1,0,0:0:0:0:
256,192,322528,1,8,0:0:0:0:
256,192,322607,1,0,0:0:0:0:
256,192,322685,1,8,0:0:0:0:
256,192,322843,1,0,0:0:0:0:
256,192,323000,1,8,0:0:0:0:
256,192,323079,1,8,0:0:0:0:
256,192,323157,1,0,0:0:0:0:
256,192,323236,1,0,0:0:0:0:
256,192,323314,1,8,0:0:0:0:
256,192,323472,1,0,0:0:0:0:
256,192,323629,1,8,0:0:0:0:
256,192,323786,1,8,0:0:0:0:
256,192,323865,1,8,0:0:0:0:
256,192,323943,1,0,0:0:0:0:
256,192,324101,1,0,0:0:0:0:
256,192,324258,1,12,0:0:0:0:
256,192,324415,1,0,0:0:0:0:
256,192,324494,1,0,0:0:0:0:
256,192,324572,1,8,0:0:0:0:
256,192,324651,1,0,0:0:0:0:
256,192,324730,1,8,0:0:0:0:
256,192,324808,1,8,0:0:0:0:
256,192,324887,1,0,0:0:0:0:
256,192,325044,1,8,0:0:0:0:
256,192,325123,1,0,0:0:0:0:
256,192,325201,1,8,0:0:0:0:
256,192,325358,1,0,0:0:0:0:
256,192,325516,1,0,0:0:0:0:
256,192,325594,1,8,0:0:0:0:
256,192,325673,1,0,0:0:0:0:
256,192,325752,1,0,0:0:0:0:
256,192,325830,1,8,0:0:0:0:
256,192,325987,1,0,0:0:0:0:
256,192,326145,1,8,0:0:0:0:
256,192,326223,1,0,0:0:0:0:
256,192,326302,1,0,0:0:0:0:
256,192,326380,1,0,0:0:0:0:
256,192,326459,1,8,0:0:0:0:
256,192,326616,1,0,0:0:0:0:
256,192,326774,1,8,0:0:0:0:
256,192,326931,1,0,0:0:0:0:
256,192,327009,1,0,0:0:0:0:
256,192,327088,1,8,0:0:0:0:
256,192,327167,1,0,0:0:0:0:
256,192,327245,1,8,0:0:0:0:
256,192,327324,1,8,0:0:0:0:
256,192,327402,1,0,0:0:0:0:
256,192,327560,1,8,0:0:0:0:
256,192,327638,1,0,0:0:0:0:
256,192,327717,1,8,0:0:0:0:
256,192,327874,1,0,0:0:0:0:
256,192,328031,1,8,0:0:0:0:
256,192,328110,1,0,0:0:0:0:
256,192,328189,1,0,0:0:0:0:
256,192,328267,1,0,0:0:0:0:
256,192,328346,1,8,0:0:0:0:
256,192,328503,1,0,0:0:0:0:
256,192,328660,1,8,0:0:0:0:
256,192,328739,1,8,0:0:0:0:
256,192,328818,1,0,0:0:0:0:
256,192,328896,1,0,0:0:0:0:
256,192,328975,1,8,0:0:0:0:
256,192,329132,1,0,0:0:0:0:
256,192,329289,1,8,0:0:0:0:
256,192,329368,1,8,0:0:0:0:
256,192,329446,1,0,0:0:0:0:
256,192,329525,1,0,0:0:0:0:
256,192,329604,1,8,0:0:0:0:
256,192,329682,1,0,0:0:0:0:
256,192,329761,1,8,0:0:0:0:
256,192,329840,1,8,0:0:0:0:
256,192,329918,1,0,0:0:0:0:
256,192,330075,1,8,0:0:0:0:
256,192,330154,1,0,0:0:0:0:
256,192,330233,1,8,0:0:0:0:
256,192,330390,1,0,0:0:0:0:
256,192,330547,1,0,0:0:0:0:
256,192,330626,1,8,0:0:0:0:
256,192,330704,1,0,0:0:0:0:
256,192,330783,1,0,0:0:0:0:
256,192,330862,1,8,0:0:0:0:
256,192,331019,1,0,0:0:0:0:
256,192,331176,1,8,0:0:0:0:
256,192,331255,1,8,0:0:0:0:
256,192,331333,1,0,0:0:0:0:
256,192,331412,1,0,0:0:0:0:
256,192,331491,1,8,0:0:0:0:
256,192,331648,1,0,0:0:0:0:
256,192,331805,1,8,0:0:0:0:
256,192,331962,1,0,0:0:0:0:
256,192,332041,1,0,0:0:0:0:
256,192,332119,1,8,0:0:0:0:
256,192,332198,1,0,0:0:0:0:
256,192,332277,1,8,0:0:0:0:
256,192,332355,1,8,0:0:0:0:
256,192,332434,1,0,0:0:0:0:
256,192,332591,1,8,0:0:0:0:
256,192,332670,1,0,0:0:0:0:
256,192,332748,1,8,0:0:0:0:
256,192,332906,1,0,0:0:0:0:
256,192,333063,1,8,0:0:0:0:
256,192,333141,1,0,0:0:0:0:
256,192,333220,1,0,0:0:0:0:
256,192,333299,1,0,0:0:0:0:
256,192,333377,1,8,0:0:0:0:
256,192,333535,1,0,0:0:0:0:
256,192,333692,1,8,0:0:0:0:
256,192,333770,1,8,0:0:0:0:
256,192,333849,1,8,0:0:0:0:
256,192,333928,1,8,0:0:0:0:
256,192,334006,1,0,0:0:0:0:
256,192,334163,1,0,0:0:0:0:
256,192,334321,1,12,0:0:0:0:
256,192,334478,1,0,0:0:0:0:
256,192,334635,1,8,0:0:0:0:
256,192,334792,1,0,0:0:0:0:
256,192,334871,1,0,0:0:0:0:
256,192,334950,1,8,0:0:0:0:
256,192,335107,1,0,0:0:0:0:
256,192,335264,1,8,0:0:0:0:
256,192,335343,1,8,0:0:0:0:
256,192,335421,1,0,0:0:0:0:
256,192,335500,1,0,0:0:0:0:
256,192,335579,1,8,0:0:0:0:
256,192,335736,1,0,0:0:0:0:
256,192,335814,1,0,0:0:0:0:
256,192,335893,1,8,0:0:0:0:
256,192,335972,1,0,0:0:0:0:
256,192,336050,1,8,0:0:0:0:
256,192,336129,1,8,0:0:0:0:
256,192,336207,1,0,0:0:0:0:
256,192,336365,1,0,0:0:0:0:
256,192,336522,1,8,0:0:0:0:
256,192,336601,1,0,0:0:0:0:
256,192,336679,1,8,0:0:0:0:
256,192,336758,1,8,0:0:0:0:
256,192,336836,1,8,0:0:0:0:
256,192,336994,1,0,0:0:0:0:
256,192,337151,1,8,0:0:0:0:
256,192,337230,1,0,0:0:0:0:
256,192,337308,1,8,0:0:0:0:
256,192,337387,1,8,0:0:0:0:
256,192,337465,1,0,0:0:0:0:
256,192,337623,1,0,0:0:0:0:
256,192,337780,1,8,0:0:0:0:
256,192,337858,1,0,0:0:0:0:
256,192,337937,1,0,0:0:0:0:
256,192,338016,1,0,0:0:0:0:
256,192,338094,1,8,0:0:0:0:
256,192,338252,1,0,0:0:0:0:
256,192,338409,1,0,0:0:0:0:
256,192,338487,1,8,0:0:0:0:
256,192,338566,1,0,0:0:0:0:
256,192,338645,1,0,0:0:0:0:
256,192,338723,1,8,0:0:0:0:
256,192,338802,1,0,0:0:0:0:
256,192,338880,1,8,0:0:0:0:
256,192,338959,1,8,0:0:0:0:
256,192,339038,1,0,0:0:0:0:
256,192,339195,1,8,0:0:0:0:
256,192,339352,1,0,0:0:0:0:
256,192,339431,1,0,0:0:0:0:
256,192,339509,1,8,0:0:0:0:
256,192,339588,1,0,0:0:0:0:
256,192,339667,1,8,0:0:0:0:
256,192,339824,1,0,0:0:0:0:
256,192,339902,1,0,0:0:0:0:
256,192,339981,1,8,0:0:0:0:
256,192,340138,1,0,0:0:0:0:
256,192,340296,1,8,0:0:0:0:
256,192,340374,1,8,0:0:0:0:
256,192,340453,1,0,0:0:0:0:
256,192,340531,1,0,0:0:0:0:
256,192,340610,1,8,0:0:0:0:
256,192,340767,1,8,0:0:0:0:
256,192,340846,1,0,0:0:0:0:
256,192,340924,1,8,0:0:0:0:
256,192,341003,1,0,0:0:0:0:
256,192,341082,1,8,0:0:0:0:
256,192,341160,1,8,0:0:0:0:
256,192,341239,1,0,0:0:0:0:
256,192,341396,1,0,0:0:0:0:
256,192,341553,1,8,0:0:0:0:
256,192,341632,1,0,0:0:0:0:
256,192,341711,1,8,0:0:0:0:
256,192,341789,1,8,0:0:0:0:
256,192,341868,1,0,0:0:0:0:
256,192,342025,1,0,0:0:0:0:
256,192,342182,1,8,0:0:0:0:
256,192,342261,1,0,0:0:0:0:
256,192,342340,1,8,0:0:0:0:
256,192,342418,1,8,0:0:0:0:
256,192,342497,1,0,0:0:0:0:
256,192,342654,1,8,0:0:0:0:
256,192,342733,1,8,0:0:0:0:
256,192,342811,1,8,0:0:0:0:
256,192,342890,1,8,0:0:0:0:
256,192,342968,1,0,0:0:0:0:
256,192,343126,1,8,0:0:0:0:
256,192,343204,1,8,0:0:0:0:
256,192,343283,1,0,0:0:0:0:
256,192,343362,1,8,0:0:0:0:
256,192,343440,1,0,0:0:0:0:
256,192,343519,1,0,0:0:0:0:
256,192,343597,1,8,0:0:0:0:
256,192,343676,1,0,0:0:0:0:
256,192,343755,1,8,0:0:0:0:
256,192,343833,1,8,0:0:0:0:
256,192,343912,1,0,0:0:0:0:
256,192,343991,1,0,0:0:0:0:
256,192,344069,1,8,0:0:0:0:
256,192,344226,1,0,0:0:0:0:
256,192,344305,1,0,0:0:0:0:
256,192,344384,1,12,0:0:0:0:
256,192,344541,1,0,0:0:0:0:
256,192,344698,1,8,0:0:0:0:
256,192,344777,1,0,0:0:0:0:
256,192,344855,1,0,0:0:0:0:
256,192,344934,1,0,0:0:0:0:
256,192,345013,1,8,0:0:0:0:
256,192,345170,1,0,0:0:0:0:
256,192,345327,1,8,0:0:0:0:
256,192,345406,1,8,0:0:0:0:
256,192,345484,1,0,0:0:0:0:
256,192,345563,1,0,0:0:0:0:
256,192,345641,1,8,0:0:0:0:
256,192,345799,1,0,0:0:0:0:
256,192,345877,1,0,0:0:0:0:
256,192,345956,1,8,0:0:0:0:
256,192,346035,1,0,0:0:0:0:
256,192,346113,1,8,0:0:0:0:
256,192,346192,1,8,0:0:0:0:
256,192,346270,1,0,0:0:0:0:
256,192,346428,1,0,0:0:0:0:
256,192,346585,1,8,0:0:0:0:
256,192,346663,1,0,0:0:0:0:
256,192,346742,1,8,0:0:0:0:
256,192,346821,1,8,0:0:0:0:
256,192,346899,1,8,0:0:0:0:
256,192,347057,1,0,0:0:0:0:
256,192,347214,1,8,0:0:0:0:
256,192,347292,1,0,0:0:0:0:
256,192,347371,1,8,0:0:0:0:
256,192,347450,1,8,0:0:0:0:
256,192,347528,1,0,0:0:0:0:
256,192,347685,1,0,0:0:0:0:
256,192,347843,1,8,0:0:0:0:
256,192,347921,1,0,0:0:0:0:
256,192,348000,1,0,0:0:0:0:
256,192,348079,1,0,0:0:0:0:
256,192,348157,1,8,0:0:0:0:
256,192,348314,1,0,0:0:0:0:
256,192,348472,1,0,0:0:0:0:
256,192,348550,1,8,0:0:0:0:
256,192,348629,1,0,0:0:0:0:
256,192,348707,1,0,0:0:0:0:
256,192,348786,1,8,0:0:0:0:
256,192,348865,1,0,0:0:0:0:
256,192,348943,1,8,0:0:0:0:
256,192,349022,1,8,0:0:0:0:
256,192,349101,1,0,0:0:0:0:
256,192,349258,1,8,0:0:0:0:
256,192,349415,1,4,0:0:0:0:
256,192,349572,1,0,0:0:0:0:
256,192,349730,1,8,0:0:0:0:
256,192,349887,1,0,0:0:0:0:
256,192,349965,1,0,0:0:0:0:
256,192,350044,1,8,0:0:0:0:
256,192,350201,1,0,0:0:0:0:
256,192,350358,1,8,0:0:0:0:
256,192,350516,1,8,0:0:0:0:
256,192,350830,1,0,0:0:0:0:
256,192,350987,1,8,0:0:0:0:
256,192,351066,1,0,0:0:0:0:
256,192,351145,1,8,0:0:0:0:
256,192,351223,1,8,0:0:0:0:
256,192,351302,1,0,0:0:0:0:
256,192,351459,1,0,0:0:0:0:
256,192,351616,1,8,0:0:0:0:
256,192,351774,1,0,0:0:0:0:
256,192,351931,1,8,0:0:0:0:
256,192,352009,1,8,0:0:0:0:
256,192,352088,1,0,0:0:0:0:
256,192,352167,1,0,0:0:0:0:
256,192,352245,1,8,0:0:0:0:
256,192,352298,1,8,0:0:0:0:
256,192,352350,1,8,0:0:0:0:
256,192,352402,1,0,0:0:0:0:
256,192,352481,1,0,0:0:0:0:
256,192,352560,1,8,0:0:0:0:
256,192,352612,1,8,0:0:0:0:
256,192,352665,1,8,0:0:0:0:
256,192,352717,1,0,0:0:0:0:
256,192,352796,1,0,0:0:0:0:
256,192,352874,1,8,0:0:0:0:
256,192,352927,1,0,0:0:0:0:
256,192,352979,1,0,0:0:0:0:
256,192,353031,1,8,0:0:0:0:
256,192,353189,1,4,0:0:0:0:
256,192,354446,1,12,0:0:0:0:
256,192,354604,1,0,0:0:0:0:
256,192,354761,1,8,0:0:0:0:
256,192,354918,1,0,0:0:0:0:
256,192,354997,1,0,0:0:0:0:
256,192,355075,1,8,0:0:0:0:
256,192,355233,1,0,0:0:0:0:
256,192,355390,1,8,0:0:0:0:
256,192,355468,1,8,0:0:0:0:
256,192,355547,1,0,0:0:0:0:
256,192,355626,1,0,0:0:0:0:
256,192,355704,1,8,0:0:0:0:
256,192,355862,1,0,0:0:0:0:
256,192,355940,1,0,0:0:0:0:
256,192,356019,1,8,0:0:0:0:
256,192,356097,1,0,0:0:0:0:
256,192,356176,1,8,0:0:0:0:
256,192,356255,1,8,0:0:0:0:
256,192,356333,1,0,0:0:0:0:
256,192,356491,1,0,0:0:0:0:
256,192,356648,1,8,0:0:0:0:
256,192,356805,1,8,0:0:0:0:
256,192,356884,1,8,0:0:0:0:
256,192,356962,1,8,0:0:0:0:
256,192,357119,1,0,0:0:0:0:
256,192,357277,1,8,0:0:0:0:
256,192,357434,1,8,0:0:0:0:
256,192,357513,1,8,0:0:0:0:
256,192,357591,1,0,0:0:0:0:
256,192,357748,1,8,0:0:0:0:
256,192,357827,1,0,0:0:0:0:
256,192,357984,1,0,0:0:0:0:
256,192,358063,1,8,0:0:0:0:
256,192,358141,1,0,0:0:0:0:
256,192,358220,1,8,0:0:0:0:
256,192,358377,1,0,0:0:0:0:
256,192,358535,1,0,0:0:0:0:
256,192,358613,1,8,0:0:0:0:
256,192,358692,1,0,0:0:0:0:
256,192,358770,1,0,0:0:0:0:
256,192,358849,1,8,0:0:0:0:
256,192,359006,1,8,0:0:0:0:
256,192,359085,1,8,0:0:0:0:
256,192,359163,1,0,0:0:0:0:
256,192,359321,1,8,0:0:0:0:
256,192,359478,1,0,0:0:0:0:
256,192,359557,1,0,0:0:0:0:
256,192,359635,1,8,0:0:0:0:
256,192,359714,1,0,0:0:0:0:
256,192,359792,1,8,0:0:0:0:
256,192,359950,1,0,0:0:0:0:
256,192,360028,1,0,0:0:0:0:
256,192,360107,1,8,0:0:0:0:
256,192,360264,1,0,0:0:0:0:
256,192,360343,1,8,0:0:0:0:
256,192,360500,1,8,0:0:0:0:
256,192,360579,1,0,0:0:0:0:
256,192,360657,1,0,0:0:0:0:
256,192,360736,1,8,0:0:0:0:
256,192,360893,1,0,0:0:0:0:
256,192,361050,1,8,0:0:0:0:
256,192,361129,1,8,0:0:0:0:
256,192,361207,1,8,0:0:0:0:
256,192,361286,1,8,0:0:0:0:
256,192,361365,1,0,0:0:0:0:
256,192,361522,1,0,0:0:0:0:
256,192,361679,1,8,0:0:0:0:
256,192,361758,1,0,0:0:0:0:
256,192,361836,1,8,0:0:0:0:
256,192,361915,1,8,0:0:0:0:
256,192,361994,1,0,0:0:0:0:
256,192,362151,1,0,0:0:0:0:
256,192,362308,1,8,0:0:0:0:
256,192,362387,1,0,0:0:0:0:
256,192,362465,1,8,0:0:0:0:
256,192,362544,1,8,0:0:0:0:
256,192,362623,1,0,0:0:0:0:
256,192,362780,1,8,0:0:0:0:
256,192,362858,1,8,0:0:0:0:
256,192,363016,1,8,0:0:0:0:
256,192,363094,1,0,0:0:0:0:
256,192,363252,1,8,0:0:0:0:
256,192,363330,1,8,0:0:0:0:
256,192,363409,1,0,0:0:0:0:
256,192,363487,1,8,0:0:0:0:
256,192,363566,1,0,0:0:0:0:
256,192,363645,1,0,0:0:0:0:
256,192,363723,1,8,0:0:0:0:
256,192,363802,1,0,0:0:0:0:
256,192,363880,1,8,0:0:0:0:
256,192,363959,1,8,0:0:0:0:
256,192,364038,1,0,0:0:0:0:
256,192,364116,1,0,0:0:0:0:
256,192,364195,1,8,0:0:0:0:
256,192,364352,1,0,0:0:0:0:
256,192,364431,1,0,0:0:0:0:
256,192,364509,1,12,0:0:0:0:
256,192,364667,1,0,0:0:0:0:
256,192,364824,1,8,0:0:0:0:
256,192,364902,1,0,0:0:0:0:
256,192,364981,1,0,0:0:0:0:
256,192,365138,1,8,0:0:0:0:
256,192,365217,1,0,0:0:0:0:
256,192,365374,1,0,0:0:0:0:
256,192,365453,1,8,0:0:0:0:
256,192,365610,1,0,0:0:0:0:
256,192,365689,1,0,0:0:0:0:
256,192,365767,1,8,0:0:0:0:
256,192,365924,1,0,0:0:0:0:
256,192,366082,1,8,0:0:0:0:
256,192,366160,1,0,0:0:0:0:
256,192,366239,1,8,0:0:0:0:
256,192,366318,1,8,0:0:0:0:
256,192,366396,1,0,0:0:0:0:
256,192,366553,1,0,0:0:0:0:
256,192,366632,1,8,0:0:0:0:
256,192,366789,1,8,0:0:0:0:
256,192,366868,1,0,0:0:0:0:
256,192,366946,1,0,0:0:0:0:
256,192,367025,1,8,0:0:0:0:
256,192,367182,1,0,0:0:0:0:
256,192,367340,1,8,0:0:0:0:
256,192,367418,1,0,0:0:0:0:
256,192,367497,1,8,0:0:0:0:
256,192,367575,1,8,0:0:0:0:
256,192,367654,1,0,0:0:0:0:
256,192,367811,1,0,0:0:0:0:
256,192,367890,1,8,0:0:0:0:
256,192,368047,1,0,0:0:0:0:
256,192,368126,1,0,0:0:0:0:
256,192,368204,1,0,0:0:0:0:
256,192,368283,1,8,0:0:0:0:
256,192,368440,1,0,0:0:0:0:
256,192,368597,1,0,0:0:0:0:
256,192,368676,1,8,0:0:0:0:
256,192,368755,1,0,0:0:0:0:
256,192,368833,1,0,0:0:0:0:
256,192,368912,1,8,0:0:0:0:
256,192,368991,1,0,0:0:0:0:
256,192,369069,1,8,0:0:0:0:
256,192,369148,1,8,0:0:0:0:
256,192,369226,1,0,0:0:0:0:
256,192,369384,1,8,0:0:0:0:
256,192,369462,1,8,0:0:0:0:
256,192,369541,1,0,0:0:0:0:
256,192,369698,1,0,0:0:0:0:
256,192,369855,1,8,0:0:0:0:
256,192,369934,1,0,0:0:0:0:
256,192,370013,1,0,0:0:0:0:
256,192,370170,1,8,0:0:0:0:
256,192,370248,1,0,0:0:0:0:
256,192,370406,1,0,0:0:0:0:
256,192,370484,1,8,0:0:0:0:
256,192,370641,1,0,0:0:0:0:
256,192,370720,1,0,0:0:0:0:
256,192,370799,1,8,0:0:0:0:
256,192,370956,1,0,0:0:0:0:
256,192,371113,1,8,0:0:0:0:
256,192,371192,1,0,0:0:0:0:
256,192,371270,1,8,0:0:0:0:
256,192,371349,1,8,0:0:0:0:
256,192,371428,1,0,0:0:0:0:
256,192,371585,1,0,0:0:0:0:
256,192,371663,1,8,0:0:0:0:
256,192,371821,1,8,0:0:0:0:
256,192,371899,1,0,0:0:0:0:
256,192,372057,1,8,0:0:0:0:
256,192,372135,1,8,0:0:0:0:
256,192,372214,1,0,0:0:0:0:
256,192,372292,1,0,0:0:0:0:
256,192,372371,1,8,0:0:0:0:
256,192,372450,1,0,0:0:0:0:
256,192,372528,1,8,0:0:0:0:
256,192,372607,1,8,0:0:0:0:
256,192,372685,1,0,0:0:0:0:
256,192,372764,1,0,0:0:0:0:
256,192,372843,1,8,0:0:0:0:
256,192,372921,1,8,0:0:0:0:
256,192,373000,1,0,0:0:0:0:
256,192,373079,1,8,0:0:0:0:
256,192,373157,1,0,0:0:0:0:
256,192,373236,1,0,0:0:0:0:
256,192,373314,1,8,0:0:0:0:
256,192,373367,1,8,0:0:0:0:
256,192,373419,1,8,0:0:0:0:
256,192,373472,1,0,0:0:0:0:
256,192,373550,1,8,0:0:0:0:
256,192,373629,1,0,0:0:0:0:
256,192,373681,1,0,0:0:0:0:
256,192,373734,1,0,0:0:0:0:
256,192,373786,1,8,0:0:0:0:
256,192,373865,1,0,0:0:0:0:
256,192,373943,1,8,0:0:0:0:
256,192,373996,1,8,0:0:0:0:
256,192,374048,1,8,0:0:0:0:
256,192,374101,1,0,0:0:0:0:
256,192,374179,1,0,0:0:0:0:
256,192,374258,1,8,0:0:0:0:
256,192,374310,1,0,0:0:0:0:
256,192,374363,1,0,0:0:0:0:
256,192,374415,1,8,0:0:0:0:
256,192,374572,1,4,0:0:0:0:
256,192,374730,1,8,0:0:0:0:
256,192,374808,1,8,0:0:0:0:
256,192,374887,1,0,0:0:0:0:
256,192,375044,1,0,0:0:0:0:
256,192,375201,1,8,0:0:0:0:
256,192,375280,1,0,0:0:0:0:
256,192,375437,1,0,0:0:0:0:
256,192,375516,1,8,0:0:0:0:
256,192,375673,1,0,0:0:0:0:
256,192,375830,1,8,0:0:0:0:
256,192,375909,1,0,0:0:0:0:
256,192,375987,1,8,0:0:0:0:
256,192,376066,1,8,0:0:0:0:
256,192,376145,1,0,0:0:0:0:
256,192,376302,1,0,0:0:0:0:
256,192,376380,1,8,0:0:0:0:
256,192,376459,1,8,0:0:0:0:
256,192,376538,1,0,0:0:0:0:
256,192,376695,1,0,0:0:0:0:
256,192,376774,1,8,0:0:0:0:
256,192,376931,1,0,0:0:0:0:
256,192,377088,1,8,0:0:0:0:
256,192,377167,1,8,0:0:0:0:
256,192,377245,1,0,0:0:0:0:
256,192,377324,1,0,0:0:0:0:
256,192,377402,1,8,0:0:0:0:
256,192,377560,1,0,0:0:0:0:
256,192,377717,1,0,0:0:0:0:
256,192,377796,1,8,0:0:0:0:
256,192,377953,1,0,0:0:0:0:
256,192,378031,1,8,0:0:0:0:
256,192,378189,1,8,0:0:0:0:
256,192,378346,1,0,0:0:0:0:
256,192,378424,1,8,0:0:0:0:
256,192,378503,1,0,0:0:0:0:
256,192,378582,1,0,0:0:0:0:
256,192,378660,1,8,0:0:0:0:
256,192,378818,1,0,0:0:0:0:
256,192,378975,1,8,0:0:0:0:
256,192,379053,1,0,0:0:0:0:
256,192,379211,1,0,0:0:0:0:
256,192,379289,1,8,0:0:0:0:
256,192,379446,1,0,0:0:0:0:
256,192,379604,1,0,0:0:0:0:
256,192,379682,1,0,0:0:0:0:
256,192,379761,1,8,0:0:0:0:
256,192,379840,1,0,0:0:0:0:
256,192,379918,1,8,0:0:0:0:
256,192,380075,1,0,0:0:0:0:
256,192,380233,1,0,0:0:0:0:
256,192,380311,1,8,0:0:0:0:
256,192,380468,1,0,0:0:0:0:
256,192,380547,1,8,0:0:0:0:
256,192,380704,1,0,0:0:0:0:
256,192,380862,1,8,0:0:0:0:
256,192,380940,1,0,0:0:0:0:
256,192,381019,1,8,0:0:0:0:
256,192,381097,1,8,0:0:0:0:
256,192,381176,1,0,0:0:0:0:
256,192,381333,1,8,0:0:0:0:
256,192,381491,1,0,0:0:0:0:
256,192,381569,1,8,0:0:0:0:
256,192,381726,1,8,0:0:0:0:
256,192,381805,1,0,0:0:0:0:
256,192,381962,1,0,0:0:0:0:
256,192,382119,1,8,0:0:0:0:
256,192,382198,1,8,0:0:0:0:
256,192,382277,1,0,0:0:0:0:
256,192,382355,1,0,0:0:0:0:
256,192,382434,1,8,0:0:0:0:
256,192,382591,1,0,0:0:0:0:
256,192,382670,1,8,0:0:0:0:
256,192,382748,1,8,0:0:0:0:
256,192,382827,1,0,0:0:0:0:
256,192,382984,1,0,0:0:0:0:
256,192,383063,1,8,0:0:0:0:
256,192,383220,1,0,0:0:0:0:
256,192,383299,1,0,0:0:0:0:
256,192,383377,1,8,0:0:0:0:
256,192,383535,1,0,0:0:0:0:
256,192,383613,1,8,0:0:0:0:
256,192,383692,1,0,0:0:0:0:
256,192,383849,1,8,0:0:0:0:
256,192,384006,1,0,0:0:0:0:
256,192,384163,1,8,0:0:0:0:
256,192,384242,1,8,0:0:0:0:
256,192,384321,1,0,0:0:0:0:
256,192,384478,1,8,0:0:0:0:
256,192,384557,1,8,0:0:0:0:
256,192,384635,1,4,0:0:0:0:
256,192,384792,1,8,0:0:0:0:
256,192,384950,1,0,0:0:0:0:
256,192,385107,1,0,0:0:0:0:
256,192,385185,1,0,0:0:0:0:
256,192,385264,1,8,0:0:0:0:
256,192,385421,1,0,0:0:0:0:
256,192,385579,1,8,0:0:0:0:
256,192,385736,1,0,0:0:0:0:
256,192,385893,1,8,0:0:0:0:
256,192,385972,1,0,0:0:0:0:
256,192,386050,1,8,0:0:0:0:
256,192,386129,1,8,0:0:0:0:
256,192,386207,1,0,0:0:0:0:
256,192,386365,1,0,0:0:0:0:
256,192,386522,1,8,0:0:0:0:
256,192,386601,1,0,0:0:0:0:
256,192,386758,1,0,0:0:0:0:
256,192,386836,1,8,0:0:0:0:
256,192,386994,1,0,0:0:0:0:
256,192,387151,1,8,0:0:0:0:
256,192,387230,1,8,0:0:0:0:
256,192,387308,1,0,0:0:0:0:
256,192,387387,1,0,0:0:0:0:
256,192,387465,1,8,0:0:0:0:
256,192,387623,1,0,0:0:0:0:
256,192,387780,1,0,0:0:0:0:
256,192,387858,1,8,0:0:0:0:
256,192,388016,1,0,0:0:0:0:
256,192,388094,1,8,0:0:0:0:
256,192,388252,1,8,0:0:0:0:
256,192,388409,1,0,0:0:0:0:
256,192,388487,1,8,0:0:0:0:
256,192,388566,1,0,0:0:0:0:
256,192,388645,1,0,0:0:0:0:
256,192,388723,1,8,0:0:0:0:
256,192,388880,1,0,0:0:0:0:
256,192,389038,1,8,0:0:0:0:
256,192,389116,1,0,0:0:0:0:
256,192,389274,1,0,0:0:0:0:
256,192,389352,1,8,0:0:0:0:
256,192,389509,1,0,0:0:0:0:
256,192,389667,1,0,0:0:0:0:
256,192,389745,1,0,0:0:0:0:
256,192,389824,1,8,0:0:0:0:
256,192,389902,1,0,0:0:0:0:
256,192,389981,1,8,0:0:0:0:
256,192,390138,1,8,0:0:0:0:
256,192,390296,1,0,0:0:0:0:
256,192,390374,1,8,0:0:0:0:
256,192,390531,1,0,0:0:0:0:
256,192,390610,1,8,0:0:0:0:
256,192,390767,1,0,0:0:0:0:
256,192,390924,1,8,0:0:0:0:
256,192,391003,1,0,0:0:0:0:
256,192,391082,1,8,0:0:0:0:
256,192,391160,1,8,0:0:0:0:
256,192,391239,1,0,0:0:0:0:
256,192,391396,1,8,0:0:0:0:
256,192,391553,1,0,0:0:0:0:
256,192,391632,1,8,0:0:0:0:
256,192,391789,1,8,0:0:0:0:
256,192,391868,1,0,0:0:0:0:
256,192,392025,1,0,0:0:0:0:
256,192,392182,1,8,0:0:0:0:
256,192,392261,1,8,0:0:0:0:
256,192,392340,1,0,0:0:0:0:
256,192,392418,1,0,0:0:0:0:
256,192,392497,1,8,0:0:0:0:
256,192,392654,1,0,0:0:0:0:
256,192,392733,1,8,0:0:0:0:
256,192,392811,1,8,0:0:0:0:
256,192,392890,1,0,0:0:0:0:
256,192,393047,1,0,0:0:0:0:
256,192,393126,1,8,0:0:0:0:
256,192,393283,1,0,0:0:0:0:
256,192,393362,1,0,0:0:0:0:
256,192,393440,1,8,0:0:0:0:
256,192,393597,1,0,0:0:0:0:
256,192,393676,1,8,0:0:0:0:
256,192,393755,1,0,0:0:0:0:
256,192,393912,1,8,0:0:0:0:
256,192,394069,1,0,0:0:0:0:
256,192,394226,1,8,0:0:0:0:
256,192,394305,1,8,0:0:0:0:
256,192,394384,1,0,0:0:0:0:
256,192,394541,1,8,0:0:0:0:
256,192,394619,1,8,0:0:0:0:
256,192,394698,1,4,0:0:0:0:
256,192,394855,1,0,0:0:0:0:
256,192,394934,1,0,0:0:0:0:
256,192,395013,1,8,0:0:0:0:
256,192,395170,1,0,0:0:0:0:
256,192,395327,1,8,0:0:0:0:
256,192,395406,1,0,0:0:0:0:
256,192,395563,1,0,0:0:0:0:
256,192,395641,1,8,0:0:0:0:
256,192,395799,1,0,0:0:0:0:
256,192,395956,1,8,0:0:0:0:
256,192,396035,1,0,0:0:0:0:
256,192,396113,1,8,0:0:0:0:
256,192,396192,1,8,0:0:0:0:
256,192,396270,1,0,0:0:0:0:
256,192,396428,1,0,0:0:0:0:
256,192,396506,1,8,0:0:0:0:
256,192,396585,1,8,0:0:0:0:
256,192,396663,1,0,0:0:0:0:
256,192,396821,1,0,0:0:0:0:
256,192,396899,1,8,0:0:0:0:
256,192,397057,1,0,0:0:0:0:
256,192,397214,1,8,0:0:0:0:
256,192,397292,1,8,0:0:0:0:
256,192,397371,1,0,0:0:0:0:
256,192,397450,1,0,0:0:0:0:
256,192,397528,1,8,0:0:0:0:
256,192,397685,1,0,0:0:0:0:
256,192,397843,1,0,0:0:0:0:
256,192,397921,1,8,0:0:0:0:
256,192,398079,1,0,0:0:0:0:
256,192,398157,1,8,0:0:0:0:
256,192,398314,1,8,0:0:0:0:
256,192,398472,1,0,0:0:0:0:
256,192,398550,1,8,0:0:0:0:
256,192,398629,1,0,0:0:0:0:
256,192,398707,1,0,0:0:0:0:
256,192,398786,1,8,0:0:0:0:
256,192,398943,1,0,0:0:0:0:
256,192,399101,1,8,0:0:0:0:
256,192,399179,1,0,0:0:0:0:
256,192,399336,1,0,0:0:0:0:
256,192,399415,1,8,0:0:0:0:
256,192,399572,1,0,0:0:0:0:
256,192,399730,1,0,0:0:0:0:
256,192,399808,1,0,0:0:0:0:
256,192,399887,1,8,0:0:0:0:
256,192,399965,1,0,0:0:0:0:
256,192,400044,1,8,0:0:0:0:
256,192,400201,1,8,0:0:0:0:
256,192,400358,1,0,0:0:0:0:
256,192,400437,1,8,0:0:0:0:
256,192,400594,1,0,0:0:0:0:
256,192,400673,1,8,0:0:0:0:
256,192,400830,1,0,0:0:0:0:
256,192,400987,1,8,0:0:0:0:
256,192,401066,1,0,0:0:0:0:
256,192,401145,1,8,0:0:0:0:
256,192,401223,1,8,0:0:0:0:
256,192,401302,1,0,0:0:0:0:
256,192,401459,1,8,0:0:0:0:
256,192,401616,1,0,0:0:0:0:
256,192,401695,1,8,0:0:0:0:
256,192,401852,1,8,0:0:0:0:
256,192,401931,1,0,0:0:0:0:
256,192,402088,1,8,0:0:0:0:
256,192,402245,1,0,0:0:0:0:
256,192,402324,1,8,0:0:0:0:
256,192,402402,1,0,0:0:0:0:
256,192,402481,1,0,0:0:0:0:
256,192,402560,1,8,0:0:0:0:
256,192,402717,1,0,0:0:0:0:
256,192,402796,1,8,0:0:0:0:
256,192,402874,1,8,0:0:0:0:
256,192,402953,1,0,0:0:0:0:
256,192,403110,1,0,0:0:0:0:
256,192,403189,1,8,0:0:0:0:
256,192,403346,1,0,0:0:0:0:
256,192,403424,1,0,0:0:0:0:
256,192,403503,1,8,0:0:0:0:
256,192,403660,1,0,0:0:0:0:
256,192,403739,1,8,0:0:0:0:
256,192,403818,1,0,0:0:0:0:
256,192,403975,1,8,0:0:0:0:
256,192,404132,1,0,0:0:0:0:
256,192,404289,1,8,0:0:0:0:
256,192,404368,1,8,0:0:0:0:
256,192,404446,1,0,0:0:0:0:
256,192,404604,1,8,0:0:0:0:
256,192,404682,1,8,0:0:0:0:
256,192,404761,1,4,0:0:0:0:
256,192,404918,1,0,0:0:0:0:
256,192,404997,1,0,0:0:0:0:
256,192,405075,1,8,0:0:0:0:
256,192,405233,1,0,0:0:0:0:
256,192,405390,1,8,0:0:0:0:
256,192,405468,1,0,0:0:0:0:
256,192,405626,1,0,0:0:0:0:
256,192,405704,1,8,0:0:0:0:
256,192,405862,1,0,0:0:0:0:
256,192,406019,1,8,0:0:0:0:
256,192,406097,1,0,0:0:0:0:
256,192,406176,1,8,0:0:0:0:
256,192,406255,1,8,0:0:0:0:
256,192,406333,1,0,0:0:0:0:
256,192,406491,1,0,0:0:0:0:
256,192,406569,1,8,0:0:0:0:
256,192,406648,1,8,0:0:0:0:
256,192,406726,1,0,0:0:0:0:
256,192,406884,1,0,0:0:0:0:
256,192,406962,1,8,0:0:0:0:
256,192,407119,1,0,0:0:0:0:
256,192,407277,1,8,0:0:0:0:
256,192,407355,1,8,0:0:0:0:
256,192,407434,1,0,0:0:0:0:
256,192,407513,1,0,0:0:0:0:
256,192,407591,1,8,0:0:0:0:
256,192,407748,1,0,0:0:0:0:
256,192,407906,1,0,0:0:0:0:
256,192,407984,1,8,0:0:0:0:
256,192,408141,1,0,0:0:0:0:
256,192,408220,1,8,0:0:0:0:
256,192,408377,1,8,0:0:0:0:
256,192,408535,1,0,0:0:0:0:
256,192,408613,1,8,0:0:0:0:
256,192,408692,1,0,0:0:0:0:
256,192,408770,1,0,0:0:0:0:
256,192,408849,1,8,0:0:0:0:
256,192,409006,1,0,0:0:0:0:
256,192,409163,1,8,0:0:0:0:
256,192,409242,1,0,0:0:0:0:
256,192,409399,1,0,0:0:0:0:
256,192,409478,1,8,0:0:0:0:
256,192,409635,1,0,0:0:0:0:
256,192,409714,1,8,0:0:0:0:
256,192,409792,1,0,0:0:0:0:
256,192,409950,1,8,0:0:0:0:
256,192,410107,1,0,0:0:0:0:
256,192,410264,1,8,0:0:0:0:
256,192,410343,1,8,0:0:0:0:
256,192,410421,1,0,0:0:0:0:
256,192,410500,1,8,0:0:0:0:
256,192,410657,1,0,0:0:0:0:
256,192,410736,1,8,0:0:0:0:
256,192,410893,1,0,0:0:0:0:
256,192,411050,1,8,0:0:0:0:
256,192,411129,1,0,0:0:0:0:
256,192,411207,1,8,0:0:0:0:
256,192,411286,1,8,0:0:0:0:
256,192,411365,1,0,0:0:0:0:
256,192,411522,1,8,0:0:0:0:
256,192,411679,1,0,0:0:0:0:
256,192,411758,1,8,0:0:0:0:
256,192,411915,1,8,0:0:0:0:
256,192,411994,1,0,0:0:0:0:
256,192,412151,1,0,0:0:0:0:
256,192,412308,1,8,0:0:0:0:
256,192,412387,1,8,0:0:0:0:
256,192,412465,1,0,0:0:0:0:
256,192,412544,1,0,0:0:0:0:
256,192,412623,1,8,0:0:0:0:
256,192,412701,1,0,0:0:0:0:
256,192,412780,1,0,0:0:0:0:
256,192,412858,1,0,0:0:0:0:
256,192,412937,1,8,0:0:0:0:
256,192,413016,1,8,0:0:0:0:
256,192,413094,1,0,0:0:0:0:
256,192,413173,1,8,0:0:0:0:
256,192,413252,1,0,0:0:0:0:
256,192,413330,1,0,0:0:0:0:
256,192,413409,1,8,0:0:0:0:
256,192,413487,1,0,0:0:0:0:
256,192,413566,1,8,0:0:0:0:
256,192,413618,1,0,0:0:0:0:
256,192,413671,1,0,0:0:0:0:
256,192,413723,1,8,0:0:0:0:
256,192,413802,1,0,0:0:0:0:
256,192,413880,1,8,0:0:0:0:
256,192,413933,1,8,0:0:0:0:
256,192,413985,1,8,0:0:0:0:
256,192,414038,1,0,0:0:0:0:
256,192,414116,1,0,0:0:0:0:
256,192,414195,1,8,0:0:0:0:
256,192,414247,1,8,0:0:0:0:
256,192,414300,1,8,0:0:0:0:
256,192,414352,1,0,0:0:0:0:
256,192,414431,1,0,0:0:0:0:
256,192,414509,1,8,0:0:0:0:
256,192,414562,1,0,0:0:0:0:
256,192,414614,1,0,0:0:0:0:
256,192,414667,1,8,0:0:0:0:
256,192,414824,1,4,0:0:0:0:
