osu file format v14

[General]
AudioFilename: audio.ogg
AudioLeadIn: 1500
PreviewTime: 153705
Countdown: 0
SampleSet: Soft
StackLeniency: 0.7
Mode: 3
LetterboxInBreaks: 0
SpecialStyle: 0
WidescreenStoryboard: 0

[Editor]
DistanceSpacing: 0.8
BeatDivisor: 4
GridSize: 16
TimelineZoom: 1.6

[Metadata]
Title:CYBER INDUCTANCE
TitleUnicode:CYBER INDUCTANCE
Artist:DJ SHARPNEL
ArtistUnicode:DJ SHARPNEL
Creator:IcyWorld
Version:Icy X2
Source:電脳コイル
Tags:Electronic Japanese Female Vocal PoP JPoP J-PoP J-Core HardCore Running All Night SHARPNELSOUND ランニング★★★オールナイトッ!! SRPC-0022 Coil a Circle of Children プリズム Prism 池田綾子 Ikeda Ayako
BeatmapID:3864402
BeatmapSetID:1877490

[Difficulty]
HPDrainRate:8.5
CircleSize:4
OverallDifficulty:8.5
ApproachRate:9
SliderMultiplier:1.4
SliderTickRate:1

[Events]
//Background and Video events
0,0,"bg.jpg",0,0
//Break Periods
//Storyboard Layer 0 (Background)
//Storyboard Layer 1 (Fail)
//Storyboard Layer 2 (Pass)
//Storyboard Layer 3 (Foreground)
//Storyboard Layer 4 (Overlay)
//Storyboard Sound Samples

[TimingPoints]
1664,314.136,4,2,1,40,1,0
154962,-100,4,2,1,40,0,1
200197,-100,4,2,1,40,0,0
245433,-100,4,2,1,40,0,1
290669,-100,4,2,1,40,0,0

[HitObjects]
64,0,93,5,0,0:0:0:0:
192,0,721,1,0,0:0:0:0:
448,0,1349,1,0,0:0:0:0:
192,0,1664,1,0,0:0:0:0:
448,0,1664,1,0,0:0:0:0:
64,192,1664,1,0,0:0:0:0:
320,0,1742,1,0,0:0:0:0:
192,0,1821,1,0,0:0:0:0:
320,0,1899,1,0,0:0:0:0:
448,0,1899,1,0,0:0:0:0:
64,0,1978,1,0,0:0:0:0:
192,0,1978,1,0,0:0:0:0:
320,0,2056,1,0,0:0:0:0:
64,0,2135,1,0,0:0:0:0:
448,0,2135,1,0,0:0:0:0:
192,0,2213,1,0,0:0:0:0:
320,0,2292,1,0,0:0:0:0:
448,0,2370,1,0,0:0:0:0:
192,0,2449,1,0,0:0:0:0:
320,0,2449,1,0,0:0:0:0:
64,0,2527,1,0,0:0:0:0:
192,0,2606,1,0,0:0:0:0:
320,0,2606,1,0,0:0:0:0:
448,0,2606,1,0,0:0:0:0:
64,0,2684,1,0,0:0:0:0:
320,0,2763,1,0,0:0:0:0:
448,0,2763,1,0,0:0:0:0:
192,0,2842,1,0,0:0:0:0:
64,0,2920,1,0,0:0:0:0:
448,0,2920,1,0,0:0:0:0:
192,0,2999,1,0,0:0:0:0:
320,0,3077,1,0,0:0:0:0:
64,0,3156,1,0,0:0:0:0:
448,0,3156,1,0,0:0:0:0:
192,0,3234,1,0,0:0:0:0:
320,0,3234,1,0,0:0:0:0:
448,0,3313,1,0,0:0:0:0:
64,0,3391,1,0,0:0:0:0:
192,0,3391,1,0,0:0:0:0:
320,0,3470,1,0,0:0:0:0:
448,0,3548,1,0,0:0:0:0:
64,0,3627,1,0,0:0:0:0:
192,0,3705,1,0,0:0:0:0:
320,0,3705,1,0,0:0:0:0:
448,0,3784,1,0,0:0:0:0:
64,0,3862,1,0,0:0:0:0:
192,0,3862,1,0,0:0:0:0:
320,0,3862,1,0,0:0:0:0:
448,0,3941,1,0,0:0:0:0:
64,0,4020,1,0,0:0:0:0:
192,0,4020,1,0,0:0:0:0:
320,0,4098,1,0,0:0:0:0:
64,0,4177,1,0,0:0:0:0:
448,0,4177,1,0,0:0:0:0:
192,0,4255,1,0,0:0:0:0:
320,0,4334,1,0,0:0:0:0:
64,0,4412,1,0,0:0:0:0:
192,0,4412,1,0,0:0:0:0:
320,0,4491,1,0,0:0:0:0:
448,0,4491,1,0,0:0:0:0:
64,0,4569,1,0,0:0:0:0:
192,0,4648,1,0,0:0:0:0:
320,0,4648,1,0,0:0:0:0:
448,0,4726,1,0,0:0:0:0:
192,0,4805,1,0,0:0:0:0:
320,0,4883,1,0,0:0:0:0:
64,0,4962,1,0,0:0:0:0:
192,0,4962,1,0,0:0:0:0:
320,0,5040,1,0,0:0:0:0:
64,0,5119,1,0,0:0:0:0:
192,0,5119,1,0,0:0:0:0:
448,0,5119,1,0,0:0:0:0:
320,0,5198,1,0,0:0:0:0:
64,0,5276,1,0,0:0:0:0:
448,0,5276,1,0,0:0:0:0:
192,0,5355,1,0,0:0:0:0:
320,0,5433,1,0,0:0:0:0:
448,0,5433,1,0,0:0:0:0:
192,0,5512,1,0,0:0:0:0:
320,0,5590,1,0,0:0:0:0:
64,0,5669,1,0,0:0:0:0:
192,0,5669,1,0,0:0:0:0:
320,0,5747,1,0,0:0:0:0:
448,0,5747,1,0,0:0:0:0:
192,0,5826,1,0,0:0:0:0:
320,0,5904,1,0,0:0:0:0:
448,0,5904,1,0,0:0:0:0:
192,0,5983,1,0,0:0:0:0:
320,0,6061,1,0,0:0:0:0:
448,0,6061,1,0,0:0:0:0:
64,0,6140,1,0,0:0:0:0:
192,0,6140,1,0,0:0:0:0:
320,0,6218,1,0,0:0:0:0:
448,0,6218,1,0,0:0:0:0:
192,0,6297,1,0,0:0:0:0:
64,0,6376,128,0,6690:0:0:0:0:
320,0,6376,1,0,0:0:0:0:
448,0,6376,1,0,0:0:0:0:
192,0,6454,1,0,0:0:0:0:
320,0,6533,1,0,0:0:0:0:
448,0,6533,1,0,0:0:0:0:
192,0,6611,1,0,0:0:0:0:
320,0,6690,1,0,0:0:0:0:
448,0,6690,1,0,0:0:0:0:
64,0,6768,1,0,0:0:0:0:
320,0,6847,1,0,0:0:0:0:
64,0,6925,1,0,0:0:0:0:
192,0,6925,1,0,0:0:0:0:
320,0,7004,1,0,0:0:0:0:
448,0,7004,1,0,0:0:0:0:
64,0,7082,1,0,0:0:0:0:
320,0,7161,1,0,0:0:0:0:
448,0,7161,1,0,0:0:0:0:
192,0,7239,1,0,0:0:0:0:
64,0,7318,1,0,0:0:0:0:
320,0,7396,1,0,0:0:0:0:
64,0,7475,1,0,0:0:0:0:
192,0,7475,1,0,0:0:0:0:
320,0,7554,1,0,0:0:0:0:
64,0,7632,1,0,0:0:0:0:
192,0,7632,1,0,0:0:0:0:
448,0,7632,1,0,0:0:0:0:
320,0,7711,1,0,0:0:0:0:
64,0,7789,1,0,0:0:0:0:
448,0,7789,1,0,0:0:0:0:
192,0,7868,1,0,0:0:0:0:
320,0,7946,1,0,0:0:0:0:
448,0,7946,1,0,0:0:0:0:
192,0,8025,1,0,0:0:0:0:
64,0,8103,1,0,0:0:0:0:
192,0,8182,1,0,0:0:0:0:
320,0,8182,1,0,0:0:0:0:
64,0,8260,1,0,0:0:0:0:
448,0,8260,1,0,0:0:0:0:
320,0,8339,1,0,0:0:0:0:
64,0,8417,1,0,0:0:0:0:
192,0,8417,1,0,0:0:0:0:
448,0,8496,1,0,0:0:0:0:
192,0,8574,1,0,0:0:0:0:
320,0,8653,1,0,0:0:0:0:
64,0,8732,1,0,0:0:0:0:
448,0,8732,1,0,0:0:0:0:
192,0,8810,1,0,0:0:0:0:
64,0,8889,1,0,0:0:0:0:
320,0,8889,1,0,0:0:0:0:
448,0,8889,1,0,0:0:0:0:
192,0,8967,1,0,0:0:0:0:
320,0,9046,1,0,0:0:0:0:
448,0,9046,1,0,0:0:0:0:
64,0,9124,1,0,0:0:0:0:
320,0,9203,1,0,0:0:0:0:
192,0,9203,1,0,0:0:0:0:
448,0,9281,1,0,0:0:0:0:
64,0,9360,1,0,0:0:0:0:
192,0,9438,1,0,0:0:0:0:
320,0,9438,1,0,0:0:0:0:
64,0,9517,1,0,0:0:0:0:
448,0,9517,1,0,0:0:0:0:
320,0,9595,1,0,0:0:0:0:
64,0,9674,1,0,0:0:0:0:
192,0,9674,1,0,0:0:0:0:
448,0,9753,1,0,0:0:0:0:
320,0,9831,1,0,0:0:0:0:
192,0,9910,1,0,0:0:0:0:
64,0,9988,1,0,0:0:0:0:
448,0,9988,1,0,0:0:0:0:
320,0,10067,1,0,0:0:0:0:
64,0,10145,1,0,0:0:0:0:
192,0,10145,1,0,0:0:0:0:
448,0,10145,1,0,0:0:0:0:
320,0,10224,1,0,0:0:0:0:
64,0,10302,1,0,0:0:0:0:
192,0,10302,1,0,0:0:0:0:
448,0,10381,1,0,0:0:0:0:
192,0,10459,1,0,0:0:0:0:
320,0,10459,1,0,0:0:0:0:
64,0,10538,1,0,0:0:0:0:
192,0,10616,1,0,0:0:0:0:
320,0,10695,1,0,0:0:0:0:
448,0,10695,1,0,0:0:0:0:
64,0,10773,1,0,0:0:0:0:
192,0,10773,1,0,0:0:0:0:
320,0,10852,1,0,0:0:0:0:
64,0,10931,1,0,0:0:0:0:
192,0,10931,1,0,0:0:0:0:
448,0,11009,1,0,0:0:0:0:
64,0,11088,1,0,0:0:0:0:
192,0,11088,1,0,0:0:0:0:
320,0,11166,1,0,0:0:0:0:
448,0,11166,1,0,0:0:0:0:
64,0,11245,1,0,0:0:0:0:
192,0,11245,1,0,0:0:0:0:
64,0,11402,128,0,11716:0:0:0:0:
192,0,11402,1,0,0:0:0:0:
320,0,11402,1,0,0:0:0:0:
448,0,11402,1,0,0:0:0:0:
192,0,11716,1,0,0:0:0:0:
320,0,11716,1,0,0:0:0:0:
448,0,11716,1,0,0:0:0:0:
64,0,11794,1,0,0:0:0:0:
320,0,11873,1,0,0:0:0:0:
64,0,11951,1,0,0:0:0:0:
448,0,11951,1,0,0:0:0:0:
192,0,12030,1,0,0:0:0:0:
320,0,12030,1,0,0:0:0:0:
448,0,12109,1,0,0:0:0:0:
64,0,12187,1,0,0:0:0:0:
192,0,12187,1,0,0:0:0:0:
320,0,12266,1,0,0:0:0:0:
448,0,12344,1,0,0:0:0:0:
192,0,12423,1,0,0:0:0:0:
320,0,12501,1,0,0:0:0:0:
448,0,12501,1,0,0:0:0:0:
64,0,12580,1,0,0:0:0:0:
192,0,12658,1,0,0:0:0:0:
320,0,12658,1,0,0:0:0:0:
448,0,12658,1,0,0:0:0:0:
64,0,12737,1,0,0:0:0:0:
192,0,12815,1,0,0:0:0:0:
448,0,12815,1,0,0:0:0:0:
320,0,12894,1,0,0:0:0:0:
64,0,12972,1,0,0:0:0:0:
448,0,12972,1,0,0:0:0:0:
192,0,13051,1,0,0:0:0:0:
320,0,13129,1,0,0:0:0:0:
64,0,13208,1,0,0:0:0:0:
192,0,13208,1,0,0:0:0:0:
320,0,13287,1,0,0:0:0:0:
448,0,13287,1,0,0:0:0:0:
64,0,13365,1,0,0:0:0:0:
192,0,13444,1,0,0:0:0:0:
448,0,13444,1,0,0:0:0:0:
320,0,13522,1,0,0:0:0:0:
64,0,13601,1,0,0:0:0:0:
448,0,13679,1,0,0:0:0:0:
192,0,13758,1,0,0:0:0:0:
320,0,13758,1,0,0:0:0:0:
64,0,13836,1,0,0:0:0:0:
192,0,13915,1,0,0:0:0:0:
320,0,13915,1,0,0:0:0:0:
448,0,13915,1,0,0:0:0:0:
64,0,13993,1,0,0:0:0:0:
320,0,14072,1,0,0:0:0:0:
448,0,14072,1,0,0:0:0:0:
192,0,14150,1,0,0:0:0:0:
64,0,14229,1,0,0:0:0:0:
448,0,14229,1,0,0:0:0:0:
320,0,14307,1,0,0:0:0:0:
64,0,14386,1,0,0:0:0:0:
192,0,14465,1,0,0:0:0:0:
320,0,14465,1,0,0:0:0:0:
64,0,14543,1,0,0:0:0:0:
448,0,14543,1,0,0:0:0:0:
320,0,14622,1,0,0:0:0:0:
64,0,14700,1,0,0:0:0:0:
192,0,14700,1,0,0:0:0:0:
320,0,14779,1,0,0:0:0:0:
448,0,14857,1,0,0:0:0:0:
64,0,14936,1,0,0:0:0:0:
192,0,15014,1,0,0:0:0:0:
320,0,15014,1,0,0:0:0:0:
448,0,15093,1,0,0:0:0:0:
64,0,15171,1,0,0:0:0:0:
192,0,15171,1,0,0:0:0:0:
320,0,15171,1,0,0:0:0:0:
448,0,15250,1,0,0:0:0:0:
64,0,15328,1,0,0:0:0:0:
192,0,15328,1,0,0:0:0:0:
320,0,15407,1,0,0:0:0:0:
64,0,15485,1,0,0:0:0:0:
448,0,15485,1,0,0:0:0:0:
320,0,15564,1,0,0:0:0:0:
192,0,15643,1,0,0:0:0:0:
320,0,15721,1,0,0:0:0:0:
448,0,15721,1,0,0:0:0:0:
64,0,15800,1,0,0:0:0:0:
192,0,15800,1,0,0:0:0:0:
320,0,15878,1,0,0:0:0:0:
64,0,15957,1,0,0:0:0:0:
192,0,15957,1,0,0:0:0:0:
448,0,16035,1,0,0:0:0:0:
64,0,16114,1,0,0:0:0:0:
192,0,16114,1,0,0:0:0:0:
320,0,16192,1,0,0:0:0:0:
448,0,16192,1,0,0:0:0:0:
64,0,16271,1,0,0:0:0:0:
192,0,16271,1,0,0:0:0:0:
320,0,16349,1,0,0:0:0:0:
64,0,16428,128,0,16742:0:0:0:0:
192,0,16428,1,0,0:0:0:0:
448,0,16428,1,0,0:0:0:0:
320,0,16506,1,0,0:0:0:0:
192,0,16585,1,0,0:0:0:0:
448,0,16585,1,0,0:0:0:0:
320,0,16663,1,0,0:0:0:0:
192,0,16742,1,0,0:0:0:0:
448,0,16742,1,0,0:0:0:0:
320,0,16821,1,0,0:0:0:0:
64,0,16899,1,0,0:0:0:0:
192,0,16978,1,0,0:0:0:0:
320,0,16978,1,0,0:0:0:0:
64,0,17056,1,0,0:0:0:0:
448,0,17056,1,0,0:0:0:0:
320,0,17135,1,0,0:0:0:0:
64,0,17213,1,0,0:0:0:0:
192,0,17213,1,0,0:0:0:0:
448,0,17292,1,0,0:0:0:0:
320,0,17370,1,0,0:0:0:0:
192,0,17449,1,0,0:0:0:0:
320,0,17527,1,0,0:0:0:0:
448,0,17527,1,0,0:0:0:0:
192,0,17606,1,0,0:0:0:0:
64,0,17684,1,0,0:0:0:0:
320,0,17684,1,0,0:0:0:0:
448,0,17684,1,0,0:0:0:0:
192,0,17763,1,0,0:0:0:0:
64,0,17842,1,0,0:0:0:0:
448,0,17842,1,0,0:0:0:0:
320,0,17920,1,0,0:0:0:0:
64,0,17999,1,0,0:0:0:0:
192,0,17999,1,0,0:0:0:0:
320,0,18077,1,0,0:0:0:0:
448,0,18156,1,0,0:0:0:0:
64,0,18234,1,0,0:0:0:0:
192,0,18234,1,0,0:0:0:0:
320,0,18313,1,0,0:0:0:0:
448,0,18313,1,0,0:0:0:0:
64,0,18391,1,0,0:0:0:0:
192,0,18470,1,0,0:0:0:0:
320,0,18470,1,0,0:0:0:0:
448,0,18548,1,0,0:0:0:0:
192,0,18627,1,0,0:0:0:0:
320,0,18705,1,0,0:0:0:0:
64,0,18784,1,0,0:0:0:0:
192,0,18784,1,0,0:0:0:0:
320,0,18862,1,0,0:0:0:0:
64,0,18941,1,0,0:0:0:0:
192,0,18941,1,0,0:0:0:0:
448,0,18941,1,0,0:0:0:0:
320,0,19020,1,0,0:0:0:0:
64,0,19098,1,0,0:0:0:0:
192,0,19098,1,0,0:0:0:0:
320,0,19177,1,0,0:0:0:0:
64,0,19255,1,0,0:0:0:0:
192,0,19255,1,0,0:0:0:0:
320,0,19334,1,0,0:0:0:0:
448,0,19334,1,0,0:0:0:0:
64,0,19412,1,0,0:0:0:0:
192,0,19412,1,0,0:0:0:0:
320,0,19491,1,0,0:0:0:0:
448,0,19491,1,0,0:0:0:0:
64,0,19569,1,0,0:0:0:0:
192,0,19569,1,0,0:0:0:0:
320,0,19648,1,0,0:0:0:0:
448,0,19648,1,0,0:0:0:0:
64,0,19726,1,0,0:0:0:0:
192,0,19726,1,0,0:0:0:0:
320,0,19805,1,0,0:0:0:0:
448,0,19805,1,0,0:0:0:0:
64,0,19883,1,0,0:0:0:0:
192,0,19883,1,0,0:0:0:0:
320,0,19962,1,0,0:0:0:0:
448,0,19962,1,0,0:0:0:0:
64,0,20040,1,0,0:0:0:0:
192,0,20040,1,0,0:0:0:0:
320,0,20119,1,0,0:0:0:0:
448,0,20119,1,0,0:0:0:0:
64,0,20198,1,0,0:0:0:0:
192,0,20198,1,0,0:0:0:0:
320,0,20276,1,0,0:0:0:0:
448,0,20276,1,0,0:0:0:0:
64,0,20355,1,0,0:0:0:0:
192,0,20355,1,0,0:0:0:0:
320,0,20433,1,0,0:0:0:0:
448,0,20433,1,0,0:0:0:0:
64,0,20512,1,0,0:0:0:0:
192,0,20551,1,0,0:0:0:0:
320,0,20590,1,0,0:0:0:0:
448,0,20629,1,0,0:0:0:0:
64,0,20669,1,0,0:0:0:0:
192,0,20708,1,0,0:0:0:0:
320,0,20747,1,0,0:0:0:0:
448,0,20787,1,0,0:0:0:0:
64,0,20826,1,0,0:0:0:0:
192,0,20865,1,0,0:0:0:0:
320,0,20904,1,0,0:0:0:0:
448,0,20944,1,0,0:0:0:0:
64,0,20983,1,0,0:0:0:0:
192,0,21022,1,0,0:0:0:0:
320,0,21061,1,0,0:0:0:0:
448,0,21101,1,0,0:0:0:0:
64,0,21140,1,0,0:0:0:0:
192,0,21140,1,0,0:0:0:0:
320,0,21218,1,0,0:0:0:0:
448,0,21218,1,0,0:0:0:0:
64,0,21297,1,0,0:0:0:0:
192,0,21297,1,0,0:0:0:0:
64,0,21454,128,0,21768:0:0:0:0:
192,0,21454,1,0,0:0:0:0:
320,0,21454,1,0,0:0:0:0:
448,0,21454,1,0,0:0:0:0:
448,0,21611,1,0,0:0:0:0:
192,0,21768,1,0,0:0:0:0:
320,0,21768,1,0,0:0:0:0:
448,0,21768,1,0,0:0:0:0:
64,0,21847,1,0,0:0:0:0:
320,0,21925,1,0,0:0:0:0:
448,0,21925,1,0,0:0:0:0:
64,0,22004,1,0,0:0:0:0:
192,0,22004,1,0,0:0:0:0:
320,0,22082,1,0,0:0:0:0:
64,0,22161,1,0,0:0:0:0:
192,0,22161,1,0,0:0:0:0:
320,0,22239,1,0,0:0:0:0:
448,0,22239,1,0,0:0:0:0:
192,0,22318,1,0,0:0:0:0:
64,0,22396,1,0,0:0:0:0:
448,0,22396,1,0,0:0:0:0:
320,0,22475,1,0,0:0:0:0:
64,0,22554,1,0,0:0:0:0:
192,0,22554,1,0,0:0:0:0:
320,0,22632,1,0,0:0:0:0:
64,0,22711,1,0,0:0:0:0:
192,0,22711,1,0,0:0:0:0:
448,0,22711,1,0,0:0:0:0:
320,0,22789,1,0,0:0:0:0:
64,0,22868,1,0,0:0:0:0:
448,0,22868,1,0,0:0:0:0:
192,0,22946,1,0,0:0:0:0:
320,0,23025,1,0,0:0:0:0:
448,0,23025,1,0,0:0:0:0:
64,0,23103,1,0,0:0:0:0:
192,0,23182,1,0,0:0:0:0:
320,0,23182,1,0,0:0:0:0:
64,0,23260,1,0,0:0:0:0:
448,0,23260,1,0,0:0:0:0:
320,0,23339,1,0,0:0:0:0:
64,0,23417,1,0,0:0:0:0:
448,0,23417,1,0,0:0:0:0:
192,0,23496,1,0,0:0:0:0:
320,0,23496,1,0,0:0:0:0:
448,0,23574,1,0,0:0:0:0:
64,0,23653,1,0,0:0:0:0:
192,0,23653,1,0,0:0:0:0:
320,0,23732,1,0,0:0:0:0:
64,0,23810,1,0,0:0:0:0:
448,0,23810,1,0,0:0:0:0:
192,0,23889,1,0,0:0:0:0:
64,0,23967,1,0,0:0:0:0:
320,0,23967,1,0,0:0:0:0:
448,0,23967,1,0,0:0:0:0:
192,0,24046,1,0,0:0:0:0:
448,0,24124,1,0,0:0:0:0:
64,0,24203,1,0,0:0:0:0:
192,0,24281,1,0,0:0:0:0:
320,0,24281,1,0,0:0:0:0:
448,0,24360,1,0,0:0:0:0:
64,0,24438,1,0,0:0:0:0:
192,0,24438,1,0,0:0:0:0:
320,0,24517,1,0,0:0:0:0:
448,0,24517,1,0,0:0:0:0:
192,0,24595,1,0,0:0:0:0:
320,0,24674,1,0,0:0:0:0:
448,0,24674,1,0,0:0:0:0:
64,0,24752,1,0,0:0:0:0:
192,0,24752,1,0,0:0:0:0:
448,0,24831,1,0,0:0:0:0:
192,0,24910,1,0,0:0:0:0:
320,0,24910,1,0,0:0:0:0:
64,0,24988,1,0,0:0:0:0:
320,0,25067,1,0,0:0:0:0:
448,0,25067,1,0,0:0:0:0:
192,0,25145,1,0,0:0:0:0:
64,0,25224,1,0,0:0:0:0:
320,0,25224,1,0,0:0:0:0:
448,0,25224,1,0,0:0:0:0:
192,0,25302,1,0,0:0:0:0:
320,0,25381,1,0,0:0:0:0:
448,0,25381,1,0,0:0:0:0:
192,0,25459,1,0,0:0:0:0:
320,0,25538,1,0,0:0:0:0:
448,0,25538,1,0,0:0:0:0:
64,0,25616,1,0,0:0:0:0:
192,0,25695,1,0,0:0:0:0:
448,0,25695,1,0,0:0:0:0:
64,0,25773,1,0,0:0:0:0:
320,0,25773,1,0,0:0:0:0:
448,0,25852,1,0,0:0:0:0:
64,0,25931,1,0,0:0:0:0:
320,0,25931,1,0,0:0:0:0:
192,0,26009,1,0,0:0:0:0:
448,0,26009,1,0,0:0:0:0:
64,0,26088,1,0,0:0:0:0:
320,0,26166,1,0,0:0:0:0:
448,0,26166,1,0,0:0:0:0:
64,0,26245,1,0,0:0:0:0:
192,0,26245,1,0,0:0:0:0:
320,0,26323,1,0,0:0:0:0:
448,0,26323,1,0,0:0:0:0:
192,0,26402,1,0,0:0:0:0:
64,0,26480,128,0,26794:0:0:0:0:
320,0,26480,1,0,0:0:0:0:
448,0,26480,1,0,0:0:0:0:
192,0,26559,1,0,0:0:0:0:
320,0,26637,1,0,0:0:0:0:
448,0,26716,1,0,0:0:0:0:
192,0,26794,1,0,0:0:0:0:
320,0,26794,1,0,0:0:0:0:
448,0,26873,1,0,0:0:0:0:
64,0,26951,1,0,0:0:0:0:
192,0,26951,1,0,0:0:0:0:
320,0,27030,1,0,0:0:0:0:
448,0,27030,1,0,0:0:0:0:
192,0,27109,1,0,0:0:0:0:
320,0,27187,1,0,0:0:0:0:
448,0,27187,1,0,0:0:0:0:
64,0,27266,1,0,0:0:0:0:
192,0,27266,1,0,0:0:0:0:
320,0,27344,1,0,0:0:0:0:
64,0,27423,1,0,0:0:0:0:
448,0,27423,1,0,0:0:0:0:
192,0,27501,1,0,0:0:0:0:
64,0,27580,1,0,0:0:0:0:
320,0,27580,1,0,0:0:0:0:
192,0,27658,1,0,0:0:0:0:
64,0,27737,1,0,0:0:0:0:
320,0,27737,1,0,0:0:0:0:
448,0,27737,1,0,0:0:0:0:
192,0,27815,1,0,0:0:0:0:
320,0,27894,1,0,0:0:0:0:
448,0,27894,1,0,0:0:0:0:
64,0,27972,1,0,0:0:0:0:
192,0,28051,1,0,0:0:0:0:
320,0,28051,1,0,0:0:0:0:
448,0,28129,1,0,0:0:0:0:
64,0,28208,1,0,0:0:0:0:
320,0,28208,1,0,0:0:0:0:
192,0,28287,1,0,0:0:0:0:
448,0,28287,1,0,0:0:0:0:
64,0,28365,1,0,0:0:0:0:
192,0,28444,1,0,0:0:0:0:
448,0,28444,1,0,0:0:0:0:
64,0,28522,1,0,0:0:0:0:
320,0,28522,1,0,0:0:0:0:
448,0,28601,1,0,0:0:0:0:
64,0,28679,1,0,0:0:0:0:
192,0,28679,1,0,0:0:0:0:
320,0,28758,1,0,0:0:0:0:
64,0,28836,1,0,0:0:0:0:
448,0,28836,1,0,0:0:0:0:
192,0,28915,1,0,0:0:0:0:
64,0,28993,1,0,0:0:0:0:
320,0,28993,1,0,0:0:0:0:
448,0,28993,1,0,0:0:0:0:
192,0,29072,1,0,0:0:0:0:
448,0,29150,1,0,0:0:0:0:
64,0,29229,1,0,0:0:0:0:
192,0,29307,1,0,0:0:0:0:
320,0,29307,1,0,0:0:0:0:
64,0,29386,1,0,0:0:0:0:
320,0,29465,1,0,0:0:0:0:
448,0,29465,1,0,0:0:0:0:
64,0,29543,1,0,0:0:0:0:
192,0,29543,1,0,0:0:0:0:
320,0,29622,1,0,0:0:0:0:
64,0,29700,1,0,0:0:0:0:
192,0,29700,1,0,0:0:0:0:
320,0,29779,1,0,0:0:0:0:
448,0,29779,1,0,0:0:0:0:
192,0,29857,1,0,0:0:0:0:
64,0,29936,1,0,0:0:0:0:
448,0,29936,1,0,0:0:0:0:
320,0,30014,1,0,0:0:0:0:
64,0,30093,1,0,0:0:0:0:
192,0,30093,1,0,0:0:0:0:
320,0,30171,1,0,0:0:0:0:
64,0,30250,1,0,0:0:0:0:
192,0,30250,1,0,0:0:0:0:
448,0,30250,1,0,0:0:0:0:
320,0,30328,1,0,0:0:0:0:
64,0,30407,1,0,0:0:0:0:
448,0,30407,1,0,0:0:0:0:
192,0,30485,1,0,0:0:0:0:
320,0,30564,1,0,0:0:0:0:
448,0,30564,1,0,0:0:0:0:
64,0,30643,1,0,0:0:0:0:
320,0,30721,1,0,0:0:0:0:
448,0,30721,1,0,0:0:0:0:
64,0,30800,1,0,0:0:0:0:
192,0,30800,1,0,0:0:0:0:
320,0,30878,1,0,0:0:0:0:
64,0,30957,1,0,0:0:0:0:
192,0,30957,1,0,0:0:0:0:
320,0,31035,1,0,0:0:0:0:
448,0,31035,1,0,0:0:0:0:
192,0,31114,1,0,0:0:0:0:
320,0,31192,1,0,0:0:0:0:
448,0,31192,1,0,0:0:0:0:
64,0,31271,1,0,0:0:0:0:
192,0,31271,1,0,0:0:0:0:
320,0,31349,1,0,0:0:0:0:
448,0,31349,1,0,0:0:0:0:
64,0,31506,128,0,31821:0:0:0:0:
192,0,31506,1,0,0:0:0:0:
320,0,31506,1,0,0:0:0:0:
448,0,31506,1,0,0:0:0:0:
192,0,31821,1,0,0:0:0:0:
320,0,31821,1,0,0:0:0:0:
448,0,31821,1,0,0:0:0:0:
64,0,31899,1,0,0:0:0:0:
320,0,31978,1,0,0:0:0:0:
448,0,31978,1,0,0:0:0:0:
64,0,32056,1,0,0:0:0:0:
192,0,32056,1,0,0:0:0:0:
320,0,32135,1,0,0:0:0:0:
64,0,32213,1,0,0:0:0:0:
192,0,32213,1,0,0:0:0:0:
320,0,32292,1,0,0:0:0:0:
448,0,32292,1,0,0:0:0:0:
64,0,32370,1,0,0:0:0:0:
192,0,32449,1,0,0:0:0:0:
448,0,32449,1,0,0:0:0:0:
64,0,32527,1,0,0:0:0:0:
320,0,32606,1,0,0:0:0:0:
448,0,32606,1,0,0:0:0:0:
192,0,32684,1,0,0:0:0:0:
64,0,32763,1,0,0:0:0:0:
320,0,32763,1,0,0:0:0:0:
448,0,32763,1,0,0:0:0:0:
192,0,32841,1,0,0:0:0:0:
320,0,32920,1,0,0:0:0:0:
448,0,32920,1,0,0:0:0:0:
64,0,32999,1,0,0:0:0:0:
192,0,33077,1,0,0:0:0:0:
320,0,33077,1,0,0:0:0:0:
448,0,33156,1,0,0:0:0:0:
192,0,33234,1,0,0:0:0:0:
320,0,33234,1,0,0:0:0:0:
64,0,33313,1,0,0:0:0:0:
448,0,33313,1,0,0:0:0:0:
192,0,33391,1,0,0:0:0:0:
64,0,33470,1,0,0:0:0:0:
448,0,33470,1,0,0:0:0:0:
192,0,33548,1,0,0:0:0:0:
320,0,33548,1,0,0:0:0:0:
448,0,33627,1,0,0:0:0:0:
64,0,33705,1,0,0:0:0:0:
192,0,33705,1,0,0:0:0:0:
320,0,33784,1,0,0:0:0:0:
64,0,33862,1,0,0:0:0:0:
192,0,33862,1,0,0:0:0:0:
448,0,33941,1,0,0:0:0:0:
64,0,34020,1,0,0:0:0:0:
192,0,34020,1,0,0:0:0:0:
320,0,34020,1,0,0:0:0:0:
448,0,34098,1,0,0:0:0:0:
192,0,34177,1,0,0:0:0:0:
320,0,34255,1,0,0:0:0:0:
64,0,34334,1,0,0:0:0:0:
448,0,34334,1,0,0:0:0:0:
192,0,34412,1,0,0:0:0:0:
320,0,34491,1,0,0:0:0:0:
448,0,34491,1,0,0:0:0:0:
64,0,34569,1,0,0:0:0:0:
192,0,34569,1,0,0:0:0:0:
320,0,34648,1,0,0:0:0:0:
64,0,34726,1,0,0:0:0:0:
192,0,34726,1,0,0:0:0:0:
320,0,34805,1,0,0:0:0:0:
448,0,34805,1,0,0:0:0:0:
192,0,34883,1,0,0:0:0:0:
64,0,34962,1,0,0:0:0:0:
448,0,34962,1,0,0:0:0:0:
320,0,35040,1,0,0:0:0:0:
64,0,35119,1,0,0:0:0:0:
192,0,35119,1,0,0:0:0:0:
320,0,35198,1,0,0:0:0:0:
64,0,35276,1,0,0:0:0:0:
192,0,35276,1,0,0:0:0:0:
448,0,35276,1,0,0:0:0:0:
320,0,35355,1,0,0:0:0:0:
64,0,35433,1,0,0:0:0:0:
448,0,35433,1,0,0:0:0:0:
192,0,35512,1,0,0:0:0:0:
320,0,35590,1,0,0:0:0:0:
448,0,35590,1,0,0:0:0:0:
64,0,35669,1,0,0:0:0:0:
192,0,35747,1,0,0:0:0:0:
448,0,35747,1,0,0:0:0:0:
64,0,35826,1,0,0:0:0:0:
320,0,35826,1,0,0:0:0:0:
448,0,35904,1,0,0:0:0:0:
64,0,35983,1,0,0:0:0:0:
320,0,35983,1,0,0:0:0:0:
192,0,36061,1,0,0:0:0:0:
448,0,36061,1,0,0:0:0:0:
320,0,36140,1,0,0:0:0:0:
64,0,36218,1,0,0:0:0:0:
192,0,36218,1,0,0:0:0:0:
320,0,36297,1,0,0:0:0:0:
448,0,36297,1,0,0:0:0:0:
64,0,36376,1,0,0:0:0:0:
192,0,36376,1,0,0:0:0:0:
320,0,36454,1,0,0:0:0:0:
64,0,36533,128,0,36847:0:0:0:0:
192,0,36533,1,0,0:0:0:0:
448,0,36533,1,0,0:0:0:0:
320,0,36611,1,0,0:0:0:0:
448,0,36690,1,0,0:0:0:0:
192,0,36768,1,0,0:0:0:0:
320,0,36847,1,0,0:0:0:0:
448,0,36847,1,0,0:0:0:0:
64,0,36925,1,0,0:0:0:0:
192,0,37004,1,0,0:0:0:0:
448,0,37004,1,0,0:0:0:0:
64,0,37082,1,0,0:0:0:0:
320,0,37082,1,0,0:0:0:0:
192,0,37161,1,0,0:0:0:0:
64,0,37239,1,0,0:0:0:0:
320,0,37239,1,0,0:0:0:0:
192,0,37318,1,0,0:0:0:0:
448,0,37318,1,0,0:0:0:0:
320,0,37396,1,0,0:0:0:0:
64,0,37475,1,0,0:0:0:0:
192,0,37475,1,0,0:0:0:0:
448,0,37554,1,0,0:0:0:0:
192,0,37632,1,0,0:0:0:0:
320,0,37632,1,0,0:0:0:0:
64,0,37711,1,0,0:0:0:0:
192,0,37789,1,0,0:0:0:0:
320,0,37789,1,0,0:0:0:0:
448,0,37789,1,0,0:0:0:0:
64,0,37868,1,0,0:0:0:0:
320,0,37946,1,0,0:0:0:0:
448,0,37946,1,0,0:0:0:0:
192,0,38025,1,0,0:0:0:0:
64,0,38103,1,0,0:0:0:0:
448,0,38103,1,0,0:0:0:0:
320,0,38182,1,0,0:0:0:0:
64,0,38260,1,0,0:0:0:0:
192,0,38260,1,0,0:0:0:0:
320,0,38339,1,0,0:0:0:0:
448,0,38339,1,0,0:0:0:0:
192,0,38417,1,0,0:0:0:0:
320,0,38496,1,0,0:0:0:0:
448,0,38496,1,0,0:0:0:0:
64,0,38574,1,0,0:0:0:0:
192,0,38574,1,0,0:0:0:0:
320,0,38653,1,0,0:0:0:0:
64,0,38732,1,0,0:0:0:0:
448,0,38732,1,0,0:0:0:0:
192,0,38810,1,0,0:0:0:0:
320,0,38889,1,0,0:0:0:0:
448,0,38889,1,0,0:0:0:0:
192,0,38967,1,0,0:0:0:0:
64,0,39046,1,0,0:0:0:0:
320,0,39046,1,0,0:0:0:0:
448,0,39046,1,0,0:0:0:0:
192,0,39124,1,0,0:0:0:0:
320,0,39203,1,0,0:0:0:0:
64,0,39281,1,0,0:0:0:0:
320,0,39360,1,0,0:0:0:0:
448,0,39360,1,0,0:0:0:0:
64,0,39438,1,0,0:0:0:0:
192,0,39438,1,0,0:0:0:0:
320,0,39517,1,0,0:0:0:0:
448,0,39517,1,0,0:0:0:0:
192,0,39595,1,0,0:0:0:0:
64,0,39674,1,0,0:0:0:0:
320,0,39674,1,0,0:0:0:0:
448,0,39674,1,0,0:0:0:0:
192,0,39752,1,0,0:0:0:0:
320,0,39831,1,0,0:0:0:0:
448,0,39831,1,0,0:0:0:0:
64,0,39910,1,0,0:0:0:0:
192,0,39910,1,0,0:0:0:0:
320,0,39988,1,0,0:0:0:0:
448,0,39988,1,0,0:0:0:0:
64,0,40067,1,0,0:0:0:0:
192,0,40067,1,0,0:0:0:0:
320,0,40145,1,0,0:0:0:0:
448,0,40145,1,0,0:0:0:0:
192,0,40224,1,0,0:0:0:0:
64,0,40302,1,0,0:0:0:0:
320,0,40302,1,0,0:0:0:0:
448,0,40302,1,0,0:0:0:0:
192,0,40381,1,0,0:0:0:0:
320,0,40459,1,0,0:0:0:0:
448,0,40459,1,0,0:0:0:0:
64,0,40538,1,0,0:0:0:0:
192,0,40538,1,0,0:0:0:0:
320,0,40616,1,0,0:0:0:0:
448,0,40656,1,0,0:0:0:0:
64,0,40695,1,0,0:0:0:0:
192,0,40734,1,0,0:0:0:0:
320,0,40773,1,0,0:0:0:0:
448,0,40813,1,0,0:0:0:0:
64,0,40852,1,0,0:0:0:0:
192,0,40891,1,0,0:0:0:0:
320,0,40931,1,0,0:0:0:0:
448,0,40970,1,0,0:0:0:0:
64,0,41009,1,0,0:0:0:0:
192,0,41048,1,0,0:0:0:0:
320,0,41088,1,0,0:0:0:0:
448,0,41127,1,0,0:0:0:0:
64,0,41166,1,0,0:0:0:0:
192,0,41205,1,0,0:0:0:0:
320,0,41245,1,0,0:0:0:0:
448,0,41245,1,0,0:0:0:0:
64,0,41323,1,0,0:0:0:0:
192,0,41323,1,0,0:0:0:0:
320,0,41402,1,0,0:0:0:0:
448,0,41402,1,0,0:0:0:0:
64,0,41559,128,0,41873:0:0:0:0:
192,0,41559,1,0,0:0:0:0:
320,0,41559,1,0,0:0:0:0:
448,0,41559,1,0,0:0:0:0:
192,0,41873,1,0,0:0:0:0:
320,0,41873,1,0,0:0:0:0:
448,0,41873,1,0,0:0:0:0:
64,0,41951,1,0,0:0:0:0:
192,0,42030,1,0,0:0:0:0:
320,0,42109,1,0,0:0:0:0:
64,0,42187,1,0,0:0:0:0:
192,0,42187,1,0,0:0:0:0:
448,0,42187,1,0,0:0:0:0:
320,0,42266,1,0,0:0:0:0:
448,0,42344,1,0,0:0:0:0:
192,0,42423,1,0,0:0:0:0:
320,0,42501,1,0,0:0:0:0:
448,192,42501,1,0,0:0:0:0:
192,192,42580,1,0,0:0:0:0:
64,0,42658,1,0,0:0:0:0:
320,0,42737,1,0,0:0:0:0:
64,0,42815,1,0,0:0:0:0:
192,0,42815,1,0,0:0:0:0:
448,0,42815,1,0,0:0:0:0:
320,0,42894,1,0,0:0:0:0:
448,0,42972,1,0,0:0:0:0:
192,0,43051,1,0,0:0:0:0:
64,0,43129,1,0,0:0:0:0:
320,0,43129,1,0,0:0:0:0:
192,0,43208,1,0,0:0:0:0:
320,0,43287,1,0,0:0:0:0:
64,0,43365,1,0,0:0:0:0:
192,0,43444,1,0,0:0:0:0:
320,0,43444,1,0,0:0:0:0:
448,0,43444,1,0,0:0:0:0:
64,0,43522,1,0,0:0:0:0:
192,0,43601,1,0,0:0:0:0:
448,0,43601,1,0,0:0:0:0:
320,0,43679,1,0,0:0:0:0:
64,0,43758,1,0,0:0:0:0:
192,192,43758,1,0,0:0:0:0:
448,0,43836,1,0,0:0:0:0:
320,0,43915,1,0,0:0:0:0:
192,0,43993,1,0,0:0:0:0:
64,0,44072,1,0,0:0:0:0:
320,0,44072,1,0,0:0:0:0:
448,0,44072,1,0,0:0:0:0:
192,0,44150,1,0,0:0:0:0:
64,0,44229,1,0,0:0:0:0:
448,0,44307,1,0,0:0:0:0:
192,0,44386,1,0,0:0:0:0:
320,0,44386,1,0,0:0:0:0:
64,0,44465,1,0,0:0:0:0:
192,0,44543,1,0,0:0:0:0:
320,0,44622,1,0,0:0:0:0:
64,0,44700,1,0,0:0:0:0:
192,0,44700,1,0,0:0:0:0:
448,0,44700,1,0,0:0:0:0:
320,0,44779,1,0,0:0:0:0:
448,0,44857,1,0,0:0:0:0:
192,0,44936,1,0,0:0:0:0:
320,0,45014,1,0,0:0:0:0:
448,192,45014,1,0,0:0:0:0:
64,0,45093,1,0,0:0:0:0:
192,0,45171,1,0,0:0:0:0:
320,0,45250,1,0,0:0:0:0:
64,0,45328,1,0,0:0:0:0:
192,0,45328,1,0,0:0:0:0:
448,0,45328,1,0,0:0:0:0:
320,0,45407,1,0,0:0:0:0:
64,0,45485,1,0,0:0:0:0:
192,0,45564,1,0,0:0:0:0:
448,0,45643,1,0,0:0:0:0:
320,0,45643,1,0,0:0:0:0:
64,0,45721,1,0,0:0:0:0:
448,0,45800,1,0,0:0:0:0:
320,0,45878,1,0,0:0:0:0:
64,0,45957,1,0,0:0:0:0:
192,0,45957,1,0,0:0:0:0:
448,0,45957,1,0,0:0:0:0:
320,0,46035,1,0,0:0:0:0:
64,0,46114,1,0,0:0:0:0:
192,0,46114,1,0,0:0:0:0:
448,0,46192,1,0,0:0:0:0:
64,0,46271,1,0,0:0:0:0:
192,0,46271,1,0,0:0:0:0:
320,0,46349,1,0,0:0:0:0:
448,0,46349,1,0,0:0:0:0:
64,0,46428,1,0,0:0:0:0:
192,0,46428,1,0,0:0:0:0:
320,0,46506,1,0,0:0:0:0:
64,0,46585,128,0,46899:0:0:0:0:
192,0,46585,1,0,0:0:0:0:
448,0,46585,1,0,0:0:0:0:
320,0,46663,1,0,0:0:0:0:
448,0,46742,1,0,0:0:0:0:
192,0,46821,1,0,0:0:0:0:
448,0,46899,1,0,0:0:0:0:
320,0,46899,1,0,0:0:0:0:
64,0,46978,1,0,0:0:0:0:
320,0,47056,1,0,0:0:0:0:
192,0,47135,1,0,0:0:0:0:
64,0,47213,1,0,0:0:0:0:
320,0,47213,1,0,0:0:0:0:
448,0,47213,1,0,0:0:0:0:
192,0,47292,1,0,0:0:0:0:
448,0,47370,1,0,0:0:0:0:
64,0,47449,1,0,0:0:0:0:
192,0,47527,1,0,0:0:0:0:
448,192,47527,1,0,0:0:0:0:
64,0,47606,1,0,0:0:0:0:
320,0,47684,1,0,0:0:0:0:
192,0,47763,1,0,0:0:0:0:
64,0,47841,1,0,0:0:0:0:
320,0,47841,1,0,0:0:0:0:
448,0,47841,1,0,0:0:0:0:
192,0,47920,1,0,0:0:0:0:
64,0,47999,1,0,0:0:0:0:
448,0,48077,1,0,0:0:0:0:
320,0,48156,1,0,0:0:0:0:
192,0,48156,1,0,0:0:0:0:
64,0,48234,1,0,0:0:0:0:
320,0,48313,1,0,0:0:0:0:
192,0,48391,1,0,0:0:0:0:
64,0,48470,1,0,0:0:0:0:
320,0,48470,1,0,0:0:0:0:
448,0,48470,1,0,0:0:0:0:
192,0,48548,1,0,0:0:0:0:
448,0,48627,1,0,0:0:0:0:
64,0,48627,1,0,0:0:0:0:
320,0,48705,1,0,0:0:0:0:
64,0,48784,1,0,0:0:0:0:
192,192,48784,1,0,0:0:0:0:
320,0,48862,1,0,0:0:0:0:
448,0,48941,1,0,0:0:0:0:
192,0,49020,1,0,0:0:0:0:
64,0,49098,1,0,0:0:0:0:
320,0,49098,1,0,0:0:0:0:
448,0,49098,1,0,0:0:0:0:
192,0,49177,1,0,0:0:0:0:
320,0,49255,1,0,0:0:0:0:
192,0,49334,1,0,0:0:0:0:
64,0,49412,1,0,0:0:0:0:
448,0,49412,1,0,0:0:0:0:
320,0,49491,1,0,0:0:0:0:
64,0,49569,1,0,0:0:0:0:
448,0,49648,1,0,0:0:0:0:
64,0,49726,1,0,0:0:0:0:
192,0,49726,1,0,0:0:0:0:
320,0,49726,1,0,0:0:0:0:
448,0,49805,1,0,0:0:0:0:
320,0,49883,1,0,0:0:0:0:
192,0,49962,1,0,0:0:0:0:
320,0,50040,1,0,0:0:0:0:
448,192,50040,1,0,0:0:0:0:
64,0,50119,1,0,0:0:0:0:
192,0,50198,1,0,0:0:0:0:
320,0,50276,1,0,0:0:0:0:
64,0,50355,1,0,0:0:0:0:
192,0,50355,1,0,0:0:0:0:
448,0,50355,1,0,0:0:0:0:
320,0,50433,1,0,0:0:0:0:
64,0,50512,1,0,0:0:0:0:
192,0,50590,1,0,0:0:0:0:
448,0,50669,1,0,0:0:0:0:
320,0,50669,1,0,0:0:0:0:
64,0,50747,1,0,0:0:0:0:
192,0,50826,1,0,0:0:0:0:
320,0,50904,1,0,0:0:0:0:
64,0,50983,1,0,0:0:0:0:
192,0,50983,1,0,0:0:0:0:
448,0,50983,1,0,0:0:0:0:
320,0,51061,1,0,0:0:0:0:
64,0,51140,1,0,0:0:0:0:
192,0,51140,1,0,0:0:0:0:
320,0,51218,1,0,0:0:0:0:
64,0,51297,1,0,0:0:0:0:
192,0,51297,1,0,0:0:0:0:
320,0,51376,1,0,0:0:0:0:
448,0,51376,1,0,0:0:0:0:
64,0,51454,1,0,0:0:0:0:
192,0,51454,1,0,0:0:0:0:
320,0,51533,1,0,0:0:0:0:
64,0,51611,128,0,51925:0:0:0:0:
192,0,51611,1,0,0:0:0:0:
448,0,51611,1,0,0:0:0:0:
320,0,51768,1,0,0:0:0:0:
192,0,51925,1,0,0:0:0:0:
320,0,51925,1,0,0:0:0:0:
448,0,51925,1,0,0:0:0:0:
64,0,52004,1,0,0:0:0:0:
192,0,52082,1,0,0:0:0:0:
320,0,52161,1,0,0:0:0:0:
64,0,52239,1,0,0:0:0:0:
192,0,52239,1,0,0:0:0:0:
448,0,52239,1,0,0:0:0:0:
320,0,52318,1,0,0:0:0:0:
448,0,52396,1,0,0:0:0:0:
192,0,52475,1,0,0:0:0:0:
320,0,52554,1,0,0:0:0:0:
448,192,52554,1,0,0:0:0:0:
64,0,52632,1,0,0:0:0:0:
192,0,52711,1,0,0:0:0:0:
320,0,52789,1,0,0:0:0:0:
64,0,52868,1,0,0:0:0:0:
192,0,52868,1,0,0:0:0:0:
448,0,52868,1,0,0:0:0:0:
320,0,52946,1,0,0:0:0:0:
192,0,53025,1,0,0:0:0:0:
448,0,53025,1,0,0:0:0:0:
64,0,53103,1,0,0:0:0:0:
320,0,53182,1,0,0:0:0:0:
448,0,53182,1,0,0:0:0:0:
192,0,53260,1,0,0:0:0:0:
320,0,53339,1,0,0:0:0:0:
64,0,53417,1,0,0:0:0:0:
192,0,53496,1,0,0:0:0:0:
320,0,53496,1,0,0:0:0:0:
448,0,53496,1,0,0:0:0:0:
64,0,53574,1,0,0:0:0:0:
192,0,53653,1,0,0:0:0:0:
448,0,53653,1,0,0:0:0:0:
320,0,53732,1,0,0:0:0:0:
64,0,53810,1,0,0:0:0:0:
192,192,53810,1,0,0:0:0:0:
448,0,53889,1,0,0:0:0:0:
320,0,53967,1,0,0:0:0:0:
192,0,54046,1,0,0:0:0:0:
64,0,54124,1,0,0:0:0:0:
320,0,54124,1,0,0:0:0:0:
448,0,54124,1,0,0:0:0:0:
192,0,54203,1,0,0:0:0:0:
64,0,54281,1,0,0:0:0:0:
448,0,54360,1,0,0:0:0:0:
320,0,54438,1,0,0:0:0:0:
192,0,54438,1,0,0:0:0:0:
64,0,54517,1,0,0:0:0:0:
192,0,54595,1,0,0:0:0:0:
320,0,54674,1,0,0:0:0:0:
448,0,54674,1,0,0:0:0:0:
64,0,54752,1,0,0:0:0:0:
192,0,54752,1,0,0:0:0:0:
448,0,54831,1,0,0:0:0:0:
320,0,54910,1,0,0:0:0:0:
448,0,54988,1,0,0:0:0:0:
320,0,55067,1,0,0:0:0:0:
64,192,55067,1,0,0:0:0:0:
192,0,55145,1,0,0:0:0:0:
448,0,55224,1,0,0:0:0:0:
320,0,55302,1,0,0:0:0:0:
64,0,55381,1,0,0:0:0:0:
192,0,55381,1,0,0:0:0:0:
448,0,55381,1,0,0:0:0:0:
320,0,55459,1,0,0:0:0:0:
192,0,55538,1,0,0:0:0:0:
320,0,55616,1,0,0:0:0:0:
64,0,55695,1,0,0:0:0:0:
448,0,55695,1,0,0:0:0:0:
192,0,55773,1,0,0:0:0:0:
448,0,55852,1,0,0:0:0:0:
320,0,55930,1,0,0:0:0:0:
64,0,56009,1,0,0:0:0:0:
192,0,56009,1,0,0:0:0:0:
448,0,56009,1,0,0:0:0:0:
320,0,56088,1,0,0:0:0:0:
64,0,56166,1,0,0:0:0:0:
192,0,56166,1,0,0:0:0:0:
448,0,56245,1,0,0:0:0:0:
64,0,56323,1,0,0:0:0:0:
192,0,56323,1,0,0:0:0:0:
320,0,56402,1,0,0:0:0:0:
448,0,56402,1,0,0:0:0:0:
64,0,56480,1,0,0:0:0:0:
192,0,56480,1,0,0:0:0:0:
448,0,56559,1,0,0:0:0:0:
64,0,56637,128,0,56951:0:0:0:0:
192,0,56637,1,0,0:0:0:0:
320,0,56637,1,0,0:0:0:0:
448,0,56716,1,0,0:0:0:0:
192,0,56794,1,0,0:0:0:0:
320,0,56873,1,0,0:0:0:0:
192,0,56951,1,0,0:0:0:0:
448,0,56951,1,0,0:0:0:0:
320,0,57030,1,0,0:0:0:0:
448,0,57109,1,0,0:0:0:0:
192,0,57187,1,0,0:0:0:0:
64,0,57266,1,0,0:0:0:0:
448,0,57266,1,0,0:0:0:0:
192,0,57344,1,0,0:0:0:0:
320,0,57344,1,0,0:0:0:0:
64,0,57423,1,0,0:0:0:0:
448,0,57423,1,0,0:0:0:0:
192,0,57501,1,0,0:0:0:0:
320,0,57501,1,0,0:0:0:0:
64,0,57580,1,0,0:0:0:0:
448,0,57580,1,0,0:0:0:0:
192,0,57658,1,0,0:0:0:0:
320,0,57658,1,0,0:0:0:0:
64,0,57737,1,0,0:0:0:0:
448,0,57737,1,0,0:0:0:0:
320,0,57815,1,0,0:0:0:0:
64,0,57894,1,0,0:0:0:0:
192,0,57894,1,0,0:0:0:0:
448,0,57894,1,0,0:0:0:0:
320,0,57972,1,0,0:0:0:0:
64,0,58051,1,0,0:0:0:0:
192,0,58051,1,0,0:0:0:0:
320,0,58129,1,0,0:0:0:0:
64,0,58208,1,0,0:0:0:0:
192,0,58208,1,0,0:0:0:0:
448,0,58208,1,0,0:0:0:0:
320,0,58287,1,0,0:0:0:0:
64,0,58365,1,0,0:0:0:0:
192,0,58365,1,0,0:0:0:0:
448,0,58365,1,0,0:0:0:0:
320,0,58444,1,0,0:0:0:0:
64,0,58522,1,0,0:0:0:0:
192,0,58522,1,0,0:0:0:0:
448,0,58522,1,0,0:0:0:0:
320,0,58601,1,0,0:0:0:0:
64,0,58679,1,0,0:0:0:0:
192,0,58679,1,0,0:0:0:0:
448,0,58758,1,0,0:0:0:0:
64,0,58836,1,0,0:0:0:0:
320,0,58836,1,0,0:0:0:0:
192,0,58915,1,0,0:0:0:0:
448,0,58915,1,0,0:0:0:0:
64,0,58993,1,0,0:0:0:0:
320,0,58993,1,0,0:0:0:0:
192,0,59072,1,0,0:0:0:0:
320,0,59150,1,0,0:0:0:0:
448,0,59150,1,0,0:0:0:0:
64,192,59150,1,0,0:0:0:0:
192,0,59229,1,0,0:0:0:0:
320,0,59307,1,0,0:0:0:0:
448,0,59386,1,0,0:0:0:0:
64,0,59465,1,0,0:0:0:0:
192,0,59465,1,0,0:0:0:0:
320,0,59543,1,0,0:0:0:0:
448,0,59543,1,0,0:0:0:0:
64,0,59622,1,0,0:0:0:0:
192,0,59622,1,0,0:0:0:0:
448,0,59700,1,0,0:0:0:0:
64,0,59779,1,0,0:0:0:0:
192,0,59779,1,0,0:0:0:0:
320,0,59779,1,0,0:0:0:0:
448,0,59857,1,0,0:0:0:0:
64,0,59936,1,0,0:0:0:0:
192,0,59936,1,0,0:0:0:0:
320,0,60014,1,0,0:0:0:0:
448,0,60014,1,0,0:0:0:0:
64,0,60093,1,0,0:0:0:0:
192,0,60093,1,0,0:0:0:0:
320,0,60171,1,0,0:0:0:0:
448,0,60171,1,0,0:0:0:0:
64,0,60250,1,0,0:0:0:0:
192,0,60250,1,0,0:0:0:0:
448,0,60328,1,0,0:0:0:0:
64,0,60407,1,0,0:0:0:0:
192,0,60407,1,0,0:0:0:0:
320,0,60407,1,0,0:0:0:0:
448,0,60485,1,0,0:0:0:0:
64,0,60564,1,0,0:0:0:0:
192,0,60564,1,0,0:0:0:0:
320,0,60643,1,0,0:0:0:0:
448,0,60643,1,0,0:0:0:0:
64,0,60721,1,0,0:0:0:0:
192,0,60760,1,0,0:0:0:0:
320,0,60800,1,0,0:0:0:0:
448,0,60839,1,0,0:0:0:0:
64,0,60878,1,0,0:0:0:0:
192,0,60917,1,0,0:0:0:0:
320,0,60957,1,0,0:0:0:0:
448,0,60996,1,0,0:0:0:0:
64,0,61035,1,0,0:0:0:0:
192,0,61074,1,0,0:0:0:0:
320,0,61114,1,0,0:0:0:0:
448,0,61153,1,0,0:0:0:0:
64,0,61192,1,0,0:0:0:0:
192,0,61232,1,0,0:0:0:0:
320,0,61271,1,0,0:0:0:0:
448,0,61310,1,0,0:0:0:0:
64,0,61349,1,0,0:0:0:0:
192,0,61349,1,0,0:0:0:0:
320,0,61428,1,0,0:0:0:0:
448,0,61428,1,0,0:0:0:0:
64,0,61506,1,0,0:0:0:0:
192,0,61506,1,0,0:0:0:0:
64,0,61663,128,0,61978:0:0:0:0:
192,0,61663,1,0,0:0:0:0:
320,0,61663,1,0,0:0:0:0:
448,0,61663,1,0,0:0:0:0:
320,0,61821,1,0,0:0:0:0:
192,0,61978,1,0,0:0:0:0:
320,0,61978,1,0,0:0:0:0:
448,0,61978,1,0,0:0:0:0:
64,0,62056,1,0,0:0:0:0:
320,0,62135,1,0,0:0:0:0:
448,0,62135,1,0,0:0:0:0:
192,0,62213,1,0,0:0:0:0:
64,0,62292,1,0,0:0:0:0:
320,0,62292,1,0,0:0:0:0:
448,0,62292,1,0,0:0:0:0:
192,0,62370,1,0,0:0:0:0:
320,0,62449,1,0,0:0:0:0:
448,0,62449,1,0,0:0:0:0:
64,0,62527,1,0,0:0:0:0:
192,0,62606,1,0,0:0:0:0:
320,0,62684,1,0,0:0:0:0:
64,0,62763,1,0,0:0:0:0:
448,0,62763,1,0,0:0:0:0:
192,0,62841,1,0,0:0:0:0:
64,0,62920,1,0,0:0:0:0:
320,0,62920,1,0,0:0:0:0:
448,0,62920,1,0,0:0:0:0:
192,0,62999,1,0,0:0:0:0:
320,0,63077,1,0,0:0:0:0:
448,0,63077,1,0,0:0:0:0:
64,0,63156,1,0,0:0:0:0:
192,0,63234,1,0,0:0:0:0:
320,0,63234,1,0,0:0:0:0:
448,0,63313,1,0,0:0:0:0:
64,0,63391,1,0,0:0:0:0:
192,0,63391,1,0,0:0:0:0:
320,0,63470,1,0,0:0:0:0:
64,0,63548,1,0,0:0:0:0:
192,0,63548,1,0,0:0:0:0:
448,0,63548,1,0,0:0:0:0:
320,0,63627,1,0,0:0:0:0:
64,0,63705,1,0,0:0:0:0:
192,0,63705,1,0,0:0:0:0:
448,0,63784,1,0,0:0:0:0:
320,0,63862,1,0,0:0:0:0:
192,0,63941,1,0,0:0:0:0:
64,0,64019,1,0,0:0:0:0:
320,0,64019,1,0,0:0:0:0:
192,0,64098,1,0,0:0:0:0:
64,0,64177,1,0,0:0:0:0:
320,0,64177,1,0,0:0:0:0:
448,0,64177,1,0,0:0:0:0:
192,0,64255,1,0,0:0:0:0:
320,0,64334,1,0,0:0:0:0:
448,0,64334,1,0,0:0:0:0:
64,0,64412,1,0,0:0:0:0:
192,0,64491,1,0,0:0:0:0:
320,0,64491,1,0,0:0:0:0:
448,0,64569,1,0,0:0:0:0:
64,0,64648,1,0,0:0:0:0:
192,0,64648,1,0,0:0:0:0:
320,0,64726,1,0,0:0:0:0:
64,0,64805,1,0,0:0:0:0:
192,0,64805,1,0,0:0:0:0:
448,0,64805,1,0,0:0:0:0:
320,0,64883,1,0,0:0:0:0:
64,0,64962,1,0,0:0:0:0:
448,0,64962,1,0,0:0:0:0:
192,0,65040,1,0,0:0:0:0:
320,0,65119,1,0,0:0:0:0:
448,0,65198,1,0,0:0:0:0:
64,0,65276,1,0,0:0:0:0:
192,0,65276,1,0,0:0:0:0:
320,0,65355,1,0,0:0:0:0:
64,0,65433,1,0,0:0:0:0:
192,0,65433,1,0,0:0:0:0:
448,0,65433,1,0,0:0:0:0:
320,0,65512,1,0,0:0:0:0:
64,0,65590,1,0,0:0:0:0:
448,0,65590,1,0,0:0:0:0:
192,0,65669,1,0,0:0:0:0:
320,0,65747,1,0,0:0:0:0:
448,0,65826,1,0,0:0:0:0:
64,0,65904,1,0,0:0:0:0:
192,0,65904,1,0,0:0:0:0:
320,0,65983,1,0,0:0:0:0:
64,0,66061,1,0,0:0:0:0:
192,0,66061,1,0,0:0:0:0:
448,0,66061,1,0,0:0:0:0:
320,0,66140,1,0,0:0:0:0:
64,0,66218,1,0,0:0:0:0:
192,0,66218,1,0,0:0:0:0:
320,0,66297,1,0,0:0:0:0:
64,0,66376,1,0,0:0:0:0:
192,0,66376,1,0,0:0:0:0:
320,0,66454,1,0,0:0:0:0:
448,0,66454,1,0,0:0:0:0:
64,0,66533,1,0,0:0:0:0:
192,0,66533,1,0,0:0:0:0:
320,0,66611,1,0,0:0:0:0:
64,0,66690,128,0,67004:0:0:0:0:
192,0,66690,1,0,0:0:0:0:
448,0,66690,1,0,0:0:0:0:
320,0,66768,1,0,0:0:0:0:
192,0,66847,1,0,0:0:0:0:
448,0,66847,1,0,0:0:0:0:
320,0,66925,1,0,0:0:0:0:
192,0,67004,1,0,0:0:0:0:
448,0,67004,1,0,0:0:0:0:
320,0,67082,1,0,0:0:0:0:
64,0,67161,1,0,0:0:0:0:
192,0,67161,1,0,0:0:0:0:
320,0,67239,1,0,0:0:0:0:
64,0,67318,1,0,0:0:0:0:
192,0,67318,1,0,0:0:0:0:
448,0,67318,1,0,0:0:0:0:
320,0,67396,1,0,0:0:0:0:
64,0,67475,1,0,0:0:0:0:
448,0,67475,1,0,0:0:0:0:
192,0,67554,1,0,0:0:0:0:
320,0,67632,1,0,0:0:0:0:
448,0,67711,1,0,0:0:0:0:
64,0,67789,1,0,0:0:0:0:
192,0,67789,1,0,0:0:0:0:
320,0,67868,1,0,0:0:0:0:
64,0,67946,1,0,0:0:0:0:
192,0,67946,1,0,0:0:0:0:
448,0,67946,1,0,0:0:0:0:
320,0,68025,1,0,0:0:0:0:
64,0,68103,1,0,0:0:0:0:
192,0,68103,1,0,0:0:0:0:
448,0,68182,1,0,0:0:0:0:
192,0,68260,1,0,0:0:0:0:
320,0,68260,1,0,0:0:0:0:
64,0,68339,1,0,0:0:0:0:
320,0,68417,1,0,0:0:0:0:
448,0,68417,1,0,0:0:0:0:
192,0,68496,1,0,0:0:0:0:
64,0,68574,1,0,0:0:0:0:
320,0,68574,1,0,0:0:0:0:
448,0,68574,1,0,0:0:0:0:
192,0,68653,1,0,0:0:0:0:
320,0,68732,1,0,0:0:0:0:
448,0,68732,1,0,0:0:0:0:
64,0,68810,1,0,0:0:0:0:
192,0,68889,1,0,0:0:0:0:
320,0,68967,1,0,0:0:0:0:
64,0,69046,1,0,0:0:0:0:
448,0,69046,1,0,0:0:0:0:
192,0,69124,1,0,0:0:0:0:
64,0,69203,1,0,0:0:0:0:
320,0,69203,1,0,0:0:0:0:
448,0,69203,1,0,0:0:0:0:
192,0,69281,1,0,0:0:0:0:
320,0,69360,1,0,0:0:0:0:
448,0,69360,1,0,0:0:0:0:
64,0,69438,1,0,0:0:0:0:
192,0,69517,1,0,0:0:0:0:
320,0,69517,1,0,0:0:0:0:
448,0,69595,1,0,0:0:0:0:
64,0,69674,1,0,0:0:0:0:
192,0,69674,1,0,0:0:0:0:
320,0,69752,1,0,0:0:0:0:
64,0,69831,1,0,0:0:0:0:
192,0,69831,1,0,0:0:0:0:
448,0,69831,1,0,0:0:0:0:
320,0,69910,1,0,0:0:0:0:
64,0,69988,1,0,0:0:0:0:
192,0,69988,1,0,0:0:0:0:
448,0,70067,1,0,0:0:0:0:
320,0,70145,1,0,0:0:0:0:
192,0,70224,1,0,0:0:0:0:
64,0,70302,1,0,0:0:0:0:
448,0,70302,1,0,0:0:0:0:
192,0,70381,1,0,0:0:0:0:
64,0,70459,1,0,0:0:0:0:
320,0,70459,1,0,0:0:0:0:
448,0,70459,1,0,0:0:0:0:
192,0,70538,1,0,0:0:0:0:
320,0,70616,1,0,0:0:0:0:
448,0,70616,1,0,0:0:0:0:
64,0,70695,1,0,0:0:0:0:
192,0,70773,1,0,0:0:0:0:
448,0,70852,1,0,0:0:0:0:
64,0,70930,1,0,0:0:0:0:
320,0,70930,1,0,0:0:0:0:
192,0,71009,1,0,0:0:0:0:
64,0,71088,1,0,0:0:0:0:
320,0,71088,1,0,0:0:0:0:
448,0,71088,1,0,0:0:0:0:
192,0,71166,1,0,0:0:0:0:
320,0,71245,1,0,0:0:0:0:
448,0,71245,1,0,0:0:0:0:
192,0,71323,1,0,0:0:0:0:
320,0,71402,1,0,0:0:0:0:
448,0,71402,1,0,0:0:0:0:
64,0,71480,1,0,0:0:0:0:
192,0,71480,1,0,0:0:0:0:
320,0,71559,1,0,0:0:0:0:
448,0,71559,1,0,0:0:0:0:
192,0,71637,1,0,0:0:0:0:
64,0,71716,128,0,72030:0:0:0:0:
320,0,71716,1,0,0:0:0:0:
448,0,71716,1,0,0:0:0:0:
192,0,71794,1,0,0:0:0:0:
320,0,71873,1,0,0:0:0:0:
448,0,71873,1,0,0:0:0:0:
192,0,71951,1,0,0:0:0:0:
320,0,72030,1,0,0:0:0:0:
448,0,72030,1,0,0:0:0:0:
192,0,72108,1,0,0:0:0:0:
64,0,72187,1,0,0:0:0:0:
448,0,72187,1,0,0:0:0:0:
320,0,72266,1,0,0:0:0:0:
64,0,72344,1,0,0:0:0:0:
192,0,72344,1,0,0:0:0:0:
448,0,72344,1,0,0:0:0:0:
320,0,72423,1,0,0:0:0:0:
64,0,72501,1,0,0:0:0:0:
192,0,72501,1,0,0:0:0:0:
448,0,72580,1,0,0:0:0:0:
320,0,72658,1,0,0:0:0:0:
192,0,72737,1,0,0:0:0:0:
320,0,72815,1,0,0:0:0:0:
448,0,72815,1,0,0:0:0:0:
192,0,72894,1,0,0:0:0:0:
64,0,72972,1,0,0:0:0:0:
320,0,72972,1,0,0:0:0:0:
448,0,72972,1,0,0:0:0:0:
192,0,73051,1,0,0:0:0:0:
64,0,73129,1,0,0:0:0:0:
320,0,73129,1,0,0:0:0:0:
448,0,73208,1,0,0:0:0:0:
64,0,73287,1,0,0:0:0:0:
192,0,73287,1,0,0:0:0:0:
320,0,73365,1,0,0:0:0:0:
64,0,73444,1,0,0:0:0:0:
448,0,73444,1,0,0:0:0:0:
192,0,73522,1,0,0:0:0:0:
64,0,73601,1,0,0:0:0:0:
320,0,73601,1,0,0:0:0:0:
448,0,73601,1,0,0:0:0:0:
192,0,73679,1,0,0:0:0:0:
320,0,73758,1,0,0:0:0:0:
448,0,73758,1,0,0:0:0:0:
64,0,73836,1,0,0:0:0:0:
192,0,73915,1,0,0:0:0:0:
320,0,73993,1,0,0:0:0:0:
64,0,74072,1,0,0:0:0:0:
448,0,74072,1,0,0:0:0:0:
192,0,74150,1,0,0:0:0:0:
64,0,74229,1,0,0:0:0:0:
320,0,74229,1,0,0:0:0:0:
448,0,74229,1,0,0:0:0:0:
192,0,74307,1,0,0:0:0:0:
320,0,74386,1,0,0:0:0:0:
448,0,74386,1,0,0:0:0:0:
64,0,74465,1,0,0:0:0:0:
192,0,74543,1,0,0:0:0:0:
320,0,74543,1,0,0:0:0:0:
448,0,74622,1,0,0:0:0:0:
64,0,74700,1,0,0:0:0:0:
192,0,74700,1,0,0:0:0:0:
320,0,74779,1,0,0:0:0:0:
64,0,74857,1,0,0:0:0:0:
192,0,74857,1,0,0:0:0:0:
448,0,74857,1,0,0:0:0:0:
320,0,74936,1,0,0:0:0:0:
64,0,75014,1,0,0:0:0:0:
192,0,75014,1,0,0:0:0:0:
448,0,75093,1,0,0:0:0:0:
320,0,75171,1,0,0:0:0:0:
192,0,75250,1,0,0:0:0:0:
64,0,75328,1,0,0:0:0:0:
448,0,75328,1,0,0:0:0:0:
192,0,75407,1,0,0:0:0:0:
64,0,75485,1,0,0:0:0:0:
320,0,75485,1,0,0:0:0:0:
448,0,75485,1,0,0:0:0:0:
192,0,75564,1,0,0:0:0:0:
320,0,75643,1,0,0:0:0:0:
448,0,75643,1,0,0:0:0:0:
64,0,75721,1,0,0:0:0:0:
448,0,75800,1,0,0:0:0:0:
64,0,75878,1,0,0:0:0:0:
192,0,75957,1,0,0:0:0:0:
320,0,75957,1,0,0:0:0:0:
448,0,76035,1,0,0:0:0:0:
64,0,76114,1,0,0:0:0:0:
192,0,76114,1,0,0:0:0:0:
320,0,76114,1,0,0:0:0:0:
448,0,76192,1,0,0:0:0:0:
64,0,76271,1,0,0:0:0:0:
192,0,76271,1,0,0:0:0:0:
320,0,76349,1,0,0:0:0:0:
64,0,76428,1,0,0:0:0:0:
192,0,76428,1,0,0:0:0:0:
320,0,76506,1,0,0:0:0:0:
448,0,76506,1,0,0:0:0:0:
64,0,76585,1,0,0:0:0:0:
192,0,76585,1,0,0:0:0:0:
320,0,76663,1,0,0:0:0:0:
64,0,76742,128,0,77056:0:0:0:0:
192,0,76742,1,0,0:0:0:0:
448,0,76742,1,0,0:0:0:0:
320,0,76821,1,0,0:0:0:0:
192,0,76899,1,0,0:0:0:0:
448,0,76899,1,0,0:0:0:0:
320,0,76978,1,0,0:0:0:0:
192,0,77056,1,0,0:0:0:0:
448,0,77056,1,0,0:0:0:0:
320,0,77135,1,0,0:0:0:0:
64,0,77213,1,0,0:0:0:0:
192,0,77213,1,0,0:0:0:0:
320,0,77292,1,0,0:0:0:0:
64,0,77370,1,0,0:0:0:0:
192,0,77370,1,0,0:0:0:0:
448,0,77370,1,0,0:0:0:0:
320,0,77449,1,0,0:0:0:0:
64,0,77527,1,0,0:0:0:0:
448,0,77527,1,0,0:0:0:0:
192,0,77606,1,0,0:0:0:0:
320,0,77684,1,0,0:0:0:0:
448,0,77763,1,0,0:0:0:0:
64,0,77841,1,0,0:0:0:0:
192,0,77841,1,0,0:0:0:0:
320,0,77920,1,0,0:0:0:0:
64,0,77999,1,0,0:0:0:0:
192,0,77999,1,0,0:0:0:0:
448,0,77999,1,0,0:0:0:0:
320,0,78077,1,0,0:0:0:0:
64,0,78156,1,0,0:0:0:0:
448,0,78156,1,0,0:0:0:0:
192,0,78234,1,0,0:0:0:0:
320,0,78313,1,0,0:0:0:0:
448,0,78313,1,0,0:0:0:0:
192,0,78391,1,0,0:0:0:0:
64,0,78470,1,0,0:0:0:0:
448,0,78470,1,0,0:0:0:0:
320,0,78548,1,0,0:0:0:0:
64,0,78627,1,0,0:0:0:0:
192,0,78627,1,0,0:0:0:0:
448,0,78627,1,0,0:0:0:0:
320,0,78705,1,0,0:0:0:0:
64,0,78784,1,0,0:0:0:0:
192,0,78784,1,0,0:0:0:0:
448,0,78862,1,0,0:0:0:0:
192,0,78941,1,0,0:0:0:0:
320,0,79019,1,0,0:0:0:0:
64,0,79098,1,0,0:0:0:0:
448,0,79098,1,0,0:0:0:0:
192,0,79177,1,0,0:0:0:0:
64,0,79255,1,0,0:0:0:0:
320,0,79255,1,0,0:0:0:0:
448,0,79255,1,0,0:0:0:0:
192,0,79334,1,0,0:0:0:0:
320,0,79412,1,0,0:0:0:0:
448,0,79412,1,0,0:0:0:0:
64,0,79491,1,0,0:0:0:0:
192,0,79569,1,0,0:0:0:0:
320,0,79569,1,0,0:0:0:0:
448,0,79648,1,0,0:0:0:0:
192,0,79726,1,0,0:0:0:0:
320,0,79726,1,0,0:0:0:0:
64,0,79805,1,0,0:0:0:0:
192,0,79883,1,0,0:0:0:0:
320,0,79883,1,0,0:0:0:0:
448,0,79883,1,0,0:0:0:0:
64,0,79962,1,0,0:0:0:0:
320,0,80040,1,0,0:0:0:0:
448,0,80040,1,0,0:0:0:0:
192,0,80119,1,0,0:0:0:0:
320,0,80198,1,0,0:0:0:0:
448,0,80198,1,0,0:0:0:0:
64,0,80276,1,0,0:0:0:0:
192,0,80276,1,0,0:0:0:0:
320,0,80355,1,0,0:0:0:0:
448,0,80355,1,0,0:0:0:0:
64,0,80433,1,0,0:0:0:0:
192,0,80512,1,0,0:0:0:0:
320,0,80512,1,0,0:0:0:0:
448,0,80512,1,0,0:0:0:0:
64,0,80590,1,0,0:0:0:0:
320,0,80669,1,0,0:0:0:0:
448,0,80669,1,0,0:0:0:0:
64,0,80747,1,0,0:0:0:0:
192,0,80747,1,0,0:0:0:0:
320,0,80826,1,0,0:0:0:0:
448,0,80826,1,0,0:0:0:0:
64,0,80904,1,0,0:0:0:0:
192,0,80904,1,0,0:0:0:0:
320,0,80983,1,0,0:0:0:0:
448,0,80983,1,0,0:0:0:0:
64,0,81061,1,0,0:0:0:0:
192,0,81140,1,0,0:0:0:0:
320,0,81140,1,0,0:0:0:0:
448,0,81140,1,0,0:0:0:0:
64,0,81218,1,0,0:0:0:0:
320,0,81297,1,0,0:0:0:0:
448,0,81297,1,0,0:0:0:0:
64,0,81376,1,0,0:0:0:0:
192,0,81376,1,0,0:0:0:0:
320,0,81454,1,0,0:0:0:0:
448,0,81493,1,0,0:0:0:0:
64,0,81533,1,0,0:0:0:0:
192,0,81572,1,0,0:0:0:0:
320,0,81611,1,0,0:0:0:0:
448,0,81650,1,0,0:0:0:0:
64,0,81690,1,0,0:0:0:0:
192,0,81729,1,0,0:0:0:0:
320,0,81768,1,0,0:0:0:0:
448,0,81807,1,0,0:0:0:0:
64,0,81847,1,0,0:0:0:0:
192,0,81886,1,0,0:0:0:0:
320,0,81925,1,0,0:0:0:0:
448,0,81965,1,0,0:0:0:0:
64,0,82004,1,0,0:0:0:0:
192,0,82043,1,0,0:0:0:0:
320,0,82082,1,0,0:0:0:0:
448,0,82082,1,0,0:0:0:0:
64,0,82161,1,0,0:0:0:0:
192,0,82239,1,0,0:0:0:0:
320,0,82239,1,0,0:0:0:0:
448,0,82318,1,0,0:0:0:0:
64,0,82396,1,0,0:0:0:0:
192,0,82396,1,0,0:0:0:0:
320,0,82396,1,0,0:0:0:0:
448,0,82475,1,0,0:0:0:0:
192,0,82554,1,0,0:0:0:0:
320,0,82632,1,0,0:0:0:0:
64,0,82711,1,0,0:0:0:0:
448,0,82711,1,0,0:0:0:0:
192,0,82789,1,0,0:0:0:0:
320,0,82868,1,0,0:0:0:0:
448,0,82868,1,0,0:0:0:0:
192,0,82946,1,0,0:0:0:0:
64,0,83025,1,0,0:0:0:0:
320,0,83025,1,0,0:0:0:0:
448,0,83025,1,0,0:0:0:0:
192,0,83103,1,0,0:0:0:0:
64,0,83182,1,0,0:0:0:0:
448,0,83182,1,0,0:0:0:0:
192,0,83260,1,0,0:0:0:0:
320,0,83339,1,0,0:0:0:0:
448,0,83417,1,0,0:0:0:0:
64,0,83496,1,0,0:0:0:0:
192,0,83496,1,0,0:0:0:0:
320,0,83574,1,0,0:0:0:0:
64,0,83653,1,0,0:0:0:0:
192,0,83653,1,0,0:0:0:0:
448,0,83653,1,0,0:0:0:0:
320,0,83732,1,0,0:0:0:0:
192,0,83810,1,0,0:0:0:0:
64,0,83889,1,0,0:0:0:0:
320,0,83967,1,0,0:0:0:0:
448,0,83967,1,0,0:0:0:0:
192,0,84046,1,0,0:0:0:0:
64,0,84124,1,0,0:0:0:0:
448,0,84124,1,0,0:0:0:0:
192,0,84203,1,0,0:0:0:0:
64,0,84281,1,0,0:0:0:0:
320,0,84281,1,0,0:0:0:0:
448,0,84281,1,0,0:0:0:0:
192,0,84360,1,0,0:0:0:0:
320,0,84438,1,0,0:0:0:0:
448,0,84438,1,0,0:0:0:0:
64,0,84517,1,0,0:0:0:0:
192,0,84595,1,0,0:0:0:0:
320,0,84674,1,0,0:0:0:0:
64,0,84752,1,0,0:0:0:0:
192,0,84752,1,0,0:0:0:0:
320,0,84831,1,0,0:0:0:0:
64,0,84910,1,0,0:0:0:0:
192,0,84910,1,0,0:0:0:0:
448,0,84910,1,0,0:0:0:0:
320,0,84988,1,0,0:0:0:0:
192,0,85067,1,0,0:0:0:0:
64,0,85145,1,0,0:0:0:0:
320,0,85224,1,0,0:0:0:0:
448,0,85224,1,0,0:0:0:0:
192,0,85302,1,0,0:0:0:0:
64,0,85381,1,0,0:0:0:0:
448,0,85381,1,0,0:0:0:0:
192,0,85459,1,0,0:0:0:0:
64,0,85538,1,0,0:0:0:0:
320,0,85538,1,0,0:0:0:0:
448,0,85538,1,0,0:0:0:0:
192,0,85616,1,0,0:0:0:0:
320,0,85695,1,0,0:0:0:0:
448,0,85695,1,0,0:0:0:0:
64,0,85773,1,0,0:0:0:0:
192,0,85852,1,0,0:0:0:0:
320,0,85930,1,0,0:0:0:0:
64,0,86009,1,0,0:0:0:0:
448,0,86009,1,0,0:0:0:0:
320,0,86088,1,0,0:0:0:0:
64,0,86166,1,0,0:0:0:0:
192,0,86166,1,0,0:0:0:0:
448,0,86166,1,0,0:0:0:0:
320,0,86245,1,0,0:0:0:0:
64,0,86323,1,0,0:0:0:0:
192,0,86323,1,0,0:0:0:0:
448,0,86402,1,0,0:0:0:0:
64,0,86480,1,0,0:0:0:0:
192,0,86480,1,0,0:0:0:0:
320,0,86559,1,0,0:0:0:0:
448,0,86559,1,0,0:0:0:0:
64,0,86637,1,0,0:0:0:0:
192,0,86637,1,0,0:0:0:0:
320,0,86716,1,0,0:0:0:0:
64,0,86794,128,0,87108:0:0:0:0:
192,0,86794,1,0,0:0:0:0:
448,0,86794,1,0,0:0:0:0:
320,0,86873,1,0,0:0:0:0:
192,0,86951,1,0,0:0:0:0:
448,0,86951,1,0,0:0:0:0:
320,0,87030,1,0,0:0:0:0:
192,0,87108,1,0,0:0:0:0:
448,0,87187,1,0,0:0:0:0:
64,0,87266,1,0,0:0:0:0:
192,0,87266,1,0,0:0:0:0:
320,0,87344,1,0,0:0:0:0:
64,0,87423,1,0,0:0:0:0:
192,0,87423,1,0,0:0:0:0:
448,0,87423,1,0,0:0:0:0:
320,0,87501,1,0,0:0:0:0:
64,0,87580,1,0,0:0:0:0:
192,0,87658,1,0,0:0:0:0:
320,0,87737,1,0,0:0:0:0:
448,0,87737,1,0,0:0:0:0:
64,0,87815,1,0,0:0:0:0:
192,0,87894,1,0,0:0:0:0:
320,0,87894,1,0,0:0:0:0:
64,0,87972,1,0,0:0:0:0:
192,0,88051,1,0,0:0:0:0:
320,0,88051,1,0,0:0:0:0:
448,0,88051,1,0,0:0:0:0:
64,0,88129,1,0,0:0:0:0:
320,0,88208,1,0,0:0:0:0:
448,0,88208,1,0,0:0:0:0:
192,0,88287,1,0,0:0:0:0:
448,0,88365,1,0,0:0:0:0:
320,0,88444,1,0,0:0:0:0:
64,0,88522,1,0,0:0:0:0:
192,0,88522,1,0,0:0:0:0:
320,0,88601,1,0,0:0:0:0:
64,0,88679,1,0,0:0:0:0:
192,0,88679,1,0,0:0:0:0:
448,0,88679,1,0,0:0:0:0:
320,0,88758,1,0,0:0:0:0:
64,0,88836,1,0,0:0:0:0:
192,0,88915,1,0,0:0:0:0:
320,0,88993,1,0,0:0:0:0:
448,0,88993,1,0,0:0:0:0:
64,0,89072,1,0,0:0:0:0:
192,0,89150,1,0,0:0:0:0:
320,0,89150,1,0,0:0:0:0:
448,0,89229,1,0,0:0:0:0:
64,0,89307,1,0,0:0:0:0:
192,0,89307,1,0,0:0:0:0:
320,0,89307,1,0,0:0:0:0:
448,0,89386,1,0,0:0:0:0:
64,0,89465,1,0,0:0:0:0:
192,0,89465,1,0,0:0:0:0:
320,0,89543,1,0,0:0:0:0:
192,0,89622,1,0,0:0:0:0:
320,0,89700,1,0,0:0:0:0:
64,0,89779,1,0,0:0:0:0:
448,0,89779,1,0,0:0:0:0:
192,0,89857,1,0,0:0:0:0:
64,0,89936,1,0,0:0:0:0:
320,0,89936,1,0,0:0:0:0:
448,0,89936,1,0,0:0:0:0:
192,0,90014,1,0,0:0:0:0:
320,0,90093,1,0,0:0:0:0:
448,0,90171,1,0,0:0:0:0:
64,0,90250,1,0,0:0:0:0:
192,0,90250,1,0,0:0:0:0:
320,0,90328,1,0,0:0:0:0:
64,0,90407,1,0,0:0:0:0:
448,0,90407,1,0,0:0:0:0:
192,0,90485,1,0,0:0:0:0:
64,0,90564,1,0,0:0:0:0:
320,0,90564,1,0,0:0:0:0:
448,0,90564,1,0,0:0:0:0:
192,0,90643,1,0,0:0:0:0:
320,0,90721,1,0,0:0:0:0:
448,0,90721,1,0,0:0:0:0:
64,0,90800,1,0,0:0:0:0:
192,0,90878,1,0,0:0:0:0:
320,0,90957,1,0,0:0:0:0:
192,0,91035,1,0,0:0:0:0:
448,0,91035,1,0,0:0:0:0:
64,0,91114,1,0,0:0:0:0:
192,0,91192,1,0,0:0:0:0:
320,0,91192,1,0,0:0:0:0:
448,0,91192,1,0,0:0:0:0:
64,0,91271,1,0,0:0:0:0:
320,0,91349,1,0,0:0:0:0:
448,0,91349,1,0,0:0:0:0:
192,0,91428,1,0,0:0:0:0:
320,0,91506,1,0,0:0:0:0:
448,0,91506,1,0,0:0:0:0:
64,0,91585,1,0,0:0:0:0:
192,0,91585,1,0,0:0:0:0:
320,0,91663,1,0,0:0:0:0:
448,0,91663,1,0,0:0:0:0:
192,0,91742,1,0,0:0:0:0:
64,0,91821,128,0,92135:0:0:0:0:
320,0,91821,1,0,0:0:0:0:
448,0,91821,1,0,0:0:0:0:
192,0,91899,1,0,0:0:0:0:
320,0,91978,1,0,0:0:0:0:
448,0,91978,1,0,0:0:0:0:
192,0,92056,1,0,0:0:0:0:
448,0,92135,1,0,0:0:0:0:
320,0,92213,1,0,0:0:0:0:
64,0,92292,1,0,0:0:0:0:
192,0,92292,1,0,0:0:0:0:
320,0,92370,1,0,0:0:0:0:
64,0,92449,1,0,0:0:0:0:
192,0,92449,1,0,0:0:0:0:
448,0,92449,1,0,0:0:0:0:
320,0,92527,1,0,0:0:0:0:
64,0,92606,1,0,0:0:0:0:
192,0,92684,1,0,0:0:0:0:
320,0,92763,1,0,0:0:0:0:
448,0,92763,1,0,0:0:0:0:
64,0,92841,1,0,0:0:0:0:
192,0,92920,1,0,0:0:0:0:
320,0,92920,1,0,0:0:0:0:
448,0,92999,1,0,0:0:0:0:
64,0,93077,1,0,0:0:0:0:
192,0,93077,1,0,0:0:0:0:
320,0,93077,1,0,0:0:0:0:
448,0,93156,1,0,0:0:0:0:
64,0,93234,1,0,0:0:0:0:
192,0,93234,1,0,0:0:0:0:
320,0,93313,1,0,0:0:0:0:
192,0,93391,1,0,0:0:0:0:
320,0,93470,1,0,0:0:0:0:
64,0,93548,1,0,0:0:0:0:
448,0,93548,1,0,0:0:0:0:
192,0,93627,1,0,0:0:0:0:
64,0,93705,1,0,0:0:0:0:
320,0,93705,1,0,0:0:0:0:
448,0,93705,1,0,0:0:0:0:
192,0,93784,1,0,0:0:0:0:
320,0,93862,1,0,0:0:0:0:
448,0,93941,1,0,0:0:0:0:
64,0,94019,1,0,0:0:0:0:
192,0,94019,1,0,0:0:0:0:
320,0,94098,1,0,0:0:0:0:
64,0,94177,1,0,0:0:0:0:
448,0,94177,1,0,0:0:0:0:
192,0,94255,1,0,0:0:0:0:
64,0,94334,1,0,0:0:0:0:
320,0,94334,1,0,0:0:0:0:
448,0,94334,1,0,0:0:0:0:
192,0,94412,1,0,0:0:0:0:
320,0,94491,1,0,0:0:0:0:
448,0,94491,1,0,0:0:0:0:
64,0,94569,1,0,0:0:0:0:
192,0,94648,1,0,0:0:0:0:
320,0,94726,1,0,0:0:0:0:
64,0,94805,1,0,0:0:0:0:
448,0,94805,1,0,0:0:0:0:
192,0,94883,1,0,0:0:0:0:
64,0,94962,1,0,0:0:0:0:
320,0,94962,1,0,0:0:0:0:
448,0,94962,1,0,0:0:0:0:
192,0,95040,1,0,0:0:0:0:
320,0,95119,1,0,0:0:0:0:
448,0,95197,1,0,0:0:0:0:
192,0,95276,1,0,0:0:0:0:
320,0,95276,1,0,0:0:0:0:
64,0,95355,1,0,0:0:0:0:
320,0,95433,1,0,0:0:0:0:
448,0,95433,1,0,0:0:0:0:
192,0,95512,1,0,0:0:0:0:
64,0,95590,1,0,0:0:0:0:
320,0,95590,1,0,0:0:0:0:
448,0,95590,1,0,0:0:0:0:
192,0,95669,1,0,0:0:0:0:
320,0,95747,1,0,0:0:0:0:
448,0,95747,1,0,0:0:0:0:
64,0,95826,1,0,0:0:0:0:
192,0,95904,1,0,0:0:0:0:
320,0,95983,1,0,0:0:0:0:
64,0,96061,1,0,0:0:0:0:
448,0,96061,1,0,0:0:0:0:
192,0,96140,1,0,0:0:0:0:
64,0,96218,1,0,0:0:0:0:
320,0,96218,1,0,0:0:0:0:
448,0,96218,1,0,0:0:0:0:
192,0,96297,1,0,0:0:0:0:
320,0,96376,1,0,0:0:0:0:
448,0,96376,1,0,0:0:0:0:
192,0,96454,1,0,0:0:0:0:
320,0,96533,1,0,0:0:0:0:
448,0,96533,1,0,0:0:0:0:
64,0,96611,1,0,0:0:0:0:
192,0,96611,1,0,0:0:0:0:
320,0,96690,1,0,0:0:0:0:
448,0,96690,1,0,0:0:0:0:
192,0,96768,1,0,0:0:0:0:
64,0,96847,128,0,97161:0:0:0:0:
320,0,96847,1,0,0:0:0:0:
448,0,96847,1,0,0:0:0:0:
192,0,96925,1,0,0:0:0:0:
320,0,97004,1,0,0:0:0:0:
448,0,97004,1,0,0:0:0:0:
192,0,97082,1,0,0:0:0:0:
320,0,97161,1,0,0:0:0:0:
448,0,97239,1,0,0:0:0:0:
64,0,97318,1,0,0:0:0:0:
192,0,97318,1,0,0:0:0:0:
320,0,97396,1,0,0:0:0:0:
64,0,97475,1,0,0:0:0:0:
192,0,97475,1,0,0:0:0:0:
448,0,97475,1,0,0:0:0:0:
320,0,97554,1,0,0:0:0:0:
192,0,97632,1,0,0:0:0:0:
64,0,97711,1,0,0:0:0:0:
320,0,97789,1,0,0:0:0:0:
448,0,97789,1,0,0:0:0:0:
192,0,97868,1,0,0:0:0:0:
64,0,97946,1,0,0:0:0:0:
320,0,97946,1,0,0:0:0:0:
192,0,98025,1,0,0:0:0:0:
64,0,98103,1,0,0:0:0:0:
320,0,98103,1,0,0:0:0:0:
448,0,98103,1,0,0:0:0:0:
192,0,98182,1,0,0:0:0:0:
320,0,98260,1,0,0:0:0:0:
448,0,98260,1,0,0:0:0:0:
64,0,98339,1,0,0:0:0:0:
192,0,98417,1,0,0:0:0:0:
320,0,98496,1,0,0:0:0:0:
64,0,98574,1,0,0:0:0:0:
192,0,98574,1,0,0:0:0:0:
320,0,98653,1,0,0:0:0:0:
64,0,98732,1,0,0:0:0:0:
192,0,98732,1,0,0:0:0:0:
448,0,98732,1,0,0:0:0:0:
320,0,98810,1,0,0:0:0:0:
64,0,98889,1,0,0:0:0:0:
192,0,98967,1,0,0:0:0:0:
320,0,99046,1,0,0:0:0:0:
448,0,99046,1,0,0:0:0:0:
64,0,99124,1,0,0:0:0:0:
192,0,99203,1,0,0:0:0:0:
320,0,99203,1,0,0:0:0:0:
448,0,99281,1,0,0:0:0:0:
64,0,99360,1,0,0:0:0:0:
192,0,99360,1,0,0:0:0:0:
320,0,99360,1,0,0:0:0:0:
448,0,99438,1,0,0:0:0:0:
64,0,99517,1,0,0:0:0:0:
192,0,99517,1,0,0:0:0:0:
320,0,99595,1,0,0:0:0:0:
64,0,99674,1,0,0:0:0:0:
192,0,99674,1,0,0:0:0:0:
320,0,99752,1,0,0:0:0:0:
448,0,99752,1,0,0:0:0:0:
64,0,99831,1,0,0:0:0:0:
192,0,99831,1,0,0:0:0:0:
320,0,99910,1,0,0:0:0:0:
448,0,99910,1,0,0:0:0:0:
64,0,99988,1,0,0:0:0:0:
192,0,99988,1,0,0:0:0:0:
320,0,100067,1,0,0:0:0:0:
448,0,100067,1,0,0:0:0:0:
64,0,100145,1,0,0:0:0:0:
192,0,100145,1,0,0:0:0:0:
320,0,100224,1,0,0:0:0:0:
448,0,100224,1,0,0:0:0:0:
64,0,100302,1,0,0:0:0:0:
192,0,100302,1,0,0:0:0:0:
320,0,100381,1,0,0:0:0:0:
448,0,100381,1,0,0:0:0:0:
64,0,100459,1,0,0:0:0:0:
192,0,100459,1,0,0:0:0:0:
320,0,100538,1,0,0:0:0:0:
448,0,100538,1,0,0:0:0:0:
64,0,100616,1,0,0:0:0:0:
192,0,100616,1,0,0:0:0:0:
320,0,100695,1,0,0:0:0:0:
448,0,100695,1,0,0:0:0:0:
64,0,100773,1,0,0:0:0:0:
192,0,100773,1,0,0:0:0:0:
320,0,100852,1,0,0:0:0:0:
448,0,100852,1,0,0:0:0:0:
64,0,100930,1,0,0:0:0:0:
192,0,100970,1,0,0:0:0:0:
320,0,101009,1,0,0:0:0:0:
448,0,101048,1,0,0:0:0:0:
64,0,101088,1,0,0:0:0:0:
192,0,101127,1,0,0:0:0:0:
320,0,101166,1,0,0:0:0:0:
448,0,101205,1,0,0:0:0:0:
64,0,101245,1,0,0:0:0:0:
192,0,101284,1,0,0:0:0:0:
320,0,101323,1,0,0:0:0:0:
448,0,101362,1,0,0:0:0:0:
64,0,101402,1,0,0:0:0:0:
192,0,101441,1,0,0:0:0:0:
320,0,101480,1,0,0:0:0:0:
448,0,101519,1,0,0:0:0:0:
64,0,101559,1,0,0:0:0:0:
192,0,101598,1,0,0:0:0:0:
320,0,101637,1,0,0:0:0:0:
448,0,101677,1,0,0:0:0:0:
64,0,101716,1,0,0:0:0:0:
192,0,101755,1,0,0:0:0:0:
320,0,101794,1,0,0:0:0:0:
448,0,101834,1,0,0:0:0:0:
64,0,101873,1,0,0:0:0:0:
192,0,101912,1,0,0:0:0:0:
320,0,101951,1,0,0:0:0:0:
448,0,101991,1,0,0:0:0:0:
64,0,102030,1,0,0:0:0:0:
192,0,102069,1,0,0:0:0:0:
320,0,102108,1,0,0:0:0:0:
448,0,102148,1,0,0:0:0:0:
64,0,102187,128,0,102972:0:0:0:0:
192,192,102187,1,0,0:0:0:0:
320,192,102344,1,0,0:0:0:0:
448,0,102501,1,0,0:0:0:0:
320,192,102658,1,0,0:0:0:0:
192,192,102815,1,0,0:0:0:0:
448,0,102972,1,0,0:0:0:0:
64,0,103129,1,0,0:0:0:0:
192,0,103129,1,0,0:0:0:0:
320,0,103286,1,0,0:0:0:0:
192,0,103444,1,0,0:0:0:0:
320,0,103601,1,0,0:0:0:0:
64,0,103758,1,0,0:0:0:0:
448,0,103758,1,0,0:0:0:0:
192,0,103915,1,0,0:0:0:0:
64,0,104072,1,0,0:0:0:0:
320,0,104072,1,0,0:0:0:0:
448,0,104229,1,0,0:0:0:0:
192,0,104386,1,0,0:0:0:0:
320,0,104386,1,0,0:0:0:0:
64,0,104543,1,0,0:0:0:0:
320,0,104700,1,0,0:0:0:0:
192,0,104857,1,0,0:0:0:0:
320,0,105014,1,0,0:0:0:0:
448,0,105014,1,0,0:0:0:0:
192,0,105171,1,0,0:0:0:0:
64,0,105328,1,0,0:0:0:0:
320,0,105328,1,0,0:0:0:0:
448,0,105485,1,0,0:0:0:0:
192,0,105643,1,0,0:0:0:0:
320,0,105643,1,0,0:0:0:0:
64,0,105800,1,0,0:0:0:0:
192,0,105957,1,0,0:0:0:0:
320,0,106114,1,0,0:0:0:0:
64,0,106271,1,0,0:0:0:0:
448,0,106271,1,0,0:0:0:0:
192,0,106428,1,0,0:0:0:0:
64,0,106585,1,0,0:0:0:0:
320,0,106585,1,0,0:0:0:0:
448,0,106742,1,0,0:0:0:0:
64,0,106899,1,0,0:0:0:0:
192,0,106899,1,0,0:0:0:0:
320,0,107056,1,0,0:0:0:0:
64,0,107213,1,0,0:0:0:0:
192,0,107213,1,0,0:0:0:0:
320,0,107370,1,0,0:0:0:0:
448,0,107527,1,0,0:0:0:0:
64,0,107684,1,0,0:0:0:0:
192,0,107841,1,0,0:0:0:0:
320,0,107841,1,0,0:0:0:0:
448,0,107999,1,0,0:0:0:0:
64,0,108156,1,0,0:0:0:0:
192,0,108156,1,0,0:0:0:0:
320,0,108313,1,0,0:0:0:0:
192,0,108470,1,0,0:0:0:0:
320,0,108627,1,0,0:0:0:0:
64,0,108784,1,0,0:0:0:0:
448,0,108784,1,0,0:0:0:0:
192,0,108941,1,0,0:0:0:0:
320,0,109098,1,0,0:0:0:0:
448,0,109255,1,0,0:0:0:0:
64,0,109412,1,0,0:0:0:0:
320,0,109412,1,0,0:0:0:0:
192,0,109569,1,0,0:0:0:0:
320,0,109726,1,0,0:0:0:0:
192,0,109883,1,0,0:0:0:0:
448,0,110040,1,0,0:0:0:0:
64,0,110197,1,0,0:0:0:0:
192,0,110355,1,0,0:0:0:0:
448,0,110512,1,0,0:0:0:0:
64,0,110669,1,0,0:0:0:0:
320,0,110826,1,0,0:0:0:0:
64,0,110983,1,0,0:0:0:0:
192,0,110983,1,0,0:0:0:0:
320,0,111140,1,0,0:0:0:0:
64,0,111297,1,0,0:0:0:0:
448,0,111297,1,0,0:0:0:0:
192,0,111454,1,0,0:0:0:0:
64,0,111611,1,0,0:0:0:0:
320,0,111611,1,0,0:0:0:0:
448,0,111768,1,0,0:0:0:0:
64,0,111925,1,0,0:0:0:0:
192,0,111925,1,0,0:0:0:0:
320,0,112082,1,0,0:0:0:0:
64,0,112239,128,0,112711:0:0:0:0:
192,0,112239,1,0,0:0:0:0:
320,0,112396,1,0,0:0:0:0:
448,0,112554,1,0,0:0:0:0:
192,0,112711,1,0,0:0:0:0:
64,0,112868,1,0,0:0:0:0:
320,0,112868,1,0,0:0:0:0:
448,0,113025,1,0,0:0:0:0:
64,0,113182,1,0,0:0:0:0:
192,0,113182,1,0,0:0:0:0:
320,0,113339,1,0,0:0:0:0:
64,0,113496,1,0,0:0:0:0:
192,0,113653,1,0,0:0:0:0:
320,0,113810,1,0,0:0:0:0:
448,0,113810,1,0,0:0:0:0:
64,0,113967,1,0,0:0:0:0:
192,0,114124,1,0,0:0:0:0:
320,0,114124,1,0,0:0:0:0:
448,0,114281,1,0,0:0:0:0:
64,0,114438,1,0,0:0:0:0:
192,0,114438,1,0,0:0:0:0:
320,0,114595,1,0,0:0:0:0:
192,0,114752,1,0,0:0:0:0:
320,0,114910,1,0,0:0:0:0:
64,0,115067,1,0,0:0:0:0:
448,0,115067,1,0,0:0:0:0:
320,0,115224,1,0,0:0:0:0:
192,0,115381,1,0,0:0:0:0:
64,0,115381,1,0,0:0:0:0:
448,0,115538,1,0,0:0:0:0:
320,192,115695,1,0,0:0:0:0:
192,192,115695,1,0,0:0:0:0:
64,0,115852,1,0,0:0:0:0:
192,0,116009,1,0,0:0:0:0:
320,0,116166,1,0,0:0:0:0:
64,0,116323,1,0,0:0:0:0:
448,0,116323,1,0,0:0:0:0:
192,0,116480,1,0,0:0:0:0:
64,0,116637,1,0,0:0:0:0:
320,0,116637,1,0,0:0:0:0:
448,0,116794,1,0,0:0:0:0:
64,0,116951,1,0,0:0:0:0:
192,0,116951,1,0,0:0:0:0:
320,0,117108,1,0,0:0:0:0:
64,0,117266,1,0,0:0:0:0:
448,0,117266,1,0,0:0:0:0:
320,0,117423,1,0,0:0:0:0:
448,0,117580,1,0,0:0:0:0:
64,0,117737,1,0,0:0:0:0:
192,0,117894,1,0,0:0:0:0:
320,0,117894,1,0,0:0:0:0:
448,0,118051,1,0,0:0:0:0:
192,0,118208,1,0,0:0:0:0:
64,192,118208,1,0,0:0:0:0:
320,192,118260,128,0,118522:0:0:0:0:
64,192,118365,1,0,0:0:0:0:
192,192,118522,1,0,0:0:0:0:
320,192,118679,1,0,0:0:0:0:
448,0,118836,1,0,0:0:0:0:
192,192,118836,1,0,0:0:0:0:
64,0,118993,1,0,0:0:0:0:
192,0,119150,1,0,0:0:0:0:
448,0,119307,1,0,0:0:0:0:
64,0,119465,1,0,0:0:0:0:
192,0,119465,1,0,0:0:0:0:
320,0,119622,1,0,0:0:0:0:
64,0,119779,1,0,0:0:0:0:
320,0,119936,1,0,0:0:0:0:
192,0,120093,1,0,0:0:0:0:
448,0,120093,1,0,0:0:0:0:
64,0,120250,1,0,0:0:0:0:
192,0,120407,1,0,0:0:0:0:
320,192,120407,128,0,120721:0:0:0:0:
448,0,120564,1,0,0:0:0:0:
64,0,120721,1,0,0:0:0:0:
192,0,120721,1,0,0:0:0:0:
320,0,120878,1,0,0:0:0:0:
64,0,121035,1,0,0:0:0:0:
320,0,121192,1,0,0:0:0:0:
192,0,121349,1,0,0:0:0:0:
448,0,121349,1,0,0:0:0:0:
64,0,121506,1,0,0:0:0:0:
320,0,121663,1,0,0:0:0:0:
448,0,121821,1,0,0:0:0:0:
64,0,121978,1,0,0:0:0:0:
192,0,121978,1,0,0:0:0:0:
320,0,122135,1,0,0:0:0:0:
64,0,122292,128,0,122920:0:0:0:0:
192,0,122292,1,0,0:0:0:0:
448,192,122292,1,0,0:0:0:0:
320,0,122449,1,0,0:0:0:0:
448,0,122606,1,0,0:0:0:0:
192,0,122763,1,0,0:0:0:0:
320,0,122920,1,0,0:0:0:0:
448,0,123077,1,0,0:0:0:0:
64,0,123234,1,0,0:0:0:0:
192,0,123234,1,0,0:0:0:0:
320,0,123391,1,0,0:0:0:0:
64,0,123548,1,0,0:0:0:0:
192,0,123705,1,0,0:0:0:0:
320,0,123862,1,0,0:0:0:0:
448,0,123862,1,0,0:0:0:0:
64,0,124019,1,0,0:0:0:0:
192,0,124177,1,0,0:0:0:0:
448,0,124334,1,0,0:0:0:0:
64,0,124491,1,0,0:0:0:0:
192,0,124491,1,0,0:0:0:0:
320,0,124648,1,0,0:0:0:0:
192,0,124805,1,0,0:0:0:0:
320,0,124962,1,0,0:0:0:0:
448,0,125119,1,0,0:0:0:0:
192,0,125276,1,0,0:0:0:0:
320,0,125433,1,0,0:0:0:0:
448,0,125590,1,0,0:0:0:0:
64,0,125747,1,0,0:0:0:0:
192,0,125747,1,0,0:0:0:0:
448,0,125904,1,0,0:0:0:0:
64,0,126061,1,0,0:0:0:0:
320,0,126061,1,0,0:0:0:0:
192,0,126218,1,0,0:0:0:0:
320,0,126375,1,0,0:0:0:0:
448,0,126375,1,0,0:0:0:0:
64,0,126533,1,0,0:0:0:0:
192,0,126690,1,0,0:0:0:0:
448,0,126690,1,0,0:0:0:0:
320,0,126847,1,0,0:0:0:0:
64,0,127004,1,0,0:0:0:0:
448,0,127004,128,0,129674:0:0:0:0:
64,0,127161,1,0,0:0:0:0:
448,0,129831,1,0,0:0:0:0:
448,0,130145,1,0,0:0:0:0:
192,0,130459,1,0,0:0:0:0:
320,0,130773,1,0,0:0:0:0:
192,0,131088,1,0,0:0:0:0:
192,0,131402,1,0,0:0:0:0:
192,0,131716,1,0,0:0:0:0:
320,0,132030,1,0,0:0:0:0:
448,0,132030,1,0,0:0:0:0:
64,0,132108,1,0,0:0:0:0:
192,0,132187,1,0,0:0:0:0:
320,0,132266,1,0,0:0:0:0:
64,0,132344,128,0,132972:0:0:0:0:
192,0,132344,1,0,0:0:0:0:
448,192,132344,128,0,132501:0:0:0:0:
192,192,132501,128,0,132658:0:0:0:0:
448,0,132658,1,0,0:0:0:0:
320,192,132658,128,0,132815:0:0:0:0:
448,0,132815,128,0,132972:0:0:0:0:
192,0,132972,1,0,0:0:0:0:
320,0,132972,1,0,0:0:0:0:
320,0,133129,128,0,133286:0:0:0:0:
64,0,133286,1,0,0:0:0:0:
448,0,133286,1,0,0:0:0:0:
192,192,133444,128,0,133601:0:0:0:0:
448,0,133601,1,0,0:0:0:0:
64,192,133601,128,0,133758:0:0:0:0:
320,192,133758,128,0,133915:0:0:0:0:
64,0,133915,1,0,0:0:0:0:
192,192,133915,128,0,134072:0:0:0:0:
320,0,134072,128,0,134229:0:0:0:0:
64,0,134229,1,0,0:0:0:0:
192,0,134229,1,0,0:0:0:0:
448,0,134386,128,0,134543:0:0:0:0:
64,0,134543,1,0,0:0:0:0:
192,0,134543,1,0,0:0:0:0:
448,192,134700,128,0,134857:0:0:0:0:
64,0,134857,1,0,0:0:0:0:
320,192,134857,128,0,135014:0:0:0:0:
192,192,135014,128,0,135171:0:0:0:0:
64,0,135171,1,0,0:0:0:0:
320,192,135171,128,0,135328:0:0:0:0:
448,0,135328,128,0,135485:0:0:0:0:
64,0,135485,1,0,0:0:0:0:
192,0,135485,1,0,0:0:0:0:
320,0,135643,128,0,135800:0:0:0:0:
192,0,135800,1,0,0:0:0:0:
448,0,135800,1,0,0:0:0:0:
320,192,135957,128,0,136114:0:0:0:0:
64,0,136114,1,0,0:0:0:0:
448,192,136114,128,0,136271:0:0:0:0:
192,192,136271,128,0,136428:0:0:0:0:
64,0,136428,1,0,0:0:0:0:
320,192,136428,128,0,136585:0:0:0:0:
448,0,136585,128,0,136742:0:0:0:0:
64,0,136742,1,0,0:0:0:0:
192,0,136742,1,0,0:0:0:0:
320,0,136899,128,0,137056:0:0:0:0:
64,0,137056,1,0,0:0:0:0:
448,0,137056,1,0,0:0:0:0:
192,192,137213,128,0,137370:0:0:0:0:
64,0,137370,128,0,137999:0:0:0:0:
320,192,137370,128,0,137527:0:0:0:0:
192,192,137527,128,0,137684:0:0:0:0:
448,0,137684,1,0,0:0:0:0:
320,192,137684,128,0,137841:0:0:0:0:
448,0,137841,128,0,137999:0:0:0:0:
192,0,137999,1,0,0:0:0:0:
320,0,137999,1,0,0:0:0:0:
320,0,138156,128,0,138313:0:0:0:0:
64,0,138313,1,0,0:0:0:0:
192,0,138313,1,0,0:0:0:0:
320,192,138470,128,0,138627:0:0:0:0:
448,0,138627,1,0,0:0:0:0:
192,192,138627,128,0,138784:0:0:0:0:
64,192,138784,128,0,138941:0:0:0:0:
448,0,138941,1,0,0:0:0:0:
192,192,138941,128,0,139098:0:0:0:0:
320,0,139098,128,0,139255:0:0:0:0:
64,0,139255,1,0,0:0:0:0:
192,0,139255,1,0,0:0:0:0:
448,0,139412,128,0,139569:0:0:0:0:
64,0,139569,1,0,0:0:0:0:
192,0,139569,1,0,0:0:0:0:
448,192,139726,128,0,139883:0:0:0:0:
64,0,139883,1,0,0:0:0:0:
320,192,139883,128,0,140040:0:0:0:0:
192,192,140040,128,0,140197:0:0:0:0:
448,0,140197,1,0,0:0:0:0:
64,192,140197,128,0,140355:0:0:0:0:
320,0,140355,128,0,140512:0:0:0:0:
64,0,140512,1,0,0:0:0:0:
448,0,140512,1,0,0:0:0:0:
192,0,140669,128,0,140826:0:0:0:0:
320,0,140826,1,0,0:0:0:0:
64,192,140826,1,0,0:0:0:0:
320,192,140983,128,0,141140:0:0:0:0:
448,0,141140,1,0,0:0:0:0:
64,192,141140,128,0,141297:0:0:0:0:
192,192,141297,128,0,141454:0:0:0:0:
448,0,141454,1,0,0:0:0:0:
320,192,141454,128,0,141611:0:0:0:0:
192,0,141611,128,0,141768:0:0:0:0:
320,0,141768,1,0,0:0:0:0:
64,192,141768,128,0,141925:0:0:0:0:
448,0,141925,128,0,142082:0:0:0:0:
192,0,142082,1,0,0:0:0:0:
64,192,142082,128,0,142239:0:0:0:0:
448,192,142239,128,0,142396:0:0:0:0:
64,0,142396,128,0,143025:0:0:0:0:
192,0,142396,1,0,0:0:0:0:
320,192,142396,128,0,142553:0:0:0:0:
192,192,142553,128,0,142711:0:0:0:0:
448,0,142711,1,0,0:0:0:0:
320,192,142711,128,0,142868:0:0:0:0:
448,0,142868,128,0,143025:0:0:0:0:
192,0,143025,1,0,0:0:0:0:
320,0,143025,1,0,0:0:0:0:
320,0,143182,128,0,143339:0:0:0:0:
64,0,143339,1,0,0:0:0:0:
448,0,143339,1,0,0:0:0:0:
192,192,143496,128,0,143653:0:0:0:0:
448,0,143653,1,0,0:0:0:0:
64,192,143653,128,0,143810:0:0:0:0:
320,192,143810,128,0,143967:0:0:0:0:
64,0,143967,1,0,0:0:0:0:
192,192,143967,128,0,144124:0:0:0:0:
320,0,144124,128,0,144281:0:0:0:0:
64,0,144281,1,0,0:0:0:0:
192,0,144281,1,0,0:0:0:0:
448,0,144438,128,0,144595:0:0:0:0:
64,0,144595,1,0,0:0:0:0:
192,0,144595,1,0,0:0:0:0:
448,192,144752,128,0,144910:0:0:0:0:
64,0,144910,1,0,0:0:0:0:
320,192,144910,128,0,145067:0:0:0:0:
192,192,145067,128,0,145224:0:0:0:0:
64,0,145224,1,0,0:0:0:0:
320,192,145224,128,0,145381:0:0:0:0:
448,0,145381,128,0,145538:0:0:0:0:
64,0,145538,1,0,0:0:0:0:
192,0,145538,1,0,0:0:0:0:
320,0,145695,128,0,145852:0:0:0:0:
64,0,145852,1,0,0:0:0:0:
192,0,145852,1,0,0:0:0:0:
320,192,146009,128,0,146166:0:0:0:0:
64,0,146166,1,0,0:0:0:0:
448,192,146166,128,0,146323:0:0:0:0:
192,192,146323,128,0,146480:0:0:0:0:
64,0,146480,1,0,0:0:0:0:
320,192,146480,128,0,146637:0:0:0:0:
448,0,146637,128,0,146794:0:0:0:0:
64,0,146794,1,0,0:0:0:0:
192,0,146794,1,0,0:0:0:0:
320,0,146951,128,0,147108:0:0:0:0:
64,0,147108,1,0,0:0:0:0:
448,0,147108,1,0,0:0:0:0:
192,192,147266,128,0,147423:0:0:0:0:
320,0,147423,1,0,0:0:0:0:
64,192,147423,128,0,147580:0:0:0:0:
192,192,147580,128,0,147737:0:0:0:0:
320,192,147737,128,0,147894:0:0:0:0:
448,0,147894,128,0,148051:0:0:0:0:
64,192,148051,1,0,0:0:0:0:
192,0,148208,128,0,148365:0:0:0:0:
448,192,148365,1,0,0:0:0:0:
320,192,148522,128,0,148679:0:0:0:0:
192,192,148679,128,0,148836:0:0:0:0:
64,192,148836,128,0,148993:0:0:0:0:
192,192,148993,128,0,149150:0:0:0:0:
320,0,149150,128,0,149307:0:0:0:0:
64,192,149307,1,0,0:0:0:0:
448,0,149464,128,0,149622:0:0:0:0:
192,192,149622,1,0,0:0:0:0:
448,192,149779,128,0,149936:0:0:0:0:
320,192,149936,128,0,150093:0:0:0:0:
192,192,150093,128,0,150250:0:0:0:0:
64,192,150250,128,0,150407:0:0:0:0:
320,192,150407,128,0,150564:0:0:0:0:
64,192,150564,128,0,150721:0:0:0:0:
448,192,150721,128,0,150878:0:0:0:0:
64,192,150878,128,0,151035:0:0:0:0:
320,192,151035,128,0,151192:0:0:0:0:
64,0,151192,1,0,0:0:0:0:
192,0,151192,1,0,0:0:0:0:
320,0,151271,1,0,0:0:0:0:
448,0,151271,1,0,0:0:0:0:
64,0,151349,1,0,0:0:0:0:
192,0,151349,1,0,0:0:0:0:
320,0,151428,1,0,0:0:0:0:
448,0,151428,1,0,0:0:0:0:
64,0,151506,1,0,0:0:0:0:
192,0,151506,1,0,0:0:0:0:
320,0,151585,1,0,0:0:0:0:
448,0,151585,1,0,0:0:0:0:
64,0,151663,1,0,0:0:0:0:
192,0,151663,1,0,0:0:0:0:
320,0,151742,1,0,0:0:0:0:
448,0,151742,1,0,0:0:0:0:
64,0,151821,1,0,0:0:0:0:
192,0,151821,1,0,0:0:0:0:
320,0,151899,1,0,0:0:0:0:
448,0,151899,1,0,0:0:0:0:
64,0,151978,1,0,0:0:0:0:
192,0,151978,1,0,0:0:0:0:
320,0,152056,1,0,0:0:0:0:
448,0,152056,1,0,0:0:0:0:
64,0,152135,1,0,0:0:0:0:
192,0,152135,1,0,0:0:0:0:
320,0,152213,1,0,0:0:0:0:
448,0,152213,1,0,0:0:0:0:
64,0,152292,1,0,0:0:0:0:
192,0,152292,1,0,0:0:0:0:
320,0,152370,1,0,0:0:0:0:
448,0,152370,1,0,0:0:0:0:
64,0,152449,128,0,153077:0:0:0:0:
192,0,152449,1,0,0:0:0:0:
320,0,152763,1,0,0:0:0:0:
192,0,153077,1,0,0:0:0:0:
192,0,153391,1,0,0:0:0:0:
64,0,153705,128,0,153862:0:0:0:0:
448,0,153705,1,0,0:0:0:0:
192,0,153862,128,0,154019:0:0:0:0:
64,0,154019,1,0,0:0:0:0:
320,0,154019,128,0,154177:0:0:0:0:
448,0,154177,128,0,154648:0:0:0:0:
64,0,154334,1,0,0:0:0:0:
192,0,154334,1,0,0:0:0:0:
320,0,154491,1,0,0:0:0:0:
64,0,154648,1,0,0:0:0:0:
192,0,154648,1,0,0:0:0:0:
320,0,154805,1,0,0:0:0:0:
64,0,154962,1,0,0:0:0:0:
192,0,154962,1,0,0:0:0:0:
448,0,154962,1,0,0:0:0:0:
320,0,155040,1,0,0:0:0:0:
64,0,155119,1,0,0:0:0:0:
192,0,155119,1,0,0:0:0:0:
320,0,155197,1,0,0:0:0:0:
64,0,155276,1,0,0:0:0:0:
448,0,155276,1,0,0:0:0:0:
320,0,155355,1,0,0:0:0:0:
192,0,155433,1,0,0:0:0:0:
448,0,155512,1,0,0:0:0:0:
64,0,155590,1,0,0:0:0:0:
192,0,155590,1,0,0:0:0:0:
320,0,155669,1,0,0:0:0:0:
64,0,155747,1,0,0:0:0:0:
448,0,155747,1,0,0:0:0:0:
192,0,155826,1,0,0:0:0:0:
64,0,155904,1,0,0:0:0:0:
320,0,155904,1,0,0:0:0:0:
448,0,155904,1,0,0:0:0:0:
192,0,155983,1,0,0:0:0:0:
320,0,156061,1,0,0:0:0:0:
448,0,156061,1,0,0:0:0:0:
64,0,156140,1,0,0:0:0:0:
192,0,156218,1,0,0:0:0:0:
320,0,156297,1,0,0:0:0:0:
64,0,156375,1,0,0:0:0:0:
448,0,156375,1,0,0:0:0:0:
192,0,156454,1,0,0:0:0:0:
64,0,156533,1,0,0:0:0:0:
320,0,156533,1,0,0:0:0:0:
448,0,156533,1,0,0:0:0:0:
192,0,156611,1,0,0:0:0:0:
448,0,156690,1,0,0:0:0:0:
320,0,156768,1,0,0:0:0:0:
64,0,156847,1,0,0:0:0:0:
192,0,156847,1,0,0:0:0:0:
448,0,156847,1,0,0:0:0:0:
320,0,156925,1,0,0:0:0:0:
64,0,157004,1,0,0:0:0:0:
192,0,157004,1,0,0:0:0:0:
448,0,157082,1,0,0:0:0:0:
64,0,157161,1,0,0:0:0:0:
192,0,157161,1,0,0:0:0:0:
320,0,157161,1,0,0:0:0:0:
448,0,157239,1,0,0:0:0:0:
64,0,157318,1,0,0:0:0:0:
192,0,157318,1,0,0:0:0:0:
448,0,157396,1,0,0:0:0:0:
320,0,157475,1,0,0:0:0:0:
192,0,157553,1,0,0:0:0:0:
320,0,157632,1,0,0:0:0:0:
448,0,157632,1,0,0:0:0:0:
64,0,157711,1,0,0:0:0:0:
192,0,157789,1,0,0:0:0:0:
320,0,157789,1,0,0:0:0:0:
448,0,157789,1,0,0:0:0:0:
64,0,157868,1,0,0:0:0:0:
192,0,157946,1,0,0:0:0:0:
448,0,158025,1,0,0:0:0:0:
64,0,158103,1,0,0:0:0:0:
192,0,158103,1,0,0:0:0:0:
320,0,158103,1,0,0:0:0:0:
448,0,158182,1,0,0:0:0:0:
64,0,158260,1,0,0:0:0:0:
192,0,158260,1,0,0:0:0:0:
320,0,158339,1,0,0:0:0:0:
64,0,158417,1,0,0:0:0:0:
192,0,158417,1,0,0:0:0:0:
448,0,158417,1,0,0:0:0:0:
320,0,158496,1,0,0:0:0:0:
64,0,158574,1,0,0:0:0:0:
192,0,158574,1,0,0:0:0:0:
448,0,158653,1,0,0:0:0:0:
320,0,158732,1,0,0:0:0:0:
64,0,158810,1,0,0:0:0:0:
320,0,158889,1,0,0:0:0:0:
448,0,158889,1,0,0:0:0:0:
192,0,158967,1,0,0:0:0:0:
64,0,159046,1,0,0:0:0:0:
320,0,159046,1,0,0:0:0:0:
448,0,159046,1,0,0:0:0:0:
192,0,159124,1,0,0:0:0:0:
64,0,159203,1,0,0:0:0:0:
448,0,159203,1,0,0:0:0:0:
320,0,159281,1,0,0:0:0:0:
64,0,159360,1,0,0:0:0:0:
192,0,159360,1,0,0:0:0:0:
320,0,159438,1,0,0:0:0:0:
448,0,159438,1,0,0:0:0:0:
64,0,159517,1,0,0:0:0:0:
192,0,159517,1,0,0:0:0:0:
320,0,159595,1,0,0:0:0:0:
64,0,159674,1,0,0:0:0:0:
192,0,159674,1,0,0:0:0:0:
448,0,159674,1,0,0:0:0:0:
320,0,159752,1,0,0:0:0:0:
64,0,159831,1,0,0:0:0:0:
192,0,159831,1,0,0:0:0:0:
320,0,159910,1,0,0:0:0:0:
64,0,159988,1,0,0:0:0:0:
192,0,159988,1,0,0:0:0:0:
448,0,159988,1,0,0:0:0:0:
320,0,160067,1,0,0:0:0:0:
64,0,160145,1,0,0:0:0:0:
448,0,160145,1,0,0:0:0:0:
192,0,160224,1,0,0:0:0:0:
320,0,160302,1,0,0:0:0:0:
448,0,160302,1,0,0:0:0:0:
192,0,160381,1,0,0:0:0:0:
64,0,160459,1,0,0:0:0:0:
192,0,160538,1,0,0:0:0:0:
64,0,160616,1,0,0:0:0:0:
320,0,160616,1,0,0:0:0:0:
448,0,160616,1,0,0:0:0:0:
192,0,160695,1,0,0:0:0:0:
320,0,160773,1,0,0:0:0:0:
448,0,160773,1,0,0:0:0:0:
64,0,160852,1,0,0:0:0:0:
192,0,160930,1,0,0:0:0:0:
320,0,160930,1,0,0:0:0:0:
448,0,160930,1,0,0:0:0:0:
64,0,161009,1,0,0:0:0:0:
320,0,161088,1,0,0:0:0:0:
448,0,161088,1,0,0:0:0:0:
192,0,161166,1,0,0:0:0:0:
320,0,161245,1,0,0:0:0:0:
448,0,161323,1,0,0:0:0:0:
64,0,161402,1,0,0:0:0:0:
192,0,161402,1,0,0:0:0:0:
320,0,161480,1,0,0:0:0:0:
64,0,161559,1,0,0:0:0:0:
192,0,161559,1,0,0:0:0:0:
448,0,161559,1,0,0:0:0:0:
320,0,161637,1,0,0:0:0:0:
192,0,161716,1,0,0:0:0:0:
448,0,161794,1,0,0:0:0:0:
64,0,161873,1,0,0:0:0:0:
192,0,161873,1,0,0:0:0:0:
320,0,161951,1,0,0:0:0:0:
64,0,162030,1,0,0:0:0:0:
192,0,162030,1,0,0:0:0:0:
320,0,162108,1,0,0:0:0:0:
64,0,162187,1,0,0:0:0:0:
192,0,162187,1,0,0:0:0:0:
448,0,162187,1,0,0:0:0:0:
320,0,162266,1,0,0:0:0:0:
64,0,162344,1,0,0:0:0:0:
448,0,162344,1,0,0:0:0:0:
192,0,162423,1,0,0:0:0:0:
320,0,162501,1,0,0:0:0:0:
448,0,162580,1,0,0:0:0:0:
64,0,162658,1,0,0:0:0:0:
192,0,162658,1,0,0:0:0:0:
320,0,162737,1,0,0:0:0:0:
64,0,162815,1,0,0:0:0:0:
448,0,162815,1,0,0:0:0:0:
192,0,162894,1,0,0:0:0:0:
320,0,162972,1,0,0:0:0:0:
192,0,163051,1,0,0:0:0:0:
64,0,163129,1,0,0:0:0:0:
320,0,163129,1,0,0:0:0:0:
192,0,163208,1,0,0:0:0:0:
320,0,163286,1,0,0:0:0:0:
448,0,163286,1,0,0:0:0:0:
192,0,163365,1,0,0:0:0:0:
64,0,163444,1,0,0:0:0:0:
320,192,163444,1,0,0:0:0:0:
192,0,163522,1,0,0:0:0:0:
448,0,163601,1,0,0:0:0:0:
320,0,163601,1,0,0:0:0:0:
64,0,163679,1,0,0:0:0:0:
192,0,163758,1,0,0:0:0:0:
320,0,163758,1,0,0:0:0:0:
448,0,163758,1,0,0:0:0:0:
64,0,163836,1,0,0:0:0:0:
320,0,163915,1,0,0:0:0:0:
448,0,163915,1,0,0:0:0:0:
192,0,163993,1,0,0:0:0:0:
64,0,164072,1,0,0:0:0:0:
320,0,164072,1,0,0:0:0:0:
448,0,164072,1,0,0:0:0:0:
192,0,164150,1,0,0:0:0:0:
320,0,164229,1,0,0:0:0:0:
448,0,164229,1,0,0:0:0:0:
192,0,164307,1,0,0:0:0:0:
320,0,164386,1,0,0:0:0:0:
448,0,164386,1,0,0:0:0:0:
64,0,164464,1,0,0:0:0:0:
192,0,164464,1,0,0:0:0:0:
320,0,164543,1,0,0:0:0:0:
448,0,164543,1,0,0:0:0:0:
64,0,164622,1,0,0:0:0:0:
192,0,164700,1,0,0:0:0:0:
320,0,164700,1,0,0:0:0:0:
448,0,164700,1,0,0:0:0:0:
64,0,164779,1,0,0:0:0:0:
320,0,164857,1,0,0:0:0:0:
448,0,164857,1,0,0:0:0:0:
192,0,164936,1,0,0:0:0:0:
64,0,165014,1,0,0:0:0:0:
320,0,165014,1,0,0:0:0:0:
448,0,165014,1,0,0:0:0:0:
192,0,165093,1,0,0:0:0:0:
64,0,165171,1,0,0:0:0:0:
448,0,165171,1,0,0:0:0:0:
320,0,165250,1,0,0:0:0:0:
64,0,165328,1,0,0:0:0:0:
192,0,165328,1,0,0:0:0:0:
320,0,165407,1,0,0:0:0:0:
192,0,165485,1,0,0:0:0:0:
448,0,165564,1,0,0:0:0:0:
64,0,165642,1,0,0:0:0:0:
192,0,165642,1,0,0:0:0:0:
320,0,165642,1,0,0:0:0:0:
448,0,165721,1,0,0:0:0:0:
64,0,165800,1,0,0:0:0:0:
192,0,165800,1,0,0:0:0:0:
320,0,165878,1,0,0:0:0:0:
64,0,165957,1,0,0:0:0:0:
192,0,165957,1,0,0:0:0:0:
448,0,165957,1,0,0:0:0:0:
320,0,166035,1,0,0:0:0:0:
64,0,166114,1,0,0:0:0:0:
448,0,166114,1,0,0:0:0:0:
192,0,166192,1,0,0:0:0:0:
320,0,166271,1,0,0:0:0:0:
448,0,166349,1,0,0:0:0:0:
64,0,166428,1,0,0:0:0:0:
192,0,166428,1,0,0:0:0:0:
320,0,166506,1,0,0:0:0:0:
64,0,166585,1,0,0:0:0:0:
192,0,166585,1,0,0:0:0:0:
448,0,166585,1,0,0:0:0:0:
320,0,166663,1,0,0:0:0:0:
192,0,166742,1,0,0:0:0:0:
64,0,166821,1,0,0:0:0:0:
192,0,166899,1,0,0:0:0:0:
320,0,166899,1,0,0:0:0:0:
448,0,166899,1,0,0:0:0:0:
64,0,166978,1,0,0:0:0:0:
320,0,167056,1,0,0:0:0:0:
448,0,167056,1,0,0:0:0:0:
192,0,167135,1,0,0:0:0:0:
64,0,167213,1,0,0:0:0:0:
320,0,167213,1,0,0:0:0:0:
448,0,167213,1,0,0:0:0:0:
192,0,167292,1,0,0:0:0:0:
320,0,167370,1,0,0:0:0:0:
448,0,167370,1,0,0:0:0:0:
64,0,167449,1,0,0:0:0:0:
192,0,167527,1,0,0:0:0:0:
320,0,167606,1,0,0:0:0:0:
64,0,167684,1,0,0:0:0:0:
192,0,167684,1,0,0:0:0:0:
320,0,167763,1,0,0:0:0:0:
64,0,167841,1,0,0:0:0:0:
192,0,167841,1,0,0:0:0:0:
448,0,167841,1,0,0:0:0:0:
320,0,167920,1,0,0:0:0:0:
64,0,167999,1,0,0:0:0:0:
192,0,168077,1,0,0:0:0:0:
64,0,168156,1,0,0:0:0:0:
320,0,168156,1,0,0:0:0:0:
448,0,168156,1,0,0:0:0:0:
192,0,168234,1,0,0:0:0:0:
320,0,168313,1,0,0:0:0:0:
448,0,168313,1,0,0:0:0:0:
192,0,168391,1,0,0:0:0:0:
64,0,168470,1,0,0:0:0:0:
320,0,168470,1,0,0:0:0:0:
448,0,168470,1,0,0:0:0:0:
192,0,168548,1,0,0:0:0:0:
320,0,168627,1,0,0:0:0:0:
448,0,168627,1,0,0:0:0:0:
64,0,168705,1,0,0:0:0:0:
192,0,168784,1,0,0:0:0:0:
320,0,168862,1,0,0:0:0:0:
64,0,168941,1,0,0:0:0:0:
192,0,168941,1,0,0:0:0:0:
448,0,169019,1,0,0:0:0:0:
64,0,169098,1,0,0:0:0:0:
192,0,169098,1,0,0:0:0:0:
320,0,169098,1,0,0:0:0:0:
448,0,169177,1,0,0:0:0:0:
64,0,169255,1,0,0:0:0:0:
192,0,169255,1,0,0:0:0:0:
320,0,169334,1,0,0:0:0:0:
64,0,169412,1,0,0:0:0:0:
192,0,169412,1,0,0:0:0:0:
320,0,169491,1,0,0:0:0:0:
448,0,169491,1,0,0:0:0:0:
64,0,169569,1,0,0:0:0:0:
192,0,169569,1,0,0:0:0:0:
448,0,169648,1,0,0:0:0:0:
64,0,169726,1,0,0:0:0:0:
192,0,169726,1,0,0:0:0:0:
320,0,169726,1,0,0:0:0:0:
448,0,169805,1,0,0:0:0:0:
192,0,169883,1,0,0:0:0:0:
320,0,169883,1,0,0:0:0:0:
64,0,169962,1,0,0:0:0:0:
448,0,170040,1,0,0:0:0:0:
192,0,170040,1,0,0:0:0:0:
320,0,170040,1,0,0:0:0:0:
64,0,170119,1,0,0:0:0:0:
320,0,170197,1,0,0:0:0:0:
448,0,170197,1,0,0:0:0:0:
192,0,170276,1,0,0:0:0:0:
320,0,170355,1,0,0:0:0:0:
448,0,170355,1,0,0:0:0:0:
64,0,170433,1,0,0:0:0:0:
192,0,170512,1,0,0:0:0:0:
320,0,170590,1,0,0:0:0:0:
64,0,170669,1,0,0:0:0:0:
192,0,170669,1,0,0:0:0:0:
448,0,170669,1,0,0:0:0:0:
320,0,170747,1,0,0:0:0:0:
64,0,170826,1,0,0:0:0:0:
192,0,170826,1,0,0:0:0:0:
448,0,170904,1,0,0:0:0:0:
64,0,170983,1,0,0:0:0:0:
192,0,170983,1,0,0:0:0:0:
320,0,170983,1,0,0:0:0:0:
448,0,171061,1,0,0:0:0:0:
64,0,171140,1,0,0:0:0:0:
192,0,171140,1,0,0:0:0:0:
320,0,171218,1,0,0:0:0:0:
448,0,171297,1,0,0:0:0:0:
64,0,171375,1,0,0:0:0:0:
320,0,171454,1,0,0:0:0:0:
448,0,171454,1,0,0:0:0:0:
192,0,171533,1,0,0:0:0:0:
64,0,171611,1,0,0:0:0:0:
320,0,171611,1,0,0:0:0:0:
448,0,171611,1,0,0:0:0:0:
192,0,171690,1,0,0:0:0:0:
320,0,171768,1,0,0:0:0:0:
448,0,171847,1,0,0:0:0:0:
64,0,171925,1,0,0:0:0:0:
192,0,171925,1,0,0:0:0:0:
320,0,172004,1,0,0:0:0:0:
64,0,172082,1,0,0:0:0:0:
192,0,172082,1,0,0:0:0:0:
320,0,172161,1,0,0:0:0:0:
64,0,172239,1,0,0:0:0:0:
192,0,172239,1,0,0:0:0:0:
448,0,172239,1,0,0:0:0:0:
320,0,172318,1,0,0:0:0:0:
64,0,172396,1,0,0:0:0:0:
448,0,172396,1,0,0:0:0:0:
192,0,172475,1,0,0:0:0:0:
320,0,172553,1,0,0:0:0:0:
448,0,172632,1,0,0:0:0:0:
64,0,172711,1,0,0:0:0:0:
192,0,172711,1,0,0:0:0:0:
320,0,172789,1,0,0:0:0:0:
64,0,172868,1,0,0:0:0:0:
192,0,172868,1,0,0:0:0:0:
448,0,172868,1,0,0:0:0:0:
320,0,172946,1,0,0:0:0:0:
448,0,173025,1,0,0:0:0:0:
192,0,173103,1,0,0:0:0:0:
64,0,173182,1,0,0:0:0:0:
448,0,173182,1,0,0:0:0:0:
320,0,173260,1,0,0:0:0:0:
192,192,173339,1,0,0:0:0:0:
64,192,173339,1,0,0:0:0:0:
448,0,173417,1,0,0:0:0:0:
192,0,173496,1,0,0:0:0:0:
320,192,173496,1,0,0:0:0:0:
64,0,173574,1,0,0:0:0:0:
320,0,173653,1,0,0:0:0:0:
448,0,173653,1,0,0:0:0:0:
192,0,173731,1,0,0:0:0:0:
320,0,173810,1,0,0:0:0:0:
448,0,173810,1,0,0:0:0:0:
64,0,173889,1,0,0:0:0:0:
192,0,173889,1,0,0:0:0:0:
320,0,173967,1,0,0:0:0:0:
448,0,173967,1,0,0:0:0:0:
64,0,174046,1,0,0:0:0:0:
192,0,174046,1,0,0:0:0:0:
320,0,174124,1,0,0:0:0:0:
448,0,174124,1,0,0:0:0:0:
64,0,174203,1,0,0:0:0:0:
192,0,174203,1,0,0:0:0:0:
320,0,174281,1,0,0:0:0:0:
448,0,174281,1,0,0:0:0:0:
64,0,174360,1,0,0:0:0:0:
192,0,174360,1,0,0:0:0:0:
320,0,174438,1,0,0:0:0:0:
448,0,174438,1,0,0:0:0:0:
64,0,174517,1,0,0:0:0:0:
192,0,174517,1,0,0:0:0:0:
320,0,174595,1,0,0:0:0:0:
448,0,174595,1,0,0:0:0:0:
64,0,174674,1,0,0:0:0:0:
192,0,174674,1,0,0:0:0:0:
320,0,174752,1,0,0:0:0:0:
448,0,174752,1,0,0:0:0:0:
64,0,174831,1,0,0:0:0:0:
192,0,174831,1,0,0:0:0:0:
320,0,174910,1,0,0:0:0:0:
448,0,174910,1,0,0:0:0:0:
192,0,174988,1,0,0:0:0:0:
64,0,175067,1,0,0:0:0:0:
320,0,175067,1,0,0:0:0:0:
448,0,175067,1,0,0:0:0:0:
192,0,175145,1,0,0:0:0:0:
320,0,175224,1,0,0:0:0:0:
448,0,175224,1,0,0:0:0:0:
64,0,175302,1,0,0:0:0:0:
192,0,175381,1,0,0:0:0:0:
320,0,175381,1,0,0:0:0:0:
448,0,175459,1,0,0:0:0:0:
320,0,175538,1,0,0:0:0:0:
192,0,175616,1,0,0:0:0:0:
64,0,175695,1,0,0:0:0:0:
448,0,175695,1,0,0:0:0:0:
320,0,175773,1,0,0:0:0:0:
64,0,175852,1,0,0:0:0:0:
192,0,175852,1,0,0:0:0:0:
320,0,175930,1,0,0:0:0:0:
64,0,176009,1,0,0:0:0:0:
192,0,176009,1,0,0:0:0:0:
448,0,176009,1,0,0:0:0:0:
320,0,176088,1,0,0:0:0:0:
64,0,176166,1,0,0:0:0:0:
192,0,176166,1,0,0:0:0:0:
448,0,176245,1,0,0:0:0:0:
320,0,176323,1,0,0:0:0:0:
64,0,176402,1,0,0:0:0:0:
192,0,176480,1,0,0:0:0:0:
320,0,176480,1,0,0:0:0:0:
448,0,176559,1,0,0:0:0:0:
64,0,176637,1,0,0:0:0:0:
192,0,176637,1,0,0:0:0:0:
320,0,176637,1,0,0:0:0:0:
448,0,176716,1,0,0:0:0:0:
192,0,176794,1,0,0:0:0:0:
320,0,176873,1,0,0:0:0:0:
64,0,176951,1,0,0:0:0:0:
192,0,176951,1,0,0:0:0:0:
448,0,176951,1,0,0:0:0:0:
320,0,177030,1,0,0:0:0:0:
64,0,177108,1,0,0:0:0:0:
192,0,177108,1,0,0:0:0:0:
448,0,177187,1,0,0:0:0:0:
64,0,177266,1,0,0:0:0:0:
192,0,177266,1,0,0:0:0:0:
320,0,177266,1,0,0:0:0:0:
448,0,177344,1,0,0:0:0:0:
64,0,177423,1,0,0:0:0:0:
192,0,177423,1,0,0:0:0:0:
320,0,177501,1,0,0:0:0:0:
448,0,177580,1,0,0:0:0:0:
64,0,177658,1,0,0:0:0:0:
192,0,177737,1,0,0:0:0:0:
320,0,177737,1,0,0:0:0:0:
448,0,177815,1,0,0:0:0:0:
64,0,177894,1,0,0:0:0:0:
192,0,177894,1,0,0:0:0:0:
320,0,177894,1,0,0:0:0:0:
448,0,177972,1,0,0:0:0:0:
64,0,178051,1,0,0:0:0:0:
192,0,178129,1,0,0:0:0:0:
64,0,178208,1,0,0:0:0:0:
320,0,178208,1,0,0:0:0:0:
448,0,178208,1,0,0:0:0:0:
192,0,178286,1,0,0:0:0:0:
320,0,178365,1,0,0:0:0:0:
448,0,178365,1,0,0:0:0:0:
192,0,178444,1,0,0:0:0:0:
64,0,178522,1,0,0:0:0:0:
320,0,178522,1,0,0:0:0:0:
448,0,178522,1,0,0:0:0:0:
192,0,178601,1,0,0:0:0:0:
320,0,178679,1,0,0:0:0:0:
448,0,178679,1,0,0:0:0:0:
64,0,178758,1,0,0:0:0:0:
192,0,178836,1,0,0:0:0:0:
320,0,178915,1,0,0:0:0:0:
64,0,178993,1,0,0:0:0:0:
192,0,178993,1,0,0:0:0:0:
320,0,179072,1,0,0:0:0:0:
64,0,179150,1,0,0:0:0:0:
192,0,179150,1,0,0:0:0:0:
448,0,179150,1,0,0:0:0:0:
320,0,179229,1,0,0:0:0:0:
192,0,179307,1,0,0:0:0:0:
448,0,179307,1,0,0:0:0:0:
64,0,179386,1,0,0:0:0:0:
320,0,179464,1,0,0:0:0:0:
448,0,179464,1,0,0:0:0:0:
64,0,179543,1,0,0:0:0:0:
192,0,179543,1,0,0:0:0:0:
320,0,179622,1,0,0:0:0:0:
448,0,179622,1,0,0:0:0:0:
192,0,179700,1,0,0:0:0:0:
64,0,179779,1,0,0:0:0:0:
320,0,179779,1,0,0:0:0:0:
448,0,179779,1,0,0:0:0:0:
192,0,179857,1,0,0:0:0:0:
320,0,179936,1,0,0:0:0:0:
448,0,179936,1,0,0:0:0:0:
64,0,180014,1,0,0:0:0:0:
192,0,180093,1,0,0:0:0:0:
320,0,180093,1,0,0:0:0:0:
448,0,180093,1,0,0:0:0:0:
64,0,180171,1,0,0:0:0:0:
192,0,180250,1,0,0:0:0:0:
320,0,180250,1,0,0:0:0:0:
448,0,180328,1,0,0:0:0:0:
64,0,180407,1,0,0:0:0:0:
192,0,180407,1,0,0:0:0:0:
320,0,180485,1,0,0:0:0:0:
448,0,180564,1,0,0:0:0:0:
192,0,180642,1,0,0:0:0:0:
64,0,180721,1,0,0:0:0:0:
320,0,180721,1,0,0:0:0:0:
448,0,180721,1,0,0:0:0:0:
192,0,180800,1,0,0:0:0:0:
320,0,180878,1,0,0:0:0:0:
448,0,180878,1,0,0:0:0:0:
192,0,180957,1,0,0:0:0:0:
64,0,181035,1,0,0:0:0:0:
320,0,181035,1,0,0:0:0:0:
448,0,181035,1,0,0:0:0:0:
192,0,181114,1,0,0:0:0:0:
320,0,181192,1,0,0:0:0:0:
448,0,181192,1,0,0:0:0:0:
64,0,181271,1,0,0:0:0:0:
192,0,181349,1,0,0:0:0:0:
320,0,181428,1,0,0:0:0:0:
64,0,181506,1,0,0:0:0:0:
192,0,181506,1,0,0:0:0:0:
320,0,181585,1,0,0:0:0:0:
64,0,181663,1,0,0:0:0:0:
192,0,181663,1,0,0:0:0:0:
448,0,181663,1,0,0:0:0:0:
320,0,181742,1,0,0:0:0:0:
64,0,181820,1,0,0:0:0:0:
448,0,181899,1,0,0:0:0:0:
192,0,181978,1,0,0:0:0:0:
320,0,181978,1,0,0:0:0:0:
64,0,182056,1,0,0:0:0:0:
320,0,182135,1,0,0:0:0:0:
448,0,182135,1,0,0:0:0:0:
192,0,182213,1,0,0:0:0:0:
64,0,182292,1,0,0:0:0:0:
320,0,182292,1,0,0:0:0:0:
448,0,182292,1,0,0:0:0:0:
192,0,182370,1,0,0:0:0:0:
320,0,182449,1,0,0:0:0:0:
448,0,182449,1,0,0:0:0:0:
192,0,182527,1,0,0:0:0:0:
64,0,182606,1,0,0:0:0:0:
448,0,182684,1,0,0:0:0:0:
64,0,182763,1,0,0:0:0:0:
192,0,182763,1,0,0:0:0:0:
320,0,182841,1,0,0:0:0:0:
64,0,182920,1,0,0:0:0:0:
192,0,182920,1,0,0:0:0:0:
320,0,182999,1,0,0:0:0:0:
448,0,183077,1,0,0:0:0:0:
64,0,183156,1,0,0:0:0:0:
192,0,183234,1,0,0:0:0:0:
320,0,183234,1,0,0:0:0:0:
448,0,183313,1,0,0:0:0:0:
64,0,183391,1,0,0:0:0:0:
192,0,183391,1,0,0:0:0:0:
320,0,183470,1,0,0:0:0:0:
448,0,183548,1,0,0:0:0:0:
64,0,183627,1,0,0:0:0:0:
320,0,183705,1,0,0:0:0:0:
448,0,183705,1,0,0:0:0:0:
192,0,183784,1,0,0:0:0:0:
64,0,183862,1,0,0:0:0:0:
320,0,183862,1,0,0:0:0:0:
448,0,183862,1,0,0:0:0:0:
192,0,183941,1,0,0:0:0:0:
320,0,184019,1,0,0:0:0:0:
448,0,184019,1,0,0:0:0:0:
192,0,184098,1,0,0:0:0:0:
64,0,184177,1,0,0:0:0:0:
320,0,184177,1,0,0:0:0:0:
448,0,184177,1,0,0:0:0:0:
192,0,184255,1,0,0:0:0:0:
64,0,184334,1,0,0:0:0:0:
448,0,184334,1,0,0:0:0:0:
320,0,184412,1,0,0:0:0:0:
64,0,184491,1,0,0:0:0:0:
192,0,184491,1,0,0:0:0:0:
320,0,184569,1,0,0:0:0:0:
448,0,184569,1,0,0:0:0:0:
64,0,184648,1,0,0:0:0:0:
192,0,184648,1,0,0:0:0:0:
320,0,184726,1,0,0:0:0:0:
64,0,184805,1,0,0:0:0:0:
192,0,184805,1,0,0:0:0:0:
448,0,184805,1,0,0:0:0:0:
320,0,184883,1,0,0:0:0:0:
64,0,184962,1,0,0:0:0:0:
192,0,184962,1,0,0:0:0:0:
448,0,185040,1,0,0:0:0:0:
64,0,185119,1,0,0:0:0:0:
192,0,185119,1,0,0:0:0:0:
320,0,185119,1,0,0:0:0:0:
448,0,185197,1,0,0:0:0:0:
64,0,185276,1,0,0:0:0:0:
192,0,185276,1,0,0:0:0:0:
320,0,185355,1,0,0:0:0:0:
64,0,185433,1,0,0:0:0:0:
448,0,185433,1,0,0:0:0:0:
192,0,185512,1,0,0:0:0:0:
320,0,185590,1,0,0:0:0:0:
448,0,185669,1,0,0:0:0:0:
64,0,185747,1,0,0:0:0:0:
192,0,185747,1,0,0:0:0:0:
320,0,185747,1,0,0:0:0:0:
448,0,185826,1,0,0:0:0:0:
64,0,185904,1,0,0:0:0:0:
192,0,185904,1,0,0:0:0:0:
320,0,185983,1,0,0:0:0:0:
64,0,186061,1,0,0:0:0:0:
192,0,186061,1,0,0:0:0:0:
448,0,186061,1,0,0:0:0:0:
320,0,186140,1,0,0:0:0:0:
64,0,186218,1,0,0:0:0:0:
448,0,186218,1,0,0:0:0:0:
192,0,186297,1,0,0:0:0:0:
320,0,186375,1,0,0:0:0:0:
448,0,186454,1,0,0:0:0:0:
64,0,186533,1,0,0:0:0:0:
192,0,186533,1,0,0:0:0:0:
320,0,186611,1,0,0:0:0:0:
64,0,186690,1,0,0:0:0:0:
192,0,186690,1,0,0:0:0:0:
448,0,186690,1,0,0:0:0:0:
320,0,186768,1,0,0:0:0:0:
448,0,186847,1,0,0:0:0:0:
64,0,186925,1,0,0:0:0:0:
192,0,187004,1,0,0:0:0:0:
320,0,187004,1,0,0:0:0:0:
448,0,187004,1,0,0:0:0:0:
64,0,187082,1,0,0:0:0:0:
320,0,187161,1,0,0:0:0:0:
448,0,187161,1,0,0:0:0:0:
192,0,187239,1,0,0:0:0:0:
64,0,187318,1,0,0:0:0:0:
320,0,187318,1,0,0:0:0:0:
448,0,187318,1,0,0:0:0:0:
192,0,187396,1,0,0:0:0:0:
320,0,187475,1,0,0:0:0:0:
448,0,187475,1,0,0:0:0:0:
64,0,187553,1,0,0:0:0:0:
192,0,187632,1,0,0:0:0:0:
320,0,187711,1,0,0:0:0:0:
64,0,187789,1,0,0:0:0:0:
448,0,187789,1,0,0:0:0:0:
192,0,187868,1,0,0:0:0:0:
64,0,187946,1,0,0:0:0:0:
320,0,187946,1,0,0:0:0:0:
448,0,187946,1,0,0:0:0:0:
192,0,188025,1,0,0:0:0:0:
64,0,188103,1,0,0:0:0:0:
448,0,188182,1,0,0:0:0:0:
64,0,188260,1,0,0:0:0:0:
192,0,188260,1,0,0:0:0:0:
320,0,188260,1,0,0:0:0:0:
448,0,188339,1,0,0:0:0:0:
64,0,188417,1,0,0:0:0:0:
192,0,188417,1,0,0:0:0:0:
320,0,188496,1,0,0:0:0:0:
64,0,188574,1,0,0:0:0:0:
192,0,188574,1,0,0:0:0:0:
448,0,188574,1,0,0:0:0:0:
320,0,188653,1,0,0:0:0:0:
64,0,188731,1,0,0:0:0:0:
448,0,188731,1,0,0:0:0:0:
192,0,188810,1,0,0:0:0:0:
320,0,188889,1,0,0:0:0:0:
448,0,188967,1,0,0:0:0:0:
64,0,189046,1,0,0:0:0:0:
192,0,189046,1,0,0:0:0:0:
320,0,189124,1,0,0:0:0:0:
64,0,189203,1,0,0:0:0:0:
192,0,189203,1,0,0:0:0:0:
448,0,189203,1,0,0:0:0:0:
320,0,189281,1,0,0:0:0:0:
192,0,189360,1,0,0:0:0:0:
448,0,189360,1,0,0:0:0:0:
64,0,189438,1,0,0:0:0:0:
320,0,189517,1,0,0:0:0:0:
448,0,189517,1,0,0:0:0:0:
64,0,189595,1,0,0:0:0:0:
192,0,189595,1,0,0:0:0:0:
320,0,189674,1,0,0:0:0:0:
448,0,189674,1,0,0:0:0:0:
192,0,189752,1,0,0:0:0:0:
64,0,189831,1,0,0:0:0:0:
320,0,189831,1,0,0:0:0:0:
448,0,189831,1,0,0:0:0:0:
192,0,189909,1,0,0:0:0:0:
320,0,189988,1,0,0:0:0:0:
448,0,189988,1,0,0:0:0:0:
64,0,190067,1,0,0:0:0:0:
192,0,190145,1,0,0:0:0:0:
320,0,190145,1,0,0:0:0:0:
448,0,190145,1,0,0:0:0:0:
64,0,190224,1,0,0:0:0:0:
320,0,190302,1,0,0:0:0:0:
448,0,190302,1,0,0:0:0:0:
192,0,190381,1,0,0:0:0:0:
64,0,190459,1,0,0:0:0:0:
320,0,190459,1,0,0:0:0:0:
448,0,190538,1,0,0:0:0:0:
192,0,190616,1,0,0:0:0:0:
320,0,190695,1,0,0:0:0:0:
64,0,190773,1,0,0:0:0:0:
192,0,190773,1,0,0:0:0:0:
448,0,190773,1,0,0:0:0:0:
320,0,190852,1,0,0:0:0:0:
64,0,190930,1,0,0:0:0:0:
192,0,190930,1,0,0:0:0:0:
320,0,191009,1,0,0:0:0:0:
64,0,191088,1,0,0:0:0:0:
192,0,191088,1,0,0:0:0:0:
448,0,191088,1,0,0:0:0:0:
320,0,191166,1,0,0:0:0:0:
64,0,191245,1,0,0:0:0:0:
448,0,191245,1,0,0:0:0:0:
192,0,191323,1,0,0:0:0:0:
320,0,191402,1,0,0:0:0:0:
448,0,191480,1,0,0:0:0:0:
64,0,191559,1,0,0:0:0:0:
192,0,191559,1,0,0:0:0:0:
320,0,191637,1,0,0:0:0:0:
64,0,191716,1,0,0:0:0:0:
192,0,191716,1,0,0:0:0:0:
448,0,191716,1,0,0:0:0:0:
320,0,191794,1,0,0:0:0:0:
192,0,191873,1,0,0:0:0:0:
64,0,191951,1,0,0:0:0:0:
320,0,192030,1,0,0:0:0:0:
448,0,192030,1,0,0:0:0:0:
192,0,192108,1,0,0:0:0:0:
64,0,192187,1,0,0:0:0:0:
448,0,192187,1,0,0:0:0:0:
192,0,192266,1,0,0:0:0:0:
64,0,192344,1,0,0:0:0:0:
320,0,192344,1,0,0:0:0:0:
448,0,192344,1,0,0:0:0:0:
192,0,192423,1,0,0:0:0:0:
320,0,192501,1,0,0:0:0:0:
448,0,192501,1,0,0:0:0:0:
64,0,192580,1,0,0:0:0:0:
192,0,192658,1,0,0:0:0:0:
320,0,192737,1,0,0:0:0:0:
64,0,192815,1,0,0:0:0:0:
192,0,192815,1,0,0:0:0:0:
320,0,192894,1,0,0:0:0:0:
64,0,192972,1,0,0:0:0:0:
192,0,192972,1,0,0:0:0:0:
448,0,192972,1,0,0:0:0:0:
320,0,193051,1,0,0:0:0:0:
64,0,193129,1,0,0:0:0:0:
192,0,193208,1,0,0:0:0:0:
320,0,193286,1,0,0:0:0:0:
448,0,193286,1,0,0:0:0:0:
64,0,193365,1,0,0:0:0:0:
320,0,193444,1,0,0:0:0:0:
448,0,193444,1,0,0:0:0:0:
192,0,193522,1,0,0:0:0:0:
64,0,193601,1,0,0:0:0:0:
320,0,193601,1,0,0:0:0:0:
448,0,193601,1,0,0:0:0:0:
192,0,193679,1,0,0:0:0:0:
64,0,193758,1,0,0:0:0:0:
448,0,193758,1,0,0:0:0:0:
320,0,193836,1,0,0:0:0:0:
192,0,193915,1,0,0:0:0:0:
64,0,193993,1,0,0:0:0:0:
192,0,194072,1,0,0:0:0:0:
320,0,194072,1,0,0:0:0:0:
448,0,194150,1,0,0:0:0:0:
64,0,194229,1,0,0:0:0:0:
192,0,194229,1,0,0:0:0:0:
320,0,194229,1,0,0:0:0:0:
448,0,194307,1,0,0:0:0:0:
64,0,194386,1,0,0:0:0:0:
320,0,194386,1,0,0:0:0:0:
192,0,194464,1,0,0:0:0:0:
320,0,194543,1,0,0:0:0:0:
448,0,194543,1,0,0:0:0:0:
64,0,194622,1,0,0:0:0:0:
192,0,194622,1,0,0:0:0:0:
320,0,194700,1,0,0:0:0:0:
448,0,194700,1,0,0:0:0:0:
64,0,194779,1,0,0:0:0:0:
192,0,194857,1,0,0:0:0:0:
320,0,194857,1,0,0:0:0:0:
448,0,194857,1,0,0:0:0:0:
64,0,194936,1,0,0:0:0:0:
320,0,195014,1,0,0:0:0:0:
448,0,195014,1,0,0:0:0:0:
192,0,195093,1,0,0:0:0:0:
64,0,195171,1,0,0:0:0:0:
320,0,195171,1,0,0:0:0:0:
448,0,195171,1,0,0:0:0:0:
192,0,195250,1,0,0:0:0:0:
320,0,195328,1,0,0:0:0:0:
448,0,195407,1,0,0:0:0:0:
64,0,195485,1,0,0:0:0:0:
192,0,195485,1,0,0:0:0:0:
320,0,195564,1,0,0:0:0:0:
192,0,195642,1,0,0:0:0:0:
320,0,195721,1,0,0:0:0:0:
64,0,195800,1,0,0:0:0:0:
192,0,195878,1,0,0:0:0:0:
320,0,195957,1,0,0:0:0:0:
448,0,196035,1,0,0:0:0:0:
64,0,196114,1,0,0:0:0:0:
192,0,196114,1,0,0:0:0:0:
320,0,196114,1,0,0:0:0:0:
448,0,196192,1,0,0:0:0:0:
192,0,196271,1,0,0:0:0:0:
320,0,196349,1,0,0:0:0:0:
64,0,196428,1,0,0:0:0:0:
448,0,196506,1,0,0:0:0:0:
192,0,196585,1,0,0:0:0:0:
320,0,196663,1,0,0:0:0:0:
64,0,196742,1,0,0:0:0:0:
192,0,196742,1,0,0:0:0:0:
448,0,196742,1,0,0:0:0:0:
320,0,196820,1,0,0:0:0:0:
64,0,196899,1,0,0:0:0:0:
448,0,196978,1,0,0:0:0:0:
320,0,197056,1,0,0:0:0:0:
192,0,197135,1,0,0:0:0:0:
64,0,197213,1,0,0:0:0:0:
320,0,197292,1,0,0:0:0:0:
64,0,197370,1,0,0:0:0:0:
192,0,197370,1,0,0:0:0:0:
448,0,197370,1,0,0:0:0:0:
320,0,197449,1,0,0:0:0:0:
192,0,197527,1,0,0:0:0:0:
448,0,197606,1,0,0:0:0:0:
64,0,197684,1,0,0:0:0:0:
192,0,197763,1,0,0:0:0:0:
320,0,197841,1,0,0:0:0:0:
448,0,197920,1,0,0:0:0:0:
64,0,197999,1,0,0:0:0:0:
192,0,197999,1,0,0:0:0:0:
320,0,198077,1,0,0:0:0:0:
192,0,198156,1,0,0:0:0:0:
320,0,198234,1,0,0:0:0:0:
448,0,198313,1,0,0:0:0:0:
192,0,198391,1,0,0:0:0:0:
448,0,198470,1,0,0:0:0:0:
320,0,198548,1,0,0:0:0:0:
64,0,198627,1,0,0:0:0:0:
192,0,198627,1,0,0:0:0:0:
448,0,198627,1,0,0:0:0:0:
320,0,198705,1,0,0:0:0:0:
192,0,198784,1,0,0:0:0:0:
64,0,198862,1,0,0:0:0:0:
192,0,198941,1,0,0:0:0:0:
320,0,198941,1,0,0:0:0:0:
448,0,198941,1,0,0:0:0:0:
64,0,199019,1,0,0:0:0:0:
320,0,199098,1,0,0:0:0:0:
192,0,199177,1,0,0:0:0:0:
64,0,199255,1,0,0:0:0:0:
320,0,199255,1,0,0:0:0:0:
448,0,199255,1,0,0:0:0:0:
192,0,199334,1,0,0:0:0:0:
64,0,199412,1,0,0:0:0:0:
448,0,199412,1,0,0:0:0:0:
320,0,199491,1,0,0:0:0:0:
64,0,199569,1,0,0:0:0:0:
192,0,199569,1,0,0:0:0:0:
320,0,199648,1,0,0:0:0:0:
448,0,199648,1,0,0:0:0:0:
64,0,199726,1,0,0:0:0:0:
192,0,199726,1,0,0:0:0:0:
320,0,199805,1,0,0:0:0:0:
64,0,199883,1,0,0:0:0:0:
192,0,199883,1,0,0:0:0:0:
448,0,199883,1,0,0:0:0:0:
320,0,199962,1,0,0:0:0:0:
192,0,200040,1,0,0:0:0:0:
448,0,200119,1,0,0:0:0:0:
320,0,200197,1,0,0:0:0:0:
192,0,200276,1,0,0:0:0:0:
64,0,200355,1,0,0:0:0:0:
448,0,200433,1,0,0:0:0:0:
64,0,200512,1,0,0:0:0:0:
192,0,200512,1,0,0:0:0:0:
320,0,200590,1,0,0:0:0:0:
192,0,200669,1,0,0:0:0:0:
448,0,200747,1,0,0:0:0:0:
320,0,200826,1,0,0:0:0:0:
192,0,200904,1,0,0:0:0:0:
64,0,200983,1,0,0:0:0:0:
192,0,201061,1,0,0:0:0:0:
320,0,201140,1,0,0:0:0:0:
448,0,201140,1,0,0:0:0:0:
64,0,201218,1,0,0:0:0:0:
192,0,201297,1,0,0:0:0:0:
320,0,201375,1,0,0:0:0:0:
448,0,201454,1,0,0:0:0:0:
192,0,201533,1,0,0:0:0:0:
320,0,201611,1,0,0:0:0:0:
448,0,201690,1,0,0:0:0:0:
64,0,201768,1,0,0:0:0:0:
192,0,201768,1,0,0:0:0:0:
320,0,201847,1,0,0:0:0:0:
192,0,201925,1,0,0:0:0:0:
448,0,202004,1,0,0:0:0:0:
320,0,202082,1,0,0:0:0:0:
192,0,202161,1,0,0:0:0:0:
64,0,202239,1,0,0:0:0:0:
448,0,202318,1,0,0:0:0:0:
192,0,202396,1,0,0:0:0:0:
320,0,202396,1,0,0:0:0:0:
64,0,202475,1,0,0:0:0:0:
448,0,202553,1,0,0:0:0:0:
64,0,202632,1,0,0:0:0:0:
192,192,202658,1,0,0:0:0:0:
320,192,202711,1,0,0:0:0:0:
448,192,202730,1,0,0:0:0:0:
64,192,202789,1,0,0:0:0:0:
192,192,202868,1,0,0:0:0:0:
320,192,202946,1,0,0:0:0:0:
192,0,203025,1,0,0:0:0:0:
64,192,203025,1,0,0:0:0:0:
448,0,203103,1,0,0:0:0:0:
320,0,203182,1,0,0:0:0:0:
64,0,203260,1,0,0:0:0:0:
192,0,203339,1,0,0:0:0:0:
320,0,203417,1,0,0:0:0:0:
448,0,203496,1,0,0:0:0:0:
192,0,203574,1,0,0:0:0:0:
64,0,203653,1,0,0:0:0:0:
448,0,203653,1,0,0:0:0:0:
192,0,203731,1,0,0:0:0:0:
320,0,203810,1,0,0:0:0:0:
448,0,203889,1,0,0:0:0:0:
64,0,203967,1,0,0:0:0:0:
192,0,203967,1,0,0:0:0:0:
64,0,204124,1,0,0:0:0:0:
192,0,204124,1,0,0:0:0:0:
64,0,204281,1,0,0:0:0:0:
320,0,204281,1,0,0:0:0:0:
192,0,204438,1,0,0:0:0:0:
448,0,204438,1,0,0:0:0:0:
64,0,204595,1,0,0:0:0:0:
192,0,204595,1,0,0:0:0:0:
320,0,204674,1,0,0:0:0:0:
448,0,204674,1,0,0:0:0:0:
64,0,204752,1,0,0:0:0:0:
192,0,204752,1,0,0:0:0:0:
320,0,204831,1,0,0:0:0:0:
448,0,204831,1,0,0:0:0:0:
64,0,204909,1,0,0:0:0:0:
192,0,204949,1,0,0:0:0:0:
320,0,204988,1,0,0:0:0:0:
448,0,205027,1,0,0:0:0:0:
64,0,205067,1,0,0:0:0:0:
192,0,205106,1,0,0:0:0:0:
320,0,205145,1,0,0:0:0:0:
448,0,205184,1,0,0:0:0:0:
64,0,205224,1,0,0:0:0:0:
192,0,205224,1,0,0:0:0:0:
320,0,205302,1,0,0:0:0:0:
64,0,205381,1,0,0:0:0:0:
448,0,205381,1,0,0:0:0:0:
192,0,205459,1,0,0:0:0:0:
320,0,205459,1,0,0:0:0:0:
64,0,205538,1,0,0:0:0:0:
448,0,205538,1,0,0:0:0:0:
192,0,205616,1,0,0:0:0:0:
320,0,205616,1,0,0:0:0:0:
64,0,205695,1,0,0:0:0:0:
448,0,205695,1,0,0:0:0:0:
192,0,205773,1,0,0:0:0:0:
320,0,205852,1,0,0:0:0:0:
448,0,205852,1,0,0:0:0:0:
192,0,205930,1,0,0:0:0:0:
64,0,206009,1,0,0:0:0:0:
320,0,206009,1,0,0:0:0:0:
448,0,206088,1,0,0:0:0:0:
64,0,206166,1,0,0:0:0:0:
192,0,206166,1,0,0:0:0:0:
320,0,206166,1,0,0:0:0:0:
448,0,206245,1,0,0:0:0:0:
64,0,206323,1,0,0:0:0:0:
192,0,206323,1,0,0:0:0:0:
320,0,206402,1,0,0:0:0:0:
64,0,206480,1,0,0:0:0:0:
448,0,206480,1,0,0:0:0:0:
192,0,206559,1,0,0:0:0:0:
320,0,206637,1,0,0:0:0:0:
448,0,206637,1,0,0:0:0:0:
64,0,206716,1,0,0:0:0:0:
192,0,206716,1,0,0:0:0:0:
320,0,206794,1,0,0:0:0:0:
448,0,206794,1,0,0:0:0:0:
64,0,206873,1,0,0:0:0:0:
192,0,206873,1,0,0:0:0:0:
320,0,206951,1,0,0:0:0:0:
448,0,206951,1,0,0:0:0:0:
192,0,207030,1,0,0:0:0:0:
64,0,207108,1,0,0:0:0:0:
448,0,207108,1,0,0:0:0:0:
320,0,207187,1,0,0:0:0:0:
64,0,207266,1,0,0:0:0:0:
192,0,207266,1,0,0:0:0:0:
320,0,207344,1,0,0:0:0:0:
64,0,207423,1,0,0:0:0:0:
192,0,207423,1,0,0:0:0:0:
448,0,207423,1,0,0:0:0:0:
320,0,207501,1,0,0:0:0:0:
448,0,207580,1,0,0:0:0:0:
64,0,207658,1,0,0:0:0:0:
192,0,207737,1,0,0:0:0:0:
320,0,207737,1,0,0:0:0:0:
448,0,207815,1,0,0:0:0:0:
64,0,207894,1,0,0:0:0:0:
320,0,207894,1,0,0:0:0:0:
192,0,207972,1,0,0:0:0:0:
448,0,207972,1,0,0:0:0:0:
64,0,208051,1,0,0:0:0:0:
320,0,208051,1,0,0:0:0:0:
192,0,208129,1,0,0:0:0:0:
448,0,208129,1,0,0:0:0:0:
64,0,208208,1,0,0:0:0:0:
320,0,208208,1,0,0:0:0:0:
448,0,208286,1,0,0:0:0:0:
64,0,208365,1,0,0:0:0:0:
192,0,208365,1,0,0:0:0:0:
320,0,208444,1,0,0:0:0:0:
64,0,208522,1,0,0:0:0:0:
448,0,208522,1,0,0:0:0:0:
192,0,208601,1,0,0:0:0:0:
64,0,208679,1,0,0:0:0:0:
320,0,208679,1,0,0:0:0:0:
448,0,208679,1,0,0:0:0:0:
192,0,208758,1,0,0:0:0:0:
320,0,208836,1,0,0:0:0:0:
448,0,208836,1,0,0:0:0:0:
64,0,208915,1,0,0:0:0:0:
192,0,208993,1,0,0:0:0:0:
320,0,208993,1,0,0:0:0:0:
448,0,209072,1,0,0:0:0:0:
64,0,209150,1,0,0:0:0:0:
192,0,209150,1,0,0:0:0:0:
320,0,209229,1,0,0:0:0:0:
448,0,209229,1,0,0:0:0:0:
64,0,209307,1,0,0:0:0:0:
192,0,209307,1,0,0:0:0:0:
320,0,209386,1,0,0:0:0:0:
448,0,209386,1,0,0:0:0:0:
64,0,209464,1,0,0:0:0:0:
192,0,209464,1,0,0:0:0:0:
448,0,209543,1,0,0:0:0:0:
64,0,209622,1,0,0:0:0:0:
192,0,209622,1,0,0:0:0:0:
320,0,209700,1,0,0:0:0:0:
448,0,209700,1,0,0:0:0:0:
64,0,209779,1,0,0:0:0:0:
192,0,209779,1,0,0:0:0:0:
320,0,209857,1,0,0:0:0:0:
64,0,209936,128,0,210250:0:0:0:0:
192,0,209936,1,0,0:0:0:0:
448,0,209936,1,0,0:0:0:0:
320,0,210014,1,0,0:0:0:0:
192,0,210093,1,0,0:0:0:0:
448,0,210171,1,0,0:0:0:0:
192,0,210250,1,0,0:0:0:0:
320,0,210250,1,0,0:0:0:0:
448,0,210328,1,0,0:0:0:0:
64,0,210407,1,0,0:0:0:0:
192,0,210407,1,0,0:0:0:0:
320,0,210485,1,0,0:0:0:0:
448,0,210485,1,0,0:0:0:0:
64,0,210564,1,0,0:0:0:0:
192,0,210564,1,0,0:0:0:0:
320,0,210642,1,0,0:0:0:0:
448,0,210642,1,0,0:0:0:0:
64,0,210721,1,0,0:0:0:0:
192,0,210721,1,0,0:0:0:0:
320,0,210800,1,0,0:0:0:0:
64,0,210878,1,0,0:0:0:0:
448,0,210878,1,0,0:0:0:0:
192,0,210957,1,0,0:0:0:0:
320,0,211035,1,0,0:0:0:0:
448,0,211035,1,0,0:0:0:0:
192,0,211114,1,0,0:0:0:0:
64,0,211192,1,0,0:0:0:0:
320,0,211192,1,0,0:0:0:0:
448,0,211192,1,0,0:0:0:0:
192,0,211271,1,0,0:0:0:0:
320,0,211349,1,0,0:0:0:0:
448,0,211349,1,0,0:0:0:0:
64,0,211428,1,0,0:0:0:0:
320,0,211506,1,0,0:0:0:0:
448,0,211506,1,0,0:0:0:0:
192,0,211585,1,0,0:0:0:0:
64,0,211663,1,0,0:0:0:0:
448,0,211663,1,0,0:0:0:0:
192,0,211742,1,0,0:0:0:0:
320,0,211742,1,0,0:0:0:0:
64,0,211820,1,0,0:0:0:0:
448,0,211820,1,0,0:0:0:0:
192,0,211899,1,0,0:0:0:0:
320,0,211899,1,0,0:0:0:0:
64,0,211978,1,0,0:0:0:0:
448,0,211978,1,0,0:0:0:0:
192,0,212056,1,0,0:0:0:0:
320,0,212135,1,0,0:0:0:0:
448,0,212135,1,0,0:0:0:0:
192,0,212213,1,0,0:0:0:0:
320,0,212292,1,0,0:0:0:0:
448,0,212292,1,0,0:0:0:0:
192,0,212370,1,0,0:0:0:0:
64,0,212449,1,0,0:0:0:0:
320,0,212449,1,0,0:0:0:0:
448,0,212449,1,0,0:0:0:0:
192,0,212527,1,0,0:0:0:0:
448,0,212606,1,0,0:0:0:0:
64,0,212684,1,0,0:0:0:0:
192,0,212763,1,0,0:0:0:0:
320,0,212763,1,0,0:0:0:0:
448,0,212841,1,0,0:0:0:0:
64,0,212920,1,0,0:0:0:0:
320,0,212920,1,0,0:0:0:0:
192,0,212998,1,0,0:0:0:0:
448,0,212998,1,0,0:0:0:0:
64,0,213077,1,0,0:0:0:0:
320,0,213077,1,0,0:0:0:0:
192,0,213156,1,0,0:0:0:0:
448,0,213156,1,0,0:0:0:0:
64,0,213234,1,0,0:0:0:0:
320,0,213234,1,0,0:0:0:0:
192,0,213313,1,0,0:0:0:0:
320,0,213391,1,0,0:0:0:0:
448,0,213391,1,0,0:0:0:0:
192,0,213470,1,0,0:0:0:0:
64,0,213548,1,0,0:0:0:0:
448,0,213548,1,0,0:0:0:0:
320,0,213627,1,0,0:0:0:0:
64,0,213705,1,0,0:0:0:0:
192,0,213705,1,0,0:0:0:0:
448,0,213705,1,0,0:0:0:0:
320,0,213784,1,0,0:0:0:0:
64,0,213862,1,0,0:0:0:0:
192,0,213862,1,0,0:0:0:0:
448,0,213941,1,0,0:0:0:0:
64,0,214019,1,0,0:0:0:0:
192,0,214019,1,0,0:0:0:0:
320,0,214098,1,0,0:0:0:0:
192,0,214177,1,0,0:0:0:0:
448,0,214177,1,0,0:0:0:0:
64,0,214255,1,0,0:0:0:0:
320,0,214255,1,0,0:0:0:0:
192,0,214334,1,0,0:0:0:0:
448,0,214334,1,0,0:0:0:0:
64,0,214412,1,0,0:0:0:0:
320,0,214412,1,0,0:0:0:0:
192,0,214491,1,0,0:0:0:0:
448,0,214491,1,0,0:0:0:0:
320,0,214569,1,0,0:0:0:0:
64,0,214648,1,0,0:0:0:0:
192,0,214648,1,0,0:0:0:0:
320,0,214726,1,0,0:0:0:0:
448,0,214726,1,0,0:0:0:0:
64,0,214805,1,0,0:0:0:0:
192,0,214805,1,0,0:0:0:0:
64,0,214962,128,0,215276:0:0:0:0:
192,0,214962,1,0,0:0:0:0:
320,0,214962,1,0,0:0:0:0:
448,0,214962,1,0,0:0:0:0:
192,0,215276,1,0,0:0:0:0:
320,0,215276,1,0,0:0:0:0:
448,0,215276,1,0,0:0:0:0:
64,0,215355,1,0,0:0:0:0:
320,0,215433,1,0,0:0:0:0:
448,0,215433,1,0,0:0:0:0:
64,0,215512,1,0,0:0:0:0:
192,0,215512,1,0,0:0:0:0:
320,0,215590,1,0,0:0:0:0:
448,0,215590,1,0,0:0:0:0:
64,0,215669,1,0,0:0:0:0:
192,0,215669,1,0,0:0:0:0:
320,0,215747,1,0,0:0:0:0:
448,0,215747,1,0,0:0:0:0:
192,0,215826,1,0,0:0:0:0:
64,0,215904,1,0,0:0:0:0:
320,0,215904,1,0,0:0:0:0:
448,0,215983,1,0,0:0:0:0:
64,0,216061,1,0,0:0:0:0:
192,0,216061,1,0,0:0:0:0:
320,0,216140,1,0,0:0:0:0:
64,0,216218,1,0,0:0:0:0:
192,0,216218,1,0,0:0:0:0:
448,0,216218,1,0,0:0:0:0:
320,0,216297,1,0,0:0:0:0:
192,0,216375,1,0,0:0:0:0:
448,0,216375,1,0,0:0:0:0:
64,0,216454,1,0,0:0:0:0:
320,0,216533,1,0,0:0:0:0:
448,0,216533,1,0,0:0:0:0:
64,0,216611,1,0,0:0:0:0:
192,0,216690,1,0,0:0:0:0:
320,0,216690,1,0,0:0:0:0:
64,0,216768,1,0,0:0:0:0:
448,0,216768,1,0,0:0:0:0:
192,0,216847,1,0,0:0:0:0:
320,0,216847,1,0,0:0:0:0:
64,0,216925,1,0,0:0:0:0:
448,0,216925,1,0,0:0:0:0:
192,0,217004,1,0,0:0:0:0:
320,0,217004,1,0,0:0:0:0:
448,0,217082,1,0,0:0:0:0:
64,0,217161,1,0,0:0:0:0:
192,0,217161,1,0,0:0:0:0:
320,0,217239,1,0,0:0:0:0:
192,0,217318,1,0,0:0:0:0:
448,0,217318,1,0,0:0:0:0:
64,0,217396,1,0,0:0:0:0:
192,0,217475,1,0,0:0:0:0:
320,0,217475,1,0,0:0:0:0:
448,0,217475,1,0,0:0:0:0:
64,0,217553,1,0,0:0:0:0:
320,0,217632,1,0,0:0:0:0:
448,0,217632,1,0,0:0:0:0:
192,0,217711,1,0,0:0:0:0:
320,0,217789,1,0,0:0:0:0:
448,0,217789,1,0,0:0:0:0:
192,0,217868,1,0,0:0:0:0:
64,0,217946,1,0,0:0:0:0:
448,0,217946,1,0,0:0:0:0:
192,0,218025,1,0,0:0:0:0:
320,0,218025,1,0,0:0:0:0:
64,0,218103,1,0,0:0:0:0:
448,0,218103,1,0,0:0:0:0:
192,0,218182,1,0,0:0:0:0:
320,0,218182,1,0,0:0:0:0:
64,0,218260,1,0,0:0:0:0:
448,0,218260,1,0,0:0:0:0:
320,0,218339,1,0,0:0:0:0:
64,0,218417,1,0,0:0:0:0:
192,0,218417,1,0,0:0:0:0:
448,0,218496,1,0,0:0:0:0:
64,0,218574,1,0,0:0:0:0:
192,0,218574,1,0,0:0:0:0:
320,0,218653,1,0,0:0:0:0:
64,0,218731,1,0,0:0:0:0:
192,0,218731,1,0,0:0:0:0:
448,0,218731,1,0,0:0:0:0:
320,0,218810,1,0,0:0:0:0:
192,0,218889,1,0,0:0:0:0:
448,0,218889,1,0,0:0:0:0:
64,0,218967,1,0,0:0:0:0:
320,0,219046,1,0,0:0:0:0:
448,0,219046,1,0,0:0:0:0:
64,0,219124,1,0,0:0:0:0:
192,0,219203,1,0,0:0:0:0:
448,0,219203,1,0,0:0:0:0:
64,0,219281,1,0,0:0:0:0:
320,0,219281,1,0,0:0:0:0:
192,0,219360,1,0,0:0:0:0:
448,0,219360,1,0,0:0:0:0:
64,0,219438,1,0,0:0:0:0:
320,0,219438,1,0,0:0:0:0:
192,0,219517,1,0,0:0:0:0:
448,0,219517,1,0,0:0:0:0:
320,0,219595,1,0,0:0:0:0:
64,0,219674,1,0,0:0:0:0:
192,0,219674,1,0,0:0:0:0:
320,0,219752,1,0,0:0:0:0:
448,0,219752,1,0,0:0:0:0:
64,0,219831,1,0,0:0:0:0:
192,0,219831,1,0,0:0:0:0:
320,0,219909,1,0,0:0:0:0:
64,0,219988,128,0,220302:0:0:0:0:
192,0,219988,1,0,0:0:0:0:
448,0,219988,1,0,0:0:0:0:
320,0,220067,1,0,0:0:0:0:
192,0,220145,1,0,0:0:0:0:
320,0,220224,1,0,0:0:0:0:
192,0,220302,1,0,0:0:0:0:
448,0,220302,1,0,0:0:0:0:
320,0,220381,1,0,0:0:0:0:
64,0,220459,1,0,0:0:0:0:
192,0,220459,1,0,0:0:0:0:
320,0,220538,1,0,0:0:0:0:
448,0,220538,1,0,0:0:0:0:
64,0,220616,1,0,0:0:0:0:
192,0,220616,1,0,0:0:0:0:
320,0,220695,1,0,0:0:0:0:
448,0,220695,1,0,0:0:0:0:
64,0,220773,1,0,0:0:0:0:
192,0,220773,1,0,0:0:0:0:
320,0,220852,1,0,0:0:0:0:
64,0,220930,1,0,0:0:0:0:
448,0,220930,1,0,0:0:0:0:
192,0,221009,1,0,0:0:0:0:
320,0,221087,1,0,0:0:0:0:
448,0,221087,1,0,0:0:0:0:
192,0,221166,1,0,0:0:0:0:
64,0,221245,1,0,0:0:0:0:
320,0,221245,1,0,0:0:0:0:
448,0,221245,1,0,0:0:0:0:
192,0,221323,1,0,0:0:0:0:
320,0,221402,1,0,0:0:0:0:
448,0,221402,1,0,0:0:0:0:
192,0,221480,1,0,0:0:0:0:
64,0,221559,1,0,0:0:0:0:
448,0,221559,1,0,0:0:0:0:
320,0,221637,1,0,0:0:0:0:
64,0,221716,1,0,0:0:0:0:
192,0,221716,1,0,0:0:0:0:
320,0,221794,1,0,0:0:0:0:
448,0,221794,1,0,0:0:0:0:
64,0,221873,1,0,0:0:0:0:
192,0,221873,1,0,0:0:0:0:
320,0,221951,1,0,0:0:0:0:
448,0,221951,1,0,0:0:0:0:
64,0,222030,1,0,0:0:0:0:
192,0,222030,1,0,0:0:0:0:
320,0,222108,1,0,0:0:0:0:
64,0,222187,1,0,0:0:0:0:
192,0,222187,1,0,0:0:0:0:
448,0,222266,1,0,0:0:0:0:
192,0,222344,1,0,0:0:0:0:
320,0,222344,1,0,0:0:0:0:
64,0,222423,1,0,0:0:0:0:
192,0,222501,1,0,0:0:0:0:
320,0,222501,1,0,0:0:0:0:
448,0,222501,1,0,0:0:0:0:
64,0,222580,1,0,0:0:0:0:
192,0,222658,1,0,0:0:0:0:
320,192,222658,1,0,0:0:0:0:
448,0,222737,1,0,0:0:0:0:
64,0,222815,1,0,0:0:0:0:
192,0,222815,1,0,0:0:0:0:
320,0,222815,1,0,0:0:0:0:
448,0,222894,1,0,0:0:0:0:
64,0,222972,1,0,0:0:0:0:
192,0,222972,1,0,0:0:0:0:
320,0,223051,1,0,0:0:0:0:
448,0,223051,1,0,0:0:0:0:
64,0,223129,1,0,0:0:0:0:
192,0,223129,1,0,0:0:0:0:
320,0,223208,1,0,0:0:0:0:
448,0,223208,1,0,0:0:0:0:
64,0,223286,1,0,0:0:0:0:
192,0,223286,1,0,0:0:0:0:
320,0,223365,1,0,0:0:0:0:
448,0,223365,1,0,0:0:0:0:
64,0,223444,1,0,0:0:0:0:
192,0,223444,1,0,0:0:0:0:
320,0,223522,1,0,0:0:0:0:
448,0,223522,1,0,0:0:0:0:
64,0,223601,1,0,0:0:0:0:
192,0,223601,1,0,0:0:0:0:
320,0,223679,1,0,0:0:0:0:
64,0,223758,1,0,0:0:0:0:
192,0,223758,1,0,0:0:0:0:
448,0,223758,1,0,0:0:0:0:
320,0,223836,1,0,0:0:0:0:
64,0,223915,1,0,0:0:0:0:
192,0,223915,1,0,0:0:0:0:
320,0,223993,1,0,0:0:0:0:
448,0,223993,1,0,0:0:0:0:
64,0,224072,1,0,0:0:0:0:
192,0,224111,1,0,0:0:0:0:
320,0,224150,1,0,0:0:0:0:
448,0,224190,1,0,0:0:0:0:
64,0,224229,1,0,0:0:0:0:
192,0,224268,1,0,0:0:0:0:
320,0,224307,1,0,0:0:0:0:
448,0,224347,1,0,0:0:0:0:
64,0,224386,1,0,0:0:0:0:
192,0,224425,1,0,0:0:0:0:
320,0,224464,1,0,0:0:0:0:
448,0,224504,1,0,0:0:0:0:
64,0,224543,1,0,0:0:0:0:
192,0,224582,1,0,0:0:0:0:
320,0,224622,1,0,0:0:0:0:
448,0,224661,1,0,0:0:0:0:
64,0,224700,1,0,0:0:0:0:
192,0,224700,1,0,0:0:0:0:
320,0,224779,1,0,0:0:0:0:
448,0,224779,1,0,0:0:0:0:
64,0,224857,1,0,0:0:0:0:
192,0,224857,1,0,0:0:0:0:
64,0,225014,128,0,225328:0:0:0:0:
192,0,225014,1,0,0:0:0:0:
320,0,225014,1,0,0:0:0:0:
448,0,225014,1,0,0:0:0:0:
320,0,225171,1,0,0:0:0:0:
192,0,225328,1,0,0:0:0:0:
320,0,225328,1,0,0:0:0:0:
448,0,225328,1,0,0:0:0:0:
64,0,225407,1,0,0:0:0:0:
192,0,225485,1,0,0:0:0:0:
320,0,225564,1,0,0:0:0:0:
64,0,225642,1,0,0:0:0:0:
192,0,225642,1,0,0:0:0:0:
448,0,225642,1,0,0:0:0:0:
320,0,225721,1,0,0:0:0:0:
448,0,225800,1,0,0:0:0:0:
192,0,225878,1,0,0:0:0:0:
64,0,225957,1,0,0:0:0:0:
448,192,225957,1,0,0:0:0:0:
320,0,226035,1,0,0:0:0:0:
192,0,226114,1,0,0:0:0:0:
64,0,226192,1,0,0:0:0:0:
192,0,226271,1,0,0:0:0:0:
320,0,226271,1,0,0:0:0:0:
448,0,226271,1,0,0:0:0:0:
64,0,226349,1,0,0:0:0:0:
448,0,226428,1,0,0:0:0:0:
192,0,226506,1,0,0:0:0:0:
64,0,226585,1,0,0:0:0:0:
320,0,226585,1,0,0:0:0:0:
448,0,226663,1,0,0:0:0:0:
320,0,226742,1,0,0:0:0:0:
64,0,226820,1,0,0:0:0:0:
192,0,226899,1,0,0:0:0:0:
320,0,226899,1,0,0:0:0:0:
448,0,226899,1,0,0:0:0:0:
64,0,226978,1,0,0:0:0:0:
192,0,227056,1,0,0:0:0:0:
448,0,227056,1,0,0:0:0:0:
320,0,227135,1,0,0:0:0:0:
192,0,227213,1,0,0:0:0:0:
64,192,227213,1,0,0:0:0:0:
320,0,227292,1,0,0:0:0:0:
448,0,227370,1,0,0:0:0:0:
192,0,227449,1,0,0:0:0:0:
64,0,227527,1,0,0:0:0:0:
320,0,227527,1,0,0:0:0:0:
448,0,227527,1,0,0:0:0:0:
192,0,227606,1,0,0:0:0:0:
320,0,227684,1,0,0:0:0:0:
448,0,227763,1,0,0:0:0:0:
64,0,227841,1,0,0:0:0:0:
192,0,227841,1,0,0:0:0:0:
320,0,227920,1,0,0:0:0:0:
192,0,227998,1,0,0:0:0:0:
320,0,228077,1,0,0:0:0:0:
64,0,228156,1,0,0:0:0:0:
192,0,228156,1,0,0:0:0:0:
448,0,228156,1,0,0:0:0:0:
320,0,228234,1,0,0:0:0:0:
448,0,228313,1,0,0:0:0:0:
192,0,228391,1,0,0:0:0:0:
320,0,228470,1,0,0:0:0:0:
448,192,228470,1,0,0:0:0:0:
192,0,228548,1,0,0:0:0:0:
64,0,228627,1,0,0:0:0:0:
320,0,228705,1,0,0:0:0:0:
64,0,228784,1,0,0:0:0:0:
192,0,228784,1,0,0:0:0:0:
448,0,228784,1,0,0:0:0:0:
320,0,228862,1,0,0:0:0:0:
64,0,228941,1,0,0:0:0:0:
192,0,229019,1,0,0:0:0:0:
320,0,229098,1,0,0:0:0:0:
448,0,229098,1,0,0:0:0:0:
64,0,229176,1,0,0:0:0:0:
448,0,229255,1,0,0:0:0:0:
320,0,229334,1,0,0:0:0:0:
64,0,229412,1,0,0:0:0:0:
192,0,229412,1,0,0:0:0:0:
448,0,229412,1,0,0:0:0:0:
320,0,229491,1,0,0:0:0:0:
64,0,229569,1,0,0:0:0:0:
192,0,229569,1,0,0:0:0:0:
448,0,229648,1,0,0:0:0:0:
64,0,229726,1,0,0:0:0:0:
192,0,229726,1,0,0:0:0:0:
320,0,229805,1,0,0:0:0:0:
448,0,229805,1,0,0:0:0:0:
64,0,229883,1,0,0:0:0:0:
192,0,229883,1,0,0:0:0:0:
320,0,229962,1,0,0:0:0:0:
64,0,230040,128,0,230355:0:0:0:0:
192,0,230040,1,0,0:0:0:0:
448,0,230040,1,0,0:0:0:0:
320,0,230119,1,0,0:0:0:0:
448,0,230197,1,0,0:0:0:0:
192,0,230276,1,0,0:0:0:0:
448,0,230355,1,0,0:0:0:0:
320,0,230355,1,0,0:0:0:0:
192,0,230433,1,0,0:0:0:0:
320,0,230512,1,0,0:0:0:0:
64,0,230590,1,0,0:0:0:0:
192,0,230669,1,0,0:0:0:0:
320,0,230669,1,0,0:0:0:0:
448,0,230669,1,0,0:0:0:0:
64,0,230747,1,0,0:0:0:0:
448,0,230826,1,0,0:0:0:0:
320,0,230904,1,0,0:0:0:0:
64,0,230983,1,0,0:0:0:0:
448,192,230983,1,0,0:0:0:0:
192,0,231061,1,0,0:0:0:0:
320,0,231140,1,0,0:0:0:0:
64,0,231218,1,0,0:0:0:0:
192,0,231297,1,0,0:0:0:0:
320,0,231297,1,0,0:0:0:0:
448,0,231297,1,0,0:0:0:0:
64,0,231375,1,0,0:0:0:0:
192,0,231454,1,0,0:0:0:0:
320,0,231533,1,0,0:0:0:0:
64,0,231611,1,0,0:0:0:0:
448,0,231611,1,0,0:0:0:0:
192,0,231690,1,0,0:0:0:0:
448,0,231768,1,0,0:0:0:0:
320,0,231847,1,0,0:0:0:0:
64,0,231925,1,0,0:0:0:0:
192,0,231925,1,0,0:0:0:0:
448,0,231925,1,0,0:0:0:0:
320,0,232004,1,0,0:0:0:0:
64,0,232082,1,0,0:0:0:0:
192,0,232082,1,0,0:0:0:0:
448,0,232161,1,0,0:0:0:0:
64,0,232239,1,0,0:0:0:0:
320,192,232239,1,0,0:0:0:0:
192,0,232318,1,0,0:0:0:0:
320,0,232396,1,0,0:0:0:0:
448,0,232475,1,0,0:0:0:0:
64,0,232553,1,0,0:0:0:0:
320,0,232553,1,0,0:0:0:0:
192,0,232553,1,0,0:0:0:0:
448,0,232632,1,0,0:0:0:0:
192,0,232711,1,0,0:0:0:0:
320,0,232789,1,0,0:0:0:0:
64,0,232868,1,0,0:0:0:0:
448,0,232868,1,0,0:0:0:0:
320,0,232946,1,0,0:0:0:0:
64,0,233025,1,0,0:0:0:0:
192,0,233103,1,0,0:0:0:0:
64,0,233182,1,0,0:0:0:0:
320,0,233182,1,0,0:0:0:0:
448,0,233182,1,0,0:0:0:0:
192,0,233260,1,0,0:0:0:0:
448,0,233339,1,0,0:0:0:0:
320,0,233417,1,0,0:0:0:0:
192,0,233496,1,0,0:0:0:0:
448,192,233496,1,0,0:0:0:0:
64,0,233574,1,0,0:0:0:0:
320,0,233653,1,0,0:0:0:0:
192,0,233731,1,0,0:0:0:0:
64,0,233810,1,0,0:0:0:0:
320,0,233810,1,0,0:0:0:0:
448,0,233810,1,0,0:0:0:0:
192,0,233889,1,0,0:0:0:0:
64,0,233967,1,0,0:0:0:0:
320,0,234046,1,0,0:0:0:0:
448,0,234124,1,0,0:0:0:0:
192,0,234124,1,0,0:0:0:0:
320,0,234203,1,0,0:0:0:0:
448,0,234281,1,0,0:0:0:0:
192,0,234360,1,0,0:0:0:0:
64,0,234438,1,0,0:0:0:0:
320,0,234438,1,0,0:0:0:0:
448,0,234438,1,0,0:0:0:0:
192,0,234517,1,0,0:0:0:0:
320,0,234595,1,0,0:0:0:0:
448,0,234595,1,0,0:0:0:0:
64,0,234674,1,0,0:0:0:0:
320,0,234752,1,0,0:0:0:0:
448,0,234752,1,0,0:0:0:0:
64,0,234831,1,0,0:0:0:0:
192,0,234831,1,0,0:0:0:0:
320,0,234909,1,0,0:0:0:0:
448,0,234909,1,0,0:0:0:0:
64,0,235067,128,0,235381:0:0:0:0:
192,0,235067,1,0,0:0:0:0:
320,0,235067,1,0,0:0:0:0:
448,0,235067,1,0,0:0:0:0:
320,0,235224,1,0,0:0:0:0:
192,0,235381,1,0,0:0:0:0:
320,0,235381,1,0,0:0:0:0:
448,0,235381,1,0,0:0:0:0:
64,0,235459,1,0,0:0:0:0:
192,0,235538,1,0,0:0:0:0:
320,0,235616,1,0,0:0:0:0:
64,0,235695,1,0,0:0:0:0:
192,0,235695,1,0,0:0:0:0:
448,0,235695,1,0,0:0:0:0:
320,0,235773,1,0,0:0:0:0:
448,0,235852,1,0,0:0:0:0:
192,0,235930,1,0,0:0:0:0:
448,0,236009,1,0,0:0:0:0:
64,192,236009,1,0,0:0:0:0:
320,0,236087,1,0,0:0:0:0:
192,0,236166,1,0,0:0:0:0:
64,0,236245,1,0,0:0:0:0:
192,0,236323,1,0,0:0:0:0:
320,0,236323,1,0,0:0:0:0:
448,0,236323,1,0,0:0:0:0:
64,0,236402,1,0,0:0:0:0:
320,0,236480,1,0,0:0:0:0:
192,0,236559,1,0,0:0:0:0:
64,0,236637,1,0,0:0:0:0:
448,0,236637,1,0,0:0:0:0:
192,0,236716,1,0,0:0:0:0:
448,0,236794,1,0,0:0:0:0:
320,0,236873,1,0,0:0:0:0:
64,0,236951,1,0,0:0:0:0:
192,0,236951,1,0,0:0:0:0:
448,0,236951,1,0,0:0:0:0:
320,0,237030,1,0,0:0:0:0:
64,0,237108,1,0,0:0:0:0:
192,0,237108,1,0,0:0:0:0:
448,0,237187,1,0,0:0:0:0:
320,0,237266,1,0,0:0:0:0:
64,192,237266,1,0,0:0:0:0:
192,0,237344,1,0,0:0:0:0:
448,0,237423,1,0,0:0:0:0:
320,0,237501,1,0,0:0:0:0:
64,0,237580,1,0,0:0:0:0:
192,0,237580,1,0,0:0:0:0:
448,0,237580,1,0,0:0:0:0:
320,0,237658,1,0,0:0:0:0:
64,0,237737,1,0,0:0:0:0:
448,0,237815,1,0,0:0:0:0:
320,0,237894,1,0,0:0:0:0:
192,0,237894,1,0,0:0:0:0:
64,0,237972,1,0,0:0:0:0:
192,0,238051,1,0,0:0:0:0:
320,0,238129,1,0,0:0:0:0:
64,0,238208,1,0,0:0:0:0:
192,0,238208,1,0,0:0:0:0:
448,0,238208,1,0,0:0:0:0:
320,0,238286,1,0,0:0:0:0:
448,0,238365,1,0,0:0:0:0:
64,0,238444,1,0,0:0:0:0:
192,0,238522,1,0,0:0:0:0:
448,192,238522,1,0,0:0:0:0:
64,0,238601,1,0,0:0:0:0:
320,0,238679,1,0,0:0:0:0:
192,0,238758,1,0,0:0:0:0:
64,0,238836,1,0,0:0:0:0:
320,0,238836,1,0,0:0:0:0:
448,0,238836,1,0,0:0:0:0:
192,0,238915,1,0,0:0:0:0:
320,0,238993,1,0,0:0:0:0:
448,0,239072,1,0,0:0:0:0:
64,0,239150,1,0,0:0:0:0:
192,0,239150,1,0,0:0:0:0:
320,0,239229,1,0,0:0:0:0:
192,0,239307,1,0,0:0:0:0:
320,0,239386,1,0,0:0:0:0:
64,0,239464,1,0,0:0:0:0:
192,0,239464,1,0,0:0:0:0:
448,0,239464,1,0,0:0:0:0:
320,0,239543,1,0,0:0:0:0:
64,0,239622,1,0,0:0:0:0:
192,0,239622,1,0,0:0:0:0:
448,0,239700,1,0,0:0:0:0:
64,0,239779,1,0,0:0:0:0:
192,0,239779,1,0,0:0:0:0:
320,0,239857,1,0,0:0:0:0:
448,0,239857,1,0,0:0:0:0:
64,0,239936,1,0,0:0:0:0:
192,0,239936,1,0,0:0:0:0:
320,0,240014,1,0,0:0:0:0:
64,0,240093,128,0,240407:0:0:0:0:
192,0,240093,1,0,0:0:0:0:
448,0,240093,1,0,0:0:0:0:
320,0,240171,1,0,0:0:0:0:
192,0,240250,1,0,0:0:0:0:
448,0,240328,1,0,0:0:0:0:
192,0,240407,1,0,0:0:0:0:
320,0,240407,1,0,0:0:0:0:
448,0,240485,1,0,0:0:0:0:
192,0,240564,1,0,0:0:0:0:
64,0,240642,1,0,0:0:0:0:
192,0,240721,1,0,0:0:0:0:
320,0,240721,1,0,0:0:0:0:
448,0,240721,1,0,0:0:0:0:
64,0,240800,1,0,0:0:0:0:
320,0,240878,1,0,0:0:0:0:
448,0,240957,1,0,0:0:0:0:
192,0,241035,1,0,0:0:0:0:
320,192,241035,1,0,0:0:0:0:
64,0,241114,1,0,0:0:0:0:
448,0,241192,1,0,0:0:0:0:
192,0,241271,1,0,0:0:0:0:
64,0,241349,1,0,0:0:0:0:
320,0,241349,1,0,0:0:0:0:
448,0,241349,1,0,0:0:0:0:
192,0,241428,1,0,0:0:0:0:
320,0,241506,1,0,0:0:0:0:
64,0,241585,1,0,0:0:0:0:
448,0,241663,1,0,0:0:0:0:
192,0,241663,1,0,0:0:0:0:
320,0,241742,1,0,0:0:0:0:
448,0,241820,1,0,0:0:0:0:
64,0,241899,1,0,0:0:0:0:
192,0,241978,1,0,0:0:0:0:
320,0,241978,1,0,0:0:0:0:
448,0,241978,1,0,0:0:0:0:
64,0,242056,1,0,0:0:0:0:
320,0,242135,1,0,0:0:0:0:
448,0,242135,1,0,0:0:0:0:
192,0,242213,1,0,0:0:0:0:
320,0,242292,1,0,0:0:0:0:
64,192,242292,1,0,0:0:0:0:
448,0,242370,1,0,0:0:0:0:
192,0,242449,1,0,0:0:0:0:
320,0,242527,1,0,0:0:0:0:
64,0,242606,1,0,0:0:0:0:
192,0,242606,1,0,0:0:0:0:
448,0,242606,1,0,0:0:0:0:
320,0,242684,1,0,0:0:0:0:
64,0,242763,1,0,0:0:0:0:
448,0,242841,1,0,0:0:0:0:
64,0,242920,1,0,0:0:0:0:
192,0,242920,1,0,0:0:0:0:
320,0,242998,1,0,0:0:0:0:
448,0,242998,1,0,0:0:0:0:
64,0,243077,1,0,0:0:0:0:
192,0,243077,1,0,0:0:0:0:
320,0,243156,1,0,0:0:0:0:
64,0,243234,1,0,0:0:0:0:
192,0,243234,1,0,0:0:0:0:
448,0,243234,1,0,0:0:0:0:
320,0,243313,1,0,0:0:0:0:
64,0,243391,1,0,0:0:0:0:
192,0,243391,1,0,0:0:0:0:
320,0,243470,1,0,0:0:0:0:
448,0,243470,1,0,0:0:0:0:
64,0,243548,1,0,0:0:0:0:
192,0,243548,1,0,0:0:0:0:
320,0,243627,1,0,0:0:0:0:
448,0,243627,1,0,0:0:0:0:
64,0,243705,1,0,0:0:0:0:
192,0,243705,1,0,0:0:0:0:
320,0,243784,1,0,0:0:0:0:
64,0,243862,1,0,0:0:0:0:
192,0,243862,1,0,0:0:0:0:
448,192,243862,1,0,0:0:0:0:
320,0,243941,1,0,0:0:0:0:
64,0,244019,1,0,0:0:0:0:
192,0,244019,1,0,0:0:0:0:
448,0,244098,1,0,0:0:0:0:
192,0,244176,1,0,0:0:0:0:
320,0,244176,1,0,0:0:0:0:
64,0,244255,1,0,0:0:0:0:
320,0,244334,1,0,0:0:0:0:
64,0,244412,1,0,0:0:0:0:
320,0,244491,1,0,0:0:0:0:
448,0,244491,1,0,0:0:0:0:
64,0,244569,1,0,0:0:0:0:
320,0,244648,1,0,0:0:0:0:
448,0,244648,1,0,0:0:0:0:
192,0,244726,1,0,0:0:0:0:
64,0,244805,1,0,0:0:0:0:
448,0,244805,1,0,0:0:0:0:
192,0,244883,1,0,0:0:0:0:
448,0,244962,1,0,0:0:0:0:
320,0,245040,1,0,0:0:0:0:
64,0,245119,1,0,0:0:0:0:
192,0,245119,1,0,0:0:0:0:
320,0,245197,1,0,0:0:0:0:
192,0,245276,1,0,0:0:0:0:
64,0,245355,1,0,0:0:0:0:
192,0,245433,1,0,0:0:0:0:
320,0,245433,1,0,0:0:0:0:
448,0,245433,1,0,0:0:0:0:
64,0,245512,1,0,0:0:0:0:
320,0,245590,1,0,0:0:0:0:
448,0,245590,1,0,0:0:0:0:
192,0,245669,1,0,0:0:0:0:
64,0,245747,1,0,0:0:0:0:
320,0,245747,1,0,0:0:0:0:
448,0,245747,1,0,0:0:0:0:
192,0,245826,1,0,0:0:0:0:
320,0,245904,1,0,0:0:0:0:
448,0,245983,1,0,0:0:0:0:
64,0,246061,1,0,0:0:0:0:
192,0,246061,1,0,0:0:0:0:
448,0,246140,1,0,0:0:0:0:
192,0,246218,1,0,0:0:0:0:
320,0,246218,1,0,0:0:0:0:
64,0,246297,1,0,0:0:0:0:
192,0,246375,1,0,0:0:0:0:
320,0,246375,1,0,0:0:0:0:
448,0,246375,1,0,0:0:0:0:
64,0,246454,1,0,0:0:0:0:
320,0,246533,1,0,0:0:0:0:
448,0,246533,1,0,0:0:0:0:
192,0,246611,1,0,0:0:0:0:
320,0,246690,1,0,0:0:0:0:
64,0,246768,1,0,0:0:0:0:
320,0,246847,1,0,0:0:0:0:
448,0,246847,1,0,0:0:0:0:
192,0,246925,1,0,0:0:0:0:
64,0,247004,1,0,0:0:0:0:
320,0,247004,1,0,0:0:0:0:
448,0,247004,1,0,0:0:0:0:
192,0,247082,1,0,0:0:0:0:
320,0,247161,1,0,0:0:0:0:
448,0,247239,1,0,0:0:0:0:
64,0,247318,1,0,0:0:0:0:
192,0,247318,1,0,0:0:0:0:
320,0,247318,1,0,0:0:0:0:
448,0,247396,1,0,0:0:0:0:
64,0,247475,1,0,0:0:0:0:
192,0,247475,1,0,0:0:0:0:
320,0,247553,1,0,0:0:0:0:
64,0,247632,1,0,0:0:0:0:
192,0,247632,1,0,0:0:0:0:
448,0,247632,1,0,0:0:0:0:
320,0,247711,1,0,0:0:0:0:
64,0,247789,1,0,0:0:0:0:
448,0,247789,1,0,0:0:0:0:
192,0,247868,1,0,0:0:0:0:
320,0,247946,1,0,0:0:0:0:
448,0,248025,1,0,0:0:0:0:
64,0,248103,1,0,0:0:0:0:
192,0,248103,1,0,0:0:0:0:
320,0,248182,1,0,0:0:0:0:
64,0,248260,1,0,0:0:0:0:
192,0,248260,1,0,0:0:0:0:
448,0,248260,1,0,0:0:0:0:
320,0,248339,1,0,0:0:0:0:
448,0,248417,1,0,0:0:0:0:
64,0,248496,1,0,0:0:0:0:
192,0,248574,1,0,0:0:0:0:
320,0,248574,1,0,0:0:0:0:
448,0,248574,1,0,0:0:0:0:
64,0,248653,1,0,0:0:0:0:
320,0,248731,1,0,0:0:0:0:
448,0,248731,1,0,0:0:0:0:
192,0,248810,1,0,0:0:0:0:
64,0,248889,1,0,0:0:0:0:
320,0,248889,1,0,0:0:0:0:
448,0,248889,1,0,0:0:0:0:
192,0,248967,1,0,0:0:0:0:
64,0,249046,1,0,0:0:0:0:
448,0,249046,1,0,0:0:0:0:
320,0,249124,1,0,0:0:0:0:
192,0,249203,1,0,0:0:0:0:
64,0,249281,1,0,0:0:0:0:
320,0,249360,1,0,0:0:0:0:
448,0,249360,1,0,0:0:0:0:
192,0,249438,1,0,0:0:0:0:
64,0,249517,1,0,0:0:0:0:
320,0,249517,1,0,0:0:0:0:
448,0,249517,1,0,0:0:0:0:
192,0,249595,1,0,0:0:0:0:
64,0,249674,1,0,0:0:0:0:
448,0,249674,1,0,0:0:0:0:
320,0,249752,1,0,0:0:0:0:
64,0,249831,1,0,0:0:0:0:
192,0,249831,1,0,0:0:0:0:
320,0,249909,1,0,0:0:0:0:
448,0,249909,1,0,0:0:0:0:
64,0,249988,1,0,0:0:0:0:
192,0,249988,1,0,0:0:0:0:
320,0,250067,1,0,0:0:0:0:
64,0,250145,1,0,0:0:0:0:
192,0,250145,1,0,0:0:0:0:
448,0,250145,1,0,0:0:0:0:
320,0,250224,1,0,0:0:0:0:
64,0,250302,1,0,0:0:0:0:
192,0,250302,1,0,0:0:0:0:
448,0,250381,1,0,0:0:0:0:
64,0,250459,1,0,0:0:0:0:
192,0,250459,1,0,0:0:0:0:
320,0,250459,1,0,0:0:0:0:
448,0,250538,1,0,0:0:0:0:
64,0,250616,1,0,0:0:0:0:
192,0,250616,1,0,0:0:0:0:
320,0,250695,1,0,0:0:0:0:
64,0,250773,1,0,0:0:0:0:
192,0,250773,1,0,0:0:0:0:
448,0,250773,1,0,0:0:0:0:
320,0,250852,1,0,0:0:0:0:
448,0,250930,1,0,0:0:0:0:
64,0,251009,1,0,0:0:0:0:
192,0,251087,1,0,0:0:0:0:
320,0,251087,1,0,0:0:0:0:
448,0,251087,1,0,0:0:0:0:
64,0,251166,1,0,0:0:0:0:
320,0,251245,1,0,0:0:0:0:
448,0,251245,1,0,0:0:0:0:
192,0,251323,1,0,0:0:0:0:
64,0,251402,1,0,0:0:0:0:
320,0,251402,1,0,0:0:0:0:
448,0,251402,1,0,0:0:0:0:
192,0,251480,1,0,0:0:0:0:
320,0,251559,1,0,0:0:0:0:
448,0,251559,1,0,0:0:0:0:
192,0,251637,1,0,0:0:0:0:
64,0,251716,1,0,0:0:0:0:
448,0,251794,1,0,0:0:0:0:
192,0,251873,1,0,0:0:0:0:
320,0,251873,1,0,0:0:0:0:
64,0,251951,1,0,0:0:0:0:
192,0,252030,1,0,0:0:0:0:
320,0,252030,1,0,0:0:0:0:
448,0,252030,1,0,0:0:0:0:
64,0,252108,1,0,0:0:0:0:
448,0,252187,1,0,0:0:0:0:
320,0,252265,1,0,0:0:0:0:
64,0,252344,1,0,0:0:0:0:
192,0,252344,1,0,0:0:0:0:
320,0,252423,1,0,0:0:0:0:
64,0,252501,1,0,0:0:0:0:
448,0,252501,1,0,0:0:0:0:
192,0,252580,1,0,0:0:0:0:
64,0,252658,1,0,0:0:0:0:
320,0,252658,1,0,0:0:0:0:
448,0,252658,1,0,0:0:0:0:
192,0,252737,1,0,0:0:0:0:
320,0,252815,1,0,0:0:0:0:
448,0,252815,1,0,0:0:0:0:
192,0,252894,1,0,0:0:0:0:
320,0,252972,1,0,0:0:0:0:
448,0,253051,1,0,0:0:0:0:
64,0,253129,1,0,0:0:0:0:
192,0,253129,1,0,0:0:0:0:
320,0,253208,1,0,0:0:0:0:
64,0,253286,1,0,0:0:0:0:
192,0,253286,1,0,0:0:0:0:
448,0,253286,1,0,0:0:0:0:
320,0,253365,1,0,0:0:0:0:
64,0,253444,1,0,0:0:0:0:
448,0,253522,1,0,0:0:0:0:
192,0,253601,1,0,0:0:0:0:
320,0,253601,1,0,0:0:0:0:
64,0,253679,1,0,0:0:0:0:
320,0,253758,1,0,0:0:0:0:
448,0,253758,1,0,0:0:0:0:
192,0,253836,1,0,0:0:0:0:
64,0,253915,1,0,0:0:0:0:
320,0,253915,1,0,0:0:0:0:
448,0,253915,1,0,0:0:0:0:
192,0,253993,1,0,0:0:0:0:
320,0,254072,1,0,0:0:0:0:
448,0,254072,1,0,0:0:0:0:
64,0,254150,1,0,0:0:0:0:
192,0,254229,1,0,0:0:0:0:
320,0,254229,1,0,0:0:0:0:
448,0,254307,1,0,0:0:0:0:
64,0,254386,1,0,0:0:0:0:
192,0,254386,1,0,0:0:0:0:
320,0,254464,1,0,0:0:0:0:
64,0,254543,1,0,0:0:0:0:
192,0,254543,1,0,0:0:0:0:
448,0,254543,1,0,0:0:0:0:
320,0,254622,1,0,0:0:0:0:
64,0,254700,1,0,0:0:0:0:
192,0,254700,1,0,0:0:0:0:
448,0,254779,1,0,0:0:0:0:
64,0,254857,1,0,0:0:0:0:
192,0,254857,1,0,0:0:0:0:
320,0,254936,1,0,0:0:0:0:
448,0,254936,1,0,0:0:0:0:
64,0,255014,1,0,0:0:0:0:
192,0,255014,1,0,0:0:0:0:
320,0,255093,1,0,0:0:0:0:
64,0,255171,1,0,0:0:0:0:
192,0,255171,1,0,0:0:0:0:
448,0,255171,1,0,0:0:0:0:
320,0,255250,1,0,0:0:0:0:
64,0,255328,1,0,0:0:0:0:
192,0,255328,1,0,0:0:0:0:
448,0,255407,1,0,0:0:0:0:
64,0,255485,1,0,0:0:0:0:
192,0,255485,1,0,0:0:0:0:
320,0,255485,1,0,0:0:0:0:
448,0,255564,1,0,0:0:0:0:
192,0,255642,1,0,0:0:0:0:
320,0,255642,1,0,0:0:0:0:
64,0,255721,1,0,0:0:0:0:
192,0,255800,1,0,0:0:0:0:
320,0,255800,1,0,0:0:0:0:
448,0,255800,1,0,0:0:0:0:
64,0,255878,1,0,0:0:0:0:
448,0,255957,1,0,0:0:0:0:
320,0,256035,1,0,0:0:0:0:
64,0,256114,1,0,0:0:0:0:
192,0,256114,1,0,0:0:0:0:
448,0,256114,1,0,0:0:0:0:
320,0,256192,1,0,0:0:0:0:
64,0,256271,1,0,0:0:0:0:
192,0,256271,1,0,0:0:0:0:
320,0,256349,1,0,0:0:0:0:
64,0,256428,1,0,0:0:0:0:
192,0,256428,1,0,0:0:0:0:
448,0,256428,1,0,0:0:0:0:
320,0,256506,1,0,0:0:0:0:
64,0,256585,1,0,0:0:0:0:
448,0,256585,1,0,0:0:0:0:
192,0,256663,1,0,0:0:0:0:
320,0,256742,1,0,0:0:0:0:
448,0,256820,1,0,0:0:0:0:
64,0,256899,1,0,0:0:0:0:
192,0,256899,1,0,0:0:0:0:
320,0,256978,1,0,0:0:0:0:
64,0,257056,1,0,0:0:0:0:
192,0,257056,1,0,0:0:0:0:
448,0,257056,1,0,0:0:0:0:
320,0,257135,1,0,0:0:0:0:
448,0,257213,1,0,0:0:0:0:
64,0,257292,1,0,0:0:0:0:
192,0,257370,1,0,0:0:0:0:
320,0,257370,1,0,0:0:0:0:
448,0,257370,1,0,0:0:0:0:
64,0,257449,1,0,0:0:0:0:
320,0,257527,1,0,0:0:0:0:
448,0,257527,1,0,0:0:0:0:
192,0,257606,1,0,0:0:0:0:
64,0,257684,1,0,0:0:0:0:
320,0,257684,1,0,0:0:0:0:
448,0,257684,1,0,0:0:0:0:
192,0,257763,1,0,0:0:0:0:
320,0,257841,1,0,0:0:0:0:
448,0,257841,1,0,0:0:0:0:
192,0,257920,1,0,0:0:0:0:
320,0,257998,1,0,0:0:0:0:
64,0,258077,1,0,0:0:0:0:
320,0,258156,1,0,0:0:0:0:
448,0,258156,1,0,0:0:0:0:
192,0,258234,1,0,0:0:0:0:
64,0,258313,1,0,0:0:0:0:
320,0,258313,1,0,0:0:0:0:
448,0,258313,1,0,0:0:0:0:
192,0,258391,1,0,0:0:0:0:
320,0,258470,1,0,0:0:0:0:
448,0,258548,1,0,0:0:0:0:
64,0,258627,1,0,0:0:0:0:
192,0,258627,1,0,0:0:0:0:
320,0,258627,1,0,0:0:0:0:
448,0,258705,1,0,0:0:0:0:
64,0,258784,1,0,0:0:0:0:
192,0,258784,1,0,0:0:0:0:
320,0,258862,1,0,0:0:0:0:
64,0,258941,1,0,0:0:0:0:
192,0,258941,1,0,0:0:0:0:
448,0,258941,1,0,0:0:0:0:
320,0,259019,1,0,0:0:0:0:
64,0,259098,1,0,0:0:0:0:
192,0,259098,1,0,0:0:0:0:
448,0,259176,1,0,0:0:0:0:
192,0,259255,1,0,0:0:0:0:
320,0,259334,1,0,0:0:0:0:
64,0,259412,1,0,0:0:0:0:
448,0,259412,1,0,0:0:0:0:
192,0,259491,1,0,0:0:0:0:
64,0,259569,1,0,0:0:0:0:
320,0,259569,1,0,0:0:0:0:
448,0,259569,1,0,0:0:0:0:
192,0,259648,1,0,0:0:0:0:
64,0,259726,1,0,0:0:0:0:
320,0,259726,1,0,0:0:0:0:
448,0,259805,1,0,0:0:0:0:
64,0,259883,1,0,0:0:0:0:
192,0,259883,1,0,0:0:0:0:
320,0,259962,1,0,0:0:0:0:
448,0,259962,1,0,0:0:0:0:
64,0,260040,1,0,0:0:0:0:
192,0,260040,1,0,0:0:0:0:
320,0,260119,1,0,0:0:0:0:
64,0,260197,1,0,0:0:0:0:
192,0,260197,1,0,0:0:0:0:
448,0,260197,1,0,0:0:0:0:
320,0,260276,1,0,0:0:0:0:
64,0,260354,1,0,0:0:0:0:
448,0,260354,1,0,0:0:0:0:
192,0,260433,1,0,0:0:0:0:
320,0,260512,1,0,0:0:0:0:
448,0,260512,1,0,0:0:0:0:
64,192,260512,1,0,0:0:0:0:
192,192,260590,1,0,0:0:0:0:
320,0,260669,1,0,0:0:0:0:
64,192,260669,1,0,0:0:0:0:
448,0,260747,1,0,0:0:0:0:
64,0,260826,1,0,0:0:0:0:
192,0,260826,1,0,0:0:0:0:
320,0,260826,1,0,0:0:0:0:
448,0,260904,1,0,0:0:0:0:
64,0,260983,1,0,0:0:0:0:
192,0,261061,1,0,0:0:0:0:
64,0,261140,1,0,0:0:0:0:
320,0,261140,1,0,0:0:0:0:
448,0,261140,1,0,0:0:0:0:
192,0,261218,1,0,0:0:0:0:
320,0,261297,1,0,0:0:0:0:
448,0,261297,1,0,0:0:0:0:
64,0,261375,1,0,0:0:0:0:
192,0,261454,1,0,0:0:0:0:
320,0,261454,1,0,0:0:0:0:
448,0,261454,1,0,0:0:0:0:
64,0,261533,1,0,0:0:0:0:
320,0,261611,1,0,0:0:0:0:
448,0,261611,1,0,0:0:0:0:
192,0,261690,1,0,0:0:0:0:
320,0,261768,1,0,0:0:0:0:
448,0,261847,1,0,0:0:0:0:
64,0,261925,1,0,0:0:0:0:
192,0,261925,1,0,0:0:0:0:
320,0,262004,1,0,0:0:0:0:
64,0,262082,1,0,0:0:0:0:
192,0,262082,1,0,0:0:0:0:
448,0,262082,1,0,0:0:0:0:
320,0,262161,1,0,0:0:0:0:
64,0,262239,1,0,0:0:0:0:
192,0,262318,1,0,0:0:0:0:
320,0,262396,1,0,0:0:0:0:
448,0,262396,1,0,0:0:0:0:
64,0,262475,1,0,0:0:0:0:
192,0,262553,1,0,0:0:0:0:
320,0,262553,1,0,0:0:0:0:
448,0,262632,1,0,0:0:0:0:
64,0,262711,1,0,0:0:0:0:
192,0,262711,1,0,0:0:0:0:
320,0,262711,1,0,0:0:0:0:
448,0,262789,1,0,0:0:0:0:
64,0,262868,1,0,0:0:0:0:
192,0,262868,1,0,0:0:0:0:
320,0,262946,1,0,0:0:0:0:
192,0,263025,1,0,0:0:0:0:
64,0,263103,1,0,0:0:0:0:
320,0,263182,1,0,0:0:0:0:
448,0,263182,1,0,0:0:0:0:
192,0,263260,1,0,0:0:0:0:
64,0,263339,1,0,0:0:0:0:
320,0,263339,1,0,0:0:0:0:
448,0,263339,1,0,0:0:0:0:
192,0,263417,1,0,0:0:0:0:
448,0,263496,1,0,0:0:0:0:
64,0,263574,1,0,0:0:0:0:
192,0,263653,1,0,0:0:0:0:
320,0,263653,1,0,0:0:0:0:
448,0,263731,1,0,0:0:0:0:
64,0,263810,1,0,0:0:0:0:
192,0,263810,1,0,0:0:0:0:
320,0,263889,1,0,0:0:0:0:
64,0,263967,1,0,0:0:0:0:
192,0,263967,1,0,0:0:0:0:
448,0,263967,1,0,0:0:0:0:
320,0,264046,1,0,0:0:0:0:
64,0,264124,1,0,0:0:0:0:
192,0,264124,1,0,0:0:0:0:
448,0,264203,1,0,0:0:0:0:
64,0,264281,1,0,0:0:0:0:
192,0,264281,1,0,0:0:0:0:
320,0,264281,1,0,0:0:0:0:
448,0,264360,1,0,0:0:0:0:
64,0,264438,1,0,0:0:0:0:
192,0,264438,1,0,0:0:0:0:
320,0,264517,1,0,0:0:0:0:
64,0,264595,1,0,0:0:0:0:
192,0,264595,1,0,0:0:0:0:
448,0,264595,1,0,0:0:0:0:
320,0,264674,1,0,0:0:0:0:
64,0,264752,1,0,0:0:0:0:
192,0,264752,1,0,0:0:0:0:
320,0,264831,1,0,0:0:0:0:
64,0,264909,1,0,0:0:0:0:
192,0,264909,1,0,0:0:0:0:
320,0,264988,1,0,0:0:0:0:
448,0,264988,1,0,0:0:0:0:
64,0,265067,1,0,0:0:0:0:
192,0,265067,1,0,0:0:0:0:
320,0,265145,1,0,0:0:0:0:
64,0,265224,1,0,0:0:0:0:
192,0,265224,1,0,0:0:0:0:
448,0,265224,1,0,0:0:0:0:
320,0,265302,1,0,0:0:0:0:
64,0,265381,1,0,0:0:0:0:
192,0,265381,1,0,0:0:0:0:
320,0,265459,1,0,0:0:0:0:
64,0,265538,1,0,0:0:0:0:
192,0,265538,1,0,0:0:0:0:
448,0,265538,1,0,0:0:0:0:
320,0,265616,1,0,0:0:0:0:
64,0,265695,1,0,0:0:0:0:
448,0,265695,1,0,0:0:0:0:
192,0,265773,1,0,0:0:0:0:
64,0,265852,1,0,0:0:0:0:
320,0,265852,1,0,0:0:0:0:
448,0,265852,1,0,0:0:0:0:
192,0,265930,1,0,0:0:0:0:
320,0,266009,1,0,0:0:0:0:
64,0,266087,1,0,0:0:0:0:
192,0,266166,1,0,0:0:0:0:
320,0,266166,1,0,0:0:0:0:
448,0,266245,1,0,0:0:0:0:
64,0,266323,1,0,0:0:0:0:
192,0,266323,1,0,0:0:0:0:
320,0,266402,1,0,0:0:0:0:
64,0,266480,1,0,0:0:0:0:
192,0,266480,1,0,0:0:0:0:
448,0,266480,1,0,0:0:0:0:
320,0,266559,1,0,0:0:0:0:
64,0,266637,1,0,0:0:0:0:
448,0,266637,1,0,0:0:0:0:
192,0,266716,1,0,0:0:0:0:
448,0,266794,1,0,0:0:0:0:
320,0,266873,1,0,0:0:0:0:
64,0,266951,1,0,0:0:0:0:
192,0,266951,1,0,0:0:0:0:
320,0,267030,1,0,0:0:0:0:
64,0,267108,1,0,0:0:0:0:
192,0,267108,1,0,0:0:0:0:
448,0,267108,1,0,0:0:0:0:
320,0,267187,1,0,0:0:0:0:
448,0,267265,1,0,0:0:0:0:
64,0,267344,1,0,0:0:0:0:
192,0,267423,1,0,0:0:0:0:
320,0,267423,1,0,0:0:0:0:
448,0,267423,1,0,0:0:0:0:
64,0,267501,1,0,0:0:0:0:
320,0,267580,1,0,0:0:0:0:
448,0,267580,1,0,0:0:0:0:
192,0,267658,1,0,0:0:0:0:
64,0,267737,1,0,0:0:0:0:
320,0,267737,1,0,0:0:0:0:
448,0,267737,1,0,0:0:0:0:
192,0,267815,1,0,0:0:0:0:
320,0,267894,1,0,0:0:0:0:
448,0,267894,1,0,0:0:0:0:
64,0,267972,1,0,0:0:0:0:
192,0,268051,1,0,0:0:0:0:
320,0,268129,1,0,0:0:0:0:
64,0,268208,1,0,0:0:0:0:
448,0,268208,1,0,0:0:0:0:
192,0,268286,1,0,0:0:0:0:
64,0,268365,1,0,0:0:0:0:
320,0,268365,1,0,0:0:0:0:
448,0,268365,1,0,0:0:0:0:
192,0,268443,1,0,0:0:0:0:
320,0,268522,1,0,0:0:0:0:
448,0,268601,1,0,0:0:0:0:
64,0,268679,1,0,0:0:0:0:
192,0,268679,1,0,0:0:0:0:
320,0,268679,1,0,0:0:0:0:
448,0,268758,1,0,0:0:0:0:
64,0,268836,1,0,0:0:0:0:
192,0,268836,1,0,0:0:0:0:
320,0,268915,1,0,0:0:0:0:
64,0,268993,1,0,0:0:0:0:
192,0,268993,1,0,0:0:0:0:
448,0,268993,1,0,0:0:0:0:
320,0,269072,1,0,0:0:0:0:
64,0,269150,1,0,0:0:0:0:
448,0,269150,1,0,0:0:0:0:
192,0,269229,1,0,0:0:0:0:
320,0,269307,1,0,0:0:0:0:
448,0,269386,1,0,0:0:0:0:
64,0,269464,1,0,0:0:0:0:
192,0,269464,1,0,0:0:0:0:
320,0,269543,1,0,0:0:0:0:
64,0,269622,1,0,0:0:0:0:
192,0,269622,1,0,0:0:0:0:
448,0,269622,1,0,0:0:0:0:
320,0,269700,1,0,0:0:0:0:
64,0,269779,1,0,0:0:0:0:
448,0,269779,1,0,0:0:0:0:
192,0,269857,1,0,0:0:0:0:
320,0,269936,1,0,0:0:0:0:
448,0,269936,1,0,0:0:0:0:
64,0,270014,1,0,0:0:0:0:
192,0,270014,1,0,0:0:0:0:
320,0,270093,1,0,0:0:0:0:
448,0,270093,1,0,0:0:0:0:
64,0,270171,1,0,0:0:0:0:
192,0,270250,1,0,0:0:0:0:
320,0,270250,1,0,0:0:0:0:
448,0,270250,1,0,0:0:0:0:
64,0,270328,1,0,0:0:0:0:
320,0,270407,1,0,0:0:0:0:
448,0,270407,1,0,0:0:0:0:
192,0,270485,1,0,0:0:0:0:
64,0,270564,1,0,0:0:0:0:
320,0,270564,1,0,0:0:0:0:
448,0,270564,1,0,0:0:0:0:
192,0,270642,1,0,0:0:0:0:
64,0,270721,1,0,0:0:0:0:
448,0,270721,1,0,0:0:0:0:
320,0,270800,1,0,0:0:0:0:
64,0,270878,1,0,0:0:0:0:
192,0,270878,1,0,0:0:0:0:
448,0,270878,1,0,0:0:0:0:
320,0,270957,1,0,0:0:0:0:
64,0,271035,1,0,0:0:0:0:
192,0,271114,1,0,0:0:0:0:
64,0,271192,1,0,0:0:0:0:
320,0,271192,1,0,0:0:0:0:
448,0,271192,1,0,0:0:0:0:
192,0,271271,1,0,0:0:0:0:
64,0,271349,1,0,0:0:0:0:
320,0,271349,1,0,0:0:0:0:
448,0,271428,1,0,0:0:0:0:
64,0,271506,1,0,0:0:0:0:
192,0,271506,1,0,0:0:0:0:
320,0,271506,1,0,0:0:0:0:
448,0,271585,1,0,0:0:0:0:
64,0,271663,1,0,0:0:0:0:
192,0,271663,1,0,0:0:0:0:
320,0,271742,1,0,0:0:0:0:
192,0,271820,1,0,0:0:0:0:
320,0,271899,1,0,0:0:0:0:
64,0,271978,1,0,0:0:0:0:
448,0,271978,1,0,0:0:0:0:
192,0,272056,1,0,0:0:0:0:
64,0,272135,1,0,0:0:0:0:
320,0,272135,1,0,0:0:0:0:
448,0,272135,1,0,0:0:0:0:
192,0,272213,1,0,0:0:0:0:
320,0,272292,1,0,0:0:0:0:
448,0,272370,1,0,0:0:0:0:
64,0,272449,1,0,0:0:0:0:
192,0,272449,1,0,0:0:0:0:
320,0,272527,1,0,0:0:0:0:
64,0,272606,1,0,0:0:0:0:
448,0,272606,1,0,0:0:0:0:
192,0,272684,1,0,0:0:0:0:
64,0,272763,1,0,0:0:0:0:
320,0,272763,1,0,0:0:0:0:
448,0,272763,1,0,0:0:0:0:
192,0,272841,1,0,0:0:0:0:
320,0,272920,1,0,0:0:0:0:
448,0,272920,1,0,0:0:0:0:
64,0,272998,1,0,0:0:0:0:
320,0,273077,1,0,0:0:0:0:
192,0,273156,1,0,0:0:0:0:
64,0,273234,1,0,0:0:0:0:
448,0,273234,1,0,0:0:0:0:
320,0,273313,1,0,0:0:0:0:
64,0,273391,1,0,0:0:0:0:
192,0,273391,1,0,0:0:0:0:
448,0,273391,1,0,0:0:0:0:
320,0,273470,1,0,0:0:0:0:
64,0,273548,1,0,0:0:0:0:
192,0,273627,1,0,0:0:0:0:
320,0,273705,1,0,0:0:0:0:
448,0,273705,1,0,0:0:0:0:
192,0,273784,1,0,0:0:0:0:
64,0,273862,1,0,0:0:0:0:
320,0,273862,1,0,0:0:0:0:
448,0,273941,1,0,0:0:0:0:
64,0,274019,1,0,0:0:0:0:
192,0,274019,1,0,0:0:0:0:
320,0,274019,1,0,0:0:0:0:
448,0,274098,1,0,0:0:0:0:
64,0,274176,1,0,0:0:0:0:
192,0,274176,1,0,0:0:0:0:
320,0,274255,1,0,0:0:0:0:
64,0,274334,1,0,0:0:0:0:
192,0,274334,1,0,0:0:0:0:
448,0,274334,1,0,0:0:0:0:
320,0,274412,1,0,0:0:0:0:
64,0,274491,1,0,0:0:0:0:
448,0,274491,1,0,0:0:0:0:
192,0,274569,1,0,0:0:0:0:
64,0,274648,1,0,0:0:0:0:
320,0,274648,1,0,0:0:0:0:
448,0,274648,1,0,0:0:0:0:
192,0,274726,1,0,0:0:0:0:
64,0,274805,1,0,0:0:0:0:
320,0,274805,1,0,0:0:0:0:
448,0,274883,1,0,0:0:0:0:
64,0,274962,1,0,0:0:0:0:
192,0,274962,1,0,0:0:0:0:
320,0,275040,1,0,0:0:0:0:
448,0,275040,1,0,0:0:0:0:
64,0,275119,1,0,0:0:0:0:
192,0,275119,1,0,0:0:0:0:
320,0,275197,1,0,0:0:0:0:
64,0,275276,1,0,0:0:0:0:
192,0,275276,1,0,0:0:0:0:
448,0,275276,1,0,0:0:0:0:
320,0,275354,1,0,0:0:0:0:
64,0,275433,1,0,0:0:0:0:
448,0,275433,1,0,0:0:0:0:
192,0,275512,1,0,0:0:0:0:
64,0,275590,1,0,0:0:0:0:
320,0,275590,1,0,0:0:0:0:
448,0,275590,1,0,0:0:0:0:
192,0,275669,1,0,0:0:0:0:
320,0,275747,1,0,0:0:0:0:
448,0,275747,1,0,0:0:0:0:
64,0,275826,1,0,0:0:0:0:
192,0,275904,1,0,0:0:0:0:
320,0,275904,1,0,0:0:0:0:
448,0,275904,1,0,0:0:0:0:
64,0,275983,1,0,0:0:0:0:
448,0,276061,1,0,0:0:0:0:
320,0,276140,1,0,0:0:0:0:
64,0,276218,1,0,0:0:0:0:
192,0,276218,1,0,0:0:0:0:
448,0,276218,1,0,0:0:0:0:
320,0,276297,1,0,0:0:0:0:
64,0,276375,1,0,0:0:0:0:
192,0,276375,1,0,0:0:0:0:
448,0,276454,1,0,0:0:0:0:
64,0,276533,1,0,0:0:0:0:
192,0,276533,1,0,0:0:0:0:
320,0,276533,1,0,0:0:0:0:
448,0,276611,1,0,0:0:0:0:
192,0,276690,1,0,0:0:0:0:
320,0,276690,1,0,0:0:0:0:
64,0,276768,1,0,0:0:0:0:
448,0,276847,1,0,0:0:0:0:
192,0,276925,1,0,0:0:0:0:
320,0,277004,1,0,0:0:0:0:
448,0,277004,1,0,0:0:0:0:
64,0,277082,1,0,0:0:0:0:
192,0,277161,1,0,0:0:0:0:
320,0,277161,1,0,0:0:0:0:
448,0,277161,1,0,0:0:0:0:
64,0,277239,1,0,0:0:0:0:
320,0,277318,1,0,0:0:0:0:
448,0,277396,1,0,0:0:0:0:
64,0,277475,1,0,0:0:0:0:
192,0,277475,1,0,0:0:0:0:
320,0,277475,1,0,0:0:0:0:
448,0,277553,1,0,0:0:0:0:
64,0,277632,1,0,0:0:0:0:
192,0,277632,1,0,0:0:0:0:
320,0,277711,1,0,0:0:0:0:
64,0,277789,1,0,0:0:0:0:
192,0,277789,1,0,0:0:0:0:
448,0,277789,1,0,0:0:0:0:
320,0,277868,1,0,0:0:0:0:
64,0,277946,1,0,0:0:0:0:
448,0,277946,1,0,0:0:0:0:
192,0,278025,1,0,0:0:0:0:
320,0,278103,1,0,0:0:0:0:
448,0,278182,1,0,0:0:0:0:
64,0,278260,1,0,0:0:0:0:
192,0,278260,1,0,0:0:0:0:
320,0,278339,1,0,0:0:0:0:
64,0,278417,1,0,0:0:0:0:
192,0,278417,1,0,0:0:0:0:
448,0,278417,1,0,0:0:0:0:
320,0,278496,1,0,0:0:0:0:
448,0,278574,1,0,0:0:0:0:
192,0,278653,1,0,0:0:0:0:
64,0,278731,1,0,0:0:0:0:
320,0,278731,1,0,0:0:0:0:
448,0,278731,1,0,0:0:0:0:
192,0,278810,1,0,0:0:0:0:
320,0,278889,1,0,0:0:0:0:
448,0,278889,1,0,0:0:0:0:
64,0,278967,1,0,0:0:0:0:
192,0,279046,1,0,0:0:0:0:
320,0,279046,1,0,0:0:0:0:
448,0,279046,1,0,0:0:0:0:
64,0,279124,1,0,0:0:0:0:
320,0,279203,1,0,0:0:0:0:
448,0,279203,1,0,0:0:0:0:
192,0,279281,1,0,0:0:0:0:
320,0,279360,1,0,0:0:0:0:
64,0,279438,1,0,0:0:0:0:
192,0,279517,1,0,0:0:0:0:
320,0,279517,1,0,0:0:0:0:
448,0,279595,1,0,0:0:0:0:
64,0,279674,1,0,0:0:0:0:
192,0,279674,1,0,0:0:0:0:
320,0,279674,1,0,0:0:0:0:
448,0,279752,1,0,0:0:0:0:
64,0,279831,1,0,0:0:0:0:
192,0,279831,1,0,0:0:0:0:
320,0,279909,1,0,0:0:0:0:
64,0,279988,1,0,0:0:0:0:
192,0,279988,1,0,0:0:0:0:
320,0,280067,1,0,0:0:0:0:
448,0,280067,1,0,0:0:0:0:
64,0,280145,1,0,0:0:0:0:
192,0,280145,1,0,0:0:0:0:
320,0,280224,1,0,0:0:0:0:
64,0,280302,1,0,0:0:0:0:
192,0,280302,1,0,0:0:0:0:
448,0,280302,1,0,0:0:0:0:
320,0,280381,1,0,0:0:0:0:
64,0,280459,1,0,0:0:0:0:
448,0,280459,1,0,0:0:0:0:
192,0,280538,1,0,0:0:0:0:
64,0,280616,1,0,0:0:0:0:
320,0,280616,1,0,0:0:0:0:
448,0,280616,1,0,0:0:0:0:
192,0,280695,1,0,0:0:0:0:
320,0,280773,1,0,0:0:0:0:
448,0,280773,1,0,0:0:0:0:
64,0,280852,1,0,0:0:0:0:
192,0,280930,1,0,0:0:0:0:
320,0,280930,1,0,0:0:0:0:
448,0,280930,1,0,0:0:0:0:
64,0,281009,1,0,0:0:0:0:
448,0,281087,1,0,0:0:0:0:
320,0,281166,1,0,0:0:0:0:
64,0,281245,1,0,0:0:0:0:
192,0,281245,1,0,0:0:0:0:
448,0,281245,1,0,0:0:0:0:
320,0,281323,1,0,0:0:0:0:
64,0,281402,1,0,0:0:0:0:
192,0,281402,1,0,0:0:0:0:
320,0,281480,1,0,0:0:0:0:
64,0,281559,1,0,0:0:0:0:
192,0,281559,1,0,0:0:0:0:
448,0,281559,1,0,0:0:0:0:
320,0,281637,1,0,0:0:0:0:
64,0,281716,1,0,0:0:0:0:
192,0,281716,1,0,0:0:0:0:
448,0,281794,1,0,0:0:0:0:
192,0,281873,1,0,0:0:0:0:
320,0,281951,1,0,0:0:0:0:
64,0,282030,1,0,0:0:0:0:
448,0,282030,1,0,0:0:0:0:
192,0,282108,1,0,0:0:0:0:
64,0,282187,1,0,0:0:0:0:
320,0,282187,1,0,0:0:0:0:
448,0,282187,1,0,0:0:0:0:
192,0,282265,1,0,0:0:0:0:
320,0,282344,1,0,0:0:0:0:
448,0,282423,1,0,0:0:0:0:
64,0,282501,1,0,0:0:0:0:
192,0,282501,1,0,0:0:0:0:
320,0,282580,1,0,0:0:0:0:
64,0,282658,1,0,0:0:0:0:
448,0,282658,1,0,0:0:0:0:
192,0,282737,1,0,0:0:0:0:
64,0,282815,1,0,0:0:0:0:
320,0,282815,1,0,0:0:0:0:
448,0,282815,1,0,0:0:0:0:
192,0,282894,1,0,0:0:0:0:
320,0,282972,1,0,0:0:0:0:
448,0,282972,1,0,0:0:0:0:
64,0,283051,1,0,0:0:0:0:
192,0,283129,1,0,0:0:0:0:
320,0,283208,1,0,0:0:0:0:
64,0,283286,1,0,0:0:0:0:
448,0,283286,1,0,0:0:0:0:
192,0,283365,1,0,0:0:0:0:
64,0,283443,1,0,0:0:0:0:
320,0,283443,1,0,0:0:0:0:
448,0,283443,1,0,0:0:0:0:
192,0,283522,1,0,0:0:0:0:
448,0,283601,1,0,0:0:0:0:
320,0,283679,1,0,0:0:0:0:
64,0,283758,1,0,0:0:0:0:
192,0,283758,1,0,0:0:0:0:
448,0,283836,1,0,0:0:0:0:
192,0,283915,1,0,0:0:0:0:
320,0,283915,1,0,0:0:0:0:
64,0,283993,1,0,0:0:0:0:
192,0,284072,1,0,0:0:0:0:
320,0,284072,1,0,0:0:0:0:
448,0,284072,1,0,0:0:0:0:
64,0,284150,1,0,0:0:0:0:
320,0,284229,1,0,0:0:0:0:
448,0,284229,1,0,0:0:0:0:
192,0,284307,1,0,0:0:0:0:
320,0,284386,1,0,0:0:0:0:
64,0,284464,1,0,0:0:0:0:
192,0,284543,1,0,0:0:0:0:
320,0,284543,1,0,0:0:0:0:
448,0,284622,1,0,0:0:0:0:
64,0,284700,1,0,0:0:0:0:
192,0,284700,1,0,0:0:0:0:
320,0,284700,1,0,0:0:0:0:
448,0,284779,1,0,0:0:0:0:
64,0,284857,1,0,0:0:0:0:
320,0,284857,1,0,0:0:0:0:
192,0,284936,1,0,0:0:0:0:
320,0,285014,1,0,0:0:0:0:
448,0,285014,1,0,0:0:0:0:
64,0,285093,1,0,0:0:0:0:
192,0,285093,1,0,0:0:0:0:
320,0,285171,1,0,0:0:0:0:
448,0,285171,1,0,0:0:0:0:
64,0,285250,1,0,0:0:0:0:
192,0,285328,1,0,0:0:0:0:
320,0,285328,1,0,0:0:0:0:
448,0,285328,1,0,0:0:0:0:
64,0,285407,1,0,0:0:0:0:
192,0,285485,1,0,0:0:0:0:
320,0,285485,1,0,0:0:0:0:
448,0,285564,1,0,0:0:0:0:
64,0,285642,1,0,0:0:0:0:
192,0,285642,1,0,0:0:0:0:
320,0,285642,1,0,0:0:0:0:
448,0,285721,1,0,0:0:0:0:
64,0,285800,1,0,0:0:0:0:
192,0,285800,1,0,0:0:0:0:
448,0,285878,1,0,0:0:0:0:
64,0,285957,1,0,0:0:0:0:
192,0,285957,1,0,0:0:0:0:
320,0,285957,1,0,0:0:0:0:
448,0,286035,1,0,0:0:0:0:
64,0,286114,1,0,0:0:0:0:
192,0,286114,1,0,0:0:0:0:
320,0,286192,1,0,0:0:0:0:
64,0,286271,1,0,0:0:0:0:
192,0,286271,1,0,0:0:0:0:
448,0,286349,1,0,0:0:0:0:
192,0,286428,1,0,0:0:0:0:
320,0,286428,1,0,0:0:0:0:
64,0,286506,1,0,0:0:0:0:
192,0,286585,1,0,0:0:0:0:
320,0,286585,1,0,0:0:0:0:
448,0,286585,1,0,0:0:0:0:
64,0,286663,1,0,0:0:0:0:
320,0,286742,1,0,0:0:0:0:
448,0,286742,1,0,0:0:0:0:
192,0,286820,1,0,0:0:0:0:
64,0,286899,1,0,0:0:0:0:
320,0,286899,1,0,0:0:0:0:
192,0,286978,1,0,0:0:0:0:
320,0,287056,1,0,0:0:0:0:
448,0,287056,1,0,0:0:0:0:
192,0,287135,1,0,0:0:0:0:
64,0,287213,1,0,0:0:0:0:
320,0,287213,1,0,0:0:0:0:
448,0,287213,1,0,0:0:0:0:
192,0,287292,1,0,0:0:0:0:
64,0,287370,1,0,0:0:0:0:
320,0,287370,1,0,0:0:0:0:
448,0,287449,1,0,0:0:0:0:
192,0,287527,1,0,0:0:0:0:
320,0,287527,1,0,0:0:0:0:
64,0,287606,1,0,0:0:0:0:
192,0,287684,1,0,0:0:0:0:
448,0,287684,1,0,0:0:0:0:
320,0,287763,1,0,0:0:0:0:
64,0,287841,1,0,0:0:0:0:
192,0,287841,1,0,0:0:0:0:
448,0,287841,1,0,0:0:0:0:
320,0,287920,1,0,0:0:0:0:
64,0,287998,1,0,0:0:0:0:
192,0,287998,1,0,0:0:0:0:
320,0,288077,1,0,0:0:0:0:
64,0,288156,1,0,0:0:0:0:
192,0,288156,1,0,0:0:0:0:
320,0,288234,1,0,0:0:0:0:
448,0,288234,1,0,0:0:0:0:
64,0,288313,1,0,0:0:0:0:
192,0,288313,1,0,0:0:0:0:
320,0,288391,1,0,0:0:0:0:
448,0,288391,1,0,0:0:0:0:
64,0,288470,1,0,0:0:0:0:
192,0,288470,1,0,0:0:0:0:
320,0,288548,1,0,0:0:0:0:
448,0,288548,1,0,0:0:0:0:
64,0,288627,1,0,0:0:0:0:
192,0,288627,1,0,0:0:0:0:
320,0,288705,1,0,0:0:0:0:
448,0,288705,1,0,0:0:0:0:
64,0,288784,1,0,0:0:0:0:
192,0,288784,1,0,0:0:0:0:
320,0,288862,1,0,0:0:0:0:
448,0,288862,1,0,0:0:0:0:
64,0,288941,1,0,0:0:0:0:
192,0,288941,1,0,0:0:0:0:
320,0,289019,1,0,0:0:0:0:
448,0,289019,1,0,0:0:0:0:
64,0,289098,1,0,0:0:0:0:
192,0,289098,1,0,0:0:0:0:
320,0,289176,1,0,0:0:0:0:
448,0,289176,1,0,0:0:0:0:
64,0,289255,1,0,0:0:0:0:
192,0,289255,1,0,0:0:0:0:
320,0,289334,1,0,0:0:0:0:
448,0,289334,1,0,0:0:0:0:
64,0,289412,1,0,0:0:0:0:
192,0,289412,1,0,0:0:0:0:
320,0,289491,1,0,0:0:0:0:
448,0,289491,1,0,0:0:0:0:
64,0,289569,1,0,0:0:0:0:
192,0,289569,1,0,0:0:0:0:
320,0,289648,1,0,0:0:0:0:
448,0,289648,1,0,0:0:0:0:
64,0,289726,1,0,0:0:0:0:
192,0,289726,1,0,0:0:0:0:
320,0,289805,1,0,0:0:0:0:
448,0,289805,1,0,0:0:0:0:
64,0,289883,1,0,0:0:0:0:
192,0,289883,1,0,0:0:0:0:
320,0,289962,1,0,0:0:0:0:
448,0,289962,1,0,0:0:0:0:
64,0,290040,1,0,0:0:0:0:
192,0,290080,1,0,0:0:0:0:
320,0,290119,1,0,0:0:0:0:
448,0,290158,1,0,0:0:0:0:
64,0,290197,1,0,0:0:0:0:
192,0,290237,1,0,0:0:0:0:
320,0,290276,1,0,0:0:0:0:
448,0,290315,1,0,0:0:0:0:
64,0,290354,1,0,0:0:0:0:
192,0,290394,1,0,0:0:0:0:
320,0,290433,1,0,0:0:0:0:
448,0,290472,1,0,0:0:0:0:
64,0,290512,1,0,0:0:0:0:
192,0,290551,1,0,0:0:0:0:
320,0,290590,1,0,0:0:0:0:
448,0,290629,1,0,0:0:0:0:
64,0,290669,128,0,293129:0:0:0:0:
192,192,290669,1,0,0:0:0:0:
192,0,293129,1,0,0:0:0:0:
320,0,293201,1,0,0:0:0:0:
448,192,293260,128,0,294752:0:0:0:0:
