osu file format v14

[General]
AudioFilename: audio.mp3
AudioLeadIn: 0
PreviewTime: 158672
Countdown: 0
SampleSet: Normal
StackLeniency: 0
Mode: 2
LetterboxInBreaks: 0
WidescreenStoryboard: 1

[Editor]
DistanceSpacing: 1.5
BeatDivisor: 4
GridSize: 16
TimelineZoom: 1.956

[Metadata]
Title:BLUE ARMY
TitleUnicode:BLUE ARMY
Artist:DJ SHARPNEL
ArtistUnicode:DJ SHARPNEL
Creator:Sololiquy
Version:Sololiquy vs Zyzyx - Army of Death
Source:蒼穹のファフナー
Tags:cic catch the beat osu!catch indonesia cup 2023 finals f tiebreaker tb zyzyx soukyou no fafner dead aggressor in the azure angela separation electronic instrumental hardcore hardtek japanese j-core jcore mad breaks srpc0025 sharpnelsound collection vol. 2
BeatmapID:4277706
BeatmapSetID:2044450

[Difficulty]
HPDrainRate:5
CircleSize:4.5
OverallDifficulty:9.6
ApproachRate:9.6
SliderMultiplier:1.39999996870756
SliderTickRate:2

[Events]
//Background and Video events
0,0,"umm.jpg",0,0
//Break Periods
2,111493,129225
2,179990,189818
//Storyboard Layer 0 (Background)
//Storyboard Layer 1 (Fail)
//Storyboard Layer 2 (Pass)
//Storyboard Layer 3 (Foreground)
//Storyboard Layer 4 (Overlay)
//Storyboard Sound Samples

[TimingPoints]
646,329.308452250275,4,1,1,70,1,0
10195,-50,4,1,1,70,0,0
10524,-100,4,1,1,70,0,0
10854,-50,4,1,1,70,0,0
12829,-100,4,1,1,70,0,0
13159,-50,4,1,1,70,0,0
13323,-100,4,1,1,70,0,0
13488,-50,4,1,1,70,0,0
15465,-100,4,1,1,70,0,0
16124,-50,4,1,1,70,0,0
18099,-100,4,1,1,70,0,0
18758,-50,4,1,1,70,0,0
20734,-100,4,1,1,70,0,0
21063,-50,4,1,1,70,0,0
21392,-100,4,1,1,70,0,0
23039,-33.3333333333333,4,1,1,70,0,0
23698,-1000,4,1,1,70,0,0
24027,-50,4,1,1,70,0,0
24192,-33.3333333333333,4,1,1,70,0,0
24356,-33.3333333333333,4,1,2,70,0,0
35222,-54.6448087431694,4,1,2,70,0,0
44278,-54.6448087431694,4,1,1,70,0,0
66507,-54.6448087431694,4,1,2,70,0,0
108658,-54.6448087431694,4,1,1,70,0,0
132368,-50,4,1,1,70,0,0
179789,-50,4,1,1,70,0,0
192961,-50,4,1,2,20,0,0
193620,-50,4,1,2,30,0,0
194278,-50,4,1,2,35,0,0
195102,-50,4,1,2,40,0,0
195925,-50,4,1,2,45,0,0
197078,-50,4,1,2,50,0,0
197901,-50,4,1,2,60,0,0
200865,-55.5555555555556,4,1,2,70,0,1
245651,-55.5555555555556,4,1,2,70,0,0
248285,-55.5555555555556,4,1,2,70,0,1
268949,-55.5555555555556,4,1,2,100,0,1
269031,-55.5555555555556,4,1,2,70,0,1
293071,-54.6448087431694,4,1,2,70,0,0
295705,-54.6448087431694,4,1,1,70,0,0
316781,-54.6448087431694,4,1,2,70,0,0
337857,-54.6448087431694,4,1,2,70,0,1
358521,-54.6448087431694,4,1,2,100,0,1
358603,-54.6448087431694,4,1,2,70,0,1
382643,-54.6448087431694,4,1,1,70,0,0

[Colours]
Combo1 : 0,232,251
Combo2 : 1,52,254

[HitObjects]
245,192,3280,5,0,1:0:0:0:
328,192,3363,1,0,2:0:0:0:
170,192,3445,1,0,2:0:0:0:
88,192,3610,1,0,3:0:0:0:
170,192,3774,1,0,2:0:0:0:
334,192,3939,1,0,1:0:0:0:
210,192,4103,1,0,2:0:0:0:
334,192,4268,1,0,3:0:0:0:
210,192,4432,1,0,2:0:0:0:
437,192,4597,6,0,L|437:122,1,69.9999984353778,0|0,1:0|2:0,2:0:0:0:
215,192,4926,2,0,L|215:122,1,69.9999984353778,0|0,3:0|2:0,2:0:0:0:
380,192,5255,2,0,L|380:122,1,69.9999984353778,0|0,1:0|2:0,2:0:0:0:
157,192,5585,2,0,L|157:122,1,69.9999984353778,0|0,3:0|2:0,2:0:0:0:
308,192,5915,5,0,1:0:0:0:
226,192,5997,1,0,2:0:0:0:
387,192,6080,1,0,2:0:0:0:
469,192,6244,1,0,3:0:0:0:
387,192,6409,1,0,2:0:0:0:
222,192,6574,1,0,1:0:0:0:
345,192,6737,1,0,2:0:0:0:
222,192,6903,1,0,3:0:0:0:
345,192,7067,1,0,2:0:0:0:
119,192,7231,6,0,L|119:122,1,69.9999984353778,0|0,1:0|2:0,2:0:0:0:
340,192,7561,2,0,L|341:122,1,69.9999984353778,0|0,3:0|2:0,2:0:0:0:
176,192,7890,2,0,L|176:122,1,69.9999984353778,0|0,1:0|2:0,2:0:0:0:
398,192,8219,2,0,L|398:122,1,69.9999984353778,0|0,3:0|2:0,2:0:0:0:
315,192,8548,5,0,1:0:0:0:
232,192,8631,1,0,2:0:0:0:
89,192,8713,1,0,2:0:0:0:
172,192,8878,1,0,3:0:0:0:
336,192,9042,1,0,2:0:0:0:
222,192,9207,1,0,1:0:0:0:
377,192,9372,1,0,2:0:0:0:
257,192,9536,1,0,3:0:0:0:
411,192,9701,1,0,2:0:0:0:
187,192,9866,6,0,L|187:122,1,69.9999984353778,0|0,1:0|2:0,2:0:0:0:
22,192,10195,2,0,L|105:79,1,140.000018268066,0|0,3:0|2:0,2:0:0:0:
332,192,10524,2,0,L|332:122,1,69.9999984353778,0|0,1:0|2:0,2:0:0:0:
167,79,10854,2,0,L|84:192,1,140.000018268066,0|0,3:0|2:0,2:0:0:0:
166,192,11183,5,0,1:0:0:0:
249,192,11265,1,0,2:0:0:0:
406,192,11348,1,0,2:0:0:0:
324,192,11512,1,0,3:0:0:0:
159,192,11677,1,0,2:0:0:0:
279,192,11842,1,0,1:0:0:0:
128,192,12006,1,0,2:0:0:0:
245,192,12171,1,0,3:0:0:0:
92,192,12335,1,0,2:0:0:0:
319,192,12500,6,0,L|410:91,1,139.999996870756,0|0,1:0|2:0,2:0:0:0:
181,192,12829,2,0,L|181:122,1,69.9999984353778,0|0,3:0|2:0,2:0:0:0:
62,192,13159,2,0,L|12:138,1,70.0000543359115,0|0,1:0|2:0,2:0:0:0:
96,192,13323,2,0,L|96:156,1,35.0000191461378,0|0,1:0|2:0,2:0:0:0:
245,192,13488,2,0,L|304:155,1,69.9999984353782,0|0,3:0|2:0,2:0:0:0:
154,192,13653,2,0,L|99:137,1,69.9999984353782,0|0,1:0|2:0,2:0:0:0:
248,192,13817,5,0,1:0:0:0:
175,192,13900,1,0,2:0:0:0:
350,192,13982,1,0,2:0:0:0:
432,192,14147,1,0,3:0:0:0:
350,192,14311,1,0,2:0:0:0:
200,192,14476,1,0,1:0:0:0:
350,192,14641,1,0,2:0:0:0:
124,192,14805,1,0,3:0:0:0:
92,192,14971,1,0,2:0:0:0:
319,192,15136,6,0,L|404:74,1,140.000014454202,0|0,1:0|2:0,2:0:0:0:
175,192,15465,2,0,L|175:122,1,69.9999984353778,0|0,3:0|2:0,2:0:0:0:
340,192,15794,2,0,L|340:122,1,69.9999984353778,0|0,1:0|2:0,2:0:0:0:
95,192,16124,2,0,L|15:82,1,140.000071839951,0|0,3:0|2:0,2:0:0:0:
235,192,16453,5,0,1:0:0:0:
318,192,16535,1,0,2:0:0:0:
154,192,16617,1,0,2:0:0:0:
72,192,16782,1,0,3:0:0:0:
154,192,16947,1,0,2:0:0:0:
306,192,17110,1,0,1:0:0:0:
154,192,17276,1,0,2:0:0:0:
381,192,17441,1,0,3:0:0:0:
419,192,17605,1,0,2:0:0:0:
192,192,17770,6,0,L|107:74,1,140.000014454202,0|0,1:0|2:0,2:0:0:0:
336,192,18099,2,0,L|336:122,1,69.9999984353778,0|0,3:0|2:0,2:0:0:0:
171,192,18429,2,0,L|171:122,1,69.9999984353778,0|0,1:0|2:0,2:0:0:0:
416,192,18758,2,0,L|497:82,1,140.000071839951,0|0,3:0|2:0,2:0:0:0:
276,192,19087,5,0,1:0:0:0:
194,192,19170,1,0,2:0:0:0:
345,192,19252,1,0,2:0:0:0:
220,192,19417,1,0,3:0:0:0:
385,192,19581,1,0,2:0:0:0:
155,192,19746,1,0,1:0:0:0:
276,192,19911,1,0,2:0:0:0:
194,192,20074,1,0,3:0:0:0:
50,192,20240,1,0,2:0:0:0:
272,192,20405,6,0,L|187:74,1,140.000014454202,0|0,1:0|2:0,2:0:0:0:
417,192,20734,2,0,L|417:122,1,69.9999984353778,0|0,3:0|2:0,2:0:0:0:
253,192,21063,2,0,L|331:82,1,140.000031333055,0|0,1:0|2:0,2:0:0:0:
104,192,21392,2,0,L|103:118,1,69.984938649058,0|0,3:0|2:0,2:0:0:0:
331,192,21722,5,0,1:0:0:0:
414,192,21804,1,0,2:0:0:0:
263,192,21886,1,0,2:0:0:0:
387,192,22051,1,0,3:0:0:0:
222,192,22216,1,0,2:0:0:0:
452,192,22380,5,0,1:0:0:0:
452,192,22463,1,0,2:0:0:0:
411,192,22545,1,0,2:0:0:0:
328,192,22627,1,0,2:0:0:0:
171,192,22710,1,0,3:0:0:0:
233,192,22792,1,0,2:0:0:0:
292,192,22874,1,0,2:0:0:0:
352,192,22957,1,0,2:0:0:0:
189,192,23039,6,0,B|112:122|112:122|112:228|112:228|188:157,1,314.999992959202,0|0,1:0|2:0,2:0:0:0:
394,192,23368,2,0,B|433:90|433:90|409:188|409:188|329:260,1,314.999992959202,0|0,3:0|2:0,2:0:0:0:
129,192,23698,6,0,L|129:186,1,3.49999992176891,0|0,1:0|2:0,2:0:0:0:
275,192,23862,2,0,L|275:186,1,3.49999992176891,0|0,1:0|2:0,2:0:0:0:
431,135,24027,2,0,L|389:192,1,70.0000385408664,0|0,3:0|2:0,2:0:0:0:
230,192,24192,2,0,L|301:120,1,104.999997653067,0|0,1:0|2:0,2:0:0:0:
105,192,24356,5,4,2:2:0:0:
37,192,24439,1,0,2:0:0:0:
37,192,24521,1,0,2:0:0:0:
105,192,24603,1,0,2:0:0:0:
260,192,24686,1,8,2:2:0:0:
302,192,24768,1,0,2:0:0:0:
260,192,24850,1,0,2:0:0:0:
178,192,24933,1,0,2:0:0:0:
323,192,25015,5,4,2:2:0:0:
329,192,25096,1,0,2:0:0:0:
336,192,25179,1,0,2:0:0:0:
341,192,25261,1,0,2:0:0:0:
181,192,25343,1,8,2:2:0:0:
242,192,25425,1,0,2:0:0:0:
295,192,25508,1,0,2:0:0:0:
349,192,25590,1,0,2:0:0:0:
206,192,25672,5,4,2:2:0:0:
130,192,25754,1,0,2:0:0:0:
83,192,25838,1,0,2:0:0:0:
64,192,25919,1,0,2:0:0:0:
230,192,26002,1,8,2:2:0:0:
268,192,26084,1,0,2:0:0:0:
255,192,26166,1,0,2:0:0:0:
183,192,26249,1,0,2:0:0:0:
342,192,26331,5,4,2:2:0:0:
298,192,26413,1,0,2:0:0:0:
242,192,26496,1,0,2:0:0:0:
174,192,26578,1,0,2:0:0:0:
338,192,26661,1,8,2:2:0:0:
420,192,26744,1,0,2:0:0:0:
462,192,26826,1,0,2:0:0:0:
462,192,26908,1,0,2:0:0:0:
317,192,26991,5,4,2:2:0:0:
256,192,27073,1,0,2:0:0:0:
399,192,27154,1,0,2:0:0:0:
412,192,27237,1,0,2:0:0:0:
268,192,27319,1,8,2:2:0:0:
230,192,27401,1,0,2:0:0:0:
262,192,27485,1,0,2:0:0:0:
344,192,27567,1,0,2:0:0:0:
199,192,27649,5,4,2:2:0:0:
126,192,27732,1,0,2:0:0:0:
126,192,27814,1,0,2:0:0:0:
199,192,27896,1,0,2:0:0:0:
364,192,27979,1,8,2:2:0:0:
307,192,28061,1,0,2:0:0:0:
248,192,28143,1,0,2:0:0:0:
188,192,28226,1,0,2:0:0:0:
333,192,28308,5,4,2:2:0:0:
340,192,28389,1,0,2:0:0:0:
200,192,28472,1,0,2:0:0:0:
262,192,28554,1,0,2:0:0:0:
106,192,28636,1,8,2:2:0:0:
79,192,28719,1,0,2:0:0:0:
106,192,28801,1,0,2:0:0:0:
182,192,28883,1,0,2:0:0:0:
329,192,28966,5,4,2:2:0:0:
253,192,29048,1,0,2:0:0:0:
327,192,29130,1,0,2:0:0:0:
390,192,29213,1,0,2:0:0:0:
213,192,29295,1,8,2:2:0:0:
131,192,29377,1,0,2:0:0:0:
131,192,29460,1,0,2:0:0:0:
213,192,29542,1,0,2:0:0:0:
357,192,29624,5,4,2:2:0:0:
295,192,29707,1,0,2:0:0:0:
149,192,29789,1,0,2:0:0:0:
134,192,29871,1,0,2:0:0:0:
300,192,29953,1,8,2:2:0:0:
373,192,30036,1,0,2:0:0:0:
397,192,30118,1,0,2:0:0:0:
329,192,30201,1,0,2:0:0:0:
184,192,30284,5,4,2:2:0:0:
108,192,30365,1,0,2:0:0:0:
61,192,30447,1,0,2:0:0:0:
41,192,30531,1,0,2:0:0:0:
189,192,30612,1,8,2:2:0:0:
255,192,30694,1,0,2:0:0:0:
106,192,30777,1,0,2:0:0:0:
81,192,30859,1,0,2:0:0:0:
267,192,30942,5,4,2:2:0:0:
343,192,31024,1,0,2:0:0:0:
390,192,31106,1,0,2:0:0:0:
409,192,31189,1,0,2:0:0:0:
246,192,31272,1,8,2:2:0:0:
303,192,31353,1,0,2:0:0:0:
360,192,31435,1,0,2:0:0:0:
278,192,31518,1,0,2:0:0:0:
428,192,31600,5,4,2:2:0:0:
428,192,31682,1,0,2:0:0:0:
387,192,31765,1,0,2:0:0:0:
305,192,31847,1,0,2:0:0:0:
102,192,31930,1,8,2:2:0:0:
61,192,32013,1,0,2:0:0:0:
102,192,32095,1,0,2:0:0:0:
184,192,32177,1,0,2:0:0:0:
328,192,32260,5,4,2:2:0:0:
267,192,32342,1,0,2:0:0:0:
407,192,32423,1,0,2:0:0:0:
428,192,32506,1,0,2:0:0:0:
259,192,32588,1,8,2:2:0:0:
195,192,32670,1,0,2:0:0:0:
195,192,32753,1,0,2:0:0:0:
259,192,32835,1,0,2:0:0:0:
408,192,32917,5,4,2:2:0:0:
400,192,33000,1,0,2:0:0:0:
391,192,33082,1,0,2:0:0:0:
384,192,33164,1,0,2:0:0:0:
208,192,33248,1,8,2:2:0:0:
250,192,33329,1,0,2:0:0:0:
407,192,33411,1,0,2:0:0:0:
342,192,33494,1,0,2:0:0:0:
187,192,33577,5,4,2:2:0:0:
126,192,33659,1,0,2:0:0:0:
126,192,33742,1,0,2:0:0:0:
208,192,33824,1,0,2:0:0:0:
371,192,33906,1,8,2:2:0:0:
288,192,33989,1,0,2:0:0:0:
247,192,34071,1,0,2:0:0:0:
247,192,34153,1,0,2:0:0:0:
390,192,34235,5,4,2:2:0:0:
390,192,34318,1,0,2:0:0:0:
247,192,34400,1,4,2:2:0:0:
247,192,34482,1,0,2:0:0:0:
101,192,34565,1,8,2:2:0:0:
143,192,34647,1,0,2:0:0:0:
297,192,34729,1,4,2:2:0:0:
272,112,34812,1,0,2:0:0:0:
96,192,34893,5,4,2:2:0:0:
16,144,34975,1,0,2:0:0:0:
52,92,35057,1,0,2:0:0:0:
109,64,35141,1,0,2:0:0:0:
256,192,35222,2,0,L|192:192,1,64.0499974200135,8|0,2:2|2:0,2:0:0:0:
48,192,35387,2,0,L|112:192,1,64.0499974200135,0|0,2:0|2:0,2:0:0:0:
256,192,35552,6,0,L|272:256,1,64.0499974200135,4|0,2:2|2:0,2:0:0:0:
128,272,35716,2,0,L|192:272,1,64.0499974200135,0|0,2:0|2:0,2:0:0:0:
336,192,35881,2,0,L|352:128,1,64.0499974200135,8|0,2:2|2:0,2:0:0:0:
208,112,36045,2,0,L|272:112,1,64.0499974200135,0|0,2:0|2:0,2:0:0:0:
448,48,36210,6,0,L|464:112,1,64.0499974200135,4|0,2:2|2:0,2:0:0:0:
368,128,36375,2,0,L|352:192,1,64.0499974200135,0|0,2:0|2:0,2:0:0:0:
208,224,36540,1,8,2:2:0:0:
352,224,36622,2,0,L|416:224,2,64.0499974200135,0|0|0,2:0|2:0|2:0,2:0:0:0:
208,224,36869,6,0,L|192:160,1,64.0499974200135,4|0,2:2|2:0,2:0:0:0:
288,144,37034,2,0,L|304:80,1,64.0499974200135,0|0,2:0|2:0,2:0:0:0:
144,64,37198,2,0,L|80:64,1,64.0499974200135,8|0,2:2|2:0,2:0:0:0:
79,64,37363,2,0,L|143:64,1,64.0499974200135,0|0,2:0|2:0,2:0:0:0:
304,144,37528,5,4,2:2:0:0:
224,192,37610,2,0,L|160:192,2,64.0499974200135,0|0|0,2:0|2:0|2:0,2:0:0:0:
368,192,37857,2,0,L|432:192,1,64.0499974200135,8|0,2:2|2:0,2:0:0:0:
288,192,38022,2,0,L|272:256,1,64.0499974200135,0|0,2:0|2:0,2:0:0:0:
368,256,38186,6,0,L|432:256,1,64.0499974200135,4|0,2:2|2:0,2:0:0:0:
272,288,38351,2,0,L|192:288,1,64.0499974200135,0|0,2:0|2:0,2:0:0:0:
64,288,38516,2,0,L|80:224,1,64.0499974200135,8|0,2:2|2:0,2:0:0:0:
224,192,38680,2,0,L|288:192,1,64.0499974200135,0|0,2:0|2:0,2:0:0:0:
448,192,38845,6,0,L|384:192,1,64.0499974200135,4|0,2:2|2:0,2:0:0:0:
368,160,39009,2,0,L|432:160,1,64.0499974200135,0|0,2:0|2:0,2:0:0:0:
272,160,39174,2,0,L|208:160,1,64.0499974200135,8|0,2:2|2:0,2:0:0:0:
192,128,39338,2,0,L|256:128,1,64.0499974200135,0|0,2:0|2:0,2:0:0:0:
400,128,39503,6,0,L|464:128,1,64.0499974200135,4|0,2:2|2:0,2:0:0:0:
480,96,39669,2,0,L|416:96,1,64.0499974200135,0|0,2:0|2:0,2:0:0:0:
272,96,39833,2,0,L|208:96,1,64.0499974200135,8|0,2:2|2:0,2:0:0:0:
352,192,39997,2,0,L|416:192,1,64.0499974200135,0|0,2:0|2:0,2:0:0:0:
256,192,40162,6,0,L|240:256,1,64.0499974200135,4|0,2:2|2:0,2:0:0:0:
144,256,40327,2,0,L|80:256,1,64.0499974200135,4|0,2:2|2:0,2:0:0:0:
240,288,40491,2,0,L|304:288,1,64.0499974200135,8|0,2:2|2:0,2:0:0:0:
144,288,40656,2,0,L|160:224,1,64.0499974200135,4|0,2:2|2:0,2:0:0:0:
256,224,40821,6,0,L|320:224,1,64.0499974200135,4|0,2:2|2:0,2:0:0:0:
480,224,40986,2,0,L|416:224,1,64.0499974200135,4|0,2:2|2:0,2:0:0:0:
256,224,41150,2,0,L|192:224,1,64.0499974200135,8|0,2:2|2:0,2:0:0:0:
32,224,41315,2,0,L|96:224,1,64.0499974200135,4|0,2:2|2:0,2:0:0:0:
256,224,41479,6,0,L|192:224,1,64.0499974200135,4|0,2:2|2:0,2:0:0:0:
256,224,41644,2,0,L|320:224,1,64.0499974200135,4|0,2:2|2:0,2:0:0:0:
480,224,41809,2,0,L|416:224,1,64.0499974200135,8|0,2:2|2:0,2:0:0:0:
352,304,41974,2,0,L|416:304,1,64.0499974200135,4|0,2:2|2:0,2:0:0:0:
256,304,42138,6,0,L|192:304,1,64.0499974200135,4|0,2:2|2:0,2:0:0:0:
256,224,42303,2,0,L|320:224,1,64.0499974200135,4|0,2:2|2:0,2:0:0:0:
176,224,42467,2,0,L|112:224,1,64.0499974200135,8|0,2:2|2:0,2:0:0:0:
320,144,42632,2,0,L|384:144,1,64.0499974200135,4|0,2:2|2:0,2:0:0:0:
80,192,42797,6,0,L|16:192,1,64.0499974200135,8|8,2:2|2:2,2:0:0:0:
192,192,42961,2,0,L|208:256,1,64.0499974200135,8|8,2:2|2:2,2:0:0:0:
384,256,43126,2,0,L|448:256,1,64.0499974200135,8|8,2:2|2:2,2:0:0:0:
272,352,43290,2,0,L|208:352,1,64.0499974200135,8|8,2:2|2:2,2:0:0:0:
448,256,43455,6,0,L|464:192,1,64.0499974200135,8|8,2:2|2:2,2:0:0:0:
224,192,43620,1,8,2:2:0:0:
192,192,43661,1,0,2:0:0:0:
160,192,43702,1,8,2:2:0:0:
368,96,43784,2,0,L|353:159,1,64.0499974200135,8|8,2:2|2:2,2:0:0:0:
112,80,43949,1,8,2:2:0:0:
144,80,43990,1,0,2:0:0:0:
176,80,44031,1,8,2:2:0:0:
432,333,44114,6,0,P|265:-34|115:348,1,1024.79995872022,8|4,2:2|2:0,2:0:0:0:
128,350,45513,1,0,2:0:0:0:
166,355,45596,1,0,2:0:0:0:
288,352,45760,1,0,2:0:0:0:
166,355,45925,1,0,2:0:0:0:
240,352,46090,1,0,2:0:0:0:
80,352,46254,2,0,L|64:224,1,128.099994840027,0|0,2:0|2:0,2:0:0:0:
192,192,46584,6,0,L|176:64,1,128.099994840027,0|0,2:0|2:0,2:0:0:0:
320,48,46913,1,0,2:0:0:0:
224,64,47078,2,0,L|240:192,1,128.099994840027,0|0,2:0|2:0,2:0:0:0:
336,192,47407,2,0,L|320:320,1,128.099994840027,0|0,2:0|2:0,2:0:0:0:
208,320,47736,1,8,2:0:0:0:
320,319,47901,1,0,2:0:0:0:
96,192,48065,6,0,L|80:128,2,64.0499974200135,4|0|0,2:0|2:0|2:0,2:0:0:0:
240,192,48395,1,0,2:0:0:0:
96,192,48559,1,0,2:0:0:0:
168,272,48724,1,0,2:0:0:0:
320,192,48889,2,0,L|224:96,1,128.099994840027,0|0,2:0|2:0,2:0:0:0:
400,144,49218,6,0,L|304:240,1,128.099994840027,0|0,2:0|2:0,2:0:0:0:
160,224,49547,1,0,2:0:0:0:
240,160,49712,1,0,2:0:0:0:
128,128,49877,1,0,2:0:0:0:
256,95,50042,1,0,2:0:0:0:
337,125,50206,1,0,2:0:0:0:
208,64,50371,1,8,2:0:0:0:
128,128,50536,1,0,2:0:0:0:
266,163,50700,5,4,2:0:0:0:
273,226,50782,1,0,2:0:0:0:
281,290,50864,1,0,2:0:0:0:
400,320,51029,1,0,2:0:0:0:
281,290,51194,1,0,2:0:0:0:
352,192,51359,1,0,2:0:0:0:
206,117,51523,2,0,L|195:252,1,128.099994840027,0|0,2:0|2:0,2:0:0:0:
340,236,51852,2,0,L|350:363,1,128.099994840027,0|0,2:0|2:0,2:0:0:0:
487,369,52182,1,0,2:0:0:0:
350,358,52346,5,0,2:0:0:0:
419,293,52512,1,0,2:0:0:0:
289,62,52676,1,0,2:0:0:0:
176,113,52840,1,0,2:0:0:0:
138,230,53006,1,8,2:0:0:0:
199,337,53169,1,0,2:0:0:0:
336,308,53335,6,0,L|356:243,2,64.0499974200135,4|0|0,2:0|2:0|2:0,2:0:0:0:
202,320,53664,1,0,2:0:0:0:
336,308,53828,1,0,2:0:0:0:
301,285,53993,1,0,2:0:0:0:
177,193,54158,2,0,P|158:263|115:301,1,128.099994840027,0|0,2:0|2:0,2:0:0:0:
274,175,54487,6,0,P|293:105|336:67,1,128.099994840027,0|0,2:0|2:0,2:0:0:0:
462,65,54816,1,0,2:0:0:0:
332,68,54981,1,0,2:0:0:0:
277,184,55146,1,0,2:0:0:0:
326,297,55310,1,0,2:0:0:0:
441,327,55475,1,0,2:0:0:0:
326,297,55640,1,8,2:0:0:0:
441,327,55804,1,0,2:0:0:0:
210,187,55969,6,0,L|174:129,2,64.0499974200135,4|0|0,2:0|2:0|2:0,2:0:0:0:
351,192,56298,1,0,2:0:0:0:
210,187,56463,1,0,2:0:0:0:
287,134,56627,1,0,2:0:0:0:
142,107,56792,2,0,L|132:239,1,128.099994840027,0|0,2:0|2:0,2:0:0:0:
282,219,57121,6,0,L|289:352,1,128.099994840027,0|0,2:0|2:0,2:0:0:0:
172,354,57451,1,0,2:0:0:0:
288,346,57615,1,0,2:0:0:0:
400,338,57780,1,0,2:0:0:0:
288,346,57945,1,0,2:0:0:0:
187,273,58109,1,0,2:0:0:0:
213,153,58274,1,8,2:0:0:0:
338,105,58439,1,0,2:0:0:0:
96,48,58603,6,0,L|83:117,2,64.0499974200135,4|0|0,2:0|2:0|2:0,2:0:0:0:
244,69,58933,1,0,2:0:0:0:
96,48,59097,1,0,2:0:0:0:
212,67,59262,1,0,2:0:0:0:
65,133,59427,2,0,L|52:263,1,128.099994840027,0|0,2:0|2:0,2:0:0:0:
205,265,59756,6,0,L|72:260,1,128.099994840027,0|0,2:0|2:0,2:0:0:0:
240,172,60085,1,0,2:0:0:0:
105,175,60250,1,0,2:0:0:0:
240,172,60415,1,0,2:0:0:0:
364,172,60579,1,0,2:0:0:0:
240,172,60744,1,0,2:0:0:0:
364,172,60909,1,8,2:0:0:0:
483,171,61073,1,0,2:0:0:0:
333,296,61238,5,4,2:0:0:0:
326,232,61320,1,0,2:0:0:0:
319,168,61402,1,0,2:0:0:0:
182,181,61567,1,0,2:0:0:0:
319,168,61732,1,0,2:0:0:0:
216,177,61896,1,0,2:0:0:0:
367,66,62061,2,0,L|283:179,1,128.099994840027,0|0,2:0|2:0,2:0:0:0:
436,180,62390,1,0,2:0:0:0:
270,354,62555,5,0,2:0:0:0:
168,341,62720,1,0,2:0:0:0:
97,292,62884,1,0,2:0:0:0:
60,218,63048,1,0,2:0:0:0:
64,137,63213,1,0,2:0:0:0:
106,66,63378,1,0,2:0:0:0:
176,24,63542,1,8,2:0:0:0:
257,19,63707,1,0,2:0:0:0:
83,139,63872,6,0,L|65:203,2,64.0499974200135,4|0|0,2:0|2:0|2:0,2:0:0:0:
207,156,64202,1,0,2:0:0:0:
83,139,64366,1,0,2:0:0:0:
168,139,64531,1,0,2:0:0:0:
30,146,64696,2,0,L|39:277,1,128.099994840027,0|0,2:0|2:0,2:0:0:0:
165,291,65025,1,0,2:0:0:0:
306,211,65189,5,0,2:0:0:0:
349,154,65271,1,0,2:0:0:0:
344,83,65355,1,0,2:0:0:0:
291,34,65437,1,0,2:0:0:0:
220,32,65518,1,0,2:0:0:0:
166,80,65602,1,0,2:0:0:0:
158,151,65684,1,0,2:0:0:0:
200,209,65765,1,0,2:0:0:0:
304,213,65848,6,0,L|375:212,1,64.0499974200135,0|0,2:0|2:0,2:0:0:0:
208,213,66013,2,0,L|137:212,1,64.0499974200135,0|0,2:0|2:0,2:0:0:0:
304,213,66177,1,0,2:0:0:0:
453,198,66260,1,0,2:0:0:0:
304,213,66342,1,0,1:0:0:0:
161,208,66424,1,0,2:0:0:0:
399,41,66507,6,0,L|467:35,3,64.0499974200135,4|0|0|0,2:2|2:0|2:0|2:0,2:0:0:0:
304,93,66836,2,0,L|236:87,1,64.0499974200135,8|0,2:2|2:0,2:0:0:0:
399,41,67001,2,0,L|467:35,1,64.0499974200135,0|0,2:0|2:0,2:0:0:0:
370,44,67165,6,0,L|358:108,1,64.0499974200135,4|0,2:2|2:0,2:0:0:0:
195,123,67330,2,0,L|130:126,1,64.0499974200135,0|0,2:0|2:0,2:0:0:0:
288,123,67495,2,0,L|296:192,1,64.0499974200135,8|0,2:2|2:0,2:0:0:0:
130,212,67659,2,0,L|199:212,1,64.0499974200135,0|0,2:0|2:0,2:0:0:0:
384,244,67824,5,4,2:2:0:0:
439,217,67906,1,0,2:0:0:0:
451,157,67988,1,0,2:0:0:0:
410,111,68070,1,0,2:0:0:0:
259,73,68153,2,0,L|211:125,1,64.0499974200135,8|0,2:2|2:0,2:0:0:0:
366,169,68318,2,0,L|318:221,1,64.0499974200135,0|0,2:0|2:0,2:0:0:0:
218,279,68483,5,4,2:2:0:0:
163,252,68565,1,0,2:0:0:0:
151,192,68647,1,0,2:0:0:0:
192,146,68729,1,0,2:0:0:0:
343,108,68812,2,0,L|391:160,1,64.0499974200135,8|0,2:2|2:0,2:0:0:0:
236,204,68977,2,0,L|284:256,1,64.0499974200135,0|0,2:0|2:0,2:0:0:0:
110,329,69141,5,4,2:2:0:0:
61,290,69223,1,0,2:0:0:0:
54,228,69305,1,0,2:0:0:0:
94,180,69389,1,0,2:0:0:0:
249,176,69470,2,0,L|188:139,1,64.0499974200135,8|0,2:2|2:0,2:0:0:0:
352,97,69635,2,0,L|413:60,1,64.0499974200135,0|0,2:0|2:0,2:0:0:0:
256,105,69800,5,4,2:2:0:0:
207,144,69882,1,0,2:0:0:0:
200,206,69964,1,0,2:0:0:0:
289,244,70046,1,0,2:0:0:0:
451,180,70129,5,8,2:2:0:0:
500,219,70211,1,0,2:0:0:0:
507,281,70293,1,0,2:0:0:0:
418,319,70377,1,0,2:0:0:0:
244,216,70458,6,0,L|239:281,1,64.0499974200135,4|0,2:2|2:0,2:0:0:0:
157,284,70623,2,0,L|152:350,1,64.0499974200135,0|0,2:0|2:0,2:0:0:0:
331,148,70788,2,0,L|326:213,1,64.0499974200135,8|0,2:2|2:0,2:0:0:0:
244,216,70953,2,0,L|239:282,1,64.0499974200135,0|0,2:0|2:0,2:0:0:0:
336,297,71117,5,4,2:2:0:0:
398,292,71199,1,0,2:0:0:0:
437,244,71281,1,0,2:0:0:0:
428,182,71363,1,0,2:0:0:0:
287,182,71446,2,0,L|276:119,1,64.0499974200135,8|0,2:2|2:0,2:0:0:0:
128,112,71611,2,0,L|139:49,1,64.0499974200135,0|0,2:0|2:0,2:0:0:0:
320,198,71776,5,4,2:2:0:0:
175,180,71858,2,0,L|105:159,2,64.0499974200135,0|0|0,2:0|2:0|2:0,2:0:0:0:
320,198,72105,2,0,L|390:177,1,64.0499974200135,8|0,2:2|2:0,2:0:0:0:
228,227,72270,2,0,L|216:294,1,64.0499974200135,0|0,2:0|2:0,2:0:0:0:
304,298,72434,6,0,L|313:366,1,64.0499974200135,4|0,2:2|2:0,2:0:0:0:
158,348,72599,2,0,L|87:341,1,64.0499974200135,0|0,2:0|2:0,2:0:0:0:
171,272,72764,2,0,L|242:265,1,64.0499974200135,8|0,2:2|2:0,2:0:0:0:
88,195,72928,2,0,L|17:188,1,64.0499974200135,0|0,2:0|2:0,2:0:0:0:
193,159,73093,6,0,L|264:152,3,64.0499974200135,4|0|0|0,2:2|2:0|2:0|2:0,2:0:0:0:
415,137,73422,2,0,L|344:130,1,64.0499974200135,8|0,2:2|2:0,2:0:0:0:
190,81,73587,2,0,L|261:74,1,64.0499974200135,0|0,2:0|2:0,2:0:0:0:
456,56,73752,6,0,L|385:49,1,64.0499974200135,4|0,2:2|2:0,2:0:0:0:
351,130,73916,2,0,L|422:137,1,64.0499974200135,0|0,2:0|2:0,2:0:0:0:
257,153,74081,2,0,L|186:160,1,64.0499974200135,8|0,2:2|2:0,2:0:0:0:
350,154,74245,2,0,L|338:221,1,64.0499974200135,0|0,2:0|2:0,2:0:0:0:
162,254,74410,5,4,2:2:0:0:
305,244,74492,2,0,L|367:222,2,64.0499974200135,0|0|0,2:0|2:0|2:0,2:0:0:0:
166,331,74739,2,0,L|97:322,1,64.0499974200135,8|0,2:2|2:0,2:0:0:0:
256,199,74904,2,0,L|318:177,1,64.0499974200135,0|0,2:0|2:0,2:0:0:0:
223,197,75069,6,0,L|212:127,1,64.0499974200135,4|0,2:2|2:0,2:0:0:0:
365,80,75233,2,0,L|427:65,1,64.0499974200135,0|0,2:0|2:0,2:0:0:0:
335,156,75398,2,0,L|273:141,1,64.0499974200135,8|0,2:2|2:0,2:0:0:0:
431,181,75563,2,0,L|493:166,1,64.0499974200135,0|0,2:0|2:0,2:0:0:0:
317,322,75727,5,4,2:2:0:0:
256,303,75809,1,0,2:0:0:0:
215,255,75891,1,0,2:0:0:0:
204,193,75975,1,0,2:0:0:0:
27,190,76057,1,8,2:2:0:0:
38,127,76139,1,0,2:0:0:0:
79,80,76221,1,0,2:0:0:0:
140,61,76303,1,0,2:0:0:0:
303,50,76386,6,0,L|313:117,1,64.0499974200135,4|0,2:2|2:0,2:0:0:0:
406,121,76551,2,0,L|396:188,1,64.0499974200135,4|0,2:2|2:0,2:0:0:0:
242,217,76715,2,0,L|178:220,1,64.0499974200135,8|0,2:2|2:0,2:0:0:0:
381,274,76880,2,0,L|445:277,1,64.0499974200135,4|0,2:2|2:0,2:0:0:0:
262,192,77045,5,4,2:2:0:0:
180,192,77128,1,0,2:0:0:0:
139,192,77210,1,0,2:0:0:0:
180,192,77292,1,0,2:0:0:0:
339,192,77374,1,8,2:2:0:0:
287,192,77457,1,0,2:0:0:0:
140,192,77539,1,0,2:0:0:0:
192,192,77621,1,0,2:0:0:0:
254,192,77703,5,4,2:2:0:0:
328,192,77786,1,0,2:0:0:0:
169,192,77868,1,0,2:0:0:0:
157,192,77950,1,0,2:0:0:0:
299,192,78033,1,8,2:2:0:0:
237,192,78115,1,0,2:0:0:0:
381,192,78197,1,0,2:0:0:0:
422,192,78280,1,0,2:0:0:0:
275,192,78362,5,4,2:2:0:0:
213,192,78444,1,0,2:0:0:0:
241,192,78526,1,0,2:0:0:0:
321,192,78609,1,0,2:0:0:0:
163,192,78691,1,8,2:2:0:0:
105,192,78773,1,0,2:0:0:0:
183,192,78856,1,0,2:0:0:0:
240,192,78938,1,0,2:0:0:0:
259,192,79020,5,4,2:2:0:0:
179,192,79103,1,0,2:0:0:0:
329,192,79185,1,0,2:0:0:0:
376,192,79267,1,0,2:0:0:0:
211,192,79350,1,8,2:2:0:0:
186,192,79432,1,0,2:0:0:0:
244,192,79514,1,0,2:0:0:0:
325,192,79597,1,0,2:0:0:0:
162,192,79679,5,4,2:2:0:0:
303,192,79761,1,0,2:0:0:0:
261,192,79844,1,0,2:0:0:0:
183,192,79926,1,0,2:0:0:0:
363,192,80008,1,8,2:2:0:0:
414,192,80091,1,0,2:0:0:0:
261,192,80173,1,0,2:0:0:0:
195,192,80255,1,0,2:0:0:0:
174,192,80338,5,4,2:2:0:0:
231,192,80420,1,0,2:0:0:0:
392,192,80502,1,0,2:0:0:0:
339,192,80585,1,0,2:0:0:0:
190,192,80667,1,8,2:2:0:0:
172,192,80749,1,0,2:0:0:0:
318,192,80832,1,0,2:0:0:0:
256,192,80914,1,0,2:0:0:0:
427,192,80996,5,4,2:2:0:0:
462,192,81079,1,0,2:0:0:0:
430,192,81161,1,0,2:0:0:0:
344,192,81243,1,0,2:0:0:0:
184,192,81326,1,8,2:2:0:0:
251,192,81408,1,0,2:0:0:0:
292,192,81490,1,0,2:0:0:0:
262,192,81573,1,0,2:0:0:0:
180,192,81655,5,4,2:2:0:0:
258,192,81737,1,0,2:0:0:0:
104,192,81820,1,0,2:0:0:0:
90,192,81902,1,0,2:0:0:0:
253,192,81984,1,8,2:2:0:0:
202,192,82067,1,0,2:0:0:0:
133,192,82149,1,0,2:0:0:0:
207,192,82231,1,0,2:0:0:0:
384,192,82314,5,4,2:2:0:0:
237,192,82396,1,0,2:0:0:0:
177,192,82478,1,0,2:0:0:0:
236,192,82561,1,0,2:0:0:0:
384,192,82643,1,8,2:2:0:0:
435,192,82725,1,0,2:0:0:0:
272,192,82807,1,0,2:0:0:0:
203,192,82890,1,0,2:0:0:0:
183,192,82972,5,4,2:2:0:0:
247,192,83054,1,0,2:0:0:0:
395,192,83137,1,0,2:0:0:0:
344,192,83219,1,0,2:0:0:0:
184,192,83301,1,8,2:2:0:0:
248,192,83384,1,0,2:0:0:0:
99,192,83466,1,0,2:0:0:0:
92,192,83548,1,0,2:0:0:0:
238,192,83631,5,4,2:2:0:0:
304,192,83713,1,0,2:0:0:0:
348,192,83795,1,0,2:0:0:0:
377,192,83878,1,0,2:0:0:0:
215,192,83960,1,8,2:2:0:0:
148,192,84042,1,0,2:0:0:0:
221,192,84125,1,0,2:0:0:0:
296,192,84207,1,0,2:0:0:0:
347,192,84289,5,4,2:2:0:0:
290,192,84372,1,0,2:0:0:0:
137,192,84454,1,0,2:0:0:0:
126,192,84536,1,0,2:0:0:0:
286,192,84619,1,8,2:2:0:0:
331,192,84701,1,0,2:0:0:0:
275,192,84783,1,0,2:0:0:0:
194,192,84866,1,0,2:0:0:0:
366,192,84948,5,4,2:2:0:0:
223,192,85030,1,0,2:0:0:0:
272,192,85113,1,0,2:0:0:0:
333,192,85195,1,0,2:0:0:0:
178,192,85277,1,8,2:2:0:0:
117,192,85360,1,0,2:0:0:0:
264,192,85442,1,0,2:0:0:0:
323,192,85524,1,0,2:0:0:0:
179,192,85607,5,4,2:2:0:0:
125,192,85689,1,0,2:0:0:0:
144,192,85771,1,0,2:0:0:0:
219,192,85854,1,0,2:0:0:0:
384,192,85936,1,8,2:2:0:0:
438,192,86018,1,0,2:0:0:0:
399,192,86101,1,0,2:0:0:0:
318,192,86183,1,0,2:0:0:0:
173,192,86265,5,4,2:2:0:0:
242,192,86348,1,0,2:0:0:0:
99,192,86430,1,0,2:0:0:0:
74,192,86471,1,0,2:0:0:0:
69,192,86512,1,0,2:0:0:0:
88,192,86553,1,0,2:0:0:0:
130,192,86595,1,8,2:2:0:0:
212,192,86677,1,0,2:0:0:0:
65,192,86759,1,0,2:0:0:0:
98,192,86800,1,0,2:0:0:0:
130,192,86842,1,0,2:0:0:0:
161,192,86883,1,0,2:0:0:0:
194,192,86924,5,4,2:2:0:0:
265,192,87006,1,4,2:2:0:0:
194,192,87089,1,4,2:2:0:0:
266,192,87171,1,4,2:2:0:0:
126,192,87253,1,12,2:2:0:0:
54,192,87335,1,4,2:2:0:0:
126,192,87418,1,4,2:2:0:0:
54,192,87500,1,4,2:2:0:0:
226,192,87582,5,4,2:2:0:0:
308,192,87665,1,0,2:0:0:0:
349,192,87747,1,0,2:0:0:0:
353,192,87829,1,0,2:0:0:0:
176,192,87912,1,8,2:2:0:0:
162,192,87994,1,0,2:0:0:0:
244,192,88076,1,0,2:0:0:0:
244,192,88159,1,0,2:0:0:0:
385,192,88241,5,4,2:2:0:0:
326,192,88323,1,0,2:0:0:0:
157,192,88406,1,0,2:0:0:0:
160,192,88488,1,0,2:0:0:0:
324,192,88570,1,8,2:2:0:0:
346,192,88653,1,0,2:0:0:0:
308,192,88735,1,0,2:0:0:0:
228,192,88817,1,0,2:0:0:0:
367,192,88900,5,4,2:2:0:0:
370,192,88982,1,0,2:0:0:0:
222,192,89064,1,0,2:0:0:0:
161,192,89147,1,0,2:0:0:0:
331,192,89229,1,8,2:2:0:0:
382,192,89311,1,0,2:0:0:0:
300,192,89394,1,0,2:0:0:0:
289,192,89476,1,0,2:0:0:0:
121,192,89558,5,4,2:2:0:0:
179,192,89641,1,0,2:0:0:0:
236,192,89723,1,0,2:0:0:0:
173,192,89805,1,0,2:0:0:0:
339,192,89888,1,8,2:2:0:0:
415,192,89970,1,0,2:0:0:0:
444,192,90052,1,0,2:0:0:0:
392,192,90135,1,0,2:0:0:0:
242,192,90217,5,4,2:2:0:0:
171,192,90299,1,0,2:0:0:0:
235,192,90382,1,0,2:0:0:0:
300,192,90464,1,0,2:0:0:0:
134,192,90546,1,8,2:2:0:0:
78,192,90629,1,0,2:0:0:0:
160,192,90711,1,0,2:0:0:0:
171,192,90793,1,0,2:0:0:0:
315,192,90876,5,4,2:2:0:0:
374,192,90958,1,0,2:0:0:0:
230,192,91040,1,0,2:0:0:0:
232,192,91123,1,0,2:0:0:0:
78,192,91205,1,8,2:2:0:0:
119,192,91287,1,0,2:0:0:0:
169,192,91370,1,0,2:0:0:0:
237,192,91452,1,0,2:0:0:0:
89,192,91534,5,4,2:2:0:0:
74,192,91616,1,0,2:0:0:0:
220,192,91699,1,0,2:0:0:0:
283,192,91781,1,0,2:0:0:0:
98,192,91863,1,8,2:2:0:0:
92,192,91946,1,0,2:0:0:0:
175,192,92028,1,0,2:0:0:0:
116,192,92110,1,0,2:0:0:0:
280,192,92193,5,4,2:2:0:0:
345,192,92275,1,0,2:0:0:0:
407,192,92357,1,0,2:0:0:0:
325,192,92440,1,0,2:0:0:0:
164,192,92522,1,8,2:2:0:0:
98,192,92604,1,0,2:0:0:0:
73,192,92687,1,0,2:0:0:0:
138,192,92769,1,0,2:0:0:0:
325,192,92851,5,4,2:2:0:0:
283,192,92934,1,0,2:0:0:0:
233,192,93016,1,0,2:0:0:0:
172,192,93098,1,0,2:0:0:0:
352,192,93181,1,8,2:2:0:0:
360,192,93263,1,0,2:0:0:0:
443,192,93345,1,0,2:0:0:0:
468,192,93428,1,0,2:0:0:0:
323,192,93510,5,4,2:2:0:0:
267,192,93592,1,0,2:0:0:0:
117,192,93675,1,0,2:0:0:0:
183,192,93757,1,0,2:0:0:0:
354,192,93839,1,8,2:2:0:0:
406,192,93922,1,0,2:0:0:0:
385,192,94004,1,0,2:0:0:0:
306,192,94086,1,0,2:0:0:0:
157,192,94169,5,4,2:2:0:0:
150,192,94251,1,0,2:0:0:0:
294,192,94333,1,0,2:0:0:0:
354,192,94416,1,0,2:0:0:0:
187,192,94498,1,8,2:2:0:0:
123,192,94580,1,0,2:0:0:0:
205,192,94663,1,0,2:0:0:0:
217,192,94745,1,0,2:0:0:0:
378,192,94827,5,4,2:2:0:0:
312,192,94910,1,0,2:0:0:0:
243,192,94992,1,0,2:0:0:0:
318,192,95074,1,0,2:0:0:0:
144,192,95157,1,8,2:2:0:0:
85,192,95239,1,0,2:0:0:0:
52,192,95321,1,0,2:0:0:0:
138,192,95404,1,0,2:0:0:0:
323,192,95486,5,4,2:2:0:0:
369,192,95568,1,0,2:0:0:0:
313,192,95651,1,0,2:0:0:0:
242,192,95733,1,0,2:0:0:0:
75,192,95815,1,8,2:2:0:0:
133,192,95898,1,0,2:0:0:0:
215,192,95980,1,0,2:0:0:0:
231,192,96062,1,0,2:0:0:0:
380,192,96144,5,4,2:2:0:0:
326,192,96227,1,0,2:0:0:0:
178,192,96309,1,0,2:0:0:0:
243,192,96391,1,0,2:0:0:0:
416,192,96474,1,8,2:2:0:0:
371,192,96556,1,0,2:0:0:0:
320,192,96638,1,0,2:0:0:0:
251,192,96721,1,0,2:0:0:0:
396,192,96803,5,4,2:2:0:0:
458,192,96885,1,0,2:0:0:0:
375,192,96968,1,0,2:0:0:0:
367,192,97050,1,0,2:0:0:0:
198,192,97132,1,8,2:2:0:0:
142,192,97215,1,0,2:0:0:0:
147,192,97297,1,0,2:0:0:0:
216,192,97379,1,0,2:0:0:0:
385,192,97462,5,4,2:2:0:0:
377,192,97544,1,0,2:0:0:0:
234,192,97626,1,0,2:0:0:0:
227,192,97709,1,0,2:0:0:0:
82,192,97791,1,8,2:2:0:0:
78,192,97873,1,0,2:0:0:0:
220,192,97956,1,0,2:0:0:0:
160,192,98038,1,0,2:0:0:0:
339,192,98120,5,4,2:2:0:0:
404,192,98203,1,0,2:0:0:0:
427,192,98285,1,0,2:0:0:0:
380,192,98367,1,0,2:0:0:0:
205,192,98450,1,8,2:2:0:0:
203,192,98532,1,0,2:0:0:0:
120,192,98614,1,0,2:0:0:0:
112,192,98697,1,0,2:0:0:0:
259,192,98779,5,4,2:2:0:0:
315,192,98861,1,0,2:0:0:0:
167,192,98944,1,0,2:0:0:0:
158,192,99026,1,0,2:0:0:0:
326,192,99108,1,8,2:2:0:0:
396,192,99191,1,0,2:0:0:0:
439,192,99273,1,0,2:0:0:0:
371,192,99355,1,0,2:0:0:0:
229,192,99438,5,4,2:2:0:0:
285,192,99520,1,0,2:0:0:0:
138,192,99602,1,0,2:0:0:0:
115,192,99685,1,0,2:0:0:0:
290,192,99767,1,8,2:2:0:0:
345,192,99849,1,0,2:0:0:0:
262,192,99932,1,0,2:0:0:0:
252,192,100014,1,0,2:0:0:0:
103,192,100096,5,4,2:2:0:0:
72,192,100179,1,0,2:0:0:0:
115,192,100261,1,0,2:0:0:0:
191,192,100343,1,0,2:0:0:0:
355,192,100425,1,8,2:2:0:0:
431,192,100508,1,0,2:0:0:0:
456,192,100590,1,0,2:0:0:0:
383,192,100672,1,0,2:0:0:0:
212,192,100755,5,4,2:2:0:0:
251,192,100837,1,0,2:0:0:0:
297,192,100919,1,0,2:0:0:0:
358,192,101002,1,0,2:0:0:0:
183,192,101084,1,8,2:2:0:0:
133,192,101166,1,0,2:0:0:0:
216,192,101249,1,0,2:0:0:0:
217,192,101331,1,0,2:0:0:0:
364,192,101413,5,4,2:2:0:0:
311,192,101496,1,0,2:0:0:0:
160,192,101578,1,0,2:0:0:0:
223,192,101660,1,0,2:0:0:0:
393,192,101743,1,8,2:2:0:0:
410,192,101825,1,0,2:0:0:0:
368,192,101907,1,0,2:0:0:0:
295,192,101990,1,0,2:0:0:0:
153,192,102072,5,4,2:2:0:0:
211,192,102154,1,0,2:0:0:0:
356,192,102237,1,0,2:0:0:0:
286,192,102319,1,0,2:0:0:0:
122,192,102401,1,8,2:2:0:0:
114,192,102484,1,0,2:0:0:0:
196,192,102566,1,0,2:0:0:0:
252,192,102648,1,0,2:0:0:0:
396,192,102731,5,4,2:2:0:0:
328,192,102813,1,0,2:0:0:0:
263,192,102895,1,0,2:0:0:0:
336,192,102978,1,0,2:0:0:0:
155,192,103060,1,8,2:2:0:0:
124,192,103142,1,0,2:0:0:0:
160,192,103225,1,0,2:0:0:0:
234,192,103307,1,0,2:0:0:0:
418,192,103389,5,4,2:2:0:0:
406,192,103472,1,0,2:0:0:0:
263,192,103554,1,4,2:2:0:0:
253,192,103636,1,0,2:0:0:0:
86,192,103719,1,8,2:2:0:0:
34,192,103801,1,0,2:0:0:0:
117,192,103883,1,4,2:2:0:0:
122,192,103966,1,0,2:0:0:0:
270,192,104048,5,4,2:2:0:0:
214,192,104130,1,0,2:0:0:0:
359,192,104213,1,4,2:2:0:0:
368,192,104295,1,0,2:0:0:0:
219,192,104377,1,8,2:2:0:0:
212,192,104460,1,0,2:0:0:0:
129,192,104542,1,4,2:2:0:0:
121,192,104624,1,0,2:0:0:0:
265,192,104707,5,4,2:2:0:0:
324,192,104789,1,0,2:0:0:0:
187,192,104871,1,4,2:2:0:0:
121,192,104953,1,0,2:0:0:0:
279,192,105036,1,8,2:2:0:0:
293,192,105118,1,0,2:0:0:0:
375,192,105200,1,4,2:2:0:0:
325,192,105283,1,0,2:0:0:0:
162,192,105365,5,4,2:2:0:0:
216,192,105447,1,0,2:0:0:0:
380,192,105530,1,4,2:2:0:0:
311,192,105612,1,0,2:0:0:0:
112,192,105694,1,8,2:2:0:0:
178,192,105777,1,0,2:0:0:0:
395,192,105859,1,4,2:2:0:0:
313,192,105941,1,0,2:0:0:0:
117,192,106024,5,8,2:2:0:0:
261,192,106106,1,8,2:2:0:0:
403,192,106188,1,8,2:2:0:0:
251,192,106271,1,8,2:2:0:0:
95,192,106353,1,8,2:2:0:0:
243,192,106435,1,8,2:2:0:0:
395,192,106518,1,8,2:2:0:0:
235,192,106600,1,8,2:2:0:0:
74,192,106682,5,8,2:2:0:0:
228,192,106765,1,8,2:2:0:0:
389,192,106847,1,8,2:2:0:0:
221,192,106929,1,8,2:2:0:0:
57,192,107012,1,8,2:2:0:0:
213,192,107094,1,8,2:2:0:0:
382,192,107176,1,8,2:2:0:0:
202,192,107259,1,8,2:2:0:0:
136,192,107341,5,8,2:2:0:0:
80,192,107506,1,0,2:0:0:0:
155,192,107670,1,0,2:0:0:0:
308,192,107835,1,0,2:0:0:0:
193,192,108000,1,0,2:0:0:0:
357,192,108164,1,0,2:0:0:0:
235,192,108329,1,0,2:0:0:0:
400,192,108494,1,0,2:0:0:0:
98,192,108658,5,0,2:0:0:0:
256,192,108741,8,0,111293,2:0:0:0:
256,192,129734,12,0,132204,2:0:0:0:
304,352,132369,6,0,P|368:288|288:128,1,279.999993741512,4|0,2:0|2:0,2:0:0:0:
32,192,133027,1,0,2:0:0:0:
144,192,133192,1,0,2:0:0:0:
256,192,133356,1,0,2:0:0:0:
368,192,133521,1,0,2:0:0:0:
208,128,133686,6,0,P|128:224|208:336,1,279.999993741512,2|0,2:0|2:0,2:0:0:0:
400,336,134345,1,0,2:0:0:0:
288,336,134510,1,0,2:0:0:0:
176,336,134674,1,0,2:0:0:0:
288,336,134839,1,0,2:0:0:0:
144,336,135003,6,0,P|204:214|335:178,2,279.999993741512,2|8|0,2:0|2:0|2:0,2:0:0:0:
256,336,135826,1,0,2:0:0:0:
112,352,135991,2,0,P|64:304|80:240,1,139.999996870756,0|0,2:0|2:0,2:0:0:0:
256,240,136320,1,2,2:0:0:0:
352,368,136814,5,0,2:0:0:0:
224,368,136979,1,0,2:0:0:0:
352,368,137143,1,0,2:0:0:0:
224,368,137308,1,0,2:0:0:0:
96,368,137473,1,0,2:0:0:0:
256,368,137637,6,0,P|320:256|224:144,1,279.999993741512,2|0,2:0|2:0,2:0:0:0:
96,144,138131,1,0,2:0:0:0:
238,147,138296,1,0,2:0:0:0:
307,207,138460,1,0,2:0:0:0:
314,298,138625,1,0,2:0:0:0:
256,367,138789,1,0,2:0:0:0:
96,144,138955,6,0,L|384:144,1,279.999993741512,2|0,2:0|2:0,2:0:0:0:
208,144,139613,2,0,P|128:224|215:346,1,279.999993741512,0|0,2:0|2:0,2:0:0:0:
448,192,140272,5,2,2:0:0:0:
176,192,140601,1,0,2:0:0:0:
336,192,140930,1,0,2:0:0:0:
64,192,141260,1,0,2:0:0:0:
368,48,141589,6,0,L|384:336,1,279.999993741512,2|0,2:0|2:0,2:0:0:0:
176,336,142248,1,0,2:0:0:0:
288,336,142412,1,0,2:0:0:0:
176,336,142577,1,0,2:0:0:0:
64,336,142742,1,0,2:0:0:0:
320,336,142907,6,0,L|336:48,1,279.999993741512,4|0,2:0|2:0,2:0:0:0:
192,64,143565,1,0,2:0:0:0:
320,64,143730,1,0,2:0:0:0:
192,64,143894,1,0,2:0:0:0:
112,64,144059,1,0,2:0:0:0:
272,48,144224,6,0,L|257:328,1,279.999993741512,2|0,2:0|2:0,2:0:0:0:
128,336,144717,1,0,2:0:0:0:
256,336,144882,1,0,2:0:0:0:
271,196,145046,1,0,2:0:0:0:
400,176,145211,1,0,2:0:0:0:
384,36,145377,1,0,2:0:0:0:
224,32,145541,6,0,L|208:176,1,139.999996870756,2|0,2:0|2:0,2:0:0:0:
336,160,145870,2,0,L|352:304,1,139.999996870756,0|0,2:0|2:0,2:0:0:0:
224,304,146199,1,0,2:0:0:0:
351,299,146364,1,0,2:0:0:0:
192,272,146529,2,0,P|225:211|287:181,1,139.999996870756,0|0,2:0|2:0,2:0:0:0:
432,224,146858,6,0,P|399:114|239:66,1,279.999993741512,2|0,2:0|2:0,2:0:0:0:
384,48,147352,1,0,2:0:0:0:
253,62,147517,1,0,2:0:0:0:
384,48,147681,1,0,2:0:0:0:
240,112,147846,1,0,2:0:0:0:
336,96,148011,1,0,2:0:0:0:
192,32,148176,6,0,P|112:144|192:240,1,279.999993741512,4|0,2:0|2:0,2:0:0:0:
352,272,148669,1,0,2:0:0:0:
226,271,148834,1,0,2:0:0:0:
208,160,148998,1,0,2:0:0:0:
80,160,149163,1,0,2:0:0:0:
208,160,149328,1,0,2:0:0:0:
32,304,149492,6,0,P|112:192|256:144,1,279.999993741512,2|0,2:0|2:0,2:0:0:0:
144,80,149986,1,0,2:0:0:0:
288,304,150151,2,0,P|208:192|64:144,1,279.999993741512,0|0,2:0|2:0,2:0:0:0:
176,80,150645,1,0,2:0:0:0:
352,48,150810,6,0,L|336:336,1,279.999993741512,2|0,2:0|2:0,2:0:0:0:
136,272,151468,2,0,L|376:128,1,279.999993741512,0|0,2:0|2:0,2:0:0:0:
176,128,152127,5,2,2:0:0:0:
336,128,152456,1,0,2:0:0:0:
128,48,152786,1,0,2:0:0:0:
384,48,153115,1,0,2:0:0:0:
136,272,153444,6,0,L|376:128,1,279.999993741512,2|0,2:0|2:0,2:0:0:0:
96,352,154103,2,0,P|32:288|128:144,1,279.999993741512,0|0,2:0|2:0,2:0:0:0:
384,192,154761,5,4,2:0:0:0:
256,192,155091,8,0,158548,2:0:0:0:
177,192,158713,5,0,3:2:0:0:
322,192,158960,1,0,2:0:0:0:
99,192,159207,1,0,2:0:0:0:
359,192,159372,1,2,2:0:0:0:
218,192,159619,1,0,2:0:0:0:
421,192,159866,1,0,2:0:0:0:
162,192,160030,5,4,2:0:0:0:
304,192,160277,1,0,2:0:0:0:
100,192,160524,1,0,2:0:0:0:
359,192,160689,1,2,2:0:0:0:
269,192,160936,1,0,2:0:0:0:
78,192,161183,1,0,2:0:0:0:
361,192,161348,5,4,2:0:0:0:
220,192,161595,1,0,2:0:0:0:
422,192,161842,1,0,2:0:0:0:
119,192,162006,1,2,2:0:0:0:
208,192,162253,1,0,2:0:0:0:
414,192,162500,1,0,2:0:0:0:
122,192,162665,5,4,2:0:0:0:
254,192,162912,1,0,2:0:0:0:
33,192,163159,1,0,2:0:0:0:
331,192,163323,1,2,2:0:0:0:
191,192,163570,1,0,2:0:0:0:
389,192,163817,1,0,2:0:0:0:
89,192,163982,5,4,2:0:0:0:
315,192,164229,1,0,2:0:0:0:
173,192,164476,1,0,2:0:0:0:
466,192,164641,1,2,2:0:0:0:
324,192,164888,1,0,2:0:0:0:
119,192,165135,1,0,2:0:0:0:
419,192,165299,5,4,2:0:0:0:
212,192,165546,1,0,2:0:0:0:
430,192,165793,1,0,2:0:0:0:
171,192,165958,1,2,2:0:0:0:
313,192,166205,1,0,2:0:0:0:
110,192,166452,1,0,2:0:0:0:
369,192,166616,5,4,2:0:0:0:
447,192,166863,1,0,2:0:0:0:
227,192,167110,1,0,2:0:0:0:
488,192,167275,1,2,2:0:0:0:
398,192,167522,1,0,2:0:0:0:
257,192,167769,1,0,2:0:0:0:
0,192,167934,5,4,2:0:0:0:
199,192,168181,1,0,2:0:0:0:
76,192,168428,1,0,2:0:0:0:
331,192,168592,1,2,2:0:0:0:
130,192,168839,1,0,2:0:0:0:
355,192,169086,1,0,2:0:0:0:
59,192,169251,5,0,3:2:0:0:
259,192,169498,1,0,2:0:0:0:
119,192,169745,1,0,2:0:0:0:
377,192,169910,1,2,2:0:0:0:
236,192,170157,1,0,2:0:0:0:
446,192,170404,1,0,2:0:0:0:
187,192,170568,5,4,2:0:0:0:
327,192,170815,1,0,2:0:0:0:
60,192,171062,1,0,2:0:0:0:
323,192,171227,1,2,2:0:0:0:
232,192,171474,1,0,2:0:0:0:
29,192,171721,1,0,2:0:0:0:
324,192,171885,5,4,2:0:0:0:
201,192,172132,1,0,2:0:0:0:
412,192,172379,1,0,2:0:0:0:
111,192,172544,1,2,2:0:0:0:
267,192,172791,1,0,2:0:0:0:
44,192,173038,1,0,2:0:0:0:
346,192,173203,5,4,2:0:0:0:
205,192,173450,1,0,2:0:0:0:
408,192,173697,1,0,2:0:0:0:
103,192,173861,1,2,2:0:0:0:
244,192,174108,1,0,2:0:0:0:
452,192,174355,1,0,2:0:0:0:
152,192,174520,5,4,2:0:0:0:
224,192,174767,1,0,2:0:0:0:
387,192,175014,1,0,2:0:0:0:
99,192,175179,1,2,2:0:0:0:
276,192,175425,1,0,2:0:0:0:
92,192,175672,1,0,2:0:0:0:
390,192,175837,5,4,2:0:0:0:
249,192,176084,1,0,2:0:0:0:
453,192,176331,1,0,2:0:0:0:
195,192,176496,1,2,2:0:0:0:
337,192,176743,1,0,2:0:0:0:
138,192,176990,1,0,2:0:0:0:
396,192,177154,5,4,2:0:0:0:
272,192,177401,1,0,2:0:0:0:
69,192,177648,1,0,2:0:0:0:
365,192,177813,1,2,2:0:0:0:
160,192,178060,1,0,2:0:0:0:
362,192,178307,1,0,2:0:0:0:
103,192,178472,5,4,2:0:0:0:
245,192,178719,1,0,2:0:0:0:
36,192,178966,1,0,2:0:0:0:
300,192,179130,1,2,2:0:0:0:
209,192,179378,1,0,2:0:0:0:
12,192,179625,1,0,2:0:0:0:
298,192,179790,5,0,3:0:0:0:
209,192,190327,5,0,2:0:0:0:
328,192,190491,1,0,2:0:0:0:
163,192,190656,1,0,2:0:0:0:
163,192,190821,1,0,2:0:0:0:
282,192,190985,1,0,2:0:0:0:
118,192,191150,1,0,2:0:0:0:
340,192,191315,1,0,2:0:0:0:
220,192,191479,1,0,2:0:0:0:
337,192,191644,5,0,2:0:0:0:
172,192,191809,1,0,2:0:0:0:
395,192,191973,1,0,2:0:0:0:
274,192,192138,1,0,2:0:0:0:
439,192,192303,1,0,2:0:0:0:
216,192,192467,1,0,2:0:0:0:
442,192,192632,1,0,2:0:0:0:
442,192,192797,1,0,2:0:0:0:
211,192,192961,5,4,2:2:0:0:
150,192,193043,1,0,2:0:0:0:
167,192,193126,1,4,2:2:0:0:
232,192,193208,1,0,2:0:0:0:
371,192,193290,1,8,2:2:0:0:
390,192,193373,1,0,2:0:0:0:
373,192,193455,1,4,2:2:0:0:
307,192,193537,1,0,2:0:0:0:
225,192,193620,5,4,2:2:0:0:
213,192,193702,1,0,2:0:0:0:
131,192,193784,1,4,2:2:0:0:
121,192,193867,1,0,2:0:0:0:
262,192,193949,1,8,2:2:0:0:
330,192,194031,1,0,2:0:0:0:
364,192,194114,1,4,2:2:0:0:
319,192,194196,1,0,2:0:0:0:
178,192,194278,5,4,2:2:0:0:
124,192,194361,1,0,2:0:0:0:
140,192,194443,1,4,2:2:0:0:
214,192,194525,1,0,2:0:0:0:
355,192,194608,1,8,2:2:0:0:
329,192,194690,1,0,2:0:0:0:
239,192,194772,1,4,2:2:0:0:
203,192,194854,1,0,2:0:0:0:
348,192,194937,5,4,2:2:0:0:
321,192,195019,1,0,2:0:0:0:
267,192,195102,1,4,2:2:0:0:
187,192,195184,1,0,2:0:0:0:
340,192,195266,1,8,2:2:0:0:
389,192,195349,1,0,2:0:0:0:
306,192,195431,1,4,2:2:0:0:
295,192,195513,1,0,2:0:0:0:
134,192,195596,5,4,2:2:0:0:
187,192,195678,1,0,2:0:0:0:
323,192,195760,1,4,2:2:0:0:
385,192,195843,1,0,2:0:0:0:
244,192,195925,1,8,2:2:0:0:
226,192,196007,1,0,2:0:0:0:
309,192,196090,1,4,2:2:0:0:
356,192,196172,1,0,2:0:0:0:
213,192,196254,5,4,2:2:0:0:
199,192,196337,1,0,2:0:0:0:
58,192,196419,1,4,2:2:0:0:
111,192,196501,1,0,2:0:0:0:
259,192,196584,1,8,2:2:0:0:
313,192,196666,1,0,2:0:0:0:
275,192,196748,1,4,2:2:0:0:
210,192,196831,1,0,2:0:0:0:
353,192,196913,5,4,2:2:0:0:
369,192,196995,1,0,2:0:0:0:
223,192,197078,1,4,2:2:0:0:
210,192,197160,1,0,2:0:0:0:
363,192,197242,1,8,2:2:0:0:
441,192,197325,1,0,2:0:0:0:
464,192,197407,1,4,2:2:0:0:
384,192,197489,1,0,2:0:0:0:
226,192,197571,5,4,2:2:0:0:
166,192,197654,1,0,2:0:0:0:
327,192,197736,1,4,2:2:0:0:
382,192,197818,1,0,2:0:0:0:
300,192,197901,1,8,2:2:0:0:
289,192,197983,1,0,2:0:0:0:
133,192,198065,1,4,2:2:0:0:
199,192,198148,1,0,2:0:0:0:
377,192,198230,5,8,2:2:0:0:
235,192,198312,1,8,2:2:0:0:
92,192,198395,1,8,2:2:0:0:
239,192,198477,1,8,2:2:0:0:
389,192,198559,1,8,2:2:0:0:
246,192,198642,1,8,2:2:0:0:
93,192,198724,1,8,2:2:0:0:
251,192,198806,1,8,2:2:0:0:
403,192,198889,5,8,2:2:0:0:
254,192,198971,1,8,2:2:0:0:
96,192,199053,1,8,2:2:0:0:
259,192,199136,1,8,2:2:0:0:
415,192,199218,1,8,2:2:0:0:
264,192,199300,1,8,2:2:0:0:
96,192,199383,1,8,2:2:0:0:
267,192,199465,1,8,2:2:0:0:
426,192,199547,6,0,B|434:50|434:50|403:188|403:188|306:281|306:281|185:203,1,559.999987483001,8|0,2:2|2:0,2:0:0:0:
315,192,200371,1,0,2:0:0:0:
193,192,200535,1,0,2:0:0:0:
358,192,200700,1,0,2:0:0:0:
48,32,200865,6,0,L|32:96,1,62.9999966692329,4|0,2:2|2:0,2:0:0:0:
128,96,201029,2,0,L|192:96,1,62.9999966692329,0|0,2:0|2:0,2:0:0:0:
352,96,201194,2,0,L|288:96,1,62.9999966692329,8|0,2:2|2:0,2:0:0:0:
448,96,201359,2,0,L|464:160,1,62.9999966692329,0|0,2:0|2:0,2:0:0:0:
320,192,201523,6,0,L|304:256,1,62.9999966692329,4|0,2:2|2:0,2:0:0:0:
400,272,201688,2,0,L|464:272,1,62.9999966692329,0|0,2:0|2:0,2:0:0:0:
304,272,201852,2,0,L|240:272,1,62.9999966692329,8|0,2:2|2:0,2:0:0:0:
400,352,202017,2,0,L|336:352,1,62.9999966692329,0|0,2:0|2:0,2:0:0:0:
176,352,202182,6,0,L|112:352,1,62.9999966692329,4|0,2:2|2:0,2:0:0:0:
208,352,202346,2,0,L|224:288,1,62.9999966692329,0|0,2:0|2:0,2:0:0:0:
64,272,202511,2,0,L|127:272,1,62.9999966692329,8|0,2:2|2:0,2:0:0:0:
288,272,202676,2,0,L|352:272,1,62.9999966692329,0|0,2:0|2:0,2:0:0:0:
192,192,202840,6,0,L|176:128,1,62.9999966692329,4|0,2:2|2:0,2:0:0:0:
80,128,203005,2,0,L|16:128,1,62.9999966692329,0|0,2:0|2:0,2:0:0:0:
176,48,203170,2,0,L|240:48,1,62.9999966692329,8|0,2:2|2:0,2:0:0:0:
80,128,203334,2,0,L|16:128,1,62.9999966692329,0|0,2:0|2:0,2:0:0:0:
192,192,203499,6,0,L|256:192,1,62.9999966692329,4|0,2:2|2:0,2:0:0:0:
192,272,203664,2,0,L|128:272,1,62.9999966692329,0|0,2:0|2:0,2:0:0:0:
288,272,203828,2,0,L|352:272,1,62.9999966692329,8|0,2:2|2:0,2:0:0:0:
192,272,203993,2,0,L|128:272,1,62.9999966692329,0|0,2:0|2:0,2:0:0:0:
288,272,204158,6,0,L|352:272,1,62.9999966692329,4|0,2:2|2:0,2:0:0:0:
288,352,204323,2,0,L|224:352,1,62.9999966692329,0|0,2:0|2:0,2:0:0:0:
384,352,204487,2,0,L|448:352,1,62.9999966692329,8|0,2:2|2:0,2:0:0:0:
225,352,204652,2,0,L|162:352,1,62.9999966692329,0|0,2:0|2:0,2:0:0:0:
384,192,204816,6,0,L|448:192,3,62.9999966692329,4|0|0|0,2:2|2:0|2:0|2:0,2:0:0:0:
256,192,205146,2,0,L|192:192,1,62.9999966692329,8|0,2:2|2:0,2:0:0:0:
384,192,205310,2,0,L|448:192,1,62.9999966692329,0|0,2:0|2:0,2:0:0:0:
256,192,205475,6,0,L|240:256,1,62.9999966692329,4|0,2:2|2:0,2:0:0:0:
144,256,205640,2,0,L|160:320,1,62.9999966692329,0|0,2:0|2:0,2:0:0:0:
320,352,205804,2,0,L|256:352,1,62.9999966692329,8|0,2:2|2:0,2:0:0:0:
416,352,205969,2,0,L|480:352,1,62.9999966692329,0|0,2:0|2:0,2:0:0:0:
257,352,206134,5,4,2:2:0:0:
198,333,206216,1,0,2:0:0:0:
177,276,206298,1,0,2:0:0:0:
208,224,206380,1,0,2:0:0:0:
304,192,206463,2,0,L|368:192,1,62.9999966692329,8|0,2:2|2:0,2:0:0:0:
208,128,206627,2,0,L|144:128,1,62.9999966692329,0|0,2:0|2:0,2:0:0:0:
304,192,206792,6,0,L|320:128,1,62.9999966692329,4|0,2:2|2:0,2:0:0:0:
224,112,206957,2,0,L|240:48,1,62.9999966692329,0|0,2:0|2:0,2:0:0:0:
400,48,207121,2,0,L|336:48,1,62.9999966692329,8|0,2:2|2:0,2:0:0:0:
176,50,207286,2,0,L|160:112,1,62.9999966692329,0|0,2:0|2:0,2:0:0:0:
337,48,207451,5,4,2:2:0:0:
396,67,207533,1,0,2:0:0:0:
417,124,207615,1,0,2:0:0:0:
386,176,207697,1,0,2:0:0:0:
288,208,207780,2,0,L|224:208,1,62.9999966692329,8|0,2:2|2:0,2:0:0:0:
386,272,207944,2,0,L|450:272,1,62.9999966692329,0|0,2:0|2:0,2:0:0:0:
288,208,208109,6,0,L|224:208,1,62.9999966692329,4|0,2:2|2:0,2:0:0:0:
320,208,208274,2,0,L|304:272,1,62.9999966692329,0|0,2:0|2:0,2:0:0:0:
144,288,208439,2,0,L|160:352,1,62.9999966692329,8|0,2:2|2:0,2:0:0:0:
256,352,208603,2,0,L|240:288,1,62.9999966692329,0|0,2:0|2:0,2:0:0:0:
48,112,208768,6,0,L|32:176,3,62.9999966692329,4|0|0|0,2:2|2:0|2:0|2:0,2:0:0:0:
208,112,209097,2,0,L|272:112,1,62.9999966692329,8|0,2:2|2:0,2:0:0:0:
112,112,209262,2,0,L|48:112,1,62.9999966692329,0|0,2:0|2:0,2:0:0:0:
208,112,209427,6,0,L|224:176,3,62.9999966692329,4|0|0|0,2:2|2:0|2:0|2:0,2:0:0:0:
384,208,209756,2,0,L|448:208,1,62.9999966692329,8|0,2:2|2:0,2:0:0:0:
256,208,209921,2,0,L|192:208,1,62.9999966692329,0|0,2:0|2:0,2:0:0:0:
416,240,210085,6,0,L|480:240,1,62.9999966692329,4|0,2:2|2:0,2:0:0:0:
496,272,210250,2,0,L|432:272,1,62.9999966692329,0|0,2:0|2:0,2:0:0:0:
272,272,210415,2,0,L|336:272,1,62.9999966692329,8|0,2:2|2:0,2:0:0:0:
176,272,210579,2,0,L|112:272,1,62.9999966692329,0|0,2:0|2:0,2:0:0:0:
272,272,210744,6,0,L|288:208,1,62.9999966692329,4|0,2:2|2:0,2:0:0:0:
384,208,210908,2,0,L|400:144,1,62.9999966692329,4|0,2:2|2:0,2:0:0:0:
240,96,211073,2,0,L|176:96,1,62.9999966692329,8|0,2:2|2:0,2:0:0:0:
320,96,211238,1,4,2:2:0:0:
480,96,211320,1,0,2:0:0:0:
256,192,211402,6,0,L|192:192,1,62.9999966692329,4|0,2:2|2:0,2:0:0:0:
288,192,211567,2,0,L|304:256,1,62.9999966692329,0|0,2:0|2:0,2:0:0:0:
144,272,211732,2,0,L|80:272,1,62.9999966692329,8|0,2:2|2:0,2:0:0:0:
240,352,211896,2,0,L|176:352,1,62.9999966692329,0|0,2:0|2:0,2:0:0:0:
336,352,212061,6,0,L|352:288,1,62.9999966692329,4|0,2:2|2:0,2:0:0:0:
256,256,212226,2,0,L|272:192,1,62.9999966692329,0|0,2:0|2:0,2:0:0:0:
432,192,212390,2,0,L|496:192,1,62.9999966692329,8|0,2:2|2:0,2:0:0:0:
336,128,212555,2,0,L|320:64,1,62.9999966692329,0|0,2:0|2:0,2:0:0:0:
160,64,212720,6,0,L|224:64,1,62.9999966692329,4|0,2:2|2:0,2:0:0:0:
128,144,212884,2,0,L|64:144,1,62.9999966692329,0|0,2:0|2:0,2:0:0:0:
224,144,213049,2,0,L|288:144,1,62.9999966692329,8|0,2:2|2:0,2:0:0:0:
128,224,213214,2,0,L|191:224,1,62.9999966692329,0|0,2:0|2:0,2:0:0:0:
352,224,213378,6,0,L|368:288,1,62.9999966692329,4|0,2:2|2:0,2:0:0:0:
208,288,213543,2,0,L|192:352,1,62.9999966692329,0|0,2:0|2:0,2:0:0:0:
288,352,213708,2,0,L|352:352,1,62.9999966692329,8|0,2:2|2:0,2:0:0:0:
191,224,213872,2,0,L|127:224,1,62.9999966692329,0|0,2:0|2:0,2:0:0:0:
320,224,214037,6,0,L|336:160,1,62.9999966692329,4|0,2:2|2:0,2:0:0:0:
240,144,214202,2,0,L|224:80,1,62.9999966692329,0|0,2:0|2:0,2:0:0:0:
384,64,214366,2,0,L|448:64,1,62.9999966692329,8|0,2:2|2:0,2:0:0:0:
288,64,214531,2,0,L|224:64,1,62.9999966692329,0|0,2:0|2:0,2:0:0:0:
384,64,214696,6,0,L|368:128,1,62.9999966692329,4|0,2:2|2:0,2:0:0:0:
272,144,214861,2,0,L|288:208,1,62.9999966692329,0|0,2:0|2:0,2:0:0:0:
448,208,215025,2,0,L|384:208,1,62.9999966692329,8|0,2:2|2:0,2:0:0:0:
160,352,215189,2,0,L|224:352,1,62.9999966692329,0|0,2:0|2:0,2:0:0:0:
416,352,215354,5,4,2:2:0:0:
354,347,215436,1,0,2:0:0:0:
310,304,215518,1,0,2:0:0:0:
304,243,215602,1,0,2:0:0:0:
338,192,215684,1,8,2:2:0:0:
398,175,215766,1,0,2:0:0:0:
496,96,215849,2,0,L|432:96,1,62.9999966692329,0|0,2:0|2:0,2:0:0:0:
272,96,216013,6,0,L|336:96,1,62.9999966692329,4|0,2:2|2:0,2:0:0:0:
240,192,216177,2,0,L|176:192,1,62.9999966692329,0|0,2:0|2:0,2:0:0:0:
368,192,216342,2,0,L|384:256,1,62.9999966692329,8|0,2:2|2:0,2:0:0:0:
192,272,216507,2,0,L|128:272,1,62.9999966692329,0|0,2:0|2:0,2:0:0:0:
336,352,216671,5,4,2:2:0:0:
394,337,216753,1,0,2:0:0:0:
417,281,216835,1,0,2:0:0:0:
384,230,216919,1,0,2:0:0:0:
288,224,217001,1,8,2:2:0:0:
346,209,217083,1,0,2:0:0:0:
369,153,217165,1,0,2:0:0:0:
336,102,217247,1,0,2:0:0:0:
160,48,217330,6,0,L|144:112,1,62.9999966692329,4|0,2:2|2:0,2:0:0:0:
240,128,217495,2,0,L|256:192,1,62.9999966692329,0|0,2:0|2:0,2:0:0:0:
416,192,217659,2,0,L|432:256,1,62.9999966692329,8|0,2:2|2:0,2:0:0:0:
336,272,217824,2,0,L|320:336,1,62.9999966692329,0|0,2:0|2:0,2:0:0:0:
176,352,217989,5,4,2:2:0:0:
118,337,218071,1,0,2:0:0:0:
95,281,218153,1,0,2:0:0:0:
128,230,218235,1,0,2:0:0:0:
224,224,218319,1,8,2:2:0:0:
166,209,218401,1,0,2:0:0:0:
143,153,218483,1,0,2:0:0:0:
176,102,218565,1,0,2:0:0:0:
336,96,218647,6,0,L|352:160,1,62.9999966692329,4|0,2:2|2:0,2:0:0:0:
256,160,218812,2,0,L|320:160,1,62.9999966692329,0|0,2:0|2:0,2:0:0:0:
464,160,218977,2,0,L|480:224,1,62.9999966692329,8|0,2:2|2:0,2:0:0:0:
384,224,219142,2,0,L|448:224,1,62.9999966692329,0|0,2:0|2:0,2:0:0:0:
288,224,219306,6,0,L|272:160,1,62.9999966692329,4|0,2:2|2:0,2:0:0:0:
176,160,219470,2,0,L|112:160,1,62.9999966692329,0|0,2:0|2:0,2:0:0:0:
272,162,219635,2,0,L|288:226,1,62.9999966692329,8|0,2:2|2:0,2:0:0:0:
384,226,219799,2,0,L|448:226,1,62.9999966692329,0|0,2:0|2:0,2:0:0:0:
288,256,219964,6,0,L|224:256,3,62.9999966692329,4|0|0|0,2:2|2:0|2:0|2:0,2:0:0:0:
64,256,220294,2,0,L|127:256,1,62.9999966692329,8|0,2:2|2:0,2:0:0:0:
288,336,220458,2,0,L|352:336,1,62.9999966692329,0|0,2:0|2:0,2:0:0:0:
160,48,220623,5,4,2:2:0:0:
100,65,220705,1,0,2:0:0:0:
54,108,220787,1,0,2:0:0:0:
32,167,220871,1,0,2:0:0:0:
192,176,220952,2,0,L|208:240,1,62.9999966692329,8|0,2:2|2:0,2:0:0:0:
368,240,221117,2,0,L|352:304,1,62.9999966692329,0|0,2:0|2:0,2:0:0:0:
208,304,221282,5,4,2:2:0:0:
352,304,221364,1,0,2:0:0:0:
496,304,221446,2,0,L|480:240,1,62.9999966692329,4|0,2:2|2:0,2:0:0:0:
336,192,221611,1,8,2:2:0:0:
480,192,221693,1,0,2:0:0:0:
336,192,221776,1,4,2:2:0:0:
128,192,221858,1,0,2:0:0:0:
304,192,221940,6,0,L|368:192,1,62.9999966692329,4|0,2:2|2:0,2:0:0:0:
464,192,222105,2,0,L|480:256,1,62.9999966692329,0|0,2:0|2:0,2:0:0:0:
320,272,222270,2,0,L|304:336,1,62.9999966692329,8|0,2:2|2:0,2:0:0:0:
144,336,222434,2,0,L|80:336,1,62.9999966692329,0|0,2:0|2:0,2:0:0:0:
240,336,222599,6,0,L|256:272,1,62.9999966692329,4|0,2:2|2:0,2:0:0:0:
160,256,222764,2,0,L|176:192,1,62.9999966692329,0|0,2:0|2:0,2:0:0:0:
336,160,222928,2,0,L|272:160,1,62.9999966692329,8|0,2:2|2:0,2:0:0:0:
112,160,223093,2,0,L|176:160,1,62.9999966692329,0|0,2:0|2:0,2:0:0:0:
336,160,223258,6,0,L|352:224,1,62.9999966692329,4|0,2:2|2:0,2:0:0:0:
256,240,223422,2,0,L|192:240,1,62.9999966692329,0|0,2:0|2:0,2:0:0:0:
96,240,223587,2,0,L|80:304,1,62.9999966692329,8|0,2:2|2:0,2:0:0:0:
240,320,223752,2,0,L|304:320,1,62.9999966692329,0|0,2:0|2:0,2:0:0:0:
464,320,223916,6,0,L|448:256,1,62.9999966692329,4|0,2:2|2:0,2:0:0:0:
352,240,224081,2,0,L|336:176,1,62.9999966692329,0|0,2:0|2:0,2:0:0:0:
176,160,224245,2,0,L|192:96,1,62.9999966692329,8|0,2:2|2:0,2:0:0:0:
352,80,224410,2,0,L|416:80,1,62.9999966692329,0|0,2:0|2:0,2:0:0:0:
224,352,224575,6,0,L|160:352,1,62.9999966692329,4|0,2:2|2:0,2:0:0:0:
64,352,224739,2,0,L|80:288,1,62.9999966692329,0|0,2:0|2:0,2:0:0:0:
224,192,224904,2,0,L|288:192,1,62.9999966692329,8|0,2:2|2:0,2:0:0:0:
112,192,225069,2,0,L|48:192,1,62.9999966692329,0|0,2:0|2:0,2:0:0:0:
224,352,225233,6,0,L|288:352,1,62.9999966692329,4|0,2:2|2:0,2:0:0:0:
384,352,225399,2,0,L|368:288,1,62.9999966692329,0|0,2:0|2:0,2:0:0:0:
224,192,225562,2,0,L|160:192,1,62.9999966692329,8|0,2:2|2:0,2:0:0:0:
336,192,225727,2,0,L|400:192,1,62.9999966692329,0|0,2:0|2:0,2:0:0:0:
208,32,225892,5,4,2:2:0:0:
145,39,225974,1,0,2:0:0:0:
90,68,226056,1,0,2:0:0:0:
49,115,226138,1,0,2:0:0:0:
28,174,226221,1,8,2:2:0:0:
31,237,226303,1,0,2:0:0:0:
192,256,226386,2,0,L|256:256,1,62.9999966692329,0|0,2:0|2:0,2:0:0:0:
96,256,226551,6,0,L|112:192,1,62.9999966692329,4|0,2:2|2:0,2:0:0:0:
272,176,226715,2,0,L|336:176,1,62.9999966692329,0|0,2:0|2:0,2:0:0:0:
176,176,226880,2,0,L|160:112,1,62.9999966692329,8|0,2:2|2:0,2:0:0:0:
16,96,227045,1,0,2:0:0:0:
160,96,227127,1,0,2:0:0:0:
320,96,227209,6,0,L|384:96,1,62.9999966692329,4|0,2:2|2:0,2:0:0:0:
400,128,227374,2,0,L|336:128,1,62.9999966692329,0|0,2:0|2:0,2:0:0:0:
240,128,227539,2,0,L|176:128,1,62.9999966692329,8|0,2:2|2:0,2:0:0:0:
337,128,227703,2,0,L|401:128,1,62.9999966692329,0|0,2:0|2:0,2:0:0:0:
240,208,227868,6,0,L|304:208,1,62.9999966692329,4|0,2:2|2:0,2:0:0:0:
208,288,228033,2,0,L|144:288,1,62.9999966692329,0|0,2:0|2:0,2:0:0:0:
304,288,228197,2,0,L|320:224,1,62.9999966692329,8|0,2:2|2:0,2:0:0:0:
480,224,228362,2,0,L|464:160,1,62.9999966692329,0|0,2:0|2:0,2:0:0:0:
304,96,228526,6,0,L|240:96,1,62.9999966692329,4|0,2:2|2:0,2:0:0:0:
224,128,228691,2,0,L|288:128,1,62.9999966692329,0|0,2:0|2:0,2:0:0:0:
384,128,228856,2,0,L|448:128,1,62.9999966692329,8|0,2:2|2:0,2:0:0:0:
287,128,229020,2,0,L|223:128,1,62.9999966692329,0|0,2:0|2:0,2:0:0:0:
384,208,229185,6,0,L|400:272,1,62.9999966692329,4|0,2:2|2:0,2:0:0:0:
304,288,229350,2,0,L|288:352,1,62.9999966692329,0|0,2:0|2:0,2:0:0:0:
128,352,229514,1,8,2:2:0:0:
288,349,229597,2,0,L|352:349,2,62.9999966692329,0|0|0,2:0|2:0|2:0,2:0:0:0:
128,352,229844,6,0,L|112:288,1,62.9999966692329,4|0,2:2|2:0,2:0:0:0:
208,272,230008,2,0,L|272:272,1,62.9999966692329,0|0,2:0|2:0,2:0:0:0:
32,192,230173,2,0,L|48:128,1,62.9999966692329,8|0,2:2|2:0,2:0:0:0:
144,96,230338,2,0,L|208:96,1,62.9999966692329,0|0,2:0|2:0,2:0:0:0:
384,352,230502,6,0,L|400:288,1,62.9999966692329,4|0,2:2|2:0,2:0:0:0:
304,272,230666,2,0,L|240:272,1,62.9999966692329,0|0,2:0|2:0,2:0:0:0:
480,192,230831,2,0,L|464:128,1,62.9999966692329,8|0,2:2|2:0,2:0:0:0:
320,96,230996,2,0,L|256:96,1,62.9999966692329,0|0,2:0|2:0,2:0:0:0:
32,192,231161,6,0,L|48:128,1,62.9999966692329,4|0,2:2|2:0,2:0:0:0:
192,96,231326,2,0,L|256:96,1,62.9999966692329,0|0,2:0|2:0,2:0:0:0:
416,96,231490,2,0,L|480:96,1,62.9999966692329,8|0,2:2|2:0,2:0:0:0:
318,96,231655,2,0,L|254:96,1,62.9999966692329,0|0,2:0|2:0,2:0:0:0:
48,96,231820,6,0,L|32:160,1,62.9999966692329,4|0,2:2|2:0,2:0:0:0:
128,160,231984,2,0,L|144:224,1,62.9999966692329,4|0,2:2|2:0,2:0:0:0:
304,224,232149,2,0,L|240:224,1,62.9999966692329,8|0,2:2|2:0,2:0:0:0:
80,224,232314,1,4,2:2:0:0:
240,224,232396,1,0,2:0:0:0:
416,144,232478,6,0,L|480:144,3,62.9999966692329,4|0|0|0,2:2|2:0|2:0|2:0,2:0:0:0:
320,144,232807,2,0,L|256:144,1,62.9999966692329,8|0,2:2|2:0,2:0:0:0:
416,144,232972,2,0,L|480:144,1,62.9999966692329,0|0,2:0|2:0,2:0:0:0:
320,176,233137,6,0,L|304:240,1,62.9999966692329,4|0,2:2|2:0,2:0:0:0:
208,240,233301,2,0,L|144:240,1,62.9999966692329,0|0,2:0|2:0,2:0:0:0:
304,240,233466,2,0,L|368:240,1,62.9999966692329,8|0,2:2|2:0,2:0:0:0:
208,320,233631,2,0,L|272:320,1,62.9999966692329,0|0,2:0|2:0,2:0:0:0:
432,192,233795,6,0,L|416:128,1,62.9999966692329,4|0,2:2|2:0,2:0:0:0:
320,128,233960,2,0,L|256:128,1,62.9999966692329,0|0,2:0|2:0,2:0:0:0:
416,112,234125,2,0,L|400:48,1,62.9999966692329,8|0,2:2|2:0,2:0:0:0:
240,48,234289,2,0,L|176:48,1,62.9999966692329,0|0,2:0|2:0,2:0:0:0:
16,64,234454,5,4,2:2:0:0:
160,64,234536,1,0,2:0:0:0:
208,64,234618,1,0,2:0:0:0:
256,64,234700,1,0,2:0:0:0:
400,64,234783,1,8,2:2:0:0:
256,64,234865,1,0,2:0:0:0:
208,64,234947,1,0,2:0:0:0:
160,64,235031,1,0,2:0:0:0:
336,64,235113,6,0,L|400:64,1,62.9999966692329,4|0,2:2|2:0,2:0:0:0:
432,160,235277,2,0,L|369:160,1,62.9999966692329,0|0,2:0|2:0,2:0:0:0:
208,256,235442,2,0,L|144:256,1,62.9999966692329,8|0,2:2|2:0,2:0:0:0:
304,256,235607,2,0,L|368:256,1,62.9999966692329,0|0,2:0|2:0,2:0:0:0:
176,64,235771,6,0,L|112:64,1,62.9999966692329,4|0,2:2|2:0,2:0:0:0:
80,160,235935,2,0,L|143:160,1,62.9999966692329,0|0,2:0|2:0,2:0:0:0:
336,256,236100,2,0,L|400:256,1,62.9999966692329,8|0,2:2|2:0,2:0:0:0:
176,256,236265,2,0,L|112:256,1,62.9999966692329,0|0,2:0|2:0,2:0:0:0:
336,256,236430,6,0,L|400:256,3,62.9999966692329,4|0|0|0,2:2|2:0|2:0|2:0,2:0:0:0:
224,256,236759,2,0,L|160:256,1,62.9999966692329,8|0,2:2|2:0,2:0:0:0:
336,256,236924,2,0,L|352:192,1,62.9999966692329,0|0,2:0|2:0,2:0:0:0:
192,176,237089,6,0,L|176:112,1,62.9999966692329,4|0,2:2|2:0,2:0:0:0:
272,96,237253,2,0,L|288:32,1,62.9999966692329,0|0,2:0|2:0,2:0:0:0:
128,32,237418,2,0,L|64:32,1,62.9999966692329,8|0,2:2|2:0,2:0:0:0:
224,34,237582,2,0,L|240:96,1,62.9999966692329,0|0,2:0|2:0,2:0:0:0:
64,112,237747,5,4,2:2:0:0:
81,171,237829,1,0,2:0:0:0:
124,217,237911,1,0,2:0:0:0:
183,239,237995,1,0,2:0:0:0:
272,240,238076,2,0,L|336:240,1,62.9999966692329,8|0,2:2|2:0,2:0:0:0:
176,336,238241,2,0,L|112:336,1,62.9999966692329,0|0,2:0|2:0,2:0:0:0:
272,336,238406,6,0,L|208:336,1,62.9999966692329,4|0,2:2|2:0,2:0:0:0:
304,336,238570,2,0,L|368:336,1,62.9999966692329,0|0,2:0|2:0,2:0:0:0:
208,304,238735,2,0,L|272:304,1,62.9999966692329,8|0,2:2|2:0,2:0:0:0:
113,304,238899,2,0,L|176:304,1,62.9999966692329,0|0,2:0|2:0,2:0:0:0:
336,288,239064,5,4,2:2:0:0:
319,229,239146,1,0,2:0:0:0:
276,183,239228,1,0,2:0:0:0:
217,161,239312,1,0,2:0:0:0:
128,160,239393,2,0,L|64:160,1,62.9999966692329,8|0,2:2|2:0,2:0:0:0:
224,64,239558,2,0,L|288:64,1,62.9999966692329,0|0,2:0|2:0,2:0:0:0:
448,64,239723,5,4,2:2:0:0:
288,64,239805,2,0,L|224:64,2,62.9999966692329,0|0|0,2:0|2:0|2:0,2:0:0:0:
448,64,240052,2,0,L|384:64,1,62.9999966692329,8|0,2:2|2:0,2:0:0:0:
225,64,240217,2,0,L|289:64,1,62.9999966692329,0|0,2:0|2:0,2:0:0:0:
480,192,240382,6,0,L|464:256,1,62.9999966692329,4|0,2:2|2:0,2:0:0:0:
368,256,240546,2,0,L|304:256,1,62.9999966692329,0|0,2:0|2:0,2:0:0:0:
112,160,240711,2,0,L|128:96,1,62.9999966692329,8|0,2:2|2:0,2:0:0:0:
224,96,240875,2,0,L|288:96,1,62.9999966692329,0|0,2:0|2:0,2:0:0:0:
32,192,241040,6,0,L|48:256,1,62.9999966692329,4|0,2:2|2:0,2:0:0:0:
144,256,241204,2,0,L|208:256,1,62.9999966692329,0|0,2:0|2:0,2:0:0:0:
400,160,241369,2,0,L|384:96,1,62.9999966692329,8|0,2:2|2:0,2:0:0:0:
288,96,241535,2,0,L|224:96,1,62.9999966692329,0|0,2:0|2:0,2:0:0:0:
32,192,241699,6,0,L|48:256,1,62.9999966692329,4|0,2:2|2:0,2:0:0:0:
224,272,241863,2,0,L|288:272,1,62.9999966692329,0|0,2:0|2:0,2:0:0:0:
112,192,242028,2,0,L|128:128,1,62.9999966692329,8|0,2:2|2:0,2:0:0:0:
224,112,242193,2,0,L|288:112,1,62.9999966692329,0|0,2:0|2:0,2:0:0:0:
480,192,242357,6,0,L|464:256,1,62.9999966692329,4|0,2:2|2:0,2:0:0:0:
288,272,242523,2,0,L|224:272,1,62.9999966692329,0|0,2:0|2:0,2:0:0:0:
400,192,242686,2,0,L|384:128,1,62.9999966692329,8|0,2:2|2:0,2:0:0:0:
288,112,242851,2,0,L|224:112,1,62.9999966692329,0|0,2:0|2:0,2:0:0:0:
32,192,243016,6,0,L|96:192,1,62.9999966692329,4|0,2:2|2:0,2:0:0:0:
192,192,243181,2,0,L|255:192,1,62.9999966692329,0|0,2:0|2:0,2:0:0:0:
416,192,243345,2,0,L|352:192,1,62.9999966692329,8|0,2:2|2:0,2:0:0:0:
192,272,243510,2,0,L|129:272,1,62.9999966692329,0|0,2:0|2:0,2:0:0:0:
304,272,243675,6,0,L|368:272,3,62.9999966692329,4|0|0|0,2:2|2:0|2:0|2:0,2:0:0:0:
192,272,244004,2,0,L|128:272,1,62.9999966692329,8|0,2:2|2:0,2:0:0:0:
304,272,244169,2,0,L|368:272,1,62.9999966692329,0|0,2:0|2:0,2:0:0:0:
128,192,244333,6,0,L|64:192,1,62.9999966692329,4|0,2:2|2:0,2:0:0:0:
224,192,244498,1,0,2:0:0:0:
384,192,244580,1,0,2:0:0:0:
224,192,244663,2,0,L|160:192,1,62.9999966692329,8|0,2:2|2:0,2:0:0:0:
320,192,244828,1,0,2:0:0:0:
480,192,244910,1,0,2:0:0:0:
320,192,244992,5,4,2:2:0:0:
161,192,245074,1,0,2:0:0:0:
320,192,245157,1,0,2:0:0:0:
480,192,245239,1,0,2:0:0:0:
320,192,245321,2,0,L|256:192,1,62.9999966692329,8|0,2:2|2:0,2:0:0:0:
416,272,245486,1,0,2:0:0:0:
256,272,245568,1,0,2:0:0:0:
48,272,245651,6,0,P|80:192|160:128,2,188.999990007699,0|0|0,2:0|2:0|2:0,2:0:0:0:
192,272,246227,1,0,2:0:0:0:
336,272,246309,2,0,P|304:192|224:128,2,188.999990007699,0|0|0,2:0|2:0|2:0,2:0:0:0:
192,272,246885,1,0,2:0:0:0:
48,272,246968,6,0,L|240:272,2,188.999990007699,0|0|0,2:0|2:0|2:0,2:0:0:0:
192,240,247544,1,0,2:0:0:0:
336,240,247626,2,0,L|144:240,2,188.999990007699,0|0|0,2:0|2:0|2:0,2:0:0:0:
252,208,248203,1,0,2:0:0:0:
439,192,248285,5,4,2:2:0:0:
448,192,248367,1,0,2:0:0:0:
366,192,248449,1,0,2:0:0:0:
206,192,248532,1,0,2:0:0:0:
255,192,248614,1,8,2:2:0:0:
326,192,248697,1,0,2:0:0:0:
180,192,248779,1,0,2:0:0:0:
124,192,248861,1,0,2:0:0:0:
311,192,248944,5,4,2:2:0:0:
374,192,249026,1,0,2:0:0:0:
316,192,249108,1,0,2:0:0:0:
157,192,249191,1,0,2:0:0:0:
157,192,249273,1,8,2:2:0:0:
240,192,249355,1,0,2:0:0:0:
385,192,249438,1,0,2:0:0:0:
325,192,249520,1,0,2:0:0:0:
149,192,249602,5,4,2:2:0:0:
93,192,249685,1,0,2:0:0:0:
154,192,249767,1,0,2:0:0:0:
313,192,249849,1,0,2:0:0:0:
230,192,249932,1,8,2:2:0:0:
237,192,250014,1,0,2:0:0:0:
380,192,250096,1,0,2:0:0:0:
322,192,250179,1,0,2:0:0:0:
139,192,250261,5,4,2:2:0:0:
146,192,250343,1,0,2:0:0:0:
229,192,250425,1,0,2:0:0:0:
371,192,250508,1,0,2:0:0:0:
435,192,250590,1,8,2:2:0:0:
377,192,250672,1,0,2:0:0:0:
233,192,250755,1,0,2:0:0:0:
316,192,250837,1,0,2:0:0:0:
137,192,250919,5,4,2:2:0:0:
55,192,251002,1,0,2:0:0:0:
47,192,251084,1,0,2:0:0:0:
228,192,251166,1,0,2:0:0:0:
146,192,251249,1,8,2:2:0:0:
139,192,251331,1,0,2:0:0:0:
283,192,251413,1,0,2:0:0:0:
224,192,251496,1,0,2:0:0:0:
403,192,251578,5,4,2:2:0:0:
397,192,251660,1,0,2:0:0:0:
315,192,251743,1,0,2:0:0:0:
150,192,251825,1,0,2:0:0:0:
215,192,251907,1,8,2:2:0:0:
280,192,251990,1,0,2:0:0:0:
133,192,252072,1,0,2:0:0:0:
120,192,252154,1,0,2:0:0:0:
297,192,252237,5,4,2:2:0:0:
291,192,252319,1,0,2:0:0:0:
209,192,252401,1,0,2:0:0:0:
383,192,252484,1,0,2:0:0:0:
446,192,252566,1,8,2:2:0:0:
379,192,252648,1,0,2:0:0:0:
234,192,252731,1,0,2:0:0:0:
172,192,252813,1,0,2:0:0:0:
349,192,252895,5,4,2:2:0:0:
344,192,252978,1,0,2:0:0:0:
262,192,253060,1,0,2:0:0:0:
86,192,253142,1,0,2:0:0:0:
149,192,253225,1,8,2:2:0:0:
206,192,253307,1,0,2:0:0:0:
353,192,253389,1,0,2:0:0:0:
361,192,253472,1,0,2:0:0:0:
166,192,253554,5,4,2:2:0:0:
83,192,253636,1,0,2:0:0:0:
83,192,253719,1,0,2:0:0:0:
246,192,253801,1,0,2:0:0:0:
197,192,253883,1,8,2:2:0:0:
128,192,253966,1,0,2:0:0:0:
301,192,254048,1,0,2:0:0:0:
365,192,254130,1,0,2:0:0:0:
186,192,254213,5,4,2:2:0:0:
124,192,254295,1,0,2:0:0:0:
187,192,254377,1,0,2:0:0:0:
345,192,254460,1,0,2:0:0:0:
263,192,254542,1,8,2:2:0:0:
263,192,254624,1,0,2:0:0:0:
437,192,254707,1,0,2:0:0:0:
437,192,254789,1,0,2:0:0:0:
280,192,254871,5,4,2:2:0:0:
223,192,254953,1,0,2:0:0:0:
165,192,255036,1,0,2:0:0:0:
309,192,255118,1,0,2:0:0:0:
309,192,255200,1,8,2:2:0:0:
227,192,255283,1,0,2:0:0:0:
371,192,255365,1,0,2:0:0:0:
431,192,255447,1,0,2:0:0:0:
258,192,255530,5,4,2:2:0:0:
199,192,255612,1,0,2:0:0:0:
258,192,255694,1,0,2:0:0:0:
402,192,255777,1,0,2:0:0:0:
347,192,255859,1,8,2:2:0:0:
285,192,255941,1,0,2:0:0:0:
140,192,256024,1,0,2:0:0:0:
194,192,256106,1,0,2:0:0:0:
368,192,256188,5,4,2:2:0:0:
430,192,256271,1,0,2:0:0:0:
368,192,256353,1,0,2:0:0:0:
222,192,256435,1,0,2:0:0:0:
219,192,256518,1,8,2:2:0:0:
216,192,256600,1,0,2:0:0:0:
359,192,256682,1,0,2:0:0:0:
301,192,256765,1,0,2:0:0:0:
131,192,256847,5,4,2:2:0:0:
72,192,256929,1,0,2:0:0:0:
131,192,257012,1,0,2:0:0:0:
289,192,257094,1,0,2:0:0:0:
236,192,257176,1,8,2:2:0:0:
168,192,257259,1,0,2:0:0:0:
325,192,257341,1,0,2:0:0:0:
388,192,257423,1,0,2:0:0:0:
204,192,257506,5,4,2:2:0:0:
122,192,257588,1,0,2:0:0:0:
39,192,257670,1,0,2:0:0:0:
196,192,257753,1,0,2:0:0:0:
202,192,257835,1,8,2:2:0:0:
206,192,257917,1,0,2:0:0:0:
350,192,258000,1,0,2:0:0:0:
408,192,258082,1,0,2:0:0:0:
250,192,258164,5,4,2:2:0:0:
168,192,258247,1,0,2:0:0:0:
312,192,258329,1,4,2:2:0:0:
318,192,258411,1,0,2:0:0:0:
462,192,258494,1,8,2:2:0:0:
469,192,258576,1,0,2:0:0:0:
324,192,258658,1,4,2:2:0:0:
329,192,258741,1,0,2:0:0:0:
133,192,258823,5,4,2:2:0:0:
68,192,258905,1,0,2:0:0:0:
128,192,258988,1,0,2:0:0:0:
286,192,259070,1,0,2:0:0:0:
234,192,259152,1,8,2:2:0:0:
165,192,259234,1,0,2:0:0:0:
310,192,259317,1,0,2:0:0:0:
360,192,259399,1,0,2:0:0:0:
195,192,259481,5,4,2:2:0:0:
112,192,259564,1,0,2:0:0:0:
107,192,259646,1,0,2:0:0:0:
269,192,259728,1,0,2:0:0:0:
330,192,259812,1,8,2:2:0:0:
261,192,259893,1,0,2:0:0:0:
117,192,259975,1,0,2:0:0:0:
171,192,260058,1,0,2:0:0:0:
333,192,260140,5,4,2:2:0:0:
415,192,260222,1,0,2:0:0:0:
409,192,260305,1,0,2:0:0:0:
249,192,260387,1,0,2:0:0:0:
332,192,260469,1,8,2:2:0:0:
327,192,260552,1,0,2:0:0:0:
181,192,260634,1,0,2:0:0:0:
122,192,260716,1,0,2:0:0:0:
285,192,260799,5,4,2:2:0:0:
342,192,260881,1,0,2:0:0:0:
399,192,260963,1,0,2:0:0:0:
233,192,261046,1,0,2:0:0:0:
151,192,261128,1,8,2:2:0:0:
145,192,261210,1,0,2:0:0:0:
289,192,261293,1,0,2:0:0:0:
224,192,261375,1,0,2:0:0:0:
422,192,261457,5,4,2:2:0:0:
489,192,261540,1,0,2:0:0:0:
428,192,261622,1,0,2:0:0:0:
271,192,261704,1,0,2:0:0:0:
321,192,261787,1,8,2:2:0:0:
387,192,261869,1,0,2:0:0:0:
226,192,261951,1,0,2:0:0:0:
176,192,262034,1,0,2:0:0:0:
359,192,262116,5,4,2:2:0:0:
366,192,262198,1,0,2:0:0:0:
284,192,262281,1,0,2:0:0:0:
118,192,262363,1,0,2:0:0:0:
63,192,262445,1,8,2:2:0:0:
123,192,262528,1,0,2:0:0:0:
282,192,262610,1,0,2:0:0:0:
223,192,262692,1,0,2:0:0:0:
406,192,262775,5,4,2:2:0:0:
349,192,262857,1,0,2:0:0:0:
293,192,262939,1,0,2:0:0:0:
132,192,263022,1,0,2:0:0:0:
135,192,263104,1,8,2:2:0:0:
218,192,263186,1,0,2:0:0:0:
381,192,263269,1,0,2:0:0:0:
395,192,263351,1,0,2:0:0:0:
224,192,263433,5,4,2:2:0:0:
284,192,263516,1,0,2:0:0:0:
345,192,263598,1,0,2:0:0:0:
179,192,263680,1,0,2:0:0:0:
244,192,263762,1,8,2:2:0:0:
185,192,263845,1,0,2:0:0:0:
345,192,263927,1,0,2:0:0:0:
406,192,264009,1,0,2:0:0:0:
212,192,264092,5,4,2:2:0:0:
155,192,264174,1,0,2:0:0:0:
92,192,264256,1,0,2:0:0:0:
260,192,264339,1,0,2:0:0:0:
321,192,264421,1,8,2:2:0:0:
260,192,264503,1,0,2:0:0:0:
405,192,264586,1,0,2:0:0:0:
405,192,264668,1,0,2:0:0:0:
223,192,264750,5,4,2:2:0:0:
140,192,264833,1,0,2:0:0:0:
140,192,264915,1,0,2:0:0:0:
285,192,264997,1,0,2:0:0:0:
227,192,265080,1,8,2:2:0:0:
163,192,265162,1,0,2:0:0:0:
324,192,265244,1,0,2:0:0:0:
386,192,265327,1,0,2:0:0:0:
219,192,265409,5,4,2:2:0:0:
158,192,265491,1,0,2:0:0:0:
219,192,265574,1,0,2:0:0:0:
363,192,265656,1,0,2:0:0:0:
280,192,265738,1,8,2:2:0:0:
280,192,265821,1,0,2:0:0:0:
96,192,265903,1,0,2:0:0:0:
153,192,265985,1,0,2:0:0:0:
312,192,266068,5,4,2:2:0:0:
380,192,266150,1,0,2:0:0:0:
312,192,266232,1,0,2:0:0:0:
168,192,266315,1,0,2:0:0:0:
215,192,266397,1,8,2:2:0:0:
285,192,266479,1,0,2:0:0:0:
431,192,266562,1,0,2:0:0:0:
370,192,266644,1,0,2:0:0:0:
223,192,266726,5,4,2:2:0:0:
140,192,266809,1,0,2:0:0:0:
140,192,266891,1,0,2:0:0:0:
301,192,266973,1,0,2:0:0:0:
383,192,267056,1,8,2:2:0:0:
383,192,267138,1,0,2:0:0:0:
242,192,267220,1,0,2:0:0:0:
304,192,267303,1,0,2:0:0:0:
147,192,267385,5,4,2:2:0:0:
208,192,267467,1,0,2:0:0:0:
271,192,267550,1,0,2:0:0:0:
126,192,267632,1,0,2:0:0:0:
44,192,267714,1,8,2:2:0:0:
44,192,267797,1,0,2:0:0:0:
187,192,267879,1,0,2:0:0:0:
128,192,267961,1,0,2:0:0:0:
312,192,268043,5,4,2:2:0:0:
394,192,268126,1,0,2:0:0:0:
476,192,268208,1,0,2:0:0:0:
330,192,268290,1,0,2:0:0:0:
323,192,268373,1,8,2:2:0:0:
315,192,268455,1,0,2:0:0:0:
172,192,268537,1,0,2:0:0:0:
232,192,268620,1,0,2:0:0:0:
388,192,268702,5,4,2:2:0:0:
243,192,268784,1,4,2:2:0:0:
99,192,268867,1,4,2:2:0:0:
167,192,268949,1,0,2:0:0:0:
238,192,269031,1,12,2:2:0:0:
94,192,269114,1,4,2:2:0:0:
238,192,269196,1,4,2:2:0:0:
383,192,269278,1,4,2:2:0:0:
180,192,269361,5,4,2:2:0:0:
120,192,269443,1,0,2:0:0:0:
178,192,269525,1,0,2:0:0:0:
334,192,269608,1,0,2:0:0:0:
289,192,269690,1,8,2:2:0:0:
216,192,269772,1,0,2:0:0:0:
360,192,269855,1,0,2:0:0:0:
418,192,269937,1,0,2:0:0:0:
247,192,270019,5,4,2:2:0:0:
164,192,270102,1,0,2:0:0:0:
157,192,270184,1,0,2:0:0:0:
315,192,270266,1,0,2:0:0:0:
255,192,270349,1,8,2:2:0:0:
182,192,270431,1,0,2:0:0:0:
325,192,270513,1,0,2:0:0:0:
389,192,270596,1,0,2:0:0:0:
217,192,270678,5,4,2:2:0:0:
299,192,270760,1,0,2:0:0:0:
293,192,270843,1,0,2:0:0:0:
132,192,270925,1,0,2:0:0:0:
181,192,271007,1,8,2:2:0:0:
257,192,271090,1,0,2:0:0:0:
403,192,271172,1,0,2:0:0:0:
342,192,271254,1,0,2:0:0:0:
165,192,271337,5,4,2:2:0:0:
97,192,271419,1,0,2:0:0:0:
159,192,271501,1,0,2:0:0:0:
305,192,271584,1,0,2:0:0:0:
305,192,271666,1,8,2:2:0:0:
159,192,271748,1,0,2:0:0:0:
226,192,271831,1,0,2:0:0:0:
159,192,271913,1,0,2:0:0:0:
342,192,271995,5,4,2:2:0:0:
405,192,272078,1,0,2:0:0:0:
466,192,272160,1,0,2:0:0:0:
287,192,272242,1,0,2:0:0:0:
370,192,272325,1,8,2:2:0:0:
375,192,272407,1,0,2:0:0:0:
230,192,272489,1,0,2:0:0:0:
291,192,272571,1,0,2:0:0:0:
117,192,272654,5,4,2:2:0:0:
59,192,272736,1,0,2:0:0:0:
123,192,272818,1,0,2:0:0:0:
296,192,272901,1,0,2:0:0:0:
241,192,272983,1,8,2:2:0:0:
173,192,273065,1,0,2:0:0:0:
317,192,273148,1,0,2:0:0:0:
383,192,273230,1,0,2:0:0:0:
205,192,273312,5,4,2:2:0:0:
212,192,273395,1,0,2:0:0:0:
294,192,273477,1,0,2:0:0:0:
123,192,273559,1,0,2:0:0:0:
73,192,273642,1,8,2:2:0:0:
127,192,273724,1,0,2:0:0:0:
272,192,273806,1,0,2:0:0:0:
215,192,273889,1,0,2:0:0:0:
387,192,273971,5,4,2:2:0:0:
393,192,274053,1,0,2:0:0:0:
311,192,274136,1,0,2:0:0:0:
140,192,274218,1,0,2:0:0:0:
194,192,274300,1,8,2:2:0:0:
265,192,274383,1,0,2:0:0:0:
410,192,274465,1,0,2:0:0:0:
352,192,274547,1,0,2:0:0:0:
172,192,274630,5,4,2:2:0:0:
89,192,274712,1,0,2:0:0:0:
89,192,274794,1,0,2:0:0:0:
246,192,274877,1,0,2:0:0:0:
186,192,274959,1,8,2:2:0:0:
126,192,275041,1,0,2:0:0:0:
271,192,275124,1,0,2:0:0:0:
271,192,275206,1,0,2:0:0:0:
444,192,275288,5,4,2:2:0:0:
444,192,275371,1,0,2:0:0:0:
361,192,275453,1,0,2:0:0:0:
217,192,275535,1,0,2:0:0:0:
280,192,275618,1,8,2:2:0:0:
342,192,275700,1,0,2:0:0:0:
199,192,275782,1,0,2:0:0:0:
137,192,275865,1,0,2:0:0:0:
292,192,275947,5,4,2:2:0:0:
349,192,276029,1,0,2:0:0:0:
292,192,276112,1,0,2:0:0:0:
146,192,276194,1,0,2:0:0:0:
105,192,276276,1,8,2:2:0:0:
146,192,276359,1,0,2:0:0:0:
291,192,276441,1,0,2:0:0:0:
227,192,276523,1,0,2:0:0:0:
401,192,276606,5,4,2:2:0:0:
462,192,276688,1,0,2:0:0:0:
401,192,276770,1,0,2:0:0:0:
255,192,276852,1,0,2:0:0:0:
316,192,276935,1,8,2:2:0:0:
377,192,277017,1,0,2:0:0:0:
230,192,277099,1,0,2:0:0:0:
165,192,277182,1,0,2:0:0:0:
323,192,277264,5,4,2:2:0:0:
323,192,277346,1,0,2:0:0:0:
323,192,277429,1,0,2:0:0:0:
179,192,277511,1,0,2:0:0:0:
239,192,277593,1,8,2:2:0:0:
305,192,277676,1,0,2:0:0:0:
161,192,277758,1,0,2:0:0:0:
102,192,277840,1,0,2:0:0:0:
263,192,277923,5,4,2:2:0:0:
320,192,278005,1,0,2:0:0:0:
379,192,278087,1,0,2:0:0:0:
236,192,278170,1,0,2:0:0:0:
319,192,278252,1,8,2:2:0:0:
319,192,278334,1,0,2:0:0:0:
176,192,278417,1,0,2:0:0:0:
109,192,278499,1,0,2:0:0:0:
295,192,278581,5,4,2:2:0:0:
378,192,278664,1,0,2:0:0:0:
460,192,278746,1,0,2:0:0:0:
316,192,278828,1,0,2:0:0:0:
309,192,278911,1,8,2:2:0:0:
303,192,278993,1,0,2:0:0:0:
160,192,279075,1,0,2:0:0:0:
97,192,279158,1,0,2:0:0:0:
276,192,279240,5,4,2:2:0:0:
359,192,279322,1,0,2:0:0:0:
216,192,279405,1,4,2:2:0:0:
213,192,279487,1,0,2:0:0:0:
68,192,279569,1,8,2:2:0:0:
65,192,279652,1,0,2:0:0:0:
210,192,279734,1,4,2:2:0:0:
204,192,279816,1,0,2:0:0:0:
389,192,279899,5,4,2:2:0:0:
396,192,279981,1,0,2:0:0:0:
313,192,280063,1,0,2:0:0:0:
151,192,280146,1,0,2:0:0:0:
203,192,280228,1,8,2:2:0:0:
275,192,280310,1,0,2:0:0:0:
419,192,280393,1,0,2:0:0:0:
362,192,280475,1,0,2:0:0:0:
192,192,280557,5,4,2:2:0:0:
196,192,280640,1,0,2:0:0:0:
278,192,280722,1,0,2:0:0:0:
116,192,280804,1,0,2:0:0:0:
60,192,280887,1,8,2:2:0:0:
120,192,280969,1,0,2:0:0:0:
264,192,281051,1,0,2:0:0:0:
205,192,281134,1,0,2:0:0:0:
376,192,281216,5,4,2:2:0:0:
458,192,281298,1,0,2:0:0:0:
463,192,281380,1,0,2:0:0:0:
307,192,281463,1,0,2:0:0:0:
359,192,281545,1,8,2:2:0:0:
430,192,281627,1,0,2:0:0:0:
285,192,281710,1,0,2:0:0:0:
350,192,281792,1,0,2:0:0:0:
180,192,281874,5,4,2:2:0:0:
98,192,281957,1,0,2:0:0:0:
103,192,282039,1,0,2:0:0:0:
260,192,282122,1,0,2:0:0:0:
208,192,282204,1,8,2:2:0:0:
141,192,282286,1,0,2:0:0:0:
285,192,282368,1,0,2:0:0:0:
347,192,282451,1,0,2:0:0:0:
171,192,282533,5,4,2:2:0:0:
89,192,282615,1,0,2:0:0:0:
165,192,282698,1,0,2:0:0:0:
342,192,282780,1,0,2:0:0:0:
336,192,282862,1,8,2:2:0:0:
254,192,282945,1,0,2:0:0:0:
108,192,283027,1,0,2:0:0:0:
168,192,283109,1,0,2:0:0:0:
340,192,283192,5,4,2:2:0:0:
277,192,283274,1,0,2:0:0:0:
219,192,283356,1,0,2:0:0:0:
390,192,283439,1,0,2:0:0:0:
472,192,283521,1,8,2:2:0:0:
466,192,283603,1,0,2:0:0:0:
321,192,283686,1,0,2:0:0:0:
382,192,283768,1,0,2:0:0:0:
210,192,283850,5,4,2:2:0:0:
149,192,283933,1,0,2:0:0:0:
92,192,284015,1,0,2:0:0:0:
266,192,284097,1,0,2:0:0:0:
183,192,284180,1,8,2:2:0:0:
178,192,284262,1,0,2:0:0:0:
323,192,284344,1,0,2:0:0:0:
383,192,284427,1,0,2:0:0:0:
211,192,284509,5,4,2:2:0:0:
139,192,284591,1,0,2:0:0:0:
132,192,284674,1,0,2:0:0:0:
306,192,284756,1,0,2:0:0:0:
247,192,284838,1,8,2:2:0:0:
191,192,284921,1,0,2:0:0:0:
335,192,285003,1,0,2:0:0:0:
401,192,285085,1,0,2:0:0:0:
228,192,285168,5,4,2:2:0:0:
146,192,285250,1,0,2:0:0:0:
146,192,285332,1,0,2:0:0:0:
309,192,285415,1,0,2:0:0:0:
375,192,285497,1,8,2:2:0:0:
309,192,285579,1,0,2:0:0:0:
167,192,285661,1,0,2:0:0:0:
228,192,285744,1,0,2:0:0:0:
53,192,285826,5,4,2:2:0:0:
135,192,285908,1,0,2:0:0:0:
135,192,285991,1,0,2:0:0:0:
291,192,286073,1,0,2:0:0:0:
231,192,286155,1,8,2:2:0:0:
171,192,286238,1,0,2:0:0:0:
314,192,286320,1,0,2:0:0:0:
375,192,286402,1,0,2:0:0:0:
213,192,286485,5,4,2:2:0:0:
272,192,286567,1,0,2:0:0:0:
331,192,286649,1,0,2:0:0:0:
186,192,286732,1,0,2:0:0:0:
145,192,286814,1,8,2:2:0:0:
186,192,286896,1,0,2:0:0:0:
331,192,286979,1,0,2:0:0:0:
272,192,287061,1,0,2:0:0:0:
440,192,287143,5,4,2:2:0:0:
440,192,287226,1,0,2:0:0:0:
358,192,287308,1,0,2:0:0:0:
196,192,287390,1,0,2:0:0:0:
196,192,287473,1,8,2:2:0:0:
278,192,287555,1,0,2:0:0:0:
422,192,287637,1,0,2:0:0:0:
360,192,287720,1,0,2:0:0:0:
188,192,287802,5,4,2:2:0:0:
252,192,287884,1,0,2:0:0:0:
169,192,287967,1,8,2:2:0:0:
169,192,288049,1,0,2:0:0:0:
314,192,288131,1,8,2:2:0:0:
314,192,288214,1,0,2:0:0:0:
397,192,288296,1,8,2:2:0:0:
397,192,288378,1,0,2:0:0:0:
230,192,288461,5,4,2:2:0:0:
172,192,288543,1,0,2:0:0:0:
254,192,288625,1,8,2:2:0:0:
254,192,288708,1,0,2:0:0:0:
398,192,288790,1,8,2:2:0:0:
339,192,288872,1,0,2:0:0:0:
195,192,288955,1,8,2:2:0:0:
254,192,289037,1,0,2:0:0:0:
433,192,289119,5,4,2:2:0:0:
433,192,289202,1,0,2:0:0:0:
351,192,289284,1,8,2:2:0:0:
351,192,289366,1,0,2:0:0:0:
193,192,289449,1,8,2:2:0:0:
254,192,289531,1,0,2:0:0:0:
336,192,289613,1,8,2:2:0:0:
275,192,289696,1,0,2:0:0:0:
98,192,289778,5,4,2:2:0:0:
159,192,289860,1,0,2:0:0:0:
330,192,289943,1,8,2:2:0:0:
330,192,290025,1,0,2:0:0:0:
151,192,290107,1,8,2:2:0:0:
142,192,290190,1,0,2:0:0:0:
225,192,290272,1,8,2:2:0:0:
161,192,290354,1,0,2:0:0:0:
380,192,290436,5,4,2:2:0:0:
463,192,290519,1,8,2:2:0:0:
321,192,290601,1,8,2:2:0:0:
176,192,290683,1,8,2:2:0:0:
176,192,290766,1,8,2:2:0:0:
322,192,290848,1,8,2:2:0:0:
384,192,290930,1,8,2:2:0:0:
195,192,291013,1,8,2:2:0:0:
138,192,291095,5,8,2:2:0:0:
314,192,291177,1,8,2:2:0:0:
396,192,291260,1,8,2:2:0:0:
314,192,291342,1,8,2:2:0:0:
314,192,291424,1,8,2:2:0:0:
164,192,291507,1,8,2:2:0:0:
97,192,291589,1,8,2:2:0:0:
163,192,291671,1,8,2:2:0:0:
332,192,291754,5,8,2:2:0:0:
316,192,291795,1,8,2:2:0:0:
292,192,291836,1,8,2:2:0:0:
261,192,291877,1,8,2:2:0:0:
227,192,291918,1,8,2:2:0:0:
183,192,291960,1,8,2:2:0:0:
315,192,292001,1,8,2:2:0:0:
357,192,292042,1,8,2:2:0:0:
378,192,292083,5,8,2:2:0:0:
376,192,292124,1,8,2:2:0:0:
355,192,292165,1,8,2:2:0:0:
311,192,292207,1,8,2:2:0:0:
172,192,292248,1,8,2:2:0:0:
134,192,292289,1,8,2:2:0:0:
112,192,292330,1,8,2:2:0:0:
101,192,292371,1,8,2:2:0:0:
259,192,292412,5,8,2:2:0:0:
342,192,292495,1,8,2:2:0:0:
191,192,292577,1,8,2:2:0:0:
109,192,292659,1,8,2:2:0:0:
342,192,292742,1,8,2:2:0:0:
425,192,292824,1,8,2:2:0:0:
188,192,292906,1,8,2:2:0:0:
106,192,292989,1,8,2:2:0:0:
400,192,293071,6,0,P|368:128|320:96,1,128.099994840027,0|0,2:0|2:0,2:0:0:0:
240,96,293318,2,0,L|368:96,1,128.099994840027,0|0,2:0|2:0,2:0:0:0:
448,96,293565,1,0,2:0:0:0:
290,190,293730,6,0,P|322:126|370:94,1,128.099994840027,0|0,2:0|2:0,2:0:0:0:
450,94,293977,2,0,L|322:94,1,128.099994840027,0|0,2:0|2:0,2:0:0:0:
242,94,294224,1,0,2:0:0:0:
80,192,294388,6,0,L|208:192,1,128.099994840027,0|0,2:0|2:0,2:0:0:0:
288,192,294635,2,0,L|416:192,1,128.099994840027,0|0,2:0|2:0,2:0:0:0:
496,192,294882,1,0,2:0:0:0:
336,224,295047,6,0,L|272:224,2,64.0499974200135,0|0|0,2:0|2:0|2:0,2:0:0:0:
240,256,295294,2,0,L|176:256,2,64.0499974200135,0|0|0,2:0|2:0|2:0,2:0:0:0:
336,256,295541,2,0,L|400:256,1,64.0499974200135,0|0,2:0|2:0,2:0:0:0:
176,352,295705,6,0,L|112:352,2,64.0499974200135,0|0|0,1:0|2:0|2:0,2:0:0:0:
400,352,296035,1,0,3:0:0:0:
256,352,296199,1,0,2:0:0:0:
400,352,296364,5,0,1:0:0:0:
256,352,296529,2,0,L|320:352,1,64.0499974200135,0|0,2:0|2:0,2:0:0:0:
176,352,296693,1,0,3:0:0:0:
320,352,296858,2,0,L|256:352,1,64.0499974200135,0|0,2:0|2:0,2:0:0:0:
96,352,297023,6,0,L|80:224,1,128.099994840027,0|0,1:0|2:0,2:0:0:0:
160,224,297270,1,0,2:0:0:0:
304,224,297352,2,0,L|320:96,1,128.099994840027,0|0,3:0|2:0,2:0:0:0:
240,96,297599,1,0,2:0:0:0:
160,64,297681,6,0,L|144:192,1,128.099994840027,0|0,1:0|2:0,2:0:0:0:
224,192,297928,1,0,2:0:0:0:
368,192,298010,2,0,L|384:320,1,128.099994840027,0|0,3:0|2:0,2:0:0:0:
304,320,298257,1,0,2:0:0:0:
128,320,298340,5,0,1:0:0:0:
192,320,298422,1,0,2:0:0:0:
256,320,298504,1,0,2:0:0:0:
32,192,298669,1,0,3:0:0:0:
160,192,298834,1,0,2:0:0:0:
288,192,298998,5,0,1:0:0:0:
160,192,299163,2,0,L|224:192,1,64.0499974200135,0|0,2:0|2:0,2:0:0:0:
368,192,299328,1,0,3:0:0:0:
224,192,299492,2,0,L|288:192,1,64.0499974200135,0|0,2:0|2:0,2:0:0:0:
480,192,299657,5,0,1:0:0:0:
352,192,299822,1,0,2:0:0:0:
224,192,299986,1,0,3:0:0:0:
352,192,300151,1,0,2:0:0:0:
288,192,300233,1,0,2:0:0:0:
96,192,300316,5,0,1:0:0:0:
224,192,300481,1,0,2:0:0:0:
160,192,300563,1,0,2:0:0:0:
0,288,300645,1,0,3:0:0:0:
128,288,300810,1,0,2:0:0:0:
400,288,300974,6,0,L|336:288,1,64.0499974200135,0|0,1:0|2:0,2:0:0:0:
304,320,301139,2,0,L|368:320,1,64.0499974200135,0|0,2:0|2:0,2:0:0:0:
208,320,301304,2,0,L|144:320,1,64.0499974200135,0|0,3:0|2:0,2:0:0:0:
304,320,301468,2,0,L|384:320,1,64.0499974200135,0|0,2:0|2:0,2:0:0:0:
208,320,301633,5,0,1:0:0:0:
48,320,301798,2,0,L|112:320,1,64.0499974200135,0|0,2:0|2:0,2:0:0:0:
256,240,301962,1,0,3:0:0:0:
416,240,302127,2,0,L|352:240,1,64.0499974200135,0|0,2:0|2:0,2:0:0:0:
176,240,302292,5,0,1:0:0:0:
304,240,302456,1,0,2:0:0:0:
240,240,302539,1,0,2:0:0:0:
80,240,302621,1,0,3:0:0:0:
208,240,302786,1,0,2:0:0:0:
336,240,302950,5,0,1:0:0:0:
208,240,303115,1,0,2:0:0:0:
272,240,303197,1,0,2:0:0:0:
432,240,303280,1,0,3:0:0:0:
304,240,303444,1,0,2:0:0:0:
48,256,303609,6,0,L|32:192,2,64.0499974200135,0|0|0,1:0|2:0|2:0,2:0:0:0:
288,256,303938,1,0,3:0:0:0:
144,256,304103,1,0,2:0:0:0:
288,256,304267,5,0,1:0:0:0:
448,256,304432,2,0,L|384:256,1,64.0499974200135,0|0,2:0|2:0,2:0:0:0:
240,256,304597,1,0,3:0:0:0:
383,256,304761,2,0,L|447:256,1,64.0499974200135,0|0,2:0|2:0,2:0:0:0:
240,256,304926,6,0,L|176:256,1,64.0499974200135,0|0,1:0|2:0,2:0:0:0:
240,256,305091,2,0,L|304:256,1,64.0499974200135,0|0,2:0|2:0,2:0:0:0:
240,256,305255,2,0,L|176:256,1,64.0499974200135,0|0,3:0|2:0,2:0:0:0:
336,256,305420,2,0,L|400:256,1,64.0499974200135,0|0,2:0|2:0,2:0:0:0:
240,256,305585,6,0,L|224:192,1,64.0499974200135,0|0,1:0|2:0,2:0:0:0:
128,192,305749,2,0,L|112:128,1,64.0499974200135,0|0,1:0|2:0,2:0:0:0:
208,112,305914,2,0,L|272:112,1,64.0499974200135,0|0,3:0|2:0,2:0:0:0:
112,112,306079,2,0,L|48:112,1,64.0499974200135,0|0,1:0|2:0,2:0:0:0:
272,112,306243,5,0,1:0:0:0:
329,136,306325,1,0,2:0:0:0:
352,194,306407,1,0,2:0:0:0:
329,252,306491,1,0,2:0:0:0:
240,256,306573,2,0,L|176:256,1,64.0499974200135,0|0,3:0|2:0,2:0:0:0:
336,352,306737,2,0,L|400:352,1,64.0499974200135,0|0,2:0|2:0,2:0:0:0:
240,256,306902,5,0,1:0:0:0:
96,256,307067,2,0,L|80:320,1,64.0499974200135,0|0,2:0|2:0,2:0:0:0:
224,352,307231,1,0,3:0:0:0:
80,352,307396,2,0,L|96:288,1,64.0499974200135,0|0,2:0|2:0,2:0:0:0:
256,288,307561,5,0,1:0:0:0:
285,232,307643,1,0,2:0:0:0:
277,169,307725,1,0,2:0:0:0:
234,123,307807,1,0,2:0:0:0:
172,110,307890,1,0,3:0:0:0:
304,64,308054,1,0,2:0:0:0:
80,336,308219,5,0,1:0:0:0:
51,280,308301,1,0,2:0:0:0:
59,217,308383,1,0,2:0:0:0:
102,171,308467,1,0,2:0:0:0:
164,158,308548,1,0,3:0:0:0:
32,112,308714,1,0,2:0:0:0:
288,192,308878,5,0,1:0:0:0:
192,192,308960,2,0,L|144:240,2,64.0499974200135,0|0|0,2:0|2:0|2:0,2:0:0:0:
288,192,309207,2,0,L|352:192,1,64.0499974200135,0|0,3:0|2:0,2:0:0:0:
192,192,309372,2,0,L|128:192,1,64.0499974200135,0|0,2:0|2:0,2:0:0:0:
288,192,309536,5,0,1:0:0:0:
432,224,309701,2,0,L|368:224,1,64.0499974200135,0|0,2:0|2:0,2:0:0:0:
224,224,309866,1,0,3:0:0:0:
368,192,310031,2,0,L|432:192,1,64.0499974200135,0|0,2:0|2:0,2:0:0:0:
256,192,310195,6,0,L|192:192,1,64.0499974200135,0|0,1:0|2:0,2:0:0:0:
288,96,310360,2,0,L|352:96,2,64.0499974200135,0|0|0,2:0|2:0|3:0,2:0:0:0:
144,96,310689,1,0,2:0:0:0:
368,192,310854,6,0,L|432:192,1,64.0499974200135,0|0,1:0|2:0,2:0:0:0:
336,288,311019,2,0,L|272:288,2,64.0499974200135,0|0|0,2:0|2:0|3:0,2:0:0:0:
480,288,311348,1,0,2:0:0:0:
256,112,311512,5,0,1:0:0:0:
199,136,311594,1,0,2:0:0:0:
176,194,311676,1,0,2:0:0:0:
199,252,311760,1,0,2:0:0:0:
288,256,311842,2,0,L|352:256,1,64.0499974200135,0|0,3:0|2:0,2:0:0:0:
192,352,312006,2,0,L|128:352,1,64.0499974200135,0|0,2:0|2:0,2:0:0:0:
288,256,312171,5,0,1:0:0:0:
432,256,312336,2,0,L|448:320,1,64.0499974200135,0|0,2:0|2:0,2:0:0:0:
304,352,312500,1,0,3:0:0:0:
160,352,312665,2,0,L|176:288,1,64.0499974200135,0|0,2:0|2:0,2:0:0:0:
320,240,312829,6,0,L|336:176,1,64.0499974200135,0|0,1:0|2:0,2:0:0:0:
240,160,312994,2,0,L|208:96,1,64.0499974200135,0|0,2:0|2:0,2:0:0:0:
112,96,313159,1,0,3:0:0:0:
256,80,313323,1,0,2:0:0:0:
32,160,313488,6,0,L|16:224,1,64.0499974200135,0|0,1:0|2:0,2:0:0:0:
112,240,313653,2,0,L|144:304,1,64.0499974200135,0|0,2:0|2:0,2:0:0:0:
240,304,313818,1,0,3:0:0:0:
96,320,313982,1,0,2:0:0:0:
352,192,314147,6,0,L|368:128,3,64.0499974200135,0|0|0|0,1:0|2:0|2:0|2:0,2:0:0:0:
272,112,314476,2,0,L|192:112,1,64.0499974200135,0|0,3:0|2:0,2:0:0:0:
368,112,314641,2,0,L|432:112,1,64.0499974200135,0|0,2:0|2:0,2:0:0:0:
272,192,314805,5,0,1:0:0:0:
416,192,314970,2,0,L|400:256,1,64.0499974200135,0|0,2:0|2:0,2:0:0:0:
256,288,315135,1,0,3:0:0:0:
400,288,315299,2,0,L|336:288,1,64.0499974200135,0|0,2:0|2:0,2:0:0:0:
144,288,315464,6,0,L|160:224,1,64.0499974200135,0|0,1:0|2:0,2:0:0:0:
320,224,315629,1,0,2:0:0:0:
287,224,315670,1,0,2:0:0:0:
160,224,315711,1,0,2:0:0:0:
80,208,315793,2,0,L|96:144,1,64.0499974200135,0|0,3:0|2:0,2:0:0:0:
256,144,315958,1,0,2:0:0:0:
223,144,315999,1,0,2:0:0:0:
96,144,316040,1,0,2:0:0:0:
16,192,316123,6,0,L|32:256,1,64.0499974200135,0|0,1:0|2:0,2:0:0:0:
192,256,316287,2,0,L|256:256,1,64.0499974200135,0|0,1:0|2:0,2:0:0:0:
480,256,316452,1,0,3:0:0:0:
336,256,316535,1,0,2:0:0:0:
112,352,316616,1,0,1:0:0:0:
256,352,316699,1,0,2:0:0:0:
480,256,316781,5,4,2:2:0:0:
463,195,316863,1,0,2:0:0:0:
415,153,316945,1,0,2:0:0:0:
353,143,317029,1,0,2:0:0:0:
192,224,317111,2,0,L|128:224,1,64.0499974200135,8|0,2:2|2:0,2:0:0:0:
288,224,317275,2,0,L|304:160,1,64.0499974200135,0|0,2:0|2:0,2:0:0:0:
208,144,317440,6,0,L|224:80,1,64.0499974200135,4|0,2:2|2:0,2:0:0:0:
368,80,317604,2,0,L|432:80,1,64.0499974200135,0|0,2:0|2:0,2:0:0:0:
336,80,317769,2,0,L|320:144,1,64.0499974200135,8|0,2:2|2:0,2:0:0:0:
480,160,317934,2,0,L|416:160,1,64.0499974200135,0|0,2:0|2:0,2:0:0:0:
240,208,318098,6,0,L|224:272,1,64.0499974200135,4|0,2:2|2:0,2:0:0:0:
320,272,318263,2,0,L|384:272,1,64.0499974200135,0|0,2:0|2:0,2:0:0:0:
288,352,318428,2,0,L|224:352,1,64.0499974200135,8|0,2:2|2:0,2:0:0:0:
80,272,318592,2,0,L|96:208,1,64.0499974200135,0|0,2:0|2:0,2:0:0:0:
272,208,318757,6,0,L|288:144,1,64.0499974200135,4|0,2:2|2:0,2:0:0:0:
192,144,318922,2,0,L|128:144,1,64.0499974200135,0|0,2:0|2:0,2:0:0:0:
224,64,319087,2,0,L|288:64,1,64.0499974200135,8|0,2:2|2:0,2:0:0:0:
432,144,319251,2,0,L|416:208,1,64.0499974200135,0|0,2:0|2:0,2:0:0:0:
256,352,319416,5,4,2:2:0:0:
229,294,319498,1,0,2:0:0:0:
179,254,319580,1,0,2:0:0:0:
118,239,319662,1,0,2:0:0:0:
272,128,319745,2,0,L|336:112,1,64.0499974200135,8|0,2:2|2:0,2:0:0:0:
176,192,319910,2,0,L|112:176,1,64.0499974200135,0|0,2:0|2:0,2:0:0:0:
208,128,320074,6,0,L|224:192,1,64.0499974200135,4|0,2:2|2:0,2:0:0:0:
384,192,320239,2,0,L|320:192,1,64.0499974200135,0|0,2:0|2:0,2:0:0:0:
224,208,320404,2,0,L|240:272,1,64.0499974200135,8|0,2:2|2:0,2:0:0:0:
400,272,320568,2,0,L|464:272,1,64.0499974200135,0|0,2:0|2:0,2:0:0:0:
239,288,320733,5,4,2:2:0:0:
182,264,320815,1,0,2:0:0:0:
163,205,320897,1,0,2:0:0:0:
198,154,320979,1,0,2:0:0:0:
43,193,321062,1,8,2:2:0:0:
9,140,321144,1,0,2:0:0:0:
29,81,321226,1,0,2:0:0:0:
88,60,321310,1,0,2:0:0:0:
272,288,321391,5,4,2:2:0:0:
329,264,321473,1,0,2:0:0:0:
348,205,321557,1,0,2:0:0:0:
313,154,321639,1,0,2:0:0:0:
469,193,321720,1,8,2:2:0:0:
503,140,321804,1,0,2:0:0:0:
483,81,321885,1,0,2:0:0:0:
424,60,321968,1,0,2:0:0:0:
256,48,322050,6,0,L|192:48,3,64.0499974200135,4|0|0|0,2:2|2:0|2:0|2:0,2:0:0:0:
32,48,322379,2,0,L|16:112,1,64.0499974200135,8|0,2:2|2:0,2:0:0:0:
176,128,322544,2,0,L|192:192,1,64.0499974200135,0|0,2:0|2:0,2:0:0:0:
288,192,322709,6,0,L|352:192,1,64.0499974200135,4|0,2:2|2:0,2:0:0:0:
191,190,322873,2,0,L|175:254,1,64.0499974200135,0|0,2:0|2:0,2:0:0:0:
272,272,323038,2,0,L|257:338,1,64.0499974200135,8|0,2:2|2:0,2:0:0:0:
96,336,323203,2,0,L|160:336,1,64.0499974200135,0|0,2:0|2:0,2:0:0:0:
320,336,323367,6,0,L|384:336,1,64.0499974200135,4|0,2:2|2:0,2:0:0:0:
287,334,323532,2,0,L|271:270,1,64.0499974200135,0|0,2:0|2:0,2:0:0:0:
416,256,323697,2,0,L|400:192,1,64.0499974200135,8|0,2:2|2:0,2:0:0:0:
240,192,323861,2,0,L|176:192,1,64.0499974200135,0|0,2:0|2:0,2:0:0:0:
336,144,324026,6,0,L|400:144,1,64.0499974200135,4|0,2:2|2:0,2:0:0:0:
303,146,324191,2,0,L|287:210,1,64.0499974200135,0|0,2:0|2:0,2:0:0:0:
432,224,324356,2,0,L|496:224,1,64.0499974200135,8|0,2:2|2:0,2:0:0:0:
336,240,324520,2,0,L|320:304,1,64.0499974200135,0|0,2:0|2:0,2:0:0:0:
144,192,324685,5,4,2:2:0:0:
159,130,324767,1,0,2:0:0:0:
205,87,324849,1,0,2:0:0:0:
268,76,324931,1,0,2:0:0:0:
112,64,325014,2,0,L|48:64,1,64.0499974200135,8|0,2:2|2:0,2:0:0:0:
208,64,325179,2,0,L|224:128,1,64.0499974200135,0|0,2:0|2:0,2:0:0:0:
128,160,325343,6,0,L|144:224,1,64.0499974200135,4|0,2:2|2:0,2:0:0:0:
304,224,325508,2,0,L|368:224,1,64.0499974200135,0|0,2:0|2:0,2:0:0:0:
272,224,325672,2,0,L|256:288,1,64.0499974200135,8|0,2:2|2:0,2:0:0:0:
416,304,325837,2,0,L|400:368,1,64.0499974200135,0|0,2:0|2:0,2:0:0:0:
192,304,326002,6,0,L|176:240,1,64.0499974200135,4|0,2:2|2:0,2:0:0:0:
272,224,326166,2,0,L|288:160,1,64.0499974200135,0|0,2:0|2:0,2:0:0:0:
384,160,326331,2,0,L|448:160,1,64.0499974200135,8|0,2:2|2:0,2:0:0:0:
287,161,326496,2,0,L|271:225,1,64.0499974200135,0|0,2:0|2:0,2:0:0:0:
128,224,326660,6,0,L|64:224,1,64.0499974200135,4|0,2:2|2:0,2:0:0:0:
224,144,326825,2,0,L|240:80,1,64.0499974200135,0|0,2:0|2:0,2:0:0:0:
400,48,326990,2,0,L|336:48,1,64.0499974200135,8|0,2:2|2:0,2:0:0:0:
176,48,327154,2,0,L|240:48,1,64.0499974200135,0|0,2:0|2:0,2:0:0:0:
416,192,327319,6,0,L|480:192,2,64.0499974200135,4|0|0,2:2|2:0|2:0,2:0:0:0:
272,192,327648,1,8,2:2:0:0:
416,192,327813,1,0,2:0:0:0:
272,192,327978,5,4,2:2:0:0:
416,192,328142,2,0,L|480:192,2,64.0499974200135,0|0|8,2:0|2:0|2:2,2:0:0:0:
272,192,328472,2,0,L|336:192,1,64.0499974200135,0|0,2:0|2:0,2:0:0:0:
176,192,328636,5,4,2:2:0:0:
118,216,328718,1,0,2:0:0:0:
95,274,328800,1,0,2:0:0:0:
121,331,328884,1,0,2:0:0:0:
179,353,328965,1,8,2:2:0:0:
320,352,329130,1,0,2:0:0:0:
176,192,329295,5,4,2:2:0:0:
118,216,329377,1,0,2:0:0:0:
95,274,329459,1,0,2:0:0:0:
121,331,329541,1,0,2:0:0:0:
179,353,329624,1,8,2:2:0:0:
320,352,329789,1,0,2:0:0:0:
96,192,329953,6,0,L|32:192,2,64.0499974200135,4|0|0,2:2|2:0|2:0,2:0:0:0:
240,192,330282,1,8,2:2:0:0:
96,192,330447,1,0,2:0:0:0:
240,192,330612,5,4,2:2:0:0:
96,192,330776,2,0,L|32:192,2,64.0499974200135,0|0|8,2:0|2:0|2:2,2:0:0:0:
240,192,331106,2,0,L|176:192,1,64.0499974200135,0|0,2:0|2:0,2:0:0:0:
336,192,331270,5,4,2:2:0:0:
394,216,331354,1,0,2:0:0:0:
417,274,331436,1,0,2:0:0:0:
391,331,331518,1,0,2:0:0:0:
333,353,331599,1,8,2:2:0:0:
192,352,331765,1,0,2:0:0:0:
336,192,331929,5,4,2:2:0:0:
394,216,332011,1,0,2:0:0:0:
417,274,332093,1,0,2:0:0:0:
391,331,332177,1,0,2:0:0:0:
333,353,332258,1,8,2:2:0:0:
480,352,332423,1,0,2:0:0:0:
256,352,332588,6,0,L|192:352,1,64.0499974200135,4|0,2:2|2:0,2:0:0:0:
176,320,332753,2,0,L|240:320,1,64.0499974200135,4|0,2:2|2:0,2:0:0:0:
336,320,332917,2,0,L|352:256,1,64.0499974200135,8|0,2:2|2:0,2:0:0:0:
256,224,333082,2,0,L|272:160,1,64.0499974200135,4|0,2:2|2:0,2:0:0:0:
368,160,333247,6,0,L|432:160,1,64.0499974200135,4|0,2:2|2:0,2:0:0:0:
336,80,333411,2,0,L|272:80,1,64.0499974200135,4|0,2:2|2:0,2:0:0:0:
368,80,333576,2,0,L|384:144,1,64.0499974200135,8|0,2:2|2:0,2:0:0:0:
224,160,333740,2,0,L|160:160,1,64.0499974200135,4|0,2:2|2:0,2:0:0:0:
320,192,333905,6,0,L|384:192,1,64.0499974200135,4|0,2:2|2:0,2:0:0:0:
288,288,334070,2,0,L|224:288,1,64.0499974200135,4|0,2:2|2:0,2:0:0:0:
320,192,334234,2,0,L|384:192,1,64.0499974200135,8|0,2:2|2:0,2:0:0:0:
208,192,334399,2,0,L|144:192,1,64.0499974200135,4|0,2:2|2:0,2:0:0:0:
320,192,334564,6,0,L|384:192,1,64.0499974200135,4|0,2:2|2:0,2:0:0:0:
448,96,334728,2,0,L|384:96,1,64.0499974200135,4|0,2:2|2:0,2:0:0:0:
224,96,334893,2,0,L|288:96,1,64.0499974200135,8|0,2:2|2:0,2:0:0:0:
448,96,335058,2,0,L|368:96,1,64.0499974200135,4|0,2:2|2:0,2:0:0:0:
128,64,335222,5,8,2:2:0:0:
272,48,335305,1,8,2:2:0:0:
416,64,335387,1,8,2:2:0:0:
272,48,335469,1,8,2:2:0:0:
112,80,335552,1,8,2:2:0:0:
256,64,335635,1,8,2:2:0:0:
400,80,335717,1,8,2:2:0:0:
256,64,335799,1,8,2:2:0:0:
80,96,335881,5,8,2:2:0:0:
240,80,335964,1,8,2:2:0:0:
400,96,336046,1,8,2:2:0:0:
240,80,336128,1,8,2:2:0:0:
64,112,336211,1,8,2:2:0:0:
224,96,336294,1,8,2:2:0:0:
384,112,336376,1,8,2:2:0:0:
224,96,336458,1,8,2:2:0:0:
64,112,336540,6,0,P|32:224|352:336,1,512.399979360108,8|0,2:2|2:0,2:0:0:0:
192,352,337363,1,0,2:0:0:0:
320,320,337528,1,0,2:0:0:0:
160,352,337692,2,0,L|144:288,1,64.0499974200135,0|0,2:0|2:0,2:0:0:0:
406,192,337857,5,4,2:2:0:0:
402,192,337939,1,0,2:0:0:0:
319,192,338022,1,0,2:0:0:0:
158,192,338104,1,0,2:0:0:0:
99,192,338187,1,8,2:2:0:0:
165,192,338269,1,0,2:0:0:0:
310,192,338351,1,0,2:0:0:0:
258,192,338433,1,0,2:0:0:0:
425,192,338516,5,4,2:2:0:0:
431,192,338598,1,0,2:0:0:0:
349,192,338680,1,0,2:0:0:0:
349,192,338762,1,0,2:0:0:0:
203,192,338845,1,8,2:2:0:0:
275,192,338927,1,0,2:0:0:0:
130,192,339009,1,0,2:0:0:0:
82,192,339092,1,0,2:0:0:0:
265,192,339174,5,4,2:2:0:0:
326,192,339256,1,0,2:0:0:0:
386,192,339339,1,0,2:0:0:0:
223,192,339421,1,0,2:0:0:0:
228,192,339503,1,8,2:2:0:0:
310,192,339586,1,0,2:0:0:0:
165,192,339668,1,0,2:0:0:0:
113,192,339750,1,0,2:0:0:0:
290,192,339833,5,4,2:2:0:0:
362,192,339915,1,0,2:0:0:0:
279,192,339997,1,0,2:0:0:0:
273,192,340080,1,0,2:0:0:0:
129,192,340162,1,8,2:2:0:0:
188,192,340244,1,0,2:0:0:0:
349,192,340327,1,0,2:0:0:0:
279,192,340409,1,0,2:0:0:0:
107,192,340491,5,4,2:2:0:0:
39,192,340574,1,0,2:0:0:0:
107,192,340656,1,0,2:0:0:0:
271,192,340738,1,0,2:0:0:0:
220,192,340821,1,8,2:2:0:0:
157,192,340903,1,0,2:0:0:0:
302,192,340985,1,0,2:0:0:0:
362,192,341068,1,0,2:0:0:0:
189,192,341150,5,4,2:2:0:0:
110,192,341232,1,0,2:0:0:0:
100,192,341315,1,0,2:0:0:0:
259,192,341397,1,0,2:0:0:0:
316,192,341479,1,8,2:2:0:0:
253,192,341562,1,0,2:0:0:0:
108,192,341644,1,0,2:0:0:0:
166,192,341726,1,0,2:0:0:0:
341,192,341809,5,4,2:2:0:0:
282,192,341891,1,0,2:0:0:0:
222,192,341973,1,0,2:0:0:0:
382,192,342056,1,0,2:0:0:0:
377,192,342138,1,8,2:2:0:0:
295,192,342220,1,0,2:0:0:0:
131,192,342303,1,0,2:0:0:0:
70,192,342385,1,0,2:0:0:0:
215,192,342467,5,4,2:2:0:0:
215,192,342550,1,0,2:0:0:0:
297,192,342632,1,0,2:0:0:0:
215,192,342714,1,0,2:0:0:0:
376,192,342797,1,8,2:2:0:0:
433,192,342879,1,0,2:0:0:0:
246,192,342961,1,0,2:0:0:0:
178,192,343043,1,0,2:0:0:0:
353,192,343126,5,4,2:2:0:0:
435,192,343208,1,0,2:0:0:0:
353,192,343290,1,0,2:0:0:0:
207,192,343373,1,0,2:0:0:0:
289,192,343455,1,8,2:2:0:0:
289,192,343537,1,0,2:0:0:0:
126,192,343620,1,0,2:0:0:0:
184,192,343702,1,0,2:0:0:0:
355,192,343784,5,4,2:2:0:0:
307,192,343867,1,0,2:0:0:0:
243,192,343949,1,0,2:0:0:0:
389,192,344031,1,0,2:0:0:0:
453,192,344115,1,8,2:2:0:0:
389,192,344196,1,0,2:0:0:0:
229,192,344278,1,0,2:0:0:0:
173,192,344361,1,0,2:0:0:0:
353,192,344443,5,4,2:2:0:0:
435,192,344525,1,0,2:0:0:0:
435,192,344608,1,0,2:0:0:0:
289,192,344690,1,0,2:0:0:0:
207,192,344772,1,8,2:2:0:0:
207,192,344855,1,0,2:0:0:0:
354,192,344937,1,0,2:0:0:0:
294,192,345019,1,0,2:0:0:0:
145,192,345102,5,4,2:2:0:0:
63,192,345184,1,0,2:0:0:0:
63,192,345266,1,0,2:0:0:0:
145,192,345349,1,0,2:0:0:0:
294,192,345431,1,8,2:2:0:0:
232,192,345513,1,0,2:0:0:0:
315,192,345596,1,0,2:0:0:0:
315,192,345678,1,0,2:0:0:0:
133,192,345760,5,4,2:2:0:0:
133,192,345843,1,0,2:0:0:0:
216,192,345925,1,0,2:0:0:0:
374,192,346007,1,0,2:0:0:0:
324,192,346090,1,8,2:2:0:0:
255,192,346172,1,0,2:0:0:0:
402,192,346254,1,0,2:0:0:0:
402,192,346337,1,0,2:0:0:0:
240,192,346419,5,4,2:2:0:0:
298,192,346501,1,0,2:0:0:0:
356,192,346584,1,0,2:0:0:0:
283,192,346666,1,0,2:0:0:0:
134,192,346748,1,8,2:2:0:0:
193,192,346831,1,0,2:0:0:0:
375,192,346913,1,0,2:0:0:0:
436,192,346995,1,0,2:0:0:0:
250,192,347078,5,4,2:2:0:0:
168,192,347160,1,0,2:0:0:0:
85,192,347242,1,0,2:0:0:0:
230,192,347325,1,0,2:0:0:0:
230,192,347407,1,8,2:2:0:0:
230,192,347489,1,0,2:0:0:0:
371,192,347571,1,0,2:0:0:0:
315,192,347654,1,0,2:0:0:0:
140,192,347736,5,4,2:2:0:0:
140,192,347818,1,0,2:0:0:0:
283,192,347901,1,4,2:2:0:0:
283,192,347983,1,0,2:0:0:0:
428,192,348065,1,8,2:2:0:0:
428,192,348148,1,0,2:0:0:0:
282,192,348230,1,4,2:2:0:0:
343,192,348312,1,0,2:0:0:0:
144,192,348395,5,4,2:2:0:0:
62,192,348477,1,0,2:0:0:0:
54,192,348559,1,0,2:0:0:0:
197,192,348642,1,0,2:0:0:0:
191,192,348724,1,8,2:2:0:0:
109,192,348806,1,0,2:0:0:0:
267,192,348889,1,0,2:0:0:0:
321,192,348971,1,0,2:0:0:0:
164,192,349053,5,4,2:2:0:0:
115,192,349136,1,0,2:0:0:0:
197,192,349218,1,0,2:0:0:0:
203,192,349300,1,0,2:0:0:0:
353,192,349383,1,8,2:2:0:0:
293,192,349465,1,0,2:0:0:0:
145,192,349547,1,0,2:0:0:0:
205,192,349630,1,0,2:0:0:0:
375,192,349712,5,4,2:2:0:0:
327,192,349794,1,0,2:0:0:0:
255,192,349877,1,0,2:0:0:0:
410,192,349959,1,0,2:0:0:0:
405,192,350041,1,8,2:2:0:0:
323,192,350124,1,0,2:0:0:0:
179,192,350206,1,0,2:0:0:0:
167,192,350288,1,0,2:0:0:0:
331,192,350371,5,4,2:2:0:0:
391,192,350453,1,0,2:0:0:0:
308,192,350535,1,0,2:0:0:0:
248,192,350618,1,0,2:0:0:0:
392,192,350700,1,8,2:2:0:0:
408,192,350782,1,0,2:0:0:0:
249,192,350865,1,0,2:0:0:0:
185,192,350947,1,0,2:0:0:0:
360,192,351029,5,4,2:2:0:0:
424,192,351112,1,0,2:0:0:0:
435,192,351194,1,0,2:0:0:0:
261,192,351276,1,0,2:0:0:0:
314,192,351359,1,8,2:2:0:0:
385,192,351441,1,0,2:0:0:0:
239,192,351523,1,0,2:0:0:0:
189,192,351606,1,0,2:0:0:0:
366,192,351688,5,4,2:2:0:0:
372,192,351770,1,0,2:0:0:0:
290,192,351852,1,0,2:0:0:0:
109,192,351935,1,0,2:0:0:0:
170,192,352017,1,8,2:2:0:0:
230,192,352099,1,0,2:0:0:0:
377,192,352182,1,0,2:0:0:0:
381,192,352264,1,0,2:0:0:0:
193,192,352346,5,4,2:2:0:0:
140,192,352429,1,0,2:0:0:0:
200,192,352511,1,0,2:0:0:0:
378,192,352593,1,0,2:0:0:0:
317,192,352676,1,8,2:2:0:0:
253,192,352758,1,0,2:0:0:0:
110,192,352840,1,0,2:0:0:0:
172,192,352923,1,0,2:0:0:0:
350,192,353005,5,4,2:2:0:0:
350,192,353087,1,0,2:0:0:0:
268,192,353170,1,0,2:0:0:0:
350,192,353252,1,0,2:0:0:0:
153,192,353334,1,8,2:2:0:0:
90,192,353417,1,0,2:0:0:0:
249,192,353499,1,0,2:0:0:0:
249,192,353581,1,0,2:0:0:0:
427,192,353664,5,4,2:2:0:0:
495,192,353746,1,0,2:0:0:0:
427,192,353828,1,0,2:0:0:0:
260,192,353911,1,0,2:0:0:0:
177,192,353993,1,8,2:2:0:0:
178,192,354075,1,0,2:0:0:0:
325,192,354158,1,0,2:0:0:0:
384,192,354240,1,0,2:0:0:0:
190,192,354322,5,4,2:2:0:0:
108,192,354405,1,0,2:0:0:0:
108,192,354487,1,0,2:0:0:0:
264,192,354569,1,0,2:0:0:0:
214,192,354652,1,8,2:2:0:0:
140,192,354734,1,0,2:0:0:0:
321,192,354816,1,0,2:0:0:0:
377,192,354899,1,0,2:0:0:0:
194,192,354981,5,4,2:2:0:0:
112,192,355063,1,0,2:0:0:0:
112,192,355146,1,0,2:0:0:0:
280,192,355228,1,0,2:0:0:0:
344,192,355310,1,8,2:2:0:0:
280,192,355393,1,0,2:0:0:0:
132,192,355475,1,0,2:0:0:0:
190,192,355557,1,0,2:0:0:0:
362,192,355640,5,4,2:2:0:0:
304,192,355722,1,0,2:0:0:0:
247,192,355804,1,0,2:0:0:0:
99,192,355887,1,0,2:0:0:0:
99,192,355969,1,8,2:2:0:0:
182,192,356051,1,0,2:0:0:0:
343,192,356134,1,0,2:0:0:0:
403,192,356216,1,0,2:0:0:0:
242,192,356298,5,4,2:2:0:0:
176,192,356380,1,0,2:0:0:0:
243,192,356463,1,0,2:0:0:0:
310,192,356545,1,0,2:0:0:0:
160,192,356627,1,8,2:2:0:0:
91,192,356710,1,0,2:0:0:0:
267,192,356792,1,0,2:0:0:0:
329,192,356874,1,0,2:0:0:0:
180,192,356957,5,4,2:2:0:0:
245,192,357039,1,0,2:0:0:0:
311,192,357121,1,0,2:0:0:0:
372,192,357204,1,0,2:0:0:0:
229,192,357286,1,8,2:2:0:0:
293,192,357368,1,0,2:0:0:0:
139,192,357451,1,0,2:0:0:0:
81,192,357533,1,0,2:0:0:0:
282,192,357615,5,4,2:2:0:0:
365,192,357698,1,0,2:0:0:0:
447,192,357780,1,0,2:0:0:0:
302,192,357862,1,0,2:0:0:0:
302,192,357945,1,8,2:2:0:0:
302,192,358027,1,0,2:0:0:0:
152,192,358109,1,0,2:0:0:0:
93,192,358192,1,0,2:0:0:0:
236,192,358274,5,4,2:2:0:0:
379,192,358356,1,4,2:2:0:0:
233,192,358439,1,4,2:2:0:0:
299,192,358521,1,0,2:0:0:0:
371,192,358603,1,12,2:2:0:0:
227,192,358686,1,4,2:2:0:0:
83,192,358768,1,4,2:2:0:0:
222,192,358850,1,4,2:2:0:0:
399,192,358933,5,4,2:2:0:0:
410,192,359015,1,0,2:0:0:0:
349,192,359097,1,0,2:0:0:0:
185,192,359180,1,0,2:0:0:0:
122,192,359262,1,8,2:2:0:0:
191,192,359344,1,0,2:0:0:0:
336,192,359427,1,0,2:0:0:0:
394,192,359509,1,0,2:0:0:0:
253,192,359591,5,4,2:2:0:0:
314,192,359674,1,0,2:0:0:0:
232,192,359756,1,0,2:0:0:0:
224,192,359838,1,0,2:0:0:0:
370,192,359921,1,8,2:2:0:0:
315,192,360003,1,0,2:0:0:0:
127,192,360085,1,0,2:0:0:0:
191,192,360168,1,0,2:0:0:0:
380,192,360250,5,4,2:2:0:0:
387,192,360332,1,0,2:0:0:0:
325,192,360415,1,0,2:0:0:0:
168,192,360497,1,0,2:0:0:0:
217,192,360579,1,8,2:2:0:0:
286,192,360661,1,0,2:0:0:0:
433,192,360744,1,0,2:0:0:0:
381,192,360826,1,0,2:0:0:0:
225,192,360908,5,4,2:2:0:0:
225,192,360991,1,0,2:0:0:0:
367,192,361073,1,0,2:0:0:0:
309,192,361155,1,0,2:0:0:0:
149,192,361238,1,8,2:2:0:0:
208,192,361320,1,0,2:0:0:0:
398,192,361402,1,0,2:0:0:0:
336,192,361485,1,0,2:0:0:0:
164,192,361567,5,4,2:2:0:0:
82,192,361649,1,0,2:0:0:0:
78,192,361732,1,0,2:0:0:0:
222,192,361814,1,0,2:0:0:0:
160,192,361896,1,8,2:2:0:0:
216,192,361979,1,0,2:0:0:0:
371,192,362061,1,0,2:0:0:0:
427,192,362143,1,0,2:0:0:0:
253,192,362226,5,4,2:2:0:0:
192,192,362308,1,0,2:0:0:0:
131,192,362390,1,0,2:0:0:0:
199,192,362473,1,0,2:0:0:0:
360,192,362555,1,8,2:2:0:0:
356,192,362637,1,0,2:0:0:0:
211,192,362720,1,0,2:0:0:0:
277,192,362802,1,0,2:0:0:0:
102,192,362884,5,4,2:2:0:0:
39,192,362967,1,0,2:0:0:0:
95,192,363049,1,0,2:0:0:0:
252,192,363131,1,0,2:0:0:0:
202,192,363214,1,8,2:2:0:0:
136,192,363296,1,0,2:0:0:0:
279,192,363378,1,0,2:0:0:0:
335,192,363461,1,0,2:0:0:0:
160,192,363543,5,4,2:2:0:0:
225,192,363625,1,0,2:0:0:0:
142,192,363708,1,0,2:0:0:0:
142,192,363790,1,0,2:0:0:0:
319,192,363872,1,8,2:2:0:0:
258,192,363955,1,0,2:0:0:0:
399,192,364037,1,0,2:0:0:0:
410,192,364119,1,0,2:0:0:0:
229,192,364202,5,4,2:2:0:0:
147,192,364284,1,0,2:0:0:0:
229,192,364366,1,0,2:0:0:0:
386,192,364449,1,0,2:0:0:0:
386,192,364531,1,8,2:2:0:0:
304,192,364613,1,0,2:0:0:0:
158,192,364696,1,0,2:0:0:0:
221,192,364778,1,0,2:0:0:0:
392,192,364860,5,4,2:2:0:0:
347,192,364943,1,0,2:0:0:0:
274,192,365025,1,0,2:0:0:0:
433,192,365107,1,0,2:0:0:0:
492,192,365189,1,8,2:2:0:0:
433,192,365272,1,0,2:0:0:0:
288,192,365354,1,0,2:0:0:0:
351,192,365436,1,0,2:0:0:0:
173,192,365519,5,4,2:2:0:0:
91,192,365601,1,0,2:0:0:0:
91,192,365683,1,0,2:0:0:0:
249,192,365766,1,0,2:0:0:0:
309,192,365848,1,8,2:2:0:0:
367,192,365930,1,0,2:0:0:0:
222,192,366013,1,0,2:0:0:0:
222,192,366095,1,0,2:0:0:0:
405,192,366177,5,4,2:2:0:0:
467,192,366260,1,0,2:0:0:0:
405,192,366342,1,0,2:0:0:0:
248,192,366424,1,0,2:0:0:0:
301,192,366507,1,8,2:2:0:0:
374,192,366589,1,0,2:0:0:0:
230,192,366671,1,0,2:0:0:0:
167,192,366754,1,0,2:0:0:0:
332,192,366836,5,4,2:2:0:0:
341,192,366918,1,0,2:0:0:0:
348,192,367001,1,0,2:0:0:0:
173,192,367083,1,0,2:0:0:0:
238,192,367165,1,8,2:2:0:0:
303,192,367248,1,0,2:0:0:0:
235,192,367330,1,0,2:0:0:0:
379,192,367412,1,0,2:0:0:0:
432,192,367495,5,4,2:2:0:0:
254,192,367577,1,0,2:0:0:0:
182,192,367659,1,0,2:0:0:0:
182,192,367742,1,0,2:0:0:0:
254,192,367824,1,8,2:2:0:0:
110,192,367906,1,0,2:0:0:0:
44,192,367989,1,0,2:0:0:0:
112,192,368071,1,0,2:0:0:0:
298,192,368153,5,4,2:2:0:0:
381,192,368236,1,0,2:0:0:0:
463,192,368318,1,0,2:0:0:0:
319,192,368400,1,0,2:0:0:0:
314,192,368483,1,8,2:2:0:0:
307,192,368565,1,0,2:0:0:0:
160,192,368647,1,0,2:0:0:0:
222,192,368730,1,0,2:0:0:0:
393,192,368812,5,4,2:2:0:0:
310,192,368894,1,0,2:0:0:0:
163,192,368977,1,4,2:2:0:0:
163,192,369059,1,0,2:0:0:0:
307,192,369141,1,8,2:2:0:0:
307,192,369224,1,0,2:0:0:0:
452,192,369306,1,4,2:2:0:0:
452,192,369388,1,0,2:0:0:0:
264,192,369470,5,4,2:2:0:0:
181,192,369553,1,0,2:0:0:0:
175,192,369635,1,0,2:0:0:0:
335,192,369717,1,0,2:0:0:0:
329,192,369800,1,8,2:2:0:0:
246,192,369882,1,0,2:0:0:0:
393,192,369964,1,0,2:0:0:0:
449,192,370047,1,0,2:0:0:0:
286,192,370129,5,4,2:2:0:0:
276,192,370211,1,0,2:0:0:0:
358,192,370294,1,0,2:0:0:0:
296,192,370376,1,0,2:0:0:0:
147,192,370458,1,8,2:2:0:0:
136,192,370541,1,0,2:0:0:0:
273,192,370623,1,0,2:0:0:0:
334,192,370705,1,0,2:0:0:0:
172,192,370788,5,4,2:2:0:0:
102,192,370870,1,0,2:0:0:0:
164,192,370952,1,0,2:0:0:0:
324,192,371035,1,0,2:0:0:0:
386,192,371117,1,8,2:2:0:0:
320,192,371199,1,0,2:0:0:0:
179,192,371282,1,0,2:0:0:0:
117,192,371364,1,0,2:0:0:0:
265,192,371446,5,4,2:2:0:0:
265,192,371529,1,0,2:0:0:0:
409,192,371611,1,0,2:0:0:0:
350,192,371693,1,0,2:0:0:0:
196,192,371776,1,8,2:2:0:0:
141,192,371858,1,0,2:0:0:0:
308,192,371940,1,0,2:0:0:0:
383,192,372023,1,0,2:0:0:0:
194,192,372105,5,4,2:2:0:0:
132,192,372187,1,0,2:0:0:0:
202,192,372270,1,0,2:0:0:0:
359,192,372352,1,0,2:0:0:0:
366,192,372434,1,8,2:2:0:0:
284,192,372517,1,0,2:0:0:0:
140,192,372599,1,0,2:0:0:0:
201,192,372681,1,0,2:0:0:0:
376,192,372764,5,4,2:2:0:0:
451,192,372846,1,0,2:0:0:0:
381,192,372928,1,0,2:0:0:0:
305,192,373011,1,0,2:0:0:0:
455,192,373093,1,8,2:2:0:0:
390,192,373175,1,0,2:0:0:0:
242,192,373258,1,0,2:0:0:0:
226,192,373340,1,0,2:0:0:0:
388,192,373422,5,4,2:2:0:0:
457,192,373505,1,0,2:0:0:0:
396,192,373587,1,0,2:0:0:0:
240,192,373669,1,0,2:0:0:0:
157,192,373752,1,8,2:2:0:0:
164,192,373834,1,0,2:0:0:0:
310,192,373916,1,0,2:0:0:0:
310,192,373998,1,0,2:0:0:0:
227,192,374081,5,4,2:2:0:0:
310,192,374163,1,0,2:0:0:0:
127,192,374245,1,0,2:0:0:0:
66,192,374328,1,0,2:0:0:0:
259,192,374410,1,8,2:2:0:0:
320,192,374492,1,0,2:0:0:0:
175,192,374575,1,0,2:0:0:0:
175,192,374657,1,0,2:0:0:0:
347,192,374739,5,4,2:2:0:0:
430,192,374822,1,0,2:0:0:0:
430,192,374904,1,0,2:0:0:0:
276,192,374986,1,0,2:0:0:0:
217,192,375069,1,8,2:2:0:0:
276,192,375151,1,0,2:0:0:0:
133,192,375233,1,0,2:0:0:0:
73,192,375316,1,0,2:0:0:0:
249,192,375398,5,4,2:2:0:0:
331,192,375480,1,0,2:0:0:0:
331,192,375563,1,0,2:0:0:0:
173,192,375645,1,0,2:0:0:0:
115,192,375727,1,8,2:2:0:0:
57,192,375810,1,0,2:0:0:0:
202,192,375892,1,0,2:0:0:0:
145,192,375974,1,0,2:0:0:0:
320,192,376057,5,4,2:2:0:0:
381,192,376139,1,0,2:0:0:0:
446,192,376221,1,0,2:0:0:0:
283,192,376304,1,0,2:0:0:0:
283,192,376386,1,8,2:2:0:0:
365,192,376468,1,0,2:0:0:0:
222,192,376551,1,0,2:0:0:0:
290,192,376633,1,0,2:0:0:0:
101,192,376715,5,4,2:2:0:0:
40,192,376798,1,0,2:0:0:0:
101,192,376880,1,0,2:0:0:0:
259,192,376962,1,0,2:0:0:0:
207,192,377045,1,8,2:2:0:0:
142,192,377127,1,0,2:0:0:0:
311,192,377209,1,0,2:0:0:0:
371,192,377292,1,0,2:0:0:0:
229,192,377374,5,4,2:2:0:0:
229,192,377456,1,0,2:0:0:0:
147,192,377539,1,8,2:2:0:0:
147,192,377621,1,0,2:0:0:0:
319,192,377703,1,8,2:2:0:0:
319,192,377786,1,0,2:0:0:0:
402,192,377868,1,8,2:2:0:0:
402,192,377950,1,0,2:0:0:0:
243,192,378033,5,4,2:2:0:0:
189,192,378115,1,0,2:0:0:0:
271,192,378197,1,8,2:2:0:0:
271,192,378280,1,0,2:0:0:0:
432,192,378362,1,8,2:2:0:0:
376,192,378444,1,0,2:0:0:0:
294,192,378526,1,8,2:2:0:0:
358,192,378609,1,0,2:0:0:0:
178,192,378691,5,4,2:2:0:0:
118,192,378773,1,0,2:0:0:0:
304,192,378856,1,8,2:2:0:0:
304,192,378938,1,0,2:0:0:0:
221,192,379020,1,8,2:2:0:0:
221,192,379103,1,0,2:0:0:0:
373,192,379185,1,8,2:2:0:0:
437,192,379267,1,0,2:0:0:0:
294,192,379350,5,4,2:2:0:0:
237,192,379432,1,0,2:0:0:0:
71,192,379514,1,8,2:2:0:0:
71,192,379597,1,0,2:0:0:0:
233,192,379679,1,8,2:2:0:0:
233,192,379761,1,0,2:0:0:0:
315,192,379844,1,8,2:2:0:0:
233,192,379926,1,0,2:0:0:0:
411,192,380008,5,4,2:2:0:0:
411,192,380091,1,8,2:2:0:0:
272,192,380173,1,8,2:2:0:0:
132,192,380255,1,8,2:2:0:0:
91,192,380338,1,8,2:2:0:0:
232,192,380420,1,8,2:2:0:0:
292,192,380502,1,8,2:2:0:0:
210,192,380585,1,8,2:2:0:0:
210,192,380667,5,8,2:2:0:0:
353,192,380749,1,8,2:2:0:0:
293,192,380832,1,8,2:2:0:0:
437,192,380914,1,8,2:2:0:0:
375,192,380996,1,8,2:2:0:0:
229,192,381079,1,8,2:2:0:0:
297,192,381161,1,8,2:2:0:0:
148,192,381243,1,8,2:2:0:0:
325,192,381326,5,8,2:2:0:0:
366,192,381367,1,8,2:2:0:0:
379,192,381408,1,8,2:2:0:0:
368,192,381449,1,8,2:2:0:0:
345,192,381490,1,8,2:2:0:0:
301,192,381531,1,8,2:2:0:0:
170,192,381573,1,8,2:2:0:0:
133,192,381614,1,8,2:2:0:0:
100,192,381655,5,8,2:2:0:0:
84,192,381696,1,8,2:2:0:0:
88,192,381737,1,8,2:2:0:0:
114,192,381778,1,8,2:2:0:0:
251,192,381820,1,8,2:2:0:0:
235,192,381861,1,8,2:2:0:0:
210,192,381902,1,8,2:2:0:0:
176,192,381943,1,8,2:2:0:0:
316,192,381984,5,8,2:2:0:0:
398,192,382067,1,8,2:2:0:0:
233,192,382149,1,8,2:2:0:0:
151,192,382231,1,8,2:2:0:0:
338,192,382314,1,8,2:2:0:0:
420,192,382396,1,8,2:2:0:0:
176,192,382478,1,8,2:2:0:0:
93,192,382561,1,8,2:2:0:0:
369,192,382643,5,0,2:0:0:0:
