osu file format v14

[General]
AudioFilename: BLUE ARMY.mp3
AudioLeadIn: 0
PreviewTime: -1
Countdown: 0
SampleSet: None
StackLeniency: 0.7
Mode: 3
LetterboxInBreaks: 0
SpecialStyle: 0
WidescreenStoryboard: 1

[Editor]
DistanceSpacing: 1.1
BeatDivisor: 4
GridSize: 8
TimelineZoom: 1

[Metadata]
Title:BLUE ARMY
TitleUnicode:BLUE ARMY
Artist:DJ SHARPNEL
ArtistUnicode:DJ SHARPNEL
Creator:semyon422
Version:10K
Source:cat
Tags:
BeatmapID:1783972
BeatmapSetID:853614

[Difficulty]
HPDrainRate:7
CircleSize:10
OverallDifficulty:1
ApproachRate:5
SliderMultiplier:1.4
SliderTickRate:1

[Events]
//Background and Video events
0,0,"Blue Army-BG.png",0,0
//Break Periods
2,179984,189122
//Storyboard Layer 0 (Background)
//Storyboard Layer 1 (Fail)
//Storyboard Layer 2 (Pass)
//Storyboard Layer 3 (Foreground)
//Storyboard Sound Samples

[TimingPoints]
-680,329.315682012777,4,1,0,10,1,0

[HitObjects]
256,192,3271,5,0,0:0:0:0:
256,192,3600,12,0,3600,0:0:0:0:
256,192,3929,12,0,3929,0:0:0:0:
256,192,4258,12,0,4258,0:0:0:0:
256,192,4588,12,0,4588,0:0:0:0:
256,192,4917,12,0,4917,0:0:0:0:
256,192,5246,12,0,5246,0:0:0:0:
256,192,5576,12,0,5576,0:0:0:0:
256,192,5905,12,0,5905,0:0:0:0:
256,192,6234,12,0,6234,0:0:0:0:
256,192,6564,12,0,6564,0:0:0:0:
256,192,6893,12,0,6893,0:0:0:0:
256,192,7222,12,0,7222,0:0:0:0:
256,192,7552,12,0,7552,0:0:0:0:
256,192,7881,12,0,7881,0:0:0:0:
256,192,8210,12,0,8210,0:0:0:0:
256,192,8540,12,0,8540,0:0:0:0:
256,192,8869,12,0,8869,0:0:0:0:
256,192,9198,12,0,9198,0:0:0:0:
256,192,9527,12,0,9527,0:0:0:0:
256,192,9857,12,0,9857,0:0:0:0:
256,192,10186,12,0,10186,0:0:0:0:
256,192,10515,12,0,10515,0:0:0:0:
256,192,10845,12,0,10845,0:0:0:0:
256,192,11174,12,0,11174,0:0:0:0:
256,192,11503,12,0,11503,0:0:0:0:
256,192,11833,12,0,11833,0:0:0:0:
256,192,12162,12,0,12162,0:0:0:0:
256,192,12491,12,0,12491,0:0:0:0:
256,192,12821,12,0,12821,0:0:0:0:
256,192,13150,12,0,13150,0:0:0:0:
256,192,13315,12,0,13315,0:0:0:0:
256,192,13479,12,0,13479,0:0:0:0:
256,192,13644,12,0,13644,0:0:0:0:
256,192,13809,12,0,13809,0:0:0:0:
256,192,14138,12,0,14138,0:0:0:0:
256,192,14467,12,0,14467,0:0:0:0:
256,192,14797,12,0,14797,0:0:0:0:
256,192,15126,12,0,15126,0:0:0:0:
256,192,15455,12,0,15455,0:0:0:0:
256,192,15784,12,0,15784,0:0:0:0:
256,192,16114,12,0,16114,0:0:0:0:
256,192,16443,12,0,16443,0:0:0:0:
256,192,16772,12,0,16772,0:0:0:0:
256,192,17102,12,0,17102,0:0:0:0:
256,192,17431,12,0,17431,0:0:0:0:
256,192,17760,12,0,17760,0:0:0:0:
256,192,18090,12,0,18090,0:0:0:0:
256,192,18419,12,0,18419,0:0:0:0:
256,192,18748,12,0,18748,0:0:0:0:
256,192,19078,12,0,19078,0:0:0:0:
256,192,19407,12,0,19407,0:0:0:0:
256,192,19736,12,0,19736,0:0:0:0:
256,192,20066,12,0,20066,0:0:0:0:
256,192,20395,12,0,20395,0:0:0:0:
256,192,20724,12,0,20724,0:0:0:0:
256,192,21054,12,0,21054,0:0:0:0:
256,192,21383,12,0,21383,0:0:0:0:
256,192,21712,12,0,21712,0:0:0:0:
256,192,22041,12,0,22041,0:0:0:0:
256,192,22371,12,0,22371,0:0:0:0:
256,192,22700,12,0,22700,0:0:0:0:
256,192,23029,12,0,23029,0:0:0:0:
256,192,23359,12,0,23359,0:0:0:0:
256,192,23688,12,0,23688,0:0:0:0:
256,192,23853,12,0,23853,0:0:0:0:
256,192,24017,12,0,24017,0:0:0:0:
256,192,24182,12,0,24182,0:0:0:0:
256,192,24347,12,0,24347,0:0:0:0:
256,192,24511,12,0,24511,0:0:0:0:
256,192,24676,12,0,24676,0:0:0:0:
256,192,24841,12,0,24841,0:0:0:0:
256,192,25005,12,0,25005,0:0:0:0:
256,192,25170,12,0,25170,0:0:0:0:
256,192,25335,12,0,25335,0:0:0:0:
256,192,25499,12,0,25499,0:0:0:0:
256,192,25664,12,0,25664,0:0:0:0:
256,192,25829,12,0,25829,0:0:0:0:
256,192,25993,12,0,25993,0:0:0:0:
256,192,26158,12,0,26158,0:0:0:0:
256,192,26323,12,0,26323,0:0:0:0:
256,192,26487,12,0,26487,0:0:0:0:
256,192,26652,12,0,26652,0:0:0:0:
256,192,26817,12,0,26817,0:0:0:0:
256,192,26981,12,0,26981,0:0:0:0:
256,192,27146,12,0,27146,0:0:0:0:
256,192,27311,12,0,27311,0:0:0:0:
256,192,27475,12,0,27475,0:0:0:0:
256,192,27640,12,0,27640,0:0:0:0:
256,192,27805,12,0,27805,0:0:0:0:
256,192,27969,12,0,27969,0:0:0:0:
256,192,28134,12,0,28134,0:0:0:0:
256,192,28298,12,0,28298,0:0:0:0:
256,192,28463,12,0,28463,0:0:0:0:
256,192,28628,12,0,28628,0:0:0:0:
256,192,28792,12,0,28792,0:0:0:0:
256,192,28957,12,0,28957,0:0:0:0:
256,192,29122,12,0,29122,0:0:0:0:
256,192,29286,12,0,29286,0:0:0:0:
256,192,29451,12,0,29451,0:0:0:0:
256,192,29616,12,0,29616,0:0:0:0:
256,192,29780,12,0,29780,0:0:0:0:
256,192,29945,12,0,29945,0:0:0:0:
256,192,30110,12,0,30110,0:0:0:0:
256,192,30274,12,0,30274,0:0:0:0:
256,192,30439,12,0,30439,0:0:0:0:
256,192,30604,12,0,30604,0:0:0:0:
256,192,30768,12,0,30768,0:0:0:0:
256,192,30933,12,0,30933,0:0:0:0:
256,192,31098,12,0,31098,0:0:0:0:
256,192,31262,12,0,31262,0:0:0:0:
256,192,31427,12,0,31427,0:0:0:0:
256,192,31592,12,0,31592,0:0:0:0:
256,192,31756,12,0,31756,0:0:0:0:
256,192,31921,12,0,31921,0:0:0:0:
256,192,32086,12,0,32086,0:0:0:0:
256,192,32250,12,0,32250,0:0:0:0:
256,192,32415,12,0,32415,0:0:0:0:
256,192,32580,12,0,32580,0:0:0:0:
256,192,32745,12,0,32745,0:0:0:0:
256,192,32909,12,0,32909,0:0:0:0:
256,192,33074,12,0,33074,0:0:0:0:
256,192,33238,12,0,33238,0:0:0:0:
256,192,33403,12,0,33403,0:0:0:0:
256,192,33568,12,0,33568,0:0:0:0:
256,192,33732,12,0,33732,0:0:0:0:
256,192,33897,12,0,33897,0:0:0:0:
256,192,34062,12,0,34062,0:0:0:0:
256,192,34226,12,0,34226,0:0:0:0:
256,192,34391,12,0,34391,0:0:0:0:
256,192,34555,12,0,34555,0:0:0:0:
256,192,34720,12,0,34720,0:0:0:0:
256,192,34886,12,0,34886,0:0:0:0:
256,192,35049,12,0,35049,0:0:0:0:
256,192,35214,12,0,35214,0:0:0:0:
256,192,35379,12,0,35379,0:0:0:0:
256,192,35543,12,0,35543,0:0:0:0:
256,192,35708,12,0,35708,0:0:0:0:
256,192,35873,12,0,35873,0:0:0:0:
256,192,36037,12,0,36037,0:0:0:0:
256,192,36202,12,0,36202,0:0:0:0:
256,192,36367,12,0,36367,0:0:0:0:
256,192,36531,12,0,36531,0:0:0:0:
256,192,36696,12,0,36696,0:0:0:0:
256,192,36861,12,0,36861,0:0:0:0:
256,192,37025,12,0,37025,0:0:0:0:
256,192,37191,12,0,37191,0:0:0:0:
256,192,37355,12,0,37355,0:0:0:0:
256,192,37519,12,0,37519,0:0:0:0:
256,192,37684,12,0,37684,0:0:0:0:
256,192,37849,12,0,37849,0:0:0:0:
256,192,38013,12,0,38013,0:0:0:0:
256,192,38178,12,0,38178,0:0:0:0:
256,192,38343,12,0,38343,0:0:0:0:
256,192,38507,12,0,38507,0:0:0:0:
256,192,38672,12,0,38672,0:0:0:0:
256,192,38837,12,0,38837,0:0:0:0:
256,192,39001,12,0,39001,0:0:0:0:
256,192,39166,12,0,39166,0:0:0:0:
256,192,39331,12,0,39331,0:0:0:0:
256,192,39495,12,0,39495,0:0:0:0:
256,192,39660,12,0,39660,0:0:0:0:
256,192,39825,12,0,39825,0:0:0:0:
256,192,39989,12,0,39989,0:0:0:0:
256,192,40154,12,0,40154,0:0:0:0:
256,192,40319,12,0,40319,0:0:0:0:
256,192,40483,12,0,40483,0:0:0:0:
256,192,40648,12,0,40648,0:0:0:0:
256,192,40813,12,0,40813,0:0:0:0:
256,192,40977,12,0,40977,0:0:0:0:
256,192,41142,12,0,41142,0:0:0:0:
256,192,41306,12,0,41306,0:0:0:0:
256,192,41472,12,0,41472,0:0:0:0:
256,192,41636,12,0,41636,0:0:0:0:
256,192,41800,12,0,41800,0:0:0:0:
256,192,41965,12,0,41965,0:0:0:0:
256,192,42130,12,0,42130,0:0:0:0:
256,192,42294,12,0,42294,0:0:0:0:
256,192,42294,12,0,42294,0:0:0:0:
256,192,42459,12,0,42459,0:0:0:0:
256,192,42624,12,0,42624,0:0:0:0:
256,192,42788,12,0,42788,0:0:0:0:
256,192,42871,12,0,42871,0:0:0:0:
256,192,42953,12,0,42953,0:0:0:0:
256,192,43035,12,0,43035,0:0:0:0:
256,192,43118,12,0,43118,0:0:0:0:
256,192,43200,12,0,43200,0:0:0:0:
256,192,43282,12,0,43282,0:0:0:0:
256,192,43365,12,0,43365,0:0:0:0:
256,192,43447,12,0,43447,0:0:0:0:
256,192,43529,12,0,43529,0:0:0:0:
256,192,43612,12,0,43612,0:0:0:0:
256,192,43694,12,0,43694,0:0:0:0:
256,192,43776,12,0,43776,0:0:0:0:
256,192,43859,12,0,43859,0:0:0:0:
256,192,43941,12,0,43941,0:0:0:0:
256,192,44023,12,0,44023,0:0:0:0:
256,192,44106,12,0,44106,0:0:0:0:
256,192,45423,12,0,45423,0:0:0:0:
256,192,45505,12,0,45505,0:0:0:0:
256,192,45588,12,0,45588,0:0:0:0:
256,192,45752,12,0,45752,0:0:0:0:
256,192,45917,12,0,45917,0:0:0:0:
256,192,46082,12,0,46082,0:0:0:0:
256,192,46246,12,0,46246,0:0:0:0:
256,192,46411,12,0,46411,0:0:0:0:
256,192,46576,12,0,46576,0:0:0:0:
256,192,46740,12,0,46740,0:0:0:0:
256,192,46905,12,0,46905,0:0:0:0:
256,192,47069,12,0,47069,0:0:0:0:
256,192,47234,12,0,47234,0:0:0:0:
256,192,47399,12,0,47399,0:0:0:0:
256,192,47563,12,0,47563,0:0:0:0:
256,192,47728,12,0,47728,0:0:0:0:
256,192,47893,12,0,47893,0:0:0:0:
256,192,48057,12,0,48057,0:0:0:0:
256,192,48140,12,0,48140,0:0:0:0:
256,192,48222,12,0,48222,0:0:0:0:
256,192,48387,12,0,48387,0:0:0:0:
256,192,48551,12,0,48551,0:0:0:0:
256,192,48716,12,0,48716,0:0:0:0:
256,192,48881,12,0,48881,0:0:0:0:
256,192,49045,12,0,49045,0:0:0:0:
256,192,49210,12,0,49210,0:0:0:0:
256,192,49375,12,0,49375,0:0:0:0:
256,192,49539,12,0,49539,0:0:0:0:
256,192,49704,12,0,49704,0:0:0:0:
256,192,49869,12,0,49869,0:0:0:0:
256,192,50033,12,0,50033,0:0:0:0:
256,192,50198,12,0,50198,0:0:0:0:
256,192,50363,12,0,50363,0:0:0:0:
256,192,50527,12,0,50527,0:0:0:0:
256,192,50692,12,0,50692,0:0:0:0:
256,192,50774,12,0,50774,0:0:0:0:
256,192,50857,12,0,50857,0:0:0:0:
256,192,51021,12,0,51021,0:0:0:0:
256,192,51186,12,0,51186,0:0:0:0:
256,192,51351,12,0,51351,0:0:0:0:
256,192,51515,12,0,51515,0:0:0:0:
256,192,51680,12,0,51680,0:0:0:0:
256,192,51845,12,0,51845,0:0:0:0:
256,192,52009,12,0,52009,0:0:0:0:
256,192,52174,12,0,52174,0:0:0:0:
256,192,52339,12,0,52339,0:0:0:0:
256,192,52503,12,0,52503,0:0:0:0:
256,192,52668,12,0,52668,0:0:0:0:
256,192,52833,12,0,52833,0:0:0:0:
256,192,52997,12,0,52997,0:0:0:0:
256,192,53162,12,0,53162,0:0:0:0:
256,192,53326,12,0,53326,0:0:0:0:
256,192,53409,12,0,53409,0:0:0:0:
256,192,53491,12,0,53491,0:0:0:0:
256,192,53656,12,0,53656,0:0:0:0:
256,192,53820,12,0,53820,0:0:0:0:
256,192,53985,12,0,53985,0:0:0:0:
256,192,54150,12,0,54150,0:0:0:0:
256,192,54314,12,0,54314,0:0:0:0:
256,192,54479,12,0,54479,0:0:0:0:
256,192,54644,12,0,54644,0:0:0:0:
256,192,54808,12,0,54808,0:0:0:0:
256,192,54973,12,0,54973,0:0:0:0:
256,192,55138,12,0,55138,0:0:0:0:
256,192,55302,12,0,55302,0:0:0:0:
256,192,55467,12,0,55467,0:0:0:0:
256,192,55632,12,0,55632,0:0:0:0:
256,192,55796,12,0,55796,0:0:0:0:
256,192,55961,12,0,55961,0:0:0:0:
256,192,56043,12,0,56043,0:0:0:0:
256,192,56126,12,0,56126,0:0:0:0:
256,192,56290,12,0,56290,0:0:0:0:
256,192,56455,12,0,56455,0:0:0:0:
256,192,56620,12,0,56620,0:0:0:0:
256,192,56784,12,0,56784,0:0:0:0:
256,192,56949,12,0,56949,0:0:0:0:
256,192,57114,12,0,57114,0:0:0:0:
256,192,57278,12,0,57278,0:0:0:0:
256,192,57443,12,0,57443,0:0:0:0:
256,192,57608,12,0,57608,0:0:0:0:
256,192,57772,12,0,57772,0:0:0:0:
256,192,57937,12,0,57937,0:0:0:0:
256,192,58102,12,0,58102,0:0:0:0:
256,192,58266,12,0,58266,0:0:0:0:
256,192,58431,12,0,58431,0:0:0:0:
256,192,58596,12,0,58596,0:0:0:0:
256,192,58678,12,0,58678,0:0:0:0:
256,192,58760,12,0,58760,0:0:0:0:
256,192,58925,12,0,58925,0:0:0:0:
256,192,59090,12,0,59090,0:0:0:0:
256,192,59254,12,0,59254,0:0:0:0:
256,192,59419,12,0,59419,0:0:0:0:
256,192,59583,12,0,59583,0:0:0:0:
256,192,59748,12,0,59748,0:0:0:0:
256,192,59913,12,0,59913,0:0:0:0:
256,192,60077,12,0,60077,0:0:0:0:
256,192,60242,12,0,60242,0:0:0:0:
256,192,60407,12,0,60407,0:0:0:0:
256,192,60571,12,0,60571,0:0:0:0:
256,192,60736,12,0,60736,0:0:0:0:
256,192,60901,12,0,60901,0:0:0:0:
256,192,61065,12,0,61065,0:0:0:0:
256,192,61230,12,0,61230,0:0:0:0:
256,192,61312,12,0,61312,0:0:0:0:
256,192,61395,12,0,61395,0:0:0:0:
256,192,61559,12,0,61559,0:0:0:0:
256,192,61724,12,0,61724,0:0:0:0:
256,192,61889,12,0,61889,0:0:0:0:
256,192,62053,12,0,62053,0:0:0:0:
256,192,62218,12,0,62218,0:0:0:0:
256,192,62383,12,0,62383,0:0:0:0:
256,192,62547,12,0,62547,0:0:0:0:
256,192,62712,12,0,62712,0:0:0:0:
256,192,62877,12,0,62877,0:0:0:0:
256,192,63041,12,0,63041,0:0:0:0:
256,192,63206,12,0,63206,0:0:0:0:
256,192,63371,12,0,63371,0:0:0:0:
256,192,63535,12,0,63535,0:0:0:0:
256,192,63700,12,0,63700,0:0:0:0:
256,192,63865,12,0,63865,0:0:0:0:
256,192,63947,12,0,63947,0:0:0:0:
256,192,64029,12,0,64029,0:0:0:0:
256,192,64194,12,0,64194,0:0:0:0:
256,192,64359,12,0,64359,0:0:0:0:
256,192,64523,12,0,64523,0:0:0:0:
256,192,64688,12,0,64688,0:0:0:0:
256,192,64853,12,0,64853,0:0:0:0:
256,192,65017,12,0,65017,0:0:0:0:
256,192,65182,12,0,65182,0:0:0:0:
256,192,65264,12,0,65264,0:0:0:0:
256,192,65347,12,0,65347,0:0:0:0:
256,192,65429,12,0,65429,0:0:0:0:
256,192,65511,12,0,65511,0:0:0:0:
256,192,65593,12,0,65593,0:0:0:0:
256,192,65676,12,0,65676,0:0:0:0:
256,192,65758,12,0,65758,0:0:0:0:
256,192,65840,12,0,65840,0:0:0:0:
256,192,65923,12,0,65923,0:0:0:0:
256,192,66005,12,0,66005,0:0:0:0:
256,192,66087,12,0,66087,0:0:0:0:
256,192,66170,12,0,66170,0:0:0:0:
256,192,66252,12,0,66252,0:0:0:0:
256,192,66334,12,0,66334,0:0:0:0:
256,192,66417,12,0,66417,0:0:0:0:
256,192,66499,12,0,66499,0:0:0:0:
256,192,66499,12,0,66499,0:0:0:0:
256,192,66581,12,0,66581,0:0:0:0:
256,192,66664,12,0,66664,0:0:0:0:
256,192,66746,12,0,66746,0:0:0:0:
256,192,66828,12,0,66828,0:0:0:0:
256,192,66911,12,0,66911,0:0:0:0:
256,192,66993,12,0,66993,0:0:0:0:
256,192,67075,12,0,67075,0:0:0:0:
256,192,67158,12,0,67158,0:0:0:0:
256,192,67240,12,0,67240,0:0:0:0:
256,192,67322,12,0,67322,0:0:0:0:
256,192,67405,12,0,67405,0:0:0:0:
256,192,67487,12,0,67487,0:0:0:0:
256,192,67569,12,0,67569,0:0:0:0:
256,192,67652,12,0,67652,0:0:0:0:
256,192,67734,12,0,67734,0:0:0:0:
256,192,67816,12,0,67816,0:0:0:0:
256,192,67899,12,0,67899,0:0:0:0:
256,192,67981,12,0,67981,0:0:0:0:
256,192,68063,12,0,68063,0:0:0:0:
256,192,68146,12,0,68146,0:0:0:0:
256,192,68228,12,0,68228,0:0:0:0:
256,192,68310,12,0,68310,0:0:0:0:
256,192,68393,12,0,68393,0:0:0:0:
256,192,68475,12,0,68475,0:0:0:0:
256,192,68557,12,0,68557,0:0:0:0:
256,192,68640,12,0,68640,0:0:0:0:
256,192,68722,12,0,68722,0:0:0:0:
256,192,68804,12,0,68804,0:0:0:0:
256,192,68887,12,0,68887,0:0:0:0:
256,192,68969,12,0,68969,0:0:0:0:
256,192,69051,12,0,69051,0:0:0:0:
256,192,69134,12,0,69134,0:0:0:0:
256,192,69216,12,0,69216,0:0:0:0:
256,192,69298,12,0,69298,0:0:0:0:
256,192,69381,12,0,69381,0:0:0:0:
256,192,69463,12,0,69463,0:0:0:0:
256,192,69545,12,0,69545,0:0:0:0:
256,192,69628,12,0,69628,0:0:0:0:
256,192,69710,12,0,69710,0:0:0:0:
256,192,69792,12,0,69792,0:0:0:0:
256,192,69875,12,0,69875,0:0:0:0:
256,192,69957,12,0,69957,0:0:0:0:
256,192,70039,12,0,70039,0:0:0:0:
256,192,70122,12,0,70122,0:0:0:0:
256,192,70204,12,0,70204,0:0:0:0:
256,192,70286,12,0,70286,0:0:0:0:
256,192,70369,12,0,70369,0:0:0:0:
256,192,70451,12,0,70451,0:0:0:0:
256,192,70533,12,0,70533,0:0:0:0:
256,192,70616,12,0,70616,0:0:0:0:
256,192,70698,12,0,70698,0:0:0:0:
256,192,70780,12,0,70780,0:0:0:0:
256,192,70863,12,0,70863,0:0:0:0:
256,192,70945,12,0,70945,0:0:0:0:
256,192,71027,12,0,71027,0:0:0:0:
256,192,71110,12,0,71110,0:0:0:0:
256,192,71192,12,0,71192,0:0:0:0:
256,192,71274,12,0,71274,0:0:0:0:
256,192,71357,12,0,71357,0:0:0:0:
256,192,71439,12,0,71439,0:0:0:0:
256,192,71521,12,0,71521,0:0:0:0:
256,192,71604,12,0,71604,0:0:0:0:
256,192,71686,12,0,71686,0:0:0:0:
256,192,71768,12,0,71768,0:0:0:0:
256,192,71850,12,0,71850,0:0:0:0:
256,192,71933,12,0,71933,0:0:0:0:
256,192,72015,12,0,72015,0:0:0:0:
256,192,72097,12,0,72097,0:0:0:0:
256,192,72180,12,0,72180,0:0:0:0:
256,192,72262,12,0,72262,0:0:0:0:
256,192,72344,12,0,72344,0:0:0:0:
256,192,72427,12,0,72427,0:0:0:0:
256,192,72509,12,0,72509,0:0:0:0:
256,192,72591,12,0,72591,0:0:0:0:
256,192,72674,12,0,72674,0:0:0:0:
256,192,72756,12,0,72756,0:0:0:0:
256,192,72838,12,0,72838,0:0:0:0:
256,192,72921,12,0,72921,0:0:0:0:
256,192,73003,12,0,73003,0:0:0:0:
256,192,73085,12,0,73085,0:0:0:0:
256,192,73168,12,0,73168,0:0:0:0:
256,192,73250,12,0,73250,0:0:0:0:
256,192,73332,12,0,73332,0:0:0:0:
256,192,73415,12,0,73415,0:0:0:0:
256,192,73497,12,0,73497,0:0:0:0:
256,192,73579,12,0,73579,0:0:0:0:
256,192,73662,12,0,73662,0:0:0:0:
256,192,73744,12,0,73744,0:0:0:0:
256,192,73826,12,0,73826,0:0:0:0:
256,192,73909,12,0,73909,0:0:0:0:
256,192,73991,12,0,73991,0:0:0:0:
256,192,74073,12,0,74073,0:0:0:0:
256,192,74156,12,0,74156,0:0:0:0:
256,192,74238,12,0,74238,0:0:0:0:
256,192,74320,12,0,74320,0:0:0:0:
256,192,74403,12,0,74403,0:0:0:0:
256,192,74485,12,0,74485,0:0:0:0:
256,192,74567,12,0,74567,0:0:0:0:
256,192,74650,12,0,74650,0:0:0:0:
256,192,74732,12,0,74732,0:0:0:0:
256,192,74814,12,0,74814,0:0:0:0:
256,192,74897,12,0,74897,0:0:0:0:
256,192,74979,12,0,74979,0:0:0:0:
256,192,75061,12,0,75061,0:0:0:0:
256,192,75144,12,0,75144,0:0:0:0:
256,192,75226,12,0,75226,0:0:0:0:
256,192,75308,12,0,75308,0:0:0:0:
256,192,75391,12,0,75391,0:0:0:0:
256,192,75473,12,0,75473,0:0:0:0:
256,192,75555,12,0,75555,0:0:0:0:
256,192,75638,12,0,75638,0:0:0:0:
256,192,75720,12,0,75720,0:0:0:0:
256,192,75802,12,0,75802,0:0:0:0:
256,192,75885,12,0,75885,0:0:0:0:
256,192,75967,12,0,75967,0:0:0:0:
256,192,76049,12,0,76049,0:0:0:0:
256,192,76132,12,0,76132,0:0:0:0:
256,192,76214,12,0,76214,0:0:0:0:
256,192,76296,12,0,76296,0:0:0:0:
256,192,76379,12,0,76379,0:0:0:0:
256,192,76544,12,0,76544,0:0:0:0:
256,192,76708,12,0,76708,0:0:0:0:
256,192,76873,12,0,76873,0:0:0:0:
256,192,77037,12,0,77037,0:0:0:0:
256,192,77120,12,0,77120,0:0:0:0:
256,192,77202,12,0,77202,0:0:0:0:
256,192,77284,12,0,77284,0:0:0:0:
256,192,77367,12,0,77367,0:0:0:0:
256,192,77449,12,0,77449,0:0:0:0:
256,192,77531,12,0,77531,0:0:0:0:
256,192,77614,12,0,77614,0:0:0:0:
256,192,77696,12,0,77696,0:0:0:0:
256,192,77778,12,0,77778,0:0:0:0:
256,192,77861,12,0,77861,0:0:0:0:
256,192,77943,12,0,77943,0:0:0:0:
256,192,78025,12,0,78025,0:0:0:0:
256,192,78107,12,0,78107,0:0:0:0:
256,192,78190,12,0,78190,0:0:0:0:
256,192,78272,12,0,78272,0:0:0:0:
256,192,78354,12,0,78354,0:0:0:0:
256,192,78437,12,0,78437,0:0:0:0:
256,192,78519,12,0,78519,0:0:0:0:
256,192,78601,12,0,78601,0:0:0:0:
256,192,78684,12,0,78684,0:0:0:0:
256,192,78766,12,0,78766,0:0:0:0:
256,192,78848,12,0,78848,0:0:0:0:
256,192,78931,12,0,78931,0:0:0:0:
256,192,79013,12,0,79013,0:0:0:0:
256,192,79095,12,0,79095,0:0:0:0:
256,192,79178,12,0,79178,0:0:0:0:
256,192,79260,12,0,79260,0:0:0:0:
256,192,79342,12,0,79342,0:0:0:0:
256,192,79425,12,0,79425,0:0:0:0:
256,192,79507,12,0,79507,0:0:0:0:
256,192,79589,12,0,79589,0:0:0:0:
256,192,79672,12,0,79672,0:0:0:0:
256,192,79754,12,0,79754,0:0:0:0:
256,192,79836,12,0,79836,0:0:0:0:
256,192,79919,12,0,79919,0:0:0:0:
256,192,80001,12,0,80001,0:0:0:0:
256,192,80083,12,0,80083,0:0:0:0:
256,192,80166,12,0,80166,0:0:0:0:
256,192,80248,12,0,80248,0:0:0:0:
256,192,80330,12,0,80330,0:0:0:0:
256,192,80413,12,0,80413,0:0:0:0:
256,192,80495,12,0,80495,0:0:0:0:
256,192,80577,12,0,80577,0:0:0:0:
256,192,80660,12,0,80660,0:0:0:0:
256,192,80742,12,0,80742,0:0:0:0:
256,192,80824,12,0,80824,0:0:0:0:
256,192,80907,12,0,80907,0:0:0:0:
256,192,80989,12,0,80989,0:0:0:0:
256,192,81071,12,0,81071,0:0:0:0:
256,192,81154,12,0,81154,0:0:0:0:
256,192,81236,12,0,81236,0:0:0:0:
256,192,81318,12,0,81318,0:0:0:0:
256,192,81401,12,0,81401,0:0:0:0:
256,192,81483,12,0,81483,0:0:0:0:
256,192,81565,12,0,81565,0:0:0:0:
256,192,81648,12,0,81648,0:0:0:0:
256,192,81730,12,0,81730,0:0:0:0:
256,192,81812,12,0,81812,0:0:0:0:
256,192,81895,12,0,81895,0:0:0:0:
256,192,81977,12,0,81977,0:0:0:0:
256,192,82059,12,0,82059,0:0:0:0:
256,192,82142,12,0,82142,0:0:0:0:
256,192,82224,12,0,82224,0:0:0:0:
256,192,82306,12,0,82306,0:0:0:0:
256,192,82389,12,0,82389,0:0:0:0:
256,192,82471,12,0,82471,0:0:0:0:
256,192,82553,12,0,82553,0:0:0:0:
256,192,82636,12,0,82636,0:0:0:0:
256,192,82718,12,0,82718,0:0:0:0:
256,192,82800,12,0,82800,0:0:0:0:
256,192,82883,12,0,82883,0:0:0:0:
256,192,82965,12,0,82965,0:0:0:0:
256,192,83047,12,0,83047,0:0:0:0:
256,192,83130,12,0,83130,0:0:0:0:
256,192,83212,12,0,83212,0:0:0:0:
256,192,83294,12,0,83294,0:0:0:0:
256,192,83377,12,0,83377,0:0:0:0:
256,192,83459,12,0,83459,0:0:0:0:
256,192,83541,12,0,83541,0:0:0:0:
256,192,83624,12,0,83624,0:0:0:0:
256,192,83706,12,0,83706,0:0:0:0:
256,192,83788,12,0,83788,0:0:0:0:
256,192,83871,12,0,83871,0:0:0:0:
256,192,83953,12,0,83953,0:0:0:0:
256,192,84035,12,0,84035,0:0:0:0:
256,192,84118,12,0,84118,0:0:0:0:
256,192,84200,12,0,84200,0:0:0:0:
256,192,84282,12,0,84282,0:0:0:0:
256,192,84364,12,0,84364,0:0:0:0:
256,192,84447,12,0,84447,0:0:0:0:
256,192,84529,12,0,84529,0:0:0:0:
256,192,84611,12,0,84611,0:0:0:0:
256,192,84694,12,0,84694,0:0:0:0:
256,192,84776,12,0,84776,0:0:0:0:
256,192,84858,12,0,84858,0:0:0:0:
256,192,84941,12,0,84941,0:0:0:0:
256,192,85023,12,0,85023,0:0:0:0:
256,192,85105,12,0,85105,0:0:0:0:
256,192,85188,12,0,85188,0:0:0:0:
256,192,85270,12,0,85270,0:0:0:0:
256,192,85352,12,0,85352,0:0:0:0:
256,192,85435,12,0,85435,0:0:0:0:
256,192,85517,12,0,85517,0:0:0:0:
256,192,85599,12,0,85599,0:0:0:0:
256,192,85682,12,0,85682,0:0:0:0:
256,192,85764,12,0,85764,0:0:0:0:
256,192,85846,12,0,85846,0:0:0:0:
256,192,85929,12,0,85929,0:0:0:0:
256,192,86011,12,0,86011,0:0:0:0:
256,192,86093,12,0,86093,0:0:0:0:
256,192,86176,12,0,86176,0:0:0:0:
256,192,86258,12,0,86258,0:0:0:0:
256,192,86340,12,0,86340,0:0:0:0:
256,192,86423,12,0,86423,0:0:0:0:
256,192,86464,12,0,86464,0:0:0:0:
256,192,86505,12,0,86505,0:0:0:0:
256,192,86587,12,0,86587,0:0:0:0:
256,192,86670,12,0,86670,0:0:0:0:
256,192,86752,12,0,86752,0:0:0:0:
256,192,86793,12,0,86793,0:0:0:0:
256,192,86834,12,0,86834,0:0:0:0:
256,192,86917,12,0,86917,0:0:0:0:
256,192,86999,12,0,86999,0:0:0:0:
256,192,87081,12,0,87081,0:0:0:0:
256,192,87164,12,0,87164,0:0:0:0:
256,192,87246,12,0,87246,0:0:0:0:
256,192,87328,12,0,87328,0:0:0:0:
256,192,87411,12,0,87411,0:0:0:0:
256,192,87493,12,0,87493,0:0:0:0:
256,192,87575,12,0,87575,0:0:0:0:
256,192,87658,12,0,87658,0:0:0:0:
256,192,87740,12,0,87740,0:0:0:0:
256,192,87822,12,0,87822,0:0:0:0:
256,192,87905,12,0,87905,0:0:0:0:
256,192,87987,12,0,87987,0:0:0:0:
256,192,88069,12,0,88069,0:0:0:0:
256,192,88152,12,0,88152,0:0:0:0:
256,192,88234,12,0,88234,0:0:0:0:
256,192,88316,12,0,88316,0:0:0:0:
256,192,88399,12,0,88399,0:0:0:0:
256,192,88481,12,0,88481,0:0:0:0:
256,192,88563,12,0,88563,0:0:0:0:
256,192,88646,12,0,88646,0:0:0:0:
256,192,88728,12,0,88728,0:0:0:0:
256,192,88810,12,0,88810,0:0:0:0:
256,192,88893,12,0,88893,0:0:0:0:
256,192,88975,12,0,88975,0:0:0:0:
256,192,89057,12,0,89057,0:0:0:0:
256,192,89140,12,0,89140,0:0:0:0:
256,192,89222,12,0,89222,0:0:0:0:
256,192,89304,12,0,89304,0:0:0:0:
256,192,89387,12,0,89387,0:0:0:0:
256,192,89469,12,0,89469,0:0:0:0:
256,192,89551,12,0,89551,0:0:0:0:
256,192,89634,12,0,89634,0:0:0:0:
256,192,89716,12,0,89716,0:0:0:0:
256,192,89798,12,0,89798,0:0:0:0:
256,192,89881,12,0,89881,0:0:0:0:
256,192,89963,12,0,89963,0:0:0:0:
256,192,90045,12,0,90045,0:0:0:0:
256,192,90128,12,0,90128,0:0:0:0:
256,192,90210,12,0,90210,0:0:0:0:
256,192,90292,12,0,90292,0:0:0:0:
256,192,90375,12,0,90375,0:0:0:0:
256,192,90457,12,0,90457,0:0:0:0:
256,192,90539,12,0,90539,0:0:0:0:
256,192,90621,12,0,90621,0:0:0:0:
256,192,90704,12,0,90704,0:0:0:0:
256,192,90786,12,0,90786,0:0:0:0:
256,192,90868,12,0,90868,0:0:0:0:
256,192,90951,12,0,90951,0:0:0:0:
256,192,91033,12,0,91033,0:0:0:0:
256,192,91115,12,0,91115,0:0:0:0:
256,192,91198,12,0,91198,0:0:0:0:
256,192,91280,12,0,91280,0:0:0:0:
256,192,91362,12,0,91362,0:0:0:0:
256,192,91445,12,0,91445,0:0:0:0:
256,192,91527,12,0,91527,0:0:0:0:
256,192,91609,12,0,91609,0:0:0:0:
256,192,91692,12,0,91692,0:0:0:0:
256,192,91774,12,0,91774,0:0:0:0:
256,192,91856,12,0,91856,0:0:0:0:
256,192,91939,12,0,91939,0:0:0:0:
256,192,92021,12,0,92021,0:0:0:0:
256,192,92103,12,0,92103,0:0:0:0:
256,192,92186,12,0,92186,0:0:0:0:
256,192,92268,12,0,92268,0:0:0:0:
256,192,92350,12,0,92350,0:0:0:0:
256,192,92433,12,0,92433,0:0:0:0:
256,192,92515,12,0,92515,0:0:0:0:
256,192,92597,12,0,92597,0:0:0:0:
256,192,92680,12,0,92680,0:0:0:0:
256,192,92762,12,0,92762,0:0:0:0:
256,192,92844,12,0,92844,0:0:0:0:
256,192,92927,12,0,92927,0:0:0:0:
256,192,93009,12,0,93009,0:0:0:0:
256,192,93091,12,0,93091,0:0:0:0:
256,192,93174,12,0,93174,0:0:0:0:
256,192,93256,12,0,93256,0:0:0:0:
256,192,93338,12,0,93338,0:0:0:0:
256,192,93421,12,0,93421,0:0:0:0:
256,192,93503,12,0,93503,0:0:0:0:
256,192,93585,12,0,93585,0:0:0:0:
256,192,93668,12,0,93668,0:0:0:0:
256,192,93750,12,0,93750,0:0:0:0:
256,192,93832,12,0,93832,0:0:0:0:
256,192,93915,12,0,93915,0:0:0:0:
256,192,93997,12,0,93997,0:0:0:0:
256,192,94079,12,0,94079,0:0:0:0:
256,192,94162,12,0,94162,0:0:0:0:
256,192,94244,12,0,94244,0:0:0:0:
256,192,94326,12,0,94326,0:0:0:0:
256,192,94409,12,0,94409,0:0:0:0:
256,192,94491,12,0,94491,0:0:0:0:
256,192,94573,12,0,94573,0:0:0:0:
256,192,94656,12,0,94656,0:0:0:0:
256,192,94738,12,0,94738,0:0:0:0:
256,192,94820,12,0,94820,0:0:0:0:
256,192,94903,12,0,94903,0:0:0:0:
256,192,94985,12,0,94985,0:0:0:0:
256,192,95067,12,0,95067,0:0:0:0:
256,192,95150,12,0,95150,0:0:0:0:
256,192,95232,12,0,95232,0:0:0:0:
256,192,95314,12,0,95314,0:0:0:0:
256,192,95397,12,0,95397,0:0:0:0:
256,192,95479,12,0,95479,0:0:0:0:
256,192,95561,12,0,95561,0:0:0:0:
256,192,95644,12,0,95644,0:0:0:0:
256,192,95726,12,0,95726,0:0:0:0:
256,192,95808,12,0,95808,0:0:0:0:
256,192,95891,12,0,95891,0:0:0:0:
256,192,95973,12,0,95973,0:0:0:0:
256,192,96055,12,0,96055,0:0:0:0:
256,192,96138,12,0,96138,0:0:0:0:
256,192,96220,12,0,96220,0:0:0:0:
256,192,96302,12,0,96302,0:0:0:0:
256,192,96385,12,0,96385,0:0:0:0:
256,192,96467,12,0,96467,0:0:0:0:
256,192,96549,12,0,96549,0:0:0:0:
256,192,96632,12,0,96632,0:0:0:0:
256,192,96714,12,0,96714,0:0:0:0:
256,192,96796,12,0,96796,0:0:0:0:
256,192,96878,12,0,96878,0:0:0:0:
256,192,96961,12,0,96961,0:0:0:0:
256,192,97043,12,0,97043,0:0:0:0:
256,192,97125,12,0,97125,0:0:0:0:
256,192,97208,12,0,97208,0:0:0:0:
256,192,97290,12,0,97290,0:0:0:0:
256,192,97372,12,0,97372,0:0:0:0:
256,192,97455,12,0,97455,0:0:0:0:
256,192,97619,12,0,97619,0:0:0:0:
256,192,97784,12,0,97784,0:0:0:0:
256,192,97949,12,0,97949,0:0:0:0:
256,192,98113,12,0,98113,0:0:0:0:
256,192,98196,12,0,98196,0:0:0:0:
256,192,98278,12,0,98278,0:0:0:0:
256,192,98360,12,0,98360,0:0:0:0:
256,192,98443,12,0,98443,0:0:0:0:
256,192,98525,12,0,98525,0:0:0:0:
256,192,98607,12,0,98607,0:0:0:0:
256,192,98690,12,0,98690,0:0:0:0:
256,192,98772,12,0,98772,0:0:0:0:
256,192,98854,12,0,98854,0:0:0:0:
256,192,98937,12,0,98937,0:0:0:0:
256,192,99019,12,0,99019,0:0:0:0:
256,192,99101,12,0,99101,0:0:0:0:
256,192,99184,12,0,99184,0:0:0:0:
256,192,99266,12,0,99266,0:0:0:0:
256,192,99348,12,0,99348,0:0:0:0:
256,192,99431,12,0,99431,0:0:0:0:
256,192,99513,12,0,99513,0:0:0:0:
256,192,99595,12,0,99595,0:0:0:0:
256,192,99678,12,0,99678,0:0:0:0:
256,192,99760,12,0,99760,0:0:0:0:
256,192,99842,12,0,99842,0:0:0:0:
256,192,99925,12,0,99925,0:0:0:0:
256,192,100007,12,0,100007,0:0:0:0:
256,192,100089,12,0,100089,0:0:0:0:
256,192,100172,12,0,100172,0:0:0:0:
256,192,100254,12,0,100254,0:0:0:0:
256,192,100336,12,0,100336,0:0:0:0:
256,192,100419,12,0,100419,0:0:0:0:
256,192,100501,12,0,100501,0:0:0:0:
256,192,100583,12,0,100583,0:0:0:0:
256,192,100666,12,0,100666,0:0:0:0:
256,192,100748,12,0,100748,0:0:0:0:
256,192,100830,12,0,100830,0:0:0:0:
256,192,100913,12,0,100913,0:0:0:0:
256,192,100995,12,0,100995,0:0:0:0:
256,192,101077,12,0,101077,0:0:0:0:
256,192,101160,12,0,101160,0:0:0:0:
256,192,101242,12,0,101242,0:0:0:0:
256,192,101324,12,0,101324,0:0:0:0:
256,192,101407,12,0,101407,0:0:0:0:
256,192,101489,12,0,101489,0:0:0:0:
256,192,101571,12,0,101571,0:0:0:0:
256,192,101654,12,0,101654,0:0:0:0:
256,192,101736,12,0,101736,0:0:0:0:
256,192,101818,12,0,101818,0:0:0:0:
256,192,101901,12,0,101901,0:0:0:0:
256,192,101983,12,0,101983,0:0:0:0:
256,192,102065,12,0,102065,0:0:0:0:
256,192,102148,12,0,102148,0:0:0:0:
256,192,102230,12,0,102230,0:0:0:0:
256,192,102312,12,0,102312,0:0:0:0:
256,192,102395,12,0,102395,0:0:0:0:
256,192,102477,12,0,102477,0:0:0:0:
256,192,102559,12,0,102559,0:0:0:0:
256,192,102642,12,0,102642,0:0:0:0:
256,192,102724,12,0,102724,0:0:0:0:
256,192,102806,12,0,102806,0:0:0:0:
256,192,102889,12,0,102889,0:0:0:0:
256,192,102971,12,0,102971,0:0:0:0:
256,192,103053,12,0,103053,0:0:0:0:
256,192,103135,12,0,103135,0:0:0:0:
256,192,103218,12,0,103218,0:0:0:0:
256,192,103300,12,0,103300,0:0:0:0:
256,192,103382,12,0,103382,0:0:0:0:
256,192,103547,12,0,103547,0:0:0:0:
256,192,103712,12,0,103712,0:0:0:0:
256,192,103876,12,0,103876,0:0:0:0:
256,192,104041,12,0,104041,0:0:0:0:
256,192,104206,12,0,104206,0:0:0:0:
256,192,104370,12,0,104370,0:0:0:0:
256,192,104535,12,0,104535,0:0:0:0:
256,192,104700,12,0,104700,0:0:0:0:
256,192,104864,12,0,104864,0:0:0:0:
256,192,105029,12,0,105029,0:0:0:0:
256,192,105194,12,0,105194,0:0:0:0:
256,192,105358,12,0,105358,0:0:0:0:
256,192,105523,12,0,105523,0:0:0:0:
256,192,105688,12,0,105688,0:0:0:0:
256,192,105852,12,0,105852,0:0:0:0:
256,192,106017,12,0,106017,0:0:0:0:
256,192,106099,12,0,106099,0:0:0:0:
256,192,106182,12,0,106182,0:0:0:0:
256,192,106264,12,0,106264,0:0:0:0:
256,192,106346,12,0,106346,0:0:0:0:
256,192,106429,12,0,106429,0:0:0:0:
256,192,106511,12,0,106511,0:0:0:0:
256,192,106593,12,0,106593,0:0:0:0:
256,192,106676,12,0,106676,0:0:0:0:
256,192,106758,12,0,106758,0:0:0:0:
256,192,106840,12,0,106840,0:0:0:0:
256,192,106923,12,0,106923,0:0:0:0:
256,192,107005,12,0,107005,0:0:0:0:
256,192,107087,12,0,107087,0:0:0:0:
256,192,107170,12,0,107170,0:0:0:0:
256,192,107252,12,0,107252,0:0:0:0:
256,192,107334,12,0,107334,0:0:0:0:
256,192,108652,12,0,108652,0:0:0:0:
256,192,111286,12,0,111286,0:0:0:0:
256,192,113921,12,0,113921,0:0:0:0:
256,192,116555,12,0,116555,0:0:0:0:
256,192,119190,12,0,119190,0:0:0:0:
256,192,121824,12,0,121824,0:0:0:0:
256,192,124459,12,0,124459,0:0:0:0:
256,192,127093,12,0,127093,0:0:0:0:
256,192,129728,12,0,129728,0:0:0:0:
256,192,132362,12,0,132362,0:0:0:0:
256,192,133021,12,0,133021,0:0:0:0:
256,192,133186,12,0,133186,0:0:0:0:
256,192,133350,12,0,133350,0:0:0:0:
256,192,133515,12,0,133515,0:0:0:0:
256,192,133680,12,0,133680,0:0:0:0:
256,192,134338,12,0,134338,0:0:0:0:
256,192,134503,12,0,134503,0:0:0:0:
256,192,134667,12,0,134667,0:0:0:0:
256,192,134832,12,0,134832,0:0:0:0:
256,192,134997,12,0,134997,0:0:0:0:
256,192,135326,12,0,135326,0:0:0:0:
256,192,135491,12,0,135491,0:0:0:0:
256,192,135655,12,0,135655,0:0:0:0:
256,192,135985,12,0,135985,0:0:0:0:
256,192,136314,12,0,136314,0:0:0:0:
256,192,136808,12,0,136808,0:0:0:0:
256,192,136973,12,0,136973,0:0:0:0:
256,192,137137,12,0,137137,0:0:0:0:
256,192,137302,12,0,137302,0:0:0:0:
256,192,137467,12,0,137467,0:0:0:0:
256,192,137631,12,0,137631,0:0:0:0:
256,192,138125,12,0,138125,0:0:0:0:
256,192,138290,12,0,138290,0:0:0:0:
256,192,138455,12,0,138455,0:0:0:0:
256,192,138619,12,0,138619,0:0:0:0:
256,192,138784,12,0,138784,0:0:0:0:
256,192,138949,12,0,138949,0:0:0:0:
256,192,139607,12,0,139607,0:0:0:0:
256,192,139937,12,0,139937,0:0:0:0:
256,192,140266,12,0,140266,0:0:0:0:
256,192,140595,12,0,140595,0:0:0:0:
256,192,140924,12,0,140924,0:0:0:0:
256,192,141254,12,0,141254,0:0:0:0:
256,192,141583,12,0,141583,0:0:0:0:
256,192,142242,12,0,142242,0:0:0:0:
256,192,142406,12,0,142406,0:0:0:0:
256,192,142571,12,0,142571,0:0:0:0:
256,192,142736,12,0,142736,0:0:0:0:
256,192,142900,12,0,142900,0:0:0:0:
256,192,143559,12,0,143559,0:0:0:0:
256,192,143724,12,0,143724,0:0:0:0:
256,192,143888,12,0,143888,0:0:0:0:
256,192,144053,12,0,144053,0:0:0:0:
256,192,144218,12,0,144218,0:0:0:0:
256,192,144876,12,0,144876,0:0:0:0:
256,192,145041,12,0,145041,0:0:0:0:
256,192,145206,12,0,145206,0:0:0:0:
256,192,145370,12,0,145370,0:0:0:0:
256,192,145535,12,0,145535,0:0:0:0:
256,192,145864,12,0,145864,0:0:0:0:
256,192,146029,12,0,146029,0:0:0:0:
256,192,146194,12,0,146194,0:0:0:0:
256,192,146523,12,0,146523,0:0:0:0:
256,192,146852,12,0,146852,0:0:0:0:
256,192,147346,12,0,147346,0:0:0:0:
256,192,147511,12,0,147511,0:0:0:0:
256,192,147675,12,0,147675,0:0:0:0:
256,192,147840,12,0,147840,0:0:0:0:
256,192,148005,12,0,148005,0:0:0:0:
256,192,148169,12,0,148169,0:0:0:0:
256,192,148663,12,0,148663,0:0:0:0:
256,192,148828,12,0,148828,0:0:0:0:
256,192,148993,12,0,148993,0:0:0:0:
256,192,149157,12,0,149157,0:0:0:0:
256,192,149322,12,0,149322,0:0:0:0:
256,192,149487,12,0,149487,0:0:0:0:
256,192,150145,12,0,150145,0:0:0:0:
256,192,150475,12,0,150475,0:0:0:0:
256,192,150804,12,0,150804,0:0:0:0:
256,192,151133,12,0,151133,0:0:0:0:
256,192,151463,12,0,151463,0:0:0:0:
256,192,151792,12,0,151792,0:0:0:0:
256,192,152121,12,0,152121,0:0:0:0:
256,192,152451,12,0,152451,0:0:0:0:
256,192,152780,12,0,152780,0:0:0:0:
256,192,153109,12,0,153109,0:0:0:0:
256,192,153438,12,0,153438,0:0:0:0:
256,192,153768,12,0,153768,0:0:0:0:
256,192,154097,12,0,154097,0:0:0:0:
256,192,154426,12,0,154426,0:0:0:0:
256,192,155332,12,0,155332,0:0:0:0:
256,192,155579,12,0,155579,0:0:0:0:
256,192,155908,12,0,155908,0:0:0:0:
256,192,156402,12,0,156402,0:0:0:0:
256,192,158708,12,0,158708,0:0:0:0:
256,192,158954,12,0,158954,0:0:0:0:
256,192,159201,12,0,159201,0:0:0:0:
256,192,159366,12,0,159366,0:0:0:0:
256,192,159613,12,0,159613,0:0:0:0:
256,192,159860,12,0,159860,0:0:0:0:
256,192,160025,12,0,160025,0:0:0:0:
256,192,160272,12,0,160272,0:0:0:0:
256,192,160519,12,0,160519,0:0:0:0:
256,192,160683,12,0,160683,0:0:0:0:
256,192,160930,12,0,160930,0:0:0:0:
256,192,161177,12,0,161177,0:0:0:0:
256,192,161342,12,0,161342,0:0:0:0:
256,192,161589,12,0,161589,0:0:0:0:
256,192,161836,12,0,161836,0:0:0:0:
256,192,162001,12,0,162001,0:0:0:0:
256,192,162248,12,0,162248,0:0:0:0:
256,192,162495,12,0,162495,0:0:0:0:
256,192,162659,12,0,162659,0:0:0:0:
256,192,162906,12,0,162906,0:0:0:0:
256,192,163153,12,0,163153,0:0:0:0:
256,192,163318,12,0,163318,0:0:0:0:
256,192,163565,12,0,163565,0:0:0:0:
256,192,163812,12,0,163812,0:0:0:0:
256,192,163977,12,0,163977,0:0:0:0:
256,192,164224,12,0,164224,0:0:0:0:
256,192,164471,12,0,164471,0:0:0:0:
256,192,164635,12,0,164635,0:0:0:0:
256,192,164882,12,0,164882,0:0:0:0:
256,192,165129,12,0,165129,0:0:0:0:
256,192,165294,12,0,165294,0:0:0:0:
256,192,165541,12,0,165541,0:0:0:0:
256,192,165788,12,0,165788,0:0:0:0:
256,192,165952,12,0,165952,0:0:0:0:
256,192,166199,12,0,166199,0:0:0:0:
256,192,166446,12,0,166446,0:0:0:0:
256,192,166611,12,0,166611,0:0:0:0:
256,192,166858,12,0,166858,0:0:0:0:
256,192,167105,12,0,167105,0:0:0:0:
256,192,167270,12,0,167270,0:0:0:0:
256,192,167517,12,0,167517,0:0:0:0:
256,192,167764,12,0,167764,0:0:0:0:
256,192,167928,12,0,167928,0:0:0:0:
256,192,168175,12,0,168175,0:0:0:0:
256,192,168422,12,0,168422,0:0:0:0:
256,192,168587,12,0,168587,0:0:0:0:
256,192,168834,12,0,168834,0:0:0:0:
256,192,169081,12,0,169081,0:0:0:0:
256,192,169246,12,0,169246,0:0:0:0:
256,192,169493,12,0,169493,0:0:0:0:
256,192,169740,12,0,169740,0:0:0:0:
256,192,169904,12,0,169904,0:0:0:0:
256,192,170151,12,0,170151,0:0:0:0:
256,192,170398,12,0,170398,0:0:0:0:
256,192,170563,12,0,170563,0:0:0:0:
256,192,170810,12,0,170810,0:0:0:0:
256,192,171057,12,0,171057,0:0:0:0:
256,192,171222,12,0,171222,0:0:0:0:
256,192,171468,12,0,171468,0:0:0:0:
256,192,171715,12,0,171715,0:0:0:0:
256,192,171880,12,0,171880,0:0:0:0:
256,192,172127,12,0,172127,0:0:0:0:
256,192,172374,12,0,172374,0:0:0:0:
256,192,172539,12,0,172539,0:0:0:0:
256,192,172786,12,0,172786,0:0:0:0:
256,192,173033,12,0,173033,0:0:0:0:
256,192,173197,12,0,173197,0:0:0:0:
256,192,173444,12,0,173444,0:0:0:0:
256,192,173691,12,0,173691,0:0:0:0:
256,192,173856,12,0,173856,0:0:0:0:
256,192,174103,12,0,174103,0:0:0:0:
256,192,174350,12,0,174350,0:0:0:0:
256,192,174515,12,0,174515,0:0:0:0:
256,192,174762,12,0,174762,0:0:0:0:
256,192,175009,12,0,175009,0:0:0:0:
256,192,175173,12,0,175173,0:0:0:0:
256,192,175420,12,0,175420,0:0:0:0:
256,192,175667,12,0,175667,0:0:0:0:
256,192,175832,12,0,175832,0:0:0:0:
256,192,176079,12,0,176079,0:0:0:0:
256,192,176326,12,0,176326,0:0:0:0:
256,192,176491,12,0,176491,0:0:0:0:
256,192,176738,12,0,176738,0:0:0:0:
256,192,176985,12,0,176985,0:0:0:0:
256,192,177149,12,0,177149,0:0:0:0:
256,192,177396,12,0,177396,0:0:0:0:
256,192,177643,12,0,177643,0:0:0:0:
256,192,177808,12,0,177808,0:0:0:0:
256,192,178055,12,0,178055,0:0:0:0:
256,192,178302,12,0,178302,0:0:0:0:
256,192,178466,12,0,178466,0:0:0:0:
256,192,178713,12,0,178713,0:0:0:0:
256,192,178960,12,0,178960,0:0:0:0:
256,192,179125,12,0,179125,0:0:0:0:
256,192,179372,12,0,179372,0:0:0:0:
256,192,179619,12,0,179619,0:0:0:0:
256,192,179784,12,0,179784,0:0:0:0:
256,192,190322,12,0,190322,0:0:0:0:
256,192,190651,12,0,190651,0:0:0:0:
256,192,190980,12,0,190980,0:0:0:0:
256,192,191145,12,0,191145,0:0:0:0:
256,192,191310,12,0,191310,0:0:0:0:
256,192,191639,12,0,191639,0:0:0:0:
256,192,191804,12,0,191804,0:0:0:0:
256,192,191968,12,0,191968,0:0:0:0:
256,192,192298,12,0,192298,0:0:0:0:
256,192,192462,12,0,192462,0:0:0:0:
256,192,192627,12,0,192627,0:0:0:0:
256,192,192956,12,0,192956,0:0:0:0:
256,192,193121,12,0,193121,0:0:0:0:
256,192,193286,12,0,193286,0:0:0:0:
256,192,193450,12,0,193450,0:0:0:0:
256,192,193615,12,0,193615,0:0:0:0:
256,192,193780,12,0,193780,0:0:0:0:
256,192,193944,12,0,193944,0:0:0:0:
256,192,194109,12,0,194109,0:0:0:0:
256,192,194274,12,0,194274,0:0:0:0:
256,192,194438,12,0,194438,0:0:0:0:
256,192,194603,12,0,194603,0:0:0:0:
256,192,194768,12,0,194768,0:0:0:0:
256,192,194932,12,0,194932,0:0:0:0:
256,192,195097,12,0,195097,0:0:0:0:
256,192,195262,12,0,195262,0:0:0:0:
256,192,195426,12,0,195426,0:0:0:0:
256,192,195591,12,0,195591,0:0:0:0:
256,192,195673,12,0,195673,0:0:0:0:
256,192,195756,12,0,195756,0:0:0:0:
256,192,195838,12,0,195838,0:0:0:0:
256,192,195920,12,0,195920,0:0:0:0:
256,192,196003,12,0,196003,0:0:0:0:
256,192,196085,12,0,196085,0:0:0:0:
256,192,196167,12,0,196167,0:0:0:0:
256,192,196249,12,0,196249,0:0:0:0:
256,192,196332,12,0,196332,0:0:0:0:
256,192,196414,12,0,196414,0:0:0:0:
256,192,196496,12,0,196496,0:0:0:0:
256,192,196579,12,0,196579,0:0:0:0:
256,192,196661,12,0,196661,0:0:0:0:
256,192,196743,12,0,196743,0:0:0:0:
256,192,196826,12,0,196826,0:0:0:0:
256,192,196908,12,0,196908,0:0:0:0:
256,192,196990,12,0,196990,0:0:0:0:
256,192,197073,12,0,197073,0:0:0:0:
256,192,197155,12,0,197155,0:0:0:0:
256,192,197237,12,0,197237,0:0:0:0:
256,192,197320,12,0,197320,0:0:0:0:
256,192,197402,12,0,197402,0:0:0:0:
256,192,197484,12,0,197484,0:0:0:0:
256,192,197567,12,0,197567,0:0:0:0:
256,192,197649,12,0,197649,0:0:0:0:
256,192,197731,12,0,197731,0:0:0:0:
256,192,197814,12,0,197814,0:0:0:0:
256,192,197896,12,0,197896,0:0:0:0:
256,192,197978,12,0,197978,0:0:0:0:
256,192,198061,12,0,198061,0:0:0:0:
256,192,198143,12,0,198143,0:0:0:0:
256,192,198225,12,0,198225,0:0:0:0:
256,192,198308,12,0,198308,0:0:0:0:
256,192,198390,12,0,198390,0:0:0:0:
256,192,198472,12,0,198472,0:0:0:0:
256,192,198555,12,0,198555,0:0:0:0:
256,192,198637,12,0,198637,0:0:0:0:
256,192,198719,12,0,198719,0:0:0:0:
256,192,198802,12,0,198802,0:0:0:0:
256,192,198884,12,0,198884,0:0:0:0:
256,192,198966,12,0,198966,0:0:0:0:
256,192,199049,12,0,199049,0:0:0:0:
256,192,199131,12,0,199131,0:0:0:0:
256,192,199213,12,0,199213,0:0:0:0:
256,192,199296,12,0,199296,0:0:0:0:
256,192,199378,12,0,199378,0:0:0:0:
256,192,199460,12,0,199460,0:0:0:0:
256,192,199543,12,0,199543,0:0:0:0:
256,192,200860,12,0,200860,0:0:0:0:
256,192,200942,12,0,200942,0:0:0:0:
256,192,201025,12,0,201025,0:0:0:0:
256,192,201107,12,0,201107,0:0:0:0:
256,192,201189,12,0,201189,0:0:0:0:
256,192,201272,12,0,201272,0:0:0:0:
256,192,201354,12,0,201354,0:0:0:0:
256,192,201436,12,0,201436,0:0:0:0:
256,192,201519,12,0,201519,0:0:0:0:
256,192,201601,12,0,201601,0:0:0:0:
256,192,201683,12,0,201683,0:0:0:0:
256,192,201766,12,0,201766,0:0:0:0:
256,192,201848,12,0,201848,0:0:0:0:
256,192,201930,12,0,201930,0:0:0:0:
256,192,202013,12,0,202013,0:0:0:0:
256,192,202095,12,0,202095,0:0:0:0:
256,192,202177,12,0,202177,0:0:0:0:
256,192,202260,12,0,202260,0:0:0:0:
256,192,202342,12,0,202342,0:0:0:0:
256,192,202424,12,0,202424,0:0:0:0:
256,192,202507,12,0,202507,0:0:0:0:
256,192,202589,12,0,202589,0:0:0:0:
256,192,202671,12,0,202671,0:0:0:0:
256,192,202753,12,0,202753,0:0:0:0:
256,192,202836,12,0,202836,0:0:0:0:
256,192,202918,12,0,202918,0:0:0:0:
256,192,203000,12,0,203000,0:0:0:0:
256,192,203083,12,0,203083,0:0:0:0:
256,192,203165,12,0,203165,0:0:0:0:
256,192,203247,12,0,203247,0:0:0:0:
256,192,203330,12,0,203330,0:0:0:0:
256,192,203412,12,0,203412,0:0:0:0:
256,192,203494,12,0,203494,0:0:0:0:
256,192,203577,12,0,203577,0:0:0:0:
256,192,203659,12,0,203659,0:0:0:0:
256,192,203741,12,0,203741,0:0:0:0:
256,192,203824,12,0,203824,0:0:0:0:
256,192,203906,12,0,203906,0:0:0:0:
256,192,203988,12,0,203988,0:0:0:0:
256,192,204071,12,0,204071,0:0:0:0:
256,192,204153,12,0,204153,0:0:0:0:
256,192,204235,12,0,204235,0:0:0:0:
256,192,204318,12,0,204318,0:0:0:0:
256,192,204400,12,0,204400,0:0:0:0:
256,192,204482,12,0,204482,0:0:0:0:
256,192,204565,12,0,204565,0:0:0:0:
256,192,204647,12,0,204647,0:0:0:0:
256,192,204729,12,0,204729,0:0:0:0:
256,192,204812,12,0,204812,0:0:0:0:
256,192,204894,12,0,204894,0:0:0:0:
256,192,204976,12,0,204976,0:0:0:0:
256,192,205059,12,0,205059,0:0:0:0:
256,192,205141,12,0,205141,0:0:0:0:
256,192,205223,12,0,205223,0:0:0:0:
256,192,205306,12,0,205306,0:0:0:0:
256,192,205388,12,0,205388,0:0:0:0:
256,192,205470,12,0,205470,0:0:0:0:
256,192,205553,12,0,205553,0:0:0:0:
256,192,205635,12,0,205635,0:0:0:0:
256,192,205717,12,0,205717,0:0:0:0:
256,192,205800,12,0,205800,0:0:0:0:
256,192,205882,12,0,205882,0:0:0:0:
256,192,205964,12,0,205964,0:0:0:0:
256,192,206047,12,0,206047,0:0:0:0:
256,192,206129,12,0,206129,0:0:0:0:
256,192,206211,12,0,206211,0:0:0:0:
256,192,206294,12,0,206294,0:0:0:0:
256,192,206376,12,0,206376,0:0:0:0:
256,192,206458,12,0,206458,0:0:0:0:
256,192,206541,12,0,206541,0:0:0:0:
256,192,206623,12,0,206623,0:0:0:0:
256,192,206705,12,0,206705,0:0:0:0:
256,192,206788,12,0,206788,0:0:0:0:
256,192,206870,12,0,206870,0:0:0:0:
256,192,206952,12,0,206952,0:0:0:0:
256,192,207035,12,0,207035,0:0:0:0:
256,192,207117,12,0,207117,0:0:0:0:
256,192,207199,12,0,207199,0:0:0:0:
256,192,207282,12,0,207282,0:0:0:0:
256,192,207364,12,0,207364,0:0:0:0:
256,192,207446,12,0,207446,0:0:0:0:
256,192,207529,12,0,207529,0:0:0:0:
256,192,207611,12,0,207611,0:0:0:0:
256,192,207693,12,0,207693,0:0:0:0:
256,192,207776,12,0,207776,0:0:0:0:
256,192,207858,12,0,207858,0:0:0:0:
256,192,207940,12,0,207940,0:0:0:0:
256,192,208023,12,0,208023,0:0:0:0:
256,192,208105,12,0,208105,0:0:0:0:
256,192,208187,12,0,208187,0:0:0:0:
256,192,208270,12,0,208270,0:0:0:0:
256,192,208352,12,0,208352,0:0:0:0:
256,192,208434,12,0,208434,0:0:0:0:
256,192,208517,12,0,208517,0:0:0:0:
256,192,208599,12,0,208599,0:0:0:0:
256,192,208681,12,0,208681,0:0:0:0:
256,192,208764,12,0,208764,0:0:0:0:
256,192,208846,12,0,208846,0:0:0:0:
256,192,208928,12,0,208928,0:0:0:0:
256,192,209010,12,0,209010,0:0:0:0:
256,192,209093,12,0,209093,0:0:0:0:
256,192,209175,12,0,209175,0:0:0:0:
256,192,209257,12,0,209257,0:0:0:0:
256,192,209340,12,0,209340,0:0:0:0:
256,192,209422,12,0,209422,0:0:0:0:
256,192,209504,12,0,209504,0:0:0:0:
256,192,209587,12,0,209587,0:0:0:0:
256,192,209669,12,0,209669,0:0:0:0:
256,192,209751,12,0,209751,0:0:0:0:
256,192,209834,12,0,209834,0:0:0:0:
256,192,209916,12,0,209916,0:0:0:0:
256,192,209998,12,0,209998,0:0:0:0:
256,192,210081,12,0,210081,0:0:0:0:
256,192,210163,12,0,210163,0:0:0:0:
256,192,210245,12,0,210245,0:0:0:0:
256,192,210328,12,0,210328,0:0:0:0:
256,192,210410,12,0,210410,0:0:0:0:
256,192,210492,12,0,210492,0:0:0:0:
256,192,210575,12,0,210575,0:0:0:0:
256,192,210657,12,0,210657,0:0:0:0:
256,192,210739,12,0,210739,0:0:0:0:
256,192,210822,12,0,210822,0:0:0:0:
256,192,210904,12,0,210904,0:0:0:0:
256,192,210986,12,0,210986,0:0:0:0:
256,192,211069,12,0,211069,0:0:0:0:
256,192,211151,12,0,211151,0:0:0:0:
256,192,211233,12,0,211233,0:0:0:0:
256,192,211316,12,0,211316,0:0:0:0:
256,192,211398,12,0,211398,0:0:0:0:
256,192,211480,12,0,211480,0:0:0:0:
256,192,211563,12,0,211563,0:0:0:0:
256,192,211645,12,0,211645,0:0:0:0:
256,192,211727,12,0,211727,0:0:0:0:
256,192,211810,12,0,211810,0:0:0:0:
256,192,211892,12,0,211892,0:0:0:0:
256,192,211974,12,0,211974,0:0:0:0:
256,192,212057,12,0,212057,0:0:0:0:
256,192,212139,12,0,212139,0:0:0:0:
256,192,212221,12,0,212221,0:0:0:0:
256,192,212304,12,0,212304,0:0:0:0:
256,192,212386,12,0,212386,0:0:0:0:
256,192,212468,12,0,212468,0:0:0:0:
256,192,212551,12,0,212551,0:0:0:0:
256,192,212633,12,0,212633,0:0:0:0:
256,192,212715,12,0,212715,0:0:0:0:
256,192,212798,12,0,212798,0:0:0:0:
256,192,212880,12,0,212880,0:0:0:0:
256,192,212962,12,0,212962,0:0:0:0:
256,192,213045,12,0,213045,0:0:0:0:
256,192,213127,12,0,213127,0:0:0:0:
256,192,213209,12,0,213209,0:0:0:0:
256,192,213292,12,0,213292,0:0:0:0:
256,192,213374,12,0,213374,0:0:0:0:
256,192,213456,12,0,213456,0:0:0:0:
256,192,213539,12,0,213539,0:0:0:0:
256,192,213621,12,0,213621,0:0:0:0:
256,192,213703,12,0,213703,0:0:0:0:
256,192,213786,12,0,213786,0:0:0:0:
256,192,213868,12,0,213868,0:0:0:0:
256,192,213950,12,0,213950,0:0:0:0:
256,192,214033,12,0,214033,0:0:0:0:
256,192,214115,12,0,214115,0:0:0:0:
256,192,214197,12,0,214197,0:0:0:0:
256,192,214280,12,0,214280,0:0:0:0:
256,192,214362,12,0,214362,0:0:0:0:
256,192,214444,12,0,214444,0:0:0:0:
256,192,214527,12,0,214527,0:0:0:0:
256,192,214609,12,0,214609,0:0:0:0:
256,192,214691,12,0,214691,0:0:0:0:
256,192,214774,12,0,214774,0:0:0:0:
256,192,214856,12,0,214856,0:0:0:0:
256,192,214938,12,0,214938,0:0:0:0:
256,192,215020,12,0,215020,0:0:0:0:
256,192,215103,12,0,215103,0:0:0:0:
256,192,215185,12,0,215185,0:0:0:0:
256,192,215267,12,0,215267,0:0:0:0:
256,192,215350,12,0,215350,0:0:0:0:
256,192,215432,12,0,215432,0:0:0:0:
256,192,215514,12,0,215514,0:0:0:0:
256,192,215597,12,0,215597,0:0:0:0:
256,192,215679,12,0,215679,0:0:0:0:
256,192,215761,12,0,215761,0:0:0:0:
256,192,215844,12,0,215844,0:0:0:0:
256,192,215926,12,0,215926,0:0:0:0:
256,192,216008,12,0,216008,0:0:0:0:
256,192,216091,12,0,216091,0:0:0:0:
256,192,216173,12,0,216173,0:0:0:0:
256,192,216255,12,0,216255,0:0:0:0:
256,192,216338,12,0,216338,0:0:0:0:
256,192,216420,12,0,216420,0:0:0:0:
256,192,216502,12,0,216502,0:0:0:0:
256,192,216585,12,0,216585,0:0:0:0:
256,192,216667,12,0,216667,0:0:0:0:
256,192,216749,12,0,216749,0:0:0:0:
256,192,216832,12,0,216832,0:0:0:0:
256,192,216914,12,0,216914,0:0:0:0:
256,192,216996,12,0,216996,0:0:0:0:
256,192,217079,12,0,217079,0:0:0:0:
256,192,217161,12,0,217161,0:0:0:0:
256,192,217243,12,0,217243,0:0:0:0:
256,192,217326,12,0,217326,0:0:0:0:
256,192,217408,12,0,217408,0:0:0:0:
256,192,217490,12,0,217490,0:0:0:0:
256,192,217573,12,0,217573,0:0:0:0:
256,192,217655,12,0,217655,0:0:0:0:
256,192,217737,12,0,217737,0:0:0:0:
256,192,217820,12,0,217820,0:0:0:0:
256,192,217902,12,0,217902,0:0:0:0:
256,192,217984,12,0,217984,0:0:0:0:
256,192,218067,12,0,218067,0:0:0:0:
256,192,218149,12,0,218149,0:0:0:0:
256,192,218231,12,0,218231,0:0:0:0:
256,192,218314,12,0,218314,0:0:0:0:
256,192,218396,12,0,218396,0:0:0:0:
256,192,218478,12,0,218478,0:0:0:0:
256,192,218561,12,0,218561,0:0:0:0:
256,192,218643,12,0,218643,0:0:0:0:
256,192,218725,12,0,218725,0:0:0:0:
256,192,218808,12,0,218808,0:0:0:0:
256,192,218890,12,0,218890,0:0:0:0:
256,192,218972,12,0,218972,0:0:0:0:
256,192,219055,12,0,219055,0:0:0:0:
256,192,219137,12,0,219137,0:0:0:0:
256,192,219219,12,0,219219,0:0:0:0:
256,192,219302,12,0,219302,0:0:0:0:
256,192,219384,12,0,219384,0:0:0:0:
256,192,219466,12,0,219466,0:0:0:0:
256,192,219549,12,0,219549,0:0:0:0:
256,192,219631,12,0,219631,0:0:0:0:
256,192,219713,12,0,219713,0:0:0:0:
256,192,219796,12,0,219796,0:0:0:0:
256,192,219878,12,0,219878,0:0:0:0:
256,192,219960,12,0,219960,0:0:0:0:
256,192,220043,12,0,220043,0:0:0:0:
256,192,220125,12,0,220125,0:0:0:0:
256,192,220207,12,0,220207,0:0:0:0:
256,192,220290,12,0,220290,0:0:0:0:
256,192,220372,12,0,220372,0:0:0:0:
256,192,220454,12,0,220454,0:0:0:0:
256,192,220537,12,0,220537,0:0:0:0:
256,192,220619,12,0,220619,0:0:0:0:
256,192,220701,12,0,220701,0:0:0:0:
256,192,220784,12,0,220784,0:0:0:0:
256,192,220866,12,0,220866,0:0:0:0:
256,192,220948,12,0,220948,0:0:0:0:
256,192,221031,12,0,221031,0:0:0:0:
256,192,221113,12,0,221113,0:0:0:0:
256,192,221195,12,0,221195,0:0:0:0:
256,192,221277,12,0,221277,0:0:0:0:
256,192,221360,12,0,221360,0:0:0:0:
256,192,221442,12,0,221442,0:0:0:0:
256,192,221524,12,0,221524,0:0:0:0:
256,192,221607,12,0,221607,0:0:0:0:
256,192,221689,12,0,221689,0:0:0:0:
256,192,221771,12,0,221771,0:0:0:0:
256,192,221854,12,0,221854,0:0:0:0:
256,192,221936,12,0,221936,0:0:0:0:
256,192,222018,12,0,222018,0:0:0:0:
256,192,222101,12,0,222101,0:0:0:0:
256,192,222183,12,0,222183,0:0:0:0:
256,192,222265,12,0,222265,0:0:0:0:
256,192,222348,12,0,222348,0:0:0:0:
256,192,222430,12,0,222430,0:0:0:0:
256,192,222512,12,0,222512,0:0:0:0:
256,192,222595,12,0,222595,0:0:0:0:
256,192,222677,12,0,222677,0:0:0:0:
256,192,222759,12,0,222759,0:0:0:0:
256,192,222842,12,0,222842,0:0:0:0:
256,192,222924,12,0,222924,0:0:0:0:
256,192,223006,12,0,223006,0:0:0:0:
256,192,223089,12,0,223089,0:0:0:0:
256,192,223171,12,0,223171,0:0:0:0:
256,192,223253,12,0,223253,0:0:0:0:
256,192,223336,12,0,223336,0:0:0:0:
256,192,223418,12,0,223418,0:0:0:0:
256,192,223500,12,0,223500,0:0:0:0:
256,192,223583,12,0,223583,0:0:0:0:
256,192,223665,12,0,223665,0:0:0:0:
256,192,223747,12,0,223747,0:0:0:0:
256,192,223830,12,0,223830,0:0:0:0:
256,192,223912,12,0,223912,0:0:0:0:
256,192,223994,12,0,223994,0:0:0:0:
256,192,224077,12,0,224077,0:0:0:0:
256,192,224159,12,0,224159,0:0:0:0:
256,192,224241,12,0,224241,0:0:0:0:
256,192,224324,12,0,224324,0:0:0:0:
256,192,224406,12,0,224406,0:0:0:0:
256,192,224488,12,0,224488,0:0:0:0:
256,192,224571,12,0,224571,0:0:0:0:
256,192,224653,12,0,224653,0:0:0:0:
256,192,224735,12,0,224735,0:0:0:0:
256,192,224818,12,0,224818,0:0:0:0:
256,192,224900,12,0,224900,0:0:0:0:
256,192,224982,12,0,224982,0:0:0:0:
256,192,225065,12,0,225065,0:0:0:0:
256,192,225147,12,0,225147,0:0:0:0:
256,192,225229,12,0,225229,0:0:0:0:
256,192,225312,12,0,225312,0:0:0:0:
256,192,225394,12,0,225394,0:0:0:0:
256,192,225476,12,0,225476,0:0:0:0:
256,192,225559,12,0,225559,0:0:0:0:
256,192,225641,12,0,225641,0:0:0:0:
256,192,225723,12,0,225723,0:0:0:0:
256,192,225806,12,0,225806,0:0:0:0:
256,192,225888,12,0,225888,0:0:0:0:
256,192,225970,12,0,225970,0:0:0:0:
256,192,226053,12,0,226053,0:0:0:0:
256,192,226135,12,0,226135,0:0:0:0:
256,192,226217,12,0,226217,0:0:0:0:
256,192,226300,12,0,226300,0:0:0:0:
256,192,226382,12,0,226382,0:0:0:0:
256,192,226464,12,0,226464,0:0:0:0:
256,192,226547,12,0,226547,0:0:0:0:
256,192,226629,12,0,226629,0:0:0:0:
256,192,226711,12,0,226711,0:0:0:0:
256,192,226794,12,0,226794,0:0:0:0:
256,192,226876,12,0,226876,0:0:0:0:
256,192,226958,12,0,226958,0:0:0:0:
256,192,227041,12,0,227041,0:0:0:0:
256,192,227123,12,0,227123,0:0:0:0:
256,192,227205,12,0,227205,0:0:0:0:
256,192,227288,12,0,227288,0:0:0:0:
256,192,227370,12,0,227370,0:0:0:0:
256,192,227452,12,0,227452,0:0:0:0:
256,192,227535,12,0,227535,0:0:0:0:
256,192,227617,12,0,227617,0:0:0:0:
256,192,227699,12,0,227699,0:0:0:0:
256,192,227781,12,0,227781,0:0:0:0:
256,192,227864,12,0,227864,0:0:0:0:
256,192,227946,12,0,227946,0:0:0:0:
256,192,228028,12,0,228028,0:0:0:0:
256,192,228111,12,0,228111,0:0:0:0:
256,192,228193,12,0,228193,0:0:0:0:
256,192,228275,12,0,228275,0:0:0:0:
256,192,228358,12,0,228358,0:0:0:0:
256,192,228440,12,0,228440,0:0:0:0:
256,192,228522,12,0,228522,0:0:0:0:
256,192,228605,12,0,228605,0:0:0:0:
256,192,228687,12,0,228687,0:0:0:0:
256,192,228769,12,0,228769,0:0:0:0:
256,192,228852,12,0,228852,0:0:0:0:
256,192,228934,12,0,228934,0:0:0:0:
256,192,229016,12,0,229016,0:0:0:0:
256,192,229099,12,0,229099,0:0:0:0:
256,192,229181,12,0,229181,0:0:0:0:
256,192,229263,12,0,229263,0:0:0:0:
256,192,229346,12,0,229346,0:0:0:0:
256,192,229428,12,0,229428,0:0:0:0:
256,192,229510,12,0,229510,0:0:0:0:
256,192,229593,12,0,229593,0:0:0:0:
256,192,229675,12,0,229675,0:0:0:0:
256,192,229757,12,0,229757,0:0:0:0:
256,192,229840,12,0,229840,0:0:0:0:
256,192,229922,12,0,229922,0:0:0:0:
256,192,230004,12,0,230004,0:0:0:0:
256,192,230087,12,0,230087,0:0:0:0:
256,192,230169,12,0,230169,0:0:0:0:
256,192,230251,12,0,230251,0:0:0:0:
256,192,230334,12,0,230334,0:0:0:0:
256,192,230416,12,0,230416,0:0:0:0:
256,192,230498,12,0,230498,0:0:0:0:
256,192,230581,12,0,230581,0:0:0:0:
256,192,230663,12,0,230663,0:0:0:0:
256,192,230745,12,0,230745,0:0:0:0:
256,192,230828,12,0,230828,0:0:0:0:
256,192,230910,12,0,230910,0:0:0:0:
256,192,230992,12,0,230992,0:0:0:0:
256,192,231075,12,0,231075,0:0:0:0:
256,192,231157,12,0,231157,0:0:0:0:
256,192,231239,12,0,231239,0:0:0:0:
256,192,231322,12,0,231322,0:0:0:0:
256,192,231404,12,0,231404,0:0:0:0:
256,192,231486,12,0,231486,0:0:0:0:
256,192,231569,12,0,231569,0:0:0:0:
256,192,231651,12,0,231651,0:0:0:0:
256,192,231733,12,0,231733,0:0:0:0:
256,192,231816,12,0,231816,0:0:0:0:
256,192,231898,12,0,231898,0:0:0:0:
256,192,231980,12,0,231980,0:0:0:0:
256,192,232063,12,0,232063,0:0:0:0:
256,192,232145,12,0,232145,0:0:0:0:
256,192,232227,12,0,232227,0:0:0:0:
256,192,232310,12,0,232310,0:0:0:0:
256,192,232392,12,0,232392,0:0:0:0:
256,192,232474,12,0,232474,0:0:0:0:
256,192,232557,12,0,232557,0:0:0:0:
256,192,232639,12,0,232639,0:0:0:0:
256,192,232721,12,0,232721,0:0:0:0:
256,192,232804,12,0,232804,0:0:0:0:
256,192,232886,12,0,232886,0:0:0:0:
256,192,232968,12,0,232968,0:0:0:0:
256,192,233051,12,0,233051,0:0:0:0:
256,192,233133,12,0,233133,0:0:0:0:
256,192,233215,12,0,233215,0:0:0:0:
256,192,233298,12,0,233298,0:0:0:0:
256,192,233380,12,0,233380,0:0:0:0:
256,192,233462,12,0,233462,0:0:0:0:
256,192,233545,12,0,233545,0:0:0:0:
256,192,233627,12,0,233627,0:0:0:0:
256,192,233709,12,0,233709,0:0:0:0:
256,192,233791,12,0,233791,0:0:0:0:
256,192,233874,12,0,233874,0:0:0:0:
256,192,233956,12,0,233956,0:0:0:0:
256,192,234038,12,0,234038,0:0:0:0:
256,192,234121,12,0,234121,0:0:0:0:
256,192,234203,12,0,234203,0:0:0:0:
256,192,234285,12,0,234285,0:0:0:0:
256,192,234368,12,0,234368,0:0:0:0:
256,192,234450,12,0,234450,0:0:0:0:
256,192,234532,12,0,234532,0:0:0:0:
256,192,234615,12,0,234615,0:0:0:0:
256,192,234697,12,0,234697,0:0:0:0:
256,192,234779,12,0,234779,0:0:0:0:
256,192,234862,12,0,234862,0:0:0:0:
256,192,234944,12,0,234944,0:0:0:0:
256,192,235026,12,0,235026,0:0:0:0:
256,192,235109,12,0,235109,0:0:0:0:
256,192,235191,12,0,235191,0:0:0:0:
256,192,235273,12,0,235273,0:0:0:0:
256,192,235356,12,0,235356,0:0:0:0:
256,192,235438,12,0,235438,0:0:0:0:
256,192,235520,12,0,235520,0:0:0:0:
256,192,235603,12,0,235603,0:0:0:0:
256,192,235685,12,0,235685,0:0:0:0:
256,192,235767,12,0,235767,0:0:0:0:
256,192,235850,12,0,235850,0:0:0:0:
256,192,235932,12,0,235932,0:0:0:0:
256,192,236014,12,0,236014,0:0:0:0:
256,192,236097,12,0,236097,0:0:0:0:
256,192,236179,12,0,236179,0:0:0:0:
256,192,236261,12,0,236261,0:0:0:0:
256,192,236344,12,0,236344,0:0:0:0:
256,192,236426,12,0,236426,0:0:0:0:
256,192,236508,12,0,236508,0:0:0:0:
256,192,236591,12,0,236591,0:0:0:0:
256,192,236673,12,0,236673,0:0:0:0:
256,192,236755,12,0,236755,0:0:0:0:
256,192,236838,12,0,236838,0:0:0:0:
256,192,236920,12,0,236920,0:0:0:0:
256,192,237002,12,0,237002,0:0:0:0:
256,192,237085,12,0,237085,0:0:0:0:
256,192,237167,12,0,237167,0:0:0:0:
256,192,237249,12,0,237249,0:0:0:0:
256,192,237332,12,0,237332,0:0:0:0:
256,192,237414,12,0,237414,0:0:0:0:
256,192,237496,12,0,237496,0:0:0:0:
256,192,237579,12,0,237579,0:0:0:0:
256,192,237661,12,0,237661,0:0:0:0:
256,192,237743,12,0,237743,0:0:0:0:
256,192,237826,12,0,237826,0:0:0:0:
256,192,237908,12,0,237908,0:0:0:0:
256,192,237990,12,0,237990,0:0:0:0:
256,192,238073,12,0,238073,0:0:0:0:
256,192,238155,12,0,238155,0:0:0:0:
256,192,238237,12,0,238237,0:0:0:0:
256,192,238320,12,0,238320,0:0:0:0:
256,192,238402,12,0,238402,0:0:0:0:
256,192,238484,12,0,238484,0:0:0:0:
256,192,238567,12,0,238567,0:0:0:0:
256,192,238649,12,0,238649,0:0:0:0:
256,192,238731,12,0,238731,0:0:0:0:
256,192,238814,12,0,238814,0:0:0:0:
256,192,238896,12,0,238896,0:0:0:0:
256,192,238978,12,0,238978,0:0:0:0:
256,192,239061,12,0,239061,0:0:0:0:
256,192,239143,12,0,239143,0:0:0:0:
256,192,239225,12,0,239225,0:0:0:0:
256,192,239308,12,0,239308,0:0:0:0:
256,192,239390,12,0,239390,0:0:0:0:
256,192,239472,12,0,239472,0:0:0:0:
256,192,239555,12,0,239555,0:0:0:0:
256,192,239637,12,0,239637,0:0:0:0:
256,192,239719,12,0,239719,0:0:0:0:
256,192,239801,12,0,239801,0:0:0:0:
256,192,239884,12,0,239884,0:0:0:0:
256,192,239966,12,0,239966,0:0:0:0:
256,192,240048,12,0,240048,0:0:0:0:
256,192,240131,12,0,240131,0:0:0:0:
256,192,240213,12,0,240213,0:0:0:0:
256,192,240295,12,0,240295,0:0:0:0:
256,192,240378,12,0,240378,0:0:0:0:
256,192,240460,12,0,240460,0:0:0:0:
256,192,240542,12,0,240542,0:0:0:0:
256,192,240625,12,0,240625,0:0:0:0:
256,192,240707,12,0,240707,0:0:0:0:
256,192,240789,12,0,240789,0:0:0:0:
256,192,240872,12,0,240872,0:0:0:0:
256,192,240954,12,0,240954,0:0:0:0:
256,192,241036,12,0,241036,0:0:0:0:
256,192,241119,12,0,241119,0:0:0:0:
256,192,241201,12,0,241201,0:0:0:0:
256,192,241283,12,0,241283,0:0:0:0:
256,192,241366,12,0,241366,0:0:0:0:
256,192,241448,12,0,241448,0:0:0:0:
256,192,241530,12,0,241530,0:0:0:0:
256,192,241613,12,0,241613,0:0:0:0:
256,192,241695,12,0,241695,0:0:0:0:
256,192,241777,12,0,241777,0:0:0:0:
256,192,241860,12,0,241860,0:0:0:0:
256,192,241942,12,0,241942,0:0:0:0:
256,192,242024,12,0,242024,0:0:0:0:
256,192,242107,12,0,242107,0:0:0:0:
256,192,242189,12,0,242189,0:0:0:0:
256,192,242271,12,0,242271,0:0:0:0:
256,192,242354,12,0,242354,0:0:0:0:
256,192,242436,12,0,242436,0:0:0:0:
256,192,242518,12,0,242518,0:0:0:0:
256,192,242601,12,0,242601,0:0:0:0:
256,192,242683,12,0,242683,0:0:0:0:
256,192,242765,12,0,242765,0:0:0:0:
256,192,242848,12,0,242848,0:0:0:0:
256,192,242930,12,0,242930,0:0:0:0:
256,192,243012,12,0,243012,0:0:0:0:
256,192,243095,12,0,243095,0:0:0:0:
256,192,243177,12,0,243177,0:0:0:0:
256,192,243259,12,0,243259,0:0:0:0:
256,192,243342,12,0,243342,0:0:0:0:
256,192,243424,12,0,243424,0:0:0:0:
256,192,243506,12,0,243506,0:0:0:0:
256,192,243589,12,0,243589,0:0:0:0:
256,192,243671,12,0,243671,0:0:0:0:
256,192,243753,12,0,243753,0:0:0:0:
256,192,243836,12,0,243836,0:0:0:0:
256,192,243918,12,0,243918,0:0:0:0:
256,192,244000,12,0,244000,0:0:0:0:
256,192,244083,12,0,244083,0:0:0:0:
256,192,244165,12,0,244165,0:0:0:0:
256,192,244247,12,0,244247,0:0:0:0:
256,192,244330,12,0,244330,0:0:0:0:
256,192,244412,12,0,244412,0:0:0:0:
256,192,244494,12,0,244494,0:0:0:0:
256,192,244577,12,0,244577,0:0:0:0:
256,192,244659,12,0,244659,0:0:0:0:
256,192,244741,12,0,244741,0:0:0:0:
256,192,244824,12,0,244824,0:0:0:0:
256,192,244906,12,0,244906,0:0:0:0:
256,192,244988,12,0,244988,0:0:0:0:
256,192,245071,12,0,245071,0:0:0:0:
256,192,245153,12,0,245153,0:0:0:0:
256,192,245235,12,0,245235,0:0:0:0:
256,192,245318,12,0,245318,0:0:0:0:
256,192,245400,12,0,245400,0:0:0:0:
256,192,245482,12,0,245482,0:0:0:0:
256,192,245565,12,0,245565,0:0:0:0:
256,192,245647,12,0,245647,0:0:0:0:
256,192,248117,12,0,248117,0:0:0:0:
256,192,248281,12,0,248281,0:0:0:0:
256,192,248364,12,0,248364,0:0:0:0:
256,192,248446,12,0,248446,0:0:0:0:
256,192,248528,12,0,248528,0:0:0:0:
256,192,248611,12,0,248611,0:0:0:0:
256,192,248693,12,0,248693,0:0:0:0:
256,192,248775,12,0,248775,0:0:0:0:
256,192,248858,12,0,248858,0:0:0:0:
256,192,248940,12,0,248940,0:0:0:0:
256,192,249022,12,0,249022,0:0:0:0:
256,192,249105,12,0,249105,0:0:0:0:
256,192,249187,12,0,249187,0:0:0:0:
256,192,249269,12,0,249269,0:0:0:0:
256,192,249352,12,0,249352,0:0:0:0:
256,192,249434,12,0,249434,0:0:0:0:
256,192,249516,12,0,249516,0:0:0:0:
256,192,249599,12,0,249599,0:0:0:0:
256,192,249681,12,0,249681,0:0:0:0:
256,192,249763,12,0,249763,0:0:0:0:
256,192,249846,12,0,249846,0:0:0:0:
256,192,249928,12,0,249928,0:0:0:0:
256,192,250010,12,0,250010,0:0:0:0:
256,192,250093,12,0,250093,0:0:0:0:
256,192,250175,12,0,250175,0:0:0:0:
256,192,250257,12,0,250257,0:0:0:0:
256,192,250340,12,0,250340,0:0:0:0:
256,192,250422,12,0,250422,0:0:0:0:
256,192,250504,12,0,250504,0:0:0:0:
256,192,250587,12,0,250587,0:0:0:0:
256,192,250669,12,0,250669,0:0:0:0:
256,192,250751,12,0,250751,0:0:0:0:
256,192,250834,12,0,250834,0:0:0:0:
256,192,250916,12,0,250916,0:0:0:0:
256,192,250998,12,0,250998,0:0:0:0:
256,192,251081,12,0,251081,0:0:0:0:
256,192,251163,12,0,251163,0:0:0:0:
256,192,251245,12,0,251245,0:0:0:0:
256,192,251328,12,0,251328,0:0:0:0:
256,192,251410,12,0,251410,0:0:0:0:
256,192,251492,12,0,251492,0:0:0:0:
256,192,251575,12,0,251575,0:0:0:0:
256,192,251657,12,0,251657,0:0:0:0:
256,192,251739,12,0,251739,0:0:0:0:
256,192,251822,12,0,251822,0:0:0:0:
256,192,251904,12,0,251904,0:0:0:0:
256,192,251986,12,0,251986,0:0:0:0:
256,192,252069,12,0,252069,0:0:0:0:
256,192,252151,12,0,252151,0:0:0:0:
256,192,252233,12,0,252233,0:0:0:0:
256,192,252316,12,0,252316,0:0:0:0:
256,192,252398,12,0,252398,0:0:0:0:
256,192,252480,12,0,252480,0:0:0:0:
256,192,252562,12,0,252562,0:0:0:0:
256,192,252645,12,0,252645,0:0:0:0:
256,192,252727,12,0,252727,0:0:0:0:
256,192,252809,12,0,252809,0:0:0:0:
256,192,252892,12,0,252892,0:0:0:0:
256,192,252974,12,0,252974,0:0:0:0:
256,192,253056,12,0,253056,0:0:0:0:
256,192,253139,12,0,253139,0:0:0:0:
256,192,253221,12,0,253221,0:0:0:0:
256,192,253303,12,0,253303,0:0:0:0:
256,192,253386,12,0,253386,0:0:0:0:
256,192,253468,12,0,253468,0:0:0:0:
256,192,253550,12,0,253550,0:0:0:0:
256,192,253633,12,0,253633,0:0:0:0:
256,192,253715,12,0,253715,0:0:0:0:
256,192,253797,12,0,253797,0:0:0:0:
256,192,253880,12,0,253880,0:0:0:0:
256,192,253962,12,0,253962,0:0:0:0:
256,192,254044,12,0,254044,0:0:0:0:
256,192,254127,12,0,254127,0:0:0:0:
256,192,254209,12,0,254209,0:0:0:0:
256,192,254291,12,0,254291,0:0:0:0:
256,192,254374,12,0,254374,0:0:0:0:
256,192,254456,12,0,254456,0:0:0:0:
256,192,254538,12,0,254538,0:0:0:0:
256,192,254621,12,0,254621,0:0:0:0:
256,192,254703,12,0,254703,0:0:0:0:
256,192,254785,12,0,254785,0:0:0:0:
256,192,254868,12,0,254868,0:0:0:0:
256,192,254950,12,0,254950,0:0:0:0:
256,192,255032,12,0,255032,0:0:0:0:
256,192,255115,12,0,255115,0:0:0:0:
256,192,255197,12,0,255197,0:0:0:0:
256,192,255279,12,0,255279,0:0:0:0:
256,192,255362,12,0,255362,0:0:0:0:
256,192,255444,12,0,255444,0:0:0:0:
256,192,255526,12,0,255526,0:0:0:0:
256,192,255609,12,0,255609,0:0:0:0:
256,192,255691,12,0,255691,0:0:0:0:
256,192,255773,12,0,255773,0:0:0:0:
256,192,255856,12,0,255856,0:0:0:0:
256,192,255938,12,0,255938,0:0:0:0:
256,192,256020,12,0,256020,0:0:0:0:
256,192,256103,12,0,256103,0:0:0:0:
256,192,256185,12,0,256185,0:0:0:0:
256,192,256267,12,0,256267,0:0:0:0:
256,192,256350,12,0,256350,0:0:0:0:
256,192,256432,12,0,256432,0:0:0:0:
256,192,256514,12,0,256514,0:0:0:0:
256,192,256597,12,0,256597,0:0:0:0:
256,192,256679,12,0,256679,0:0:0:0:
256,192,256761,12,0,256761,0:0:0:0:
256,192,256844,12,0,256844,0:0:0:0:
256,192,256926,12,0,256926,0:0:0:0:
256,192,257008,12,0,257008,0:0:0:0:
256,192,257091,12,0,257091,0:0:0:0:
256,192,257173,12,0,257173,0:0:0:0:
256,192,257255,12,0,257255,0:0:0:0:
256,192,257338,12,0,257338,0:0:0:0:
256,192,257420,12,0,257420,0:0:0:0:
256,192,257502,12,0,257502,0:0:0:0:
256,192,257585,12,0,257585,0:0:0:0:
256,192,257667,12,0,257667,0:0:0:0:
256,192,257749,12,0,257749,0:0:0:0:
256,192,257832,12,0,257832,0:0:0:0:
256,192,257914,12,0,257914,0:0:0:0:
256,192,257996,12,0,257996,0:0:0:0:
256,192,258079,12,0,258079,0:0:0:0:
256,192,258161,12,0,258161,0:0:0:0:
256,192,258326,12,0,258326,0:0:0:0:
256,192,258490,12,0,258490,0:0:0:0:
256,192,258655,12,0,258655,0:0:0:0:
256,192,258819,12,0,258819,0:0:0:0:
256,192,258902,12,0,258902,0:0:0:0:
256,192,258984,12,0,258984,0:0:0:0:
256,192,259066,12,0,259066,0:0:0:0:
256,192,259149,12,0,259149,0:0:0:0:
256,192,259231,12,0,259231,0:0:0:0:
256,192,259313,12,0,259313,0:0:0:0:
256,192,259396,12,0,259396,0:0:0:0:
256,192,259478,12,0,259478,0:0:0:0:
256,192,259560,12,0,259560,0:0:0:0:
256,192,259643,12,0,259643,0:0:0:0:
256,192,259725,12,0,259725,0:0:0:0:
256,192,259807,12,0,259807,0:0:0:0:
256,192,259890,12,0,259890,0:0:0:0:
256,192,259972,12,0,259972,0:0:0:0:
256,192,260054,12,0,260054,0:0:0:0:
256,192,260137,12,0,260137,0:0:0:0:
256,192,260219,12,0,260219,0:0:0:0:
256,192,260301,12,0,260301,0:0:0:0:
256,192,260384,12,0,260384,0:0:0:0:
256,192,260466,12,0,260466,0:0:0:0:
256,192,260548,12,0,260548,0:0:0:0:
256,192,260631,12,0,260631,0:0:0:0:
256,192,260713,12,0,260713,0:0:0:0:
256,192,260795,12,0,260795,0:0:0:0:
256,192,260878,12,0,260878,0:0:0:0:
256,192,260960,12,0,260960,0:0:0:0:
256,192,261042,12,0,261042,0:0:0:0:
256,192,261125,12,0,261125,0:0:0:0:
256,192,261207,12,0,261207,0:0:0:0:
256,192,261289,12,0,261289,0:0:0:0:
256,192,261372,12,0,261372,0:0:0:0:
256,192,261454,12,0,261454,0:0:0:0:
256,192,261536,12,0,261536,0:0:0:0:
256,192,261619,12,0,261619,0:0:0:0:
256,192,261701,12,0,261701,0:0:0:0:
256,192,261783,12,0,261783,0:0:0:0:
256,192,261866,12,0,261866,0:0:0:0:
256,192,261948,12,0,261948,0:0:0:0:
256,192,262030,12,0,262030,0:0:0:0:
256,192,262113,12,0,262113,0:0:0:0:
256,192,262195,12,0,262195,0:0:0:0:
256,192,262277,12,0,262277,0:0:0:0:
256,192,262360,12,0,262360,0:0:0:0:
256,192,262442,12,0,262442,0:0:0:0:
256,192,262524,12,0,262524,0:0:0:0:
256,192,262607,12,0,262607,0:0:0:0:
256,192,262689,12,0,262689,0:0:0:0:
256,192,262771,12,0,262771,0:0:0:0:
256,192,262854,12,0,262854,0:0:0:0:
256,192,262936,12,0,262936,0:0:0:0:
256,192,263018,12,0,263018,0:0:0:0:
256,192,263101,12,0,263101,0:0:0:0:
256,192,263183,12,0,263183,0:0:0:0:
256,192,263265,12,0,263265,0:0:0:0:
256,192,263348,12,0,263348,0:0:0:0:
256,192,263430,12,0,263430,0:0:0:0:
256,192,263512,12,0,263512,0:0:0:0:
256,192,263595,12,0,263595,0:0:0:0:
256,192,263677,12,0,263677,0:0:0:0:
256,192,263759,12,0,263759,0:0:0:0:
256,192,263842,12,0,263842,0:0:0:0:
256,192,263924,12,0,263924,0:0:0:0:
256,192,264006,12,0,264006,0:0:0:0:
256,192,264089,12,0,264089,0:0:0:0:
256,192,264171,12,0,264171,0:0:0:0:
256,192,264253,12,0,264253,0:0:0:0:
256,192,264336,12,0,264336,0:0:0:0:
256,192,264418,12,0,264418,0:0:0:0:
256,192,264500,12,0,264500,0:0:0:0:
256,192,264583,12,0,264583,0:0:0:0:
256,192,264665,12,0,264665,0:0:0:0:
256,192,264747,12,0,264747,0:0:0:0:
256,192,264829,12,0,264829,0:0:0:0:
256,192,264912,12,0,264912,0:0:0:0:
256,192,264994,12,0,264994,0:0:0:0:
256,192,265076,12,0,265076,0:0:0:0:
256,192,265159,12,0,265159,0:0:0:0:
256,192,265241,12,0,265241,0:0:0:0:
256,192,265323,12,0,265323,0:0:0:0:
256,192,265406,12,0,265406,0:0:0:0:
256,192,265488,12,0,265488,0:0:0:0:
256,192,265570,12,0,265570,0:0:0:0:
256,192,265653,12,0,265653,0:0:0:0:
256,192,265735,12,0,265735,0:0:0:0:
256,192,265817,12,0,265817,0:0:0:0:
256,192,265900,12,0,265900,0:0:0:0:
256,192,265982,12,0,265982,0:0:0:0:
256,192,266064,12,0,266064,0:0:0:0:
256,192,266147,12,0,266147,0:0:0:0:
256,192,266229,12,0,266229,0:0:0:0:
256,192,266311,12,0,266311,0:0:0:0:
256,192,266394,12,0,266394,0:0:0:0:
256,192,266476,12,0,266476,0:0:0:0:
256,192,266558,12,0,266558,0:0:0:0:
256,192,266641,12,0,266641,0:0:0:0:
256,192,266723,12,0,266723,0:0:0:0:
256,192,266805,12,0,266805,0:0:0:0:
256,192,266888,12,0,266888,0:0:0:0:
256,192,266970,12,0,266970,0:0:0:0:
256,192,267052,12,0,267052,0:0:0:0:
256,192,267135,12,0,267135,0:0:0:0:
256,192,267217,12,0,267217,0:0:0:0:
256,192,267299,12,0,267299,0:0:0:0:
256,192,267382,12,0,267382,0:0:0:0:
256,192,267464,12,0,267464,0:0:0:0:
256,192,267546,12,0,267546,0:0:0:0:
256,192,267629,12,0,267629,0:0:0:0:
256,192,267711,12,0,267711,0:0:0:0:
256,192,267793,12,0,267793,0:0:0:0:
256,192,267876,12,0,267876,0:0:0:0:
256,192,267958,12,0,267958,0:0:0:0:
256,192,268040,12,0,268040,0:0:0:0:
256,192,268123,12,0,268123,0:0:0:0:
256,192,268205,12,0,268205,0:0:0:0:
256,192,268287,12,0,268287,0:0:0:0:
256,192,268370,12,0,268370,0:0:0:0:
256,192,268452,12,0,268452,0:0:0:0:
256,192,268534,12,0,268534,0:0:0:0:
256,192,268617,12,0,268617,0:0:0:0:
256,192,268699,12,0,268699,0:0:0:0:
256,192,268781,12,0,268781,0:0:0:0:
256,192,268864,12,0,268864,0:0:0:0:
256,192,269028,12,0,269028,0:0:0:0:
256,192,269111,12,0,269111,0:0:0:0:
256,192,269193,12,0,269193,0:0:0:0:
256,192,269275,12,0,269275,0:0:0:0:
256,192,269358,12,0,269358,0:0:0:0:
256,192,269440,12,0,269440,0:0:0:0:
256,192,269522,12,0,269522,0:0:0:0:
256,192,269605,12,0,269605,0:0:0:0:
256,192,269687,12,0,269687,0:0:0:0:
256,192,269769,12,0,269769,0:0:0:0:
256,192,269852,12,0,269852,0:0:0:0:
256,192,269934,12,0,269934,0:0:0:0:
256,192,270016,12,0,270016,0:0:0:0:
256,192,270099,12,0,270099,0:0:0:0:
256,192,270181,12,0,270181,0:0:0:0:
256,192,270263,12,0,270263,0:0:0:0:
256,192,270346,12,0,270346,0:0:0:0:
256,192,270428,12,0,270428,0:0:0:0:
256,192,270510,12,0,270510,0:0:0:0:
256,192,270593,12,0,270593,0:0:0:0:
256,192,270675,12,0,270675,0:0:0:0:
256,192,270757,12,0,270757,0:0:0:0:
256,192,270840,12,0,270840,0:0:0:0:
256,192,270922,12,0,270922,0:0:0:0:
256,192,271004,12,0,271004,0:0:0:0:
256,192,271086,12,0,271086,0:0:0:0:
256,192,271169,12,0,271169,0:0:0:0:
256,192,271251,12,0,271251,0:0:0:0:
256,192,271334,12,0,271334,0:0:0:0:
256,192,271416,12,0,271416,0:0:0:0:
256,192,271498,12,0,271498,0:0:0:0:
256,192,271580,12,0,271580,0:0:0:0:
256,192,271663,12,0,271663,0:0:0:0:
256,192,271745,12,0,271745,0:0:0:0:
256,192,271827,12,0,271827,0:0:0:0:
256,192,271910,12,0,271910,0:0:0:0:
256,192,271992,12,0,271992,0:0:0:0:
256,192,272074,12,0,272074,0:0:0:0:
256,192,272157,12,0,272157,0:0:0:0:
256,192,272239,12,0,272239,0:0:0:0:
256,192,272321,12,0,272321,0:0:0:0:
256,192,272404,12,0,272404,0:0:0:0:
256,192,272486,12,0,272486,0:0:0:0:
256,192,272568,12,0,272568,0:0:0:0:
256,192,272651,12,0,272651,0:0:0:0:
256,192,272733,12,0,272733,0:0:0:0:
256,192,272815,12,0,272815,0:0:0:0:
256,192,272898,12,0,272898,0:0:0:0:
256,192,272980,12,0,272980,0:0:0:0:
256,192,273062,12,0,273062,0:0:0:0:
256,192,273145,12,0,273145,0:0:0:0:
256,192,273227,12,0,273227,0:0:0:0:
256,192,273309,12,0,273309,0:0:0:0:
256,192,273392,12,0,273392,0:0:0:0:
256,192,273474,12,0,273474,0:0:0:0:
256,192,273556,12,0,273556,0:0:0:0:
256,192,273639,12,0,273639,0:0:0:0:
256,192,273721,12,0,273721,0:0:0:0:
256,192,273803,12,0,273803,0:0:0:0:
256,192,273886,12,0,273886,0:0:0:0:
256,192,273968,12,0,273968,0:0:0:0:
256,192,274050,12,0,274050,0:0:0:0:
256,192,274133,12,0,274133,0:0:0:0:
256,192,274215,12,0,274215,0:0:0:0:
256,192,274297,12,0,274297,0:0:0:0:
256,192,274380,12,0,274380,0:0:0:0:
256,192,274462,12,0,274462,0:0:0:0:
256,192,274544,12,0,274544,0:0:0:0:
256,192,274627,12,0,274627,0:0:0:0:
256,192,274709,12,0,274709,0:0:0:0:
256,192,274791,12,0,274791,0:0:0:0:
256,192,274874,12,0,274874,0:0:0:0:
256,192,274956,12,0,274956,0:0:0:0:
256,192,275038,12,0,275038,0:0:0:0:
256,192,275121,12,0,275121,0:0:0:0:
256,192,275203,12,0,275203,0:0:0:0:
256,192,275285,12,0,275285,0:0:0:0:
256,192,275368,12,0,275368,0:0:0:0:
256,192,275450,12,0,275450,0:0:0:0:
256,192,275532,12,0,275532,0:0:0:0:
256,192,275615,12,0,275615,0:0:0:0:
256,192,275697,12,0,275697,0:0:0:0:
256,192,275779,12,0,275779,0:0:0:0:
256,192,275862,12,0,275862,0:0:0:0:
256,192,275944,12,0,275944,0:0:0:0:
256,192,276026,12,0,276026,0:0:0:0:
256,192,276109,12,0,276109,0:0:0:0:
256,192,276191,12,0,276191,0:0:0:0:
256,192,276273,12,0,276273,0:0:0:0:
256,192,276356,12,0,276356,0:0:0:0:
256,192,276438,12,0,276438,0:0:0:0:
256,192,276520,12,0,276520,0:0:0:0:
256,192,276603,12,0,276603,0:0:0:0:
256,192,276685,12,0,276685,0:0:0:0:
256,192,276767,12,0,276767,0:0:0:0:
256,192,276850,12,0,276850,0:0:0:0:
256,192,276932,12,0,276932,0:0:0:0:
256,192,277014,12,0,277014,0:0:0:0:
256,192,277097,12,0,277097,0:0:0:0:
256,192,277179,12,0,277179,0:0:0:0:
256,192,277261,12,0,277261,0:0:0:0:
256,192,277344,12,0,277344,0:0:0:0:
256,192,277426,12,0,277426,0:0:0:0:
256,192,277508,12,0,277508,0:0:0:0:
256,192,277590,12,0,277590,0:0:0:0:
256,192,277673,12,0,277673,0:0:0:0:
256,192,277755,12,0,277755,0:0:0:0:
256,192,277837,12,0,277837,0:0:0:0:
256,192,277920,12,0,277920,0:0:0:0:
256,192,278002,12,0,278002,0:0:0:0:
256,192,278084,12,0,278084,0:0:0:0:
256,192,278167,12,0,278167,0:0:0:0:
256,192,278249,12,0,278249,0:0:0:0:
256,192,278331,12,0,278331,0:0:0:0:
256,192,278414,12,0,278414,0:0:0:0:
256,192,278496,12,0,278496,0:0:0:0:
256,192,278578,12,0,278578,0:0:0:0:
256,192,278661,12,0,278661,0:0:0:0:
256,192,278743,12,0,278743,0:0:0:0:
256,192,278825,12,0,278825,0:0:0:0:
256,192,278908,12,0,278908,0:0:0:0:
256,192,278990,12,0,278990,0:0:0:0:
256,192,279072,12,0,279072,0:0:0:0:
256,192,279155,12,0,279155,0:0:0:0:
256,192,279237,12,0,279237,0:0:0:0:
256,192,279402,12,0,279402,0:0:0:0:
256,192,279566,12,0,279566,0:0:0:0:
256,192,279731,12,0,279731,0:0:0:0:
256,192,279896,12,0,279896,0:0:0:0:
256,192,279978,12,0,279978,0:0:0:0:
256,192,280060,12,0,280060,0:0:0:0:
256,192,280143,12,0,280143,0:0:0:0:
256,192,280225,12,0,280225,0:0:0:0:
256,192,280307,12,0,280307,0:0:0:0:
256,192,280390,12,0,280390,0:0:0:0:
256,192,280472,12,0,280472,0:0:0:0:
256,192,280554,12,0,280554,0:0:0:0:
256,192,280637,12,0,280637,0:0:0:0:
256,192,280719,12,0,280719,0:0:0:0:
256,192,280801,12,0,280801,0:0:0:0:
256,192,280884,12,0,280884,0:0:0:0:
256,192,280966,12,0,280966,0:0:0:0:
256,192,281048,12,0,281048,0:0:0:0:
256,192,281131,12,0,281131,0:0:0:0:
256,192,281213,12,0,281213,0:0:0:0:
256,192,281295,12,0,281295,0:0:0:0:
256,192,281378,12,0,281378,0:0:0:0:
256,192,281460,12,0,281460,0:0:0:0:
256,192,281542,12,0,281542,0:0:0:0:
256,192,281625,12,0,281625,0:0:0:0:
256,192,281707,12,0,281707,0:0:0:0:
256,192,281789,12,0,281789,0:0:0:0:
256,192,281872,12,0,281872,0:0:0:0:
256,192,281954,12,0,281954,0:0:0:0:
256,192,282036,12,0,282036,0:0:0:0:
256,192,282119,12,0,282119,0:0:0:0:
256,192,282201,12,0,282201,0:0:0:0:
256,192,282283,12,0,282283,0:0:0:0:
256,192,282366,12,0,282366,0:0:0:0:
256,192,282448,12,0,282448,0:0:0:0:
256,192,282530,12,0,282530,0:0:0:0:
256,192,282613,12,0,282613,0:0:0:0:
256,192,282695,12,0,282695,0:0:0:0:
256,192,282777,12,0,282777,0:0:0:0:
256,192,282860,12,0,282860,0:0:0:0:
256,192,282942,12,0,282942,0:0:0:0:
256,192,283024,12,0,283024,0:0:0:0:
256,192,283107,12,0,283107,0:0:0:0:
256,192,283189,12,0,283189,0:0:0:0:
256,192,283271,12,0,283271,0:0:0:0:
256,192,283354,12,0,283354,0:0:0:0:
256,192,283436,12,0,283436,0:0:0:0:
256,192,283518,12,0,283518,0:0:0:0:
256,192,283601,12,0,283601,0:0:0:0:
256,192,283683,12,0,283683,0:0:0:0:
256,192,283765,12,0,283765,0:0:0:0:
256,192,283847,12,0,283847,0:0:0:0:
256,192,283930,12,0,283930,0:0:0:0:
256,192,284012,12,0,284012,0:0:0:0:
256,192,284094,12,0,284094,0:0:0:0:
256,192,284177,12,0,284177,0:0:0:0:
256,192,284259,12,0,284259,0:0:0:0:
256,192,284341,12,0,284341,0:0:0:0:
256,192,284424,12,0,284424,0:0:0:0:
256,192,284506,12,0,284506,0:0:0:0:
256,192,284588,12,0,284588,0:0:0:0:
256,192,284671,12,0,284671,0:0:0:0:
256,192,284753,12,0,284753,0:0:0:0:
256,192,284835,12,0,284835,0:0:0:0:
256,192,284918,12,0,284918,0:0:0:0:
256,192,285000,12,0,285000,0:0:0:0:
256,192,285082,12,0,285082,0:0:0:0:
256,192,285165,12,0,285165,0:0:0:0:
256,192,285247,12,0,285247,0:0:0:0:
256,192,285329,12,0,285329,0:0:0:0:
256,192,285412,12,0,285412,0:0:0:0:
256,192,285494,12,0,285494,0:0:0:0:
256,192,285576,12,0,285576,0:0:0:0:
256,192,285659,12,0,285659,0:0:0:0:
256,192,285741,12,0,285741,0:0:0:0:
256,192,285823,12,0,285823,0:0:0:0:
256,192,285906,12,0,285906,0:0:0:0:
256,192,285988,12,0,285988,0:0:0:0:
256,192,286070,12,0,286070,0:0:0:0:
256,192,286153,12,0,286153,0:0:0:0:
256,192,286235,12,0,286235,0:0:0:0:
256,192,286317,12,0,286317,0:0:0:0:
256,192,286400,12,0,286400,0:0:0:0:
256,192,286482,12,0,286482,0:0:0:0:
256,192,286564,12,0,286564,0:0:0:0:
256,192,286647,12,0,286647,0:0:0:0:
256,192,286729,12,0,286729,0:0:0:0:
256,192,286811,12,0,286811,0:0:0:0:
256,192,286894,12,0,286894,0:0:0:0:
256,192,286976,12,0,286976,0:0:0:0:
256,192,287058,12,0,287058,0:0:0:0:
256,192,287141,12,0,287141,0:0:0:0:
256,192,287223,12,0,287223,0:0:0:0:
256,192,287305,12,0,287305,0:0:0:0:
256,192,287388,12,0,287388,0:0:0:0:
256,192,287470,12,0,287470,0:0:0:0:
256,192,287552,12,0,287552,0:0:0:0:
256,192,287635,12,0,287635,0:0:0:0:
256,192,287717,12,0,287717,0:0:0:0:
256,192,287799,12,0,287799,0:0:0:0:
256,192,287964,12,0,287964,0:0:0:0:
256,192,288129,12,0,288129,0:0:0:0:
256,192,288293,12,0,288293,0:0:0:0:
256,192,288458,12,0,288458,0:0:0:0:
256,192,288623,12,0,288623,0:0:0:0:
256,192,288787,12,0,288787,0:0:0:0:
256,192,288952,12,0,288952,0:0:0:0:
256,192,289117,12,0,289117,0:0:0:0:
256,192,289281,12,0,289281,0:0:0:0:
256,192,289446,12,0,289446,0:0:0:0:
256,192,289611,12,0,289611,0:0:0:0:
256,192,289775,12,0,289775,0:0:0:0:
256,192,289940,12,0,289940,0:0:0:0:
256,192,290104,12,0,290104,0:0:0:0:
256,192,290269,12,0,290269,0:0:0:0:
256,192,290434,12,0,290434,0:0:0:0:
256,192,290516,12,0,290516,0:0:0:0:
256,192,290598,12,0,290598,0:0:0:0:
256,192,290681,12,0,290681,0:0:0:0:
256,192,290763,12,0,290763,0:0:0:0:
256,192,290845,12,0,290845,0:0:0:0:
256,192,290928,12,0,290928,0:0:0:0:
256,192,291010,12,0,291010,0:0:0:0:
256,192,291092,12,0,291092,0:0:0:0:
256,192,291175,12,0,291175,0:0:0:0:
256,192,291257,12,0,291257,0:0:0:0:
256,192,291339,12,0,291339,0:0:0:0:
256,192,291422,12,0,291422,0:0:0:0:
256,192,291504,12,0,291504,0:0:0:0:
256,192,291586,12,0,291586,0:0:0:0:
256,192,291669,12,0,291669,0:0:0:0:
256,192,291751,12,0,291751,0:0:0:0:
256,192,291833,12,0,291833,0:0:0:0:
256,192,291916,12,0,291916,0:0:0:0:
256,192,291998,12,0,291998,0:0:0:0:
256,192,292080,12,0,292080,0:0:0:0:
256,192,292163,12,0,292163,0:0:0:0:
256,192,292245,12,0,292245,0:0:0:0:
256,192,292327,12,0,292327,0:0:0:0:
256,192,292410,12,0,292410,0:0:0:0:
256,192,292492,12,0,292492,0:0:0:0:
256,192,292574,12,0,292574,0:0:0:0:
256,192,292657,12,0,292657,0:0:0:0:
256,192,292739,12,0,292739,0:0:0:0:
256,192,292821,12,0,292821,0:0:0:0:
256,192,292904,12,0,292904,0:0:0:0:
256,192,292986,12,0,292986,0:0:0:0:
256,192,293068,12,0,293068,0:0:0:0:
256,192,293068,12,0,293068,0:0:0:0:
256,192,295703,12,0,295703,0:0:0:0:
256,192,295785,12,0,295785,0:0:0:0:
256,192,295868,12,0,295868,0:0:0:0:
256,192,296032,12,0,296032,0:0:0:0:
256,192,296197,12,0,296197,0:0:0:0:
256,192,296361,12,0,296361,0:0:0:0:
256,192,296526,12,0,296526,0:0:0:0:
256,192,296691,12,0,296691,0:0:0:0:
256,192,296855,12,0,296855,0:0:0:0:
256,192,297020,12,0,297020,0:0:0:0:
256,192,297185,12,0,297185,0:0:0:0:
256,192,297349,12,0,297349,0:0:0:0:
256,192,297514,12,0,297514,0:0:0:0:
256,192,297679,12,0,297679,0:0:0:0:
256,192,297843,12,0,297843,0:0:0:0:
256,192,298008,12,0,298008,0:0:0:0:
256,192,298173,12,0,298173,0:0:0:0:
256,192,298337,12,0,298337,0:0:0:0:
256,192,298420,12,0,298420,0:0:0:0:
256,192,298502,12,0,298502,0:0:0:0:
256,192,298667,12,0,298667,0:0:0:0:
256,192,298831,12,0,298831,0:0:0:0:
256,192,298996,12,0,298996,0:0:0:0:
256,192,299161,12,0,299161,0:0:0:0:
256,192,299325,12,0,299325,0:0:0:0:
256,192,299490,12,0,299490,0:0:0:0:
256,192,299655,12,0,299655,0:0:0:0:
256,192,299819,12,0,299819,0:0:0:0:
256,192,299984,12,0,299984,0:0:0:0:
256,192,300149,12,0,300149,0:0:0:0:
256,192,300313,12,0,300313,0:0:0:0:
256,192,300478,12,0,300478,0:0:0:0:
256,192,300643,12,0,300643,0:0:0:0:
256,192,300807,12,0,300807,0:0:0:0:
256,192,300972,12,0,300972,0:0:0:0:
256,192,301054,12,0,301054,0:0:0:0:
256,192,301137,12,0,301137,0:0:0:0:
256,192,301301,12,0,301301,0:0:0:0:
256,192,301466,12,0,301466,0:0:0:0:
256,192,301631,12,0,301631,0:0:0:0:
256,192,301795,12,0,301795,0:0:0:0:
256,192,301960,12,0,301960,0:0:0:0:
256,192,302125,12,0,302125,0:0:0:0:
256,192,302289,12,0,302289,0:0:0:0:
256,192,302454,12,0,302454,0:0:0:0:
256,192,302618,12,0,302618,0:0:0:0:
256,192,302783,12,0,302783,0:0:0:0:
256,192,302948,12,0,302948,0:0:0:0:
256,192,303112,12,0,303112,0:0:0:0:
256,192,303277,12,0,303277,0:0:0:0:
256,192,303442,12,0,303442,0:0:0:0:
256,192,303606,12,0,303606,0:0:0:0:
256,192,303689,12,0,303689,0:0:0:0:
256,192,303771,12,0,303771,0:0:0:0:
256,192,303936,12,0,303936,0:0:0:0:
256,192,304100,12,0,304100,0:0:0:0:
256,192,304265,12,0,304265,0:0:0:0:
256,192,304430,12,0,304430,0:0:0:0:
256,192,304594,12,0,304594,0:0:0:0:
256,192,304759,12,0,304759,0:0:0:0:
256,192,304924,12,0,304924,0:0:0:0:
256,192,305088,12,0,305088,0:0:0:0:
256,192,305253,12,0,305253,0:0:0:0:
256,192,305418,12,0,305418,0:0:0:0:
256,192,305582,12,0,305582,0:0:0:0:
256,192,305747,12,0,305747,0:0:0:0:
256,192,305912,12,0,305912,0:0:0:0:
256,192,306076,12,0,306076,0:0:0:0:
256,192,306241,12,0,306241,0:0:0:0:
256,192,306323,12,0,306323,0:0:0:0:
256,192,306406,12,0,306406,0:0:0:0:
256,192,306570,12,0,306570,0:0:0:0:
256,192,306735,12,0,306735,0:0:0:0:
256,192,306900,12,0,306900,0:0:0:0:
256,192,307064,12,0,307064,0:0:0:0:
256,192,307229,12,0,307229,0:0:0:0:
256,192,307394,12,0,307394,0:0:0:0:
256,192,307558,12,0,307558,0:0:0:0:
256,192,307723,12,0,307723,0:0:0:0:
256,192,307888,12,0,307888,0:0:0:0:
256,192,308052,12,0,308052,0:0:0:0:
256,192,308217,12,0,308217,0:0:0:0:
256,192,308382,12,0,308382,0:0:0:0:
256,192,308546,12,0,308546,0:0:0:0:
256,192,308711,12,0,308711,0:0:0:0:
256,192,308875,12,0,308875,0:0:0:0:
256,192,308958,12,0,308958,0:0:0:0:
256,192,309040,12,0,309040,0:0:0:0:
256,192,309205,12,0,309205,0:0:0:0:
256,192,309369,12,0,309369,0:0:0:0:
256,192,309534,12,0,309534,0:0:0:0:
256,192,309699,12,0,309699,0:0:0:0:
256,192,309863,12,0,309863,0:0:0:0:
256,192,310028,12,0,310028,0:0:0:0:
256,192,310193,12,0,310193,0:0:0:0:
256,192,310357,12,0,310357,0:0:0:0:
256,192,310522,12,0,310522,0:0:0:0:
256,192,310687,12,0,310687,0:0:0:0:
256,192,310851,12,0,310851,0:0:0:0:
256,192,311016,12,0,311016,0:0:0:0:
256,192,311181,12,0,311181,0:0:0:0:
256,192,311345,12,0,311345,0:0:0:0:
256,192,311510,12,0,311510,0:0:0:0:
256,192,311592,12,0,311592,0:0:0:0:
256,192,311675,12,0,311675,0:0:0:0:
256,192,311839,12,0,311839,0:0:0:0:
256,192,312004,12,0,312004,0:0:0:0:
256,192,312169,12,0,312169,0:0:0:0:
256,192,312333,12,0,312333,0:0:0:0:
256,192,312498,12,0,312498,0:0:0:0:
256,192,312663,12,0,312663,0:0:0:0:
256,192,312827,12,0,312827,0:0:0:0:
256,192,312992,12,0,312992,0:0:0:0:
256,192,313157,12,0,313157,0:0:0:0:
256,192,313321,12,0,313321,0:0:0:0:
256,192,313486,12,0,313486,0:0:0:0:
256,192,313651,12,0,313651,0:0:0:0:
256,192,313815,12,0,313815,0:0:0:0:
256,192,313980,12,0,313980,0:0:0:0:
256,192,314145,12,0,314145,0:0:0:0:
256,192,314227,12,0,314227,0:0:0:0:
256,192,314309,12,0,314309,0:0:0:0:
256,192,314474,12,0,314474,0:0:0:0:
256,192,314638,12,0,314638,0:0:0:0:
256,192,314803,12,0,314803,0:0:0:0:
256,192,314968,12,0,314968,0:0:0:0:
256,192,315132,12,0,315132,0:0:0:0:
256,192,315297,12,0,315297,0:0:0:0:
256,192,315462,12,0,315462,0:0:0:0:
256,192,315544,12,0,315544,0:0:0:0:
256,192,315626,12,0,315626,0:0:0:0:
256,192,315668,12,0,315668,0:0:0:0:
256,192,315709,12,0,315709,0:0:0:0:
256,192,315791,12,0,315791,0:0:0:0:
256,192,315873,12,0,315873,0:0:0:0:
256,192,315956,12,0,315956,0:0:0:0:
256,192,315997,12,0,315997,0:0:0:0:
256,192,316038,12,0,316038,0:0:0:0:
256,192,316120,12,0,316120,0:0:0:0:
256,192,316203,12,0,316203,0:0:0:0:
256,192,316285,12,0,316285,0:0:0:0:
256,192,316326,12,0,316326,0:0:0:0:
256,192,316367,12,0,316367,0:0:0:0:
256,192,316450,12,0,316450,0:0:0:0:
256,192,316532,12,0,316532,0:0:0:0:
256,192,316614,12,0,316614,0:0:0:0:
256,192,316697,12,0,316697,0:0:0:0:
256,192,316779,12,0,316779,0:0:0:0:
256,192,316861,12,0,316861,0:0:0:0:
256,192,316944,12,0,316944,0:0:0:0:
256,192,317108,12,0,317108,0:0:0:0:
256,192,317273,12,0,317273,0:0:0:0:
256,192,317438,12,0,317438,0:0:0:0:
256,192,317602,12,0,317602,0:0:0:0:
256,192,317767,12,0,317767,0:0:0:0:
256,192,317932,12,0,317932,0:0:0:0:
256,192,318096,12,0,318096,0:0:0:0:
256,192,318261,12,0,318261,0:0:0:0:
256,192,318426,12,0,318426,0:0:0:0:
256,192,318590,12,0,318590,0:0:0:0:
256,192,318755,12,0,318755,0:0:0:0:
256,192,318920,12,0,318920,0:0:0:0:
256,192,319084,12,0,319084,0:0:0:0:
256,192,319249,12,0,319249,0:0:0:0:
256,192,319414,12,0,319414,0:0:0:0:
256,192,319496,12,0,319496,0:0:0:0:
256,192,319578,12,0,319578,0:0:0:0:
256,192,319743,12,0,319743,0:0:0:0:
256,192,319908,12,0,319908,0:0:0:0:
256,192,320072,12,0,320072,0:0:0:0:
256,192,320237,12,0,320237,0:0:0:0:
256,192,320402,12,0,320402,0:0:0:0:
256,192,320566,12,0,320566,0:0:0:0:
256,192,320731,12,0,320731,0:0:0:0:
256,192,320896,12,0,320896,0:0:0:0:
256,192,321060,12,0,321060,0:0:0:0:
256,192,321225,12,0,321225,0:0:0:0:
256,192,321389,12,0,321389,0:0:0:0:
256,192,321554,12,0,321554,0:0:0:0:
256,192,321719,12,0,321719,0:0:0:0:
256,192,321883,12,0,321883,0:0:0:0:
256,192,322048,12,0,322048,0:0:0:0:
256,192,322130,12,0,322130,0:0:0:0:
256,192,322213,12,0,322213,0:0:0:0:
256,192,322377,12,0,322377,0:0:0:0:
256,192,322542,12,0,322542,0:0:0:0:
256,192,322707,12,0,322707,0:0:0:0:
256,192,322871,12,0,322871,0:0:0:0:
256,192,323036,12,0,323036,0:0:0:0:
256,192,323201,12,0,323201,0:0:0:0:
256,192,323365,12,0,323365,0:0:0:0:
256,192,323530,12,0,323530,0:0:0:0:
256,192,323695,12,0,323695,0:0:0:0:
256,192,323859,12,0,323859,0:0:0:0:
256,192,324024,12,0,324024,0:0:0:0:
256,192,324189,12,0,324189,0:0:0:0:
256,192,324353,12,0,324353,0:0:0:0:
256,192,324518,12,0,324518,0:0:0:0:
256,192,324683,12,0,324683,0:0:0:0:
256,192,324765,12,0,324765,0:0:0:0:
256,192,324847,12,0,324847,0:0:0:0:
256,192,325012,12,0,325012,0:0:0:0:
256,192,325177,12,0,325177,0:0:0:0:
256,192,325341,12,0,325341,0:0:0:0:
256,192,325506,12,0,325506,0:0:0:0:
256,192,325671,12,0,325671,0:0:0:0:
256,192,325835,12,0,325835,0:0:0:0:
256,192,326000,12,0,326000,0:0:0:0:
256,192,326165,12,0,326165,0:0:0:0:
256,192,326329,12,0,326329,0:0:0:0:
256,192,326494,12,0,326494,0:0:0:0:
256,192,326659,12,0,326659,0:0:0:0:
256,192,326823,12,0,326823,0:0:0:0:
256,192,326988,12,0,326988,0:0:0:0:
256,192,327153,12,0,327153,0:0:0:0:
256,192,327317,12,0,327317,0:0:0:0:
256,192,327482,12,0,327482,0:0:0:0:
256,192,327646,12,0,327646,0:0:0:0:
256,192,327811,12,0,327811,0:0:0:0:
256,192,327976,12,0,327976,0:0:0:0:
256,192,328140,12,0,328140,0:0:0:0:
256,192,328305,12,0,328305,0:0:0:0:
256,192,328470,12,0,328470,0:0:0:0:
256,192,328634,12,0,328634,0:0:0:0:
256,192,328799,12,0,328799,0:0:0:0:
256,192,328964,12,0,328964,0:0:0:0:
256,192,329128,12,0,329128,0:0:0:0:
256,192,329293,12,0,329293,0:0:0:0:
256,192,329458,12,0,329458,0:0:0:0:
256,192,329622,12,0,329622,0:0:0:0:
256,192,329787,12,0,329787,0:0:0:0:
256,192,329952,12,0,329952,0:0:0:0:
256,192,330116,12,0,330116,0:0:0:0:
256,192,330281,12,0,330281,0:0:0:0:
256,192,330446,12,0,330446,0:0:0:0:
256,192,330610,12,0,330610,0:0:0:0:
256,192,330775,12,0,330775,0:0:0:0:
256,192,330940,12,0,330940,0:0:0:0:
256,192,331104,12,0,331104,0:0:0:0:
256,192,331269,12,0,331269,0:0:0:0:
256,192,331434,12,0,331434,0:0:0:0:
256,192,331598,12,0,331598,0:0:0:0:
256,192,331763,12,0,331763,0:0:0:0:
256,192,331928,12,0,331928,0:0:0:0:
256,192,332092,12,0,332092,0:0:0:0:
256,192,332257,12,0,332257,0:0:0:0:
256,192,332422,12,0,332422,0:0:0:0:
256,192,332586,12,0,332586,0:0:0:0:
256,192,332751,12,0,332751,0:0:0:0:
256,192,332916,12,0,332916,0:0:0:0:
256,192,333080,12,0,333080,0:0:0:0:
256,192,333245,12,0,333245,0:0:0:0:
256,192,333409,12,0,333409,0:0:0:0:
256,192,333574,12,0,333574,0:0:0:0:
256,192,333739,12,0,333739,0:0:0:0:
256,192,333903,12,0,333903,0:0:0:0:
256,192,334068,12,0,334068,0:0:0:0:
256,192,334233,12,0,334233,0:0:0:0:
256,192,334397,12,0,334397,0:0:0:0:
256,192,334562,12,0,334562,0:0:0:0:
256,192,334727,12,0,334727,0:0:0:0:
256,192,334891,12,0,334891,0:0:0:0:
256,192,335056,12,0,335056,0:0:0:0:
256,192,335221,12,0,335221,0:0:0:0:
256,192,335303,12,0,335303,0:0:0:0:
256,192,335385,12,0,335385,0:0:0:0:
256,192,335468,12,0,335468,0:0:0:0:
256,192,335550,12,0,335550,0:0:0:0:
256,192,335632,12,0,335632,0:0:0:0:
256,192,335715,12,0,335715,0:0:0:0:
256,192,335797,12,0,335797,0:0:0:0:
256,192,335879,12,0,335879,0:0:0:0:
256,192,335962,12,0,335962,0:0:0:0:
256,192,336044,12,0,336044,0:0:0:0:
256,192,336126,12,0,336126,0:0:0:0:
256,192,336209,12,0,336209,0:0:0:0:
256,192,336291,12,0,336291,0:0:0:0:
256,192,336373,12,0,336373,0:0:0:0:
256,192,336456,12,0,336456,0:0:0:0:
256,192,336538,12,0,336538,0:0:0:0:
256,192,337855,12,0,337855,0:0:0:0:
256,192,337938,12,0,337938,0:0:0:0:
256,192,338020,12,0,338020,0:0:0:0:
256,192,338102,12,0,338102,0:0:0:0:
256,192,338185,12,0,338185,0:0:0:0:
256,192,338267,12,0,338267,0:0:0:0:
256,192,338349,12,0,338349,0:0:0:0:
256,192,338432,12,0,338432,0:0:0:0:
256,192,338514,12,0,338514,0:0:0:0:
256,192,338596,12,0,338596,0:0:0:0:
256,192,338679,12,0,338679,0:0:0:0:
256,192,338761,12,0,338761,0:0:0:0:
256,192,338843,12,0,338843,0:0:0:0:
256,192,338926,12,0,338926,0:0:0:0:
256,192,339008,12,0,339008,0:0:0:0:
256,192,339090,12,0,339090,0:0:0:0:
256,192,339173,12,0,339173,0:0:0:0:
256,192,339255,12,0,339255,0:0:0:0:
256,192,339337,12,0,339337,0:0:0:0:
256,192,339420,12,0,339420,0:0:0:0:
256,192,339502,12,0,339502,0:0:0:0:
256,192,339584,12,0,339584,0:0:0:0:
256,192,339666,12,0,339666,0:0:0:0:
256,192,339749,12,0,339749,0:0:0:0:
256,192,339831,12,0,339831,0:0:0:0:
256,192,339913,12,0,339913,0:0:0:0:
256,192,339996,12,0,339996,0:0:0:0:
256,192,340078,12,0,340078,0:0:0:0:
256,192,340160,12,0,340160,0:0:0:0:
256,192,340243,12,0,340243,0:0:0:0:
256,192,340325,12,0,340325,0:0:0:0:
256,192,340407,12,0,340407,0:0:0:0:
256,192,340490,12,0,340490,0:0:0:0:
256,192,340572,12,0,340572,0:0:0:0:
256,192,340654,12,0,340654,0:0:0:0:
256,192,340737,12,0,340737,0:0:0:0:
256,192,340819,12,0,340819,0:0:0:0:
256,192,340901,12,0,340901,0:0:0:0:
256,192,340984,12,0,340984,0:0:0:0:
256,192,341066,12,0,341066,0:0:0:0:
256,192,341148,12,0,341148,0:0:0:0:
256,192,341231,12,0,341231,0:0:0:0:
256,192,341313,12,0,341313,0:0:0:0:
256,192,341395,12,0,341395,0:0:0:0:
256,192,341478,12,0,341478,0:0:0:0:
256,192,341560,12,0,341560,0:0:0:0:
256,192,341642,12,0,341642,0:0:0:0:
256,192,341725,12,0,341725,0:0:0:0:
256,192,341807,12,0,341807,0:0:0:0:
256,192,341889,12,0,341889,0:0:0:0:
256,192,341972,12,0,341972,0:0:0:0:
256,192,342054,12,0,342054,0:0:0:0:
256,192,342136,12,0,342136,0:0:0:0:
256,192,342219,12,0,342219,0:0:0:0:
256,192,342301,12,0,342301,0:0:0:0:
256,192,342383,12,0,342383,0:0:0:0:
256,192,342466,12,0,342466,0:0:0:0:
256,192,342548,12,0,342548,0:0:0:0:
256,192,342630,12,0,342630,0:0:0:0:
256,192,342713,12,0,342713,0:0:0:0:
256,192,342795,12,0,342795,0:0:0:0:
256,192,342877,12,0,342877,0:0:0:0:
256,192,342960,12,0,342960,0:0:0:0:
256,192,343042,12,0,343042,0:0:0:0:
256,192,343124,12,0,343124,0:0:0:0:
256,192,343207,12,0,343207,0:0:0:0:
256,192,343289,12,0,343289,0:0:0:0:
256,192,343371,12,0,343371,0:0:0:0:
256,192,343454,12,0,343454,0:0:0:0:
256,192,343536,12,0,343536,0:0:0:0:
256,192,343618,12,0,343618,0:0:0:0:
256,192,343701,12,0,343701,0:0:0:0:
256,192,343783,12,0,343783,0:0:0:0:
256,192,343865,12,0,343865,0:0:0:0:
256,192,343948,12,0,343948,0:0:0:0:
256,192,344030,12,0,344030,0:0:0:0:
256,192,344112,12,0,344112,0:0:0:0:
256,192,344195,12,0,344195,0:0:0:0:
256,192,344277,12,0,344277,0:0:0:0:
256,192,344359,12,0,344359,0:0:0:0:
256,192,344442,12,0,344442,0:0:0:0:
256,192,344524,12,0,344524,0:0:0:0:
256,192,344606,12,0,344606,0:0:0:0:
256,192,344689,12,0,344689,0:0:0:0:
256,192,344771,12,0,344771,0:0:0:0:
256,192,344853,12,0,344853,0:0:0:0:
256,192,344936,12,0,344936,0:0:0:0:
256,192,345018,12,0,345018,0:0:0:0:
256,192,345100,12,0,345100,0:0:0:0:
256,192,345183,12,0,345183,0:0:0:0:
256,192,345265,12,0,345265,0:0:0:0:
256,192,345347,12,0,345347,0:0:0:0:
256,192,345430,12,0,345430,0:0:0:0:
256,192,345512,12,0,345512,0:0:0:0:
256,192,345594,12,0,345594,0:0:0:0:
256,192,345677,12,0,345677,0:0:0:0:
256,192,345759,12,0,345759,0:0:0:0:
256,192,345841,12,0,345841,0:0:0:0:
256,192,345924,12,0,345924,0:0:0:0:
256,192,346006,12,0,346006,0:0:0:0:
256,192,346088,12,0,346088,0:0:0:0:
256,192,346170,12,0,346170,0:0:0:0:
256,192,346253,12,0,346253,0:0:0:0:
256,192,346335,12,0,346335,0:0:0:0:
256,192,346417,12,0,346417,0:0:0:0:
256,192,346500,12,0,346500,0:0:0:0:
256,192,346582,12,0,346582,0:0:0:0:
256,192,346664,12,0,346664,0:0:0:0:
256,192,346747,12,0,346747,0:0:0:0:
256,192,346829,12,0,346829,0:0:0:0:
256,192,346911,12,0,346911,0:0:0:0:
256,192,346994,12,0,346994,0:0:0:0:
256,192,347076,12,0,347076,0:0:0:0:
256,192,347158,12,0,347158,0:0:0:0:
256,192,347241,12,0,347241,0:0:0:0:
256,192,347323,12,0,347323,0:0:0:0:
256,192,347405,12,0,347405,0:0:0:0:
256,192,347488,12,0,347488,0:0:0:0:
256,192,347570,12,0,347570,0:0:0:0:
256,192,347652,12,0,347652,0:0:0:0:
256,192,347735,12,0,347735,0:0:0:0:
256,192,347817,12,0,347817,0:0:0:0:
256,192,347899,12,0,347899,0:0:0:0:
256,192,347982,12,0,347982,0:0:0:0:
256,192,348064,12,0,348064,0:0:0:0:
256,192,348146,12,0,348146,0:0:0:0:
256,192,348229,12,0,348229,0:0:0:0:
256,192,348311,12,0,348311,0:0:0:0:
256,192,348393,12,0,348393,0:0:0:0:
256,192,348476,12,0,348476,0:0:0:0:
256,192,348558,12,0,348558,0:0:0:0:
256,192,348640,12,0,348640,0:0:0:0:
256,192,348723,12,0,348723,0:0:0:0:
256,192,348805,12,0,348805,0:0:0:0:
256,192,348887,12,0,348887,0:0:0:0:
256,192,348970,12,0,348970,0:0:0:0:
256,192,349052,12,0,349052,0:0:0:0:
256,192,349134,12,0,349134,0:0:0:0:
256,192,349217,12,0,349217,0:0:0:0:
256,192,349299,12,0,349299,0:0:0:0:
256,192,349381,12,0,349381,0:0:0:0:
256,192,349464,12,0,349464,0:0:0:0:
256,192,349546,12,0,349546,0:0:0:0:
256,192,349628,12,0,349628,0:0:0:0:
256,192,349711,12,0,349711,0:0:0:0:
256,192,349793,12,0,349793,0:0:0:0:
256,192,349875,12,0,349875,0:0:0:0:
256,192,349958,12,0,349958,0:0:0:0:
256,192,350040,12,0,350040,0:0:0:0:
256,192,350122,12,0,350122,0:0:0:0:
256,192,350205,12,0,350205,0:0:0:0:
256,192,350287,12,0,350287,0:0:0:0:
256,192,350369,12,0,350369,0:0:0:0:
256,192,350452,12,0,350452,0:0:0:0:
256,192,350534,12,0,350534,0:0:0:0:
256,192,350616,12,0,350616,0:0:0:0:
256,192,350699,12,0,350699,0:0:0:0:
256,192,350781,12,0,350781,0:0:0:0:
256,192,350863,12,0,350863,0:0:0:0:
256,192,350946,12,0,350946,0:0:0:0:
256,192,351028,12,0,351028,0:0:0:0:
256,192,351110,12,0,351110,0:0:0:0:
256,192,351193,12,0,351193,0:0:0:0:
256,192,351275,12,0,351275,0:0:0:0:
256,192,351357,12,0,351357,0:0:0:0:
256,192,351440,12,0,351440,0:0:0:0:
256,192,351522,12,0,351522,0:0:0:0:
256,192,351604,12,0,351604,0:0:0:0:
256,192,351687,12,0,351687,0:0:0:0:
256,192,351769,12,0,351769,0:0:0:0:
256,192,351851,12,0,351851,0:0:0:0:
256,192,351934,12,0,351934,0:0:0:0:
256,192,352016,12,0,352016,0:0:0:0:
256,192,352098,12,0,352098,0:0:0:0:
256,192,352180,12,0,352180,0:0:0:0:
256,192,352263,12,0,352263,0:0:0:0:
256,192,352345,12,0,352345,0:0:0:0:
256,192,352427,12,0,352427,0:0:0:0:
256,192,352510,12,0,352510,0:0:0:0:
256,192,352592,12,0,352592,0:0:0:0:
256,192,352674,12,0,352674,0:0:0:0:
256,192,352757,12,0,352757,0:0:0:0:
256,192,352839,12,0,352839,0:0:0:0:
256,192,352921,12,0,352921,0:0:0:0:
256,192,353004,12,0,353004,0:0:0:0:
256,192,353086,12,0,353086,0:0:0:0:
256,192,353168,12,0,353168,0:0:0:0:
256,192,353251,12,0,353251,0:0:0:0:
256,192,353333,12,0,353333,0:0:0:0:
256,192,353415,12,0,353415,0:0:0:0:
256,192,353498,12,0,353498,0:0:0:0:
256,192,353580,12,0,353580,0:0:0:0:
256,192,353662,12,0,353662,0:0:0:0:
256,192,353745,12,0,353745,0:0:0:0:
256,192,353827,12,0,353827,0:0:0:0:
256,192,353909,12,0,353909,0:0:0:0:
256,192,353992,12,0,353992,0:0:0:0:
256,192,354074,12,0,354074,0:0:0:0:
256,192,354156,12,0,354156,0:0:0:0:
256,192,354239,12,0,354239,0:0:0:0:
256,192,354321,12,0,354321,0:0:0:0:
256,192,354403,12,0,354403,0:0:0:0:
256,192,354486,12,0,354486,0:0:0:0:
256,192,354568,12,0,354568,0:0:0:0:
256,192,354650,12,0,354650,0:0:0:0:
256,192,354733,12,0,354733,0:0:0:0:
256,192,354815,12,0,354815,0:0:0:0:
256,192,354897,12,0,354897,0:0:0:0:
256,192,354980,12,0,354980,0:0:0:0:
256,192,355062,12,0,355062,0:0:0:0:
256,192,355144,12,0,355144,0:0:0:0:
256,192,355227,12,0,355227,0:0:0:0:
256,192,355309,12,0,355309,0:0:0:0:
256,192,355391,12,0,355391,0:0:0:0:
256,192,355474,12,0,355474,0:0:0:0:
256,192,355556,12,0,355556,0:0:0:0:
256,192,355638,12,0,355638,0:0:0:0:
256,192,355721,12,0,355721,0:0:0:0:
256,192,355803,12,0,355803,0:0:0:0:
256,192,355885,12,0,355885,0:0:0:0:
256,192,355968,12,0,355968,0:0:0:0:
256,192,356050,12,0,356050,0:0:0:0:
256,192,356132,12,0,356132,0:0:0:0:
256,192,356215,12,0,356215,0:0:0:0:
256,192,356297,12,0,356297,0:0:0:0:
256,192,356379,12,0,356379,0:0:0:0:
256,192,356462,12,0,356462,0:0:0:0:
256,192,356544,12,0,356544,0:0:0:0:
256,192,356626,12,0,356626,0:0:0:0:
256,192,356709,12,0,356709,0:0:0:0:
256,192,356791,12,0,356791,0:0:0:0:
256,192,356873,12,0,356873,0:0:0:0:
256,192,356956,12,0,356956,0:0:0:0:
256,192,357038,12,0,357038,0:0:0:0:
256,192,357120,12,0,357120,0:0:0:0:
256,192,357203,12,0,357203,0:0:0:0:
256,192,357285,12,0,357285,0:0:0:0:
256,192,357367,12,0,357367,0:0:0:0:
256,192,357450,12,0,357450,0:0:0:0:
256,192,357532,12,0,357532,0:0:0:0:
256,192,357614,12,0,357614,0:0:0:0:
256,192,357697,12,0,357697,0:0:0:0:
256,192,357779,12,0,357779,0:0:0:0:
256,192,357861,12,0,357861,0:0:0:0:
256,192,357944,12,0,357944,0:0:0:0:
256,192,358026,12,0,358026,0:0:0:0:
256,192,358108,12,0,358108,0:0:0:0:
256,192,358190,12,0,358190,0:0:0:0:
256,192,358273,12,0,358273,0:0:0:0:
256,192,358355,12,0,358355,0:0:0:0:
256,192,358437,12,0,358437,0:0:0:0:
256,192,358520,12,0,358520,0:0:0:0:
256,192,358602,12,0,358602,0:0:0:0:
256,192,358684,12,0,358684,0:0:0:0:
256,192,358767,12,0,358767,0:0:0:0:
256,192,358849,12,0,358849,0:0:0:0:
256,192,358931,12,0,358931,0:0:0:0:
256,192,359014,12,0,359014,0:0:0:0:
256,192,359096,12,0,359096,0:0:0:0:
256,192,359178,12,0,359178,0:0:0:0:
256,192,359261,12,0,359261,0:0:0:0:
256,192,359343,12,0,359343,0:0:0:0:
256,192,359425,12,0,359425,0:0:0:0:
256,192,359508,12,0,359508,0:0:0:0:
256,192,359590,12,0,359590,0:0:0:0:
256,192,359672,12,0,359672,0:0:0:0:
256,192,359755,12,0,359755,0:0:0:0:
256,192,359837,12,0,359837,0:0:0:0:
256,192,359919,12,0,359919,0:0:0:0:
256,192,360002,12,0,360002,0:0:0:0:
256,192,360084,12,0,360084,0:0:0:0:
256,192,360166,12,0,360166,0:0:0:0:
256,192,360249,12,0,360249,0:0:0:0:
256,192,360331,12,0,360331,0:0:0:0:
256,192,360413,12,0,360413,0:0:0:0:
256,192,360496,12,0,360496,0:0:0:0:
256,192,360578,12,0,360578,0:0:0:0:
256,192,360660,12,0,360660,0:0:0:0:
256,192,360743,12,0,360743,0:0:0:0:
256,192,360825,12,0,360825,0:0:0:0:
256,192,360907,12,0,360907,0:0:0:0:
256,192,360990,12,0,360990,0:0:0:0:
256,192,361072,12,0,361072,0:0:0:0:
256,192,361154,12,0,361154,0:0:0:0:
256,192,361237,12,0,361237,0:0:0:0:
256,192,361319,12,0,361319,0:0:0:0:
256,192,361401,12,0,361401,0:0:0:0:
256,192,361484,12,0,361484,0:0:0:0:
256,192,361566,12,0,361566,0:0:0:0:
256,192,361648,12,0,361648,0:0:0:0:
256,192,361731,12,0,361731,0:0:0:0:
256,192,361813,12,0,361813,0:0:0:0:
256,192,361895,12,0,361895,0:0:0:0:
256,192,361978,12,0,361978,0:0:0:0:
256,192,362060,12,0,362060,0:0:0:0:
256,192,362142,12,0,362142,0:0:0:0:
256,192,362225,12,0,362225,0:0:0:0:
256,192,362307,12,0,362307,0:0:0:0:
256,192,362389,12,0,362389,0:0:0:0:
256,192,362472,12,0,362472,0:0:0:0:
256,192,362554,12,0,362554,0:0:0:0:
256,192,362636,12,0,362636,0:0:0:0:
256,192,362719,12,0,362719,0:0:0:0:
256,192,362801,12,0,362801,0:0:0:0:
256,192,362883,12,0,362883,0:0:0:0:
256,192,362966,12,0,362966,0:0:0:0:
256,192,363048,12,0,363048,0:0:0:0:
256,192,363130,12,0,363130,0:0:0:0:
256,192,363213,12,0,363213,0:0:0:0:
256,192,363295,12,0,363295,0:0:0:0:
256,192,363377,12,0,363377,0:0:0:0:
256,192,363460,12,0,363460,0:0:0:0:
256,192,363542,12,0,363542,0:0:0:0:
256,192,363624,12,0,363624,0:0:0:0:
256,192,363707,12,0,363707,0:0:0:0:
256,192,363789,12,0,363789,0:0:0:0:
256,192,363871,12,0,363871,0:0:0:0:
256,192,363954,12,0,363954,0:0:0:0:
256,192,364036,12,0,364036,0:0:0:0:
256,192,364118,12,0,364118,0:0:0:0:
256,192,364201,12,0,364201,0:0:0:0:
256,192,364283,12,0,364283,0:0:0:0:
256,192,364365,12,0,364365,0:0:0:0:
256,192,364447,12,0,364447,0:0:0:0:
256,192,364530,12,0,364530,0:0:0:0:
256,192,364612,12,0,364612,0:0:0:0:
256,192,364694,12,0,364694,0:0:0:0:
256,192,364777,12,0,364777,0:0:0:0:
256,192,364859,12,0,364859,0:0:0:0:
256,192,364941,12,0,364941,0:0:0:0:
256,192,365024,12,0,365024,0:0:0:0:
256,192,365106,12,0,365106,0:0:0:0:
256,192,365188,12,0,365188,0:0:0:0:
256,192,365271,12,0,365271,0:0:0:0:
256,192,365353,12,0,365353,0:0:0:0:
256,192,365435,12,0,365435,0:0:0:0:
256,192,365518,12,0,365518,0:0:0:0:
256,192,365600,12,0,365600,0:0:0:0:
256,192,365682,12,0,365682,0:0:0:0:
256,192,365765,12,0,365765,0:0:0:0:
256,192,365847,12,0,365847,0:0:0:0:
256,192,365929,12,0,365929,0:0:0:0:
256,192,366012,12,0,366012,0:0:0:0:
256,192,366094,12,0,366094,0:0:0:0:
256,192,366176,12,0,366176,0:0:0:0:
256,192,366259,12,0,366259,0:0:0:0:
256,192,366341,12,0,366341,0:0:0:0:
256,192,366423,12,0,366423,0:0:0:0:
256,192,366506,12,0,366506,0:0:0:0:
256,192,366588,12,0,366588,0:0:0:0:
256,192,366670,12,0,366670,0:0:0:0:
256,192,366753,12,0,366753,0:0:0:0:
256,192,366835,12,0,366835,0:0:0:0:
256,192,366917,12,0,366917,0:0:0:0:
256,192,367000,12,0,367000,0:0:0:0:
256,192,367082,12,0,367082,0:0:0:0:
256,192,367164,12,0,367164,0:0:0:0:
256,192,367247,12,0,367247,0:0:0:0:
256,192,367329,12,0,367329,0:0:0:0:
256,192,367411,12,0,367411,0:0:0:0:
256,192,367494,12,0,367494,0:0:0:0:
256,192,367576,12,0,367576,0:0:0:0:
256,192,367658,12,0,367658,0:0:0:0:
256,192,367741,12,0,367741,0:0:0:0:
256,192,367823,12,0,367823,0:0:0:0:
256,192,367905,12,0,367905,0:0:0:0:
256,192,367988,12,0,367988,0:0:0:0:
256,192,368070,12,0,368070,0:0:0:0:
256,192,368152,12,0,368152,0:0:0:0:
256,192,368235,12,0,368235,0:0:0:0:
256,192,368317,12,0,368317,0:0:0:0:
256,192,368399,12,0,368399,0:0:0:0:
256,192,368482,12,0,368482,0:0:0:0:
256,192,368564,12,0,368564,0:0:0:0:
256,192,368646,12,0,368646,0:0:0:0:
256,192,368729,12,0,368729,0:0:0:0:
256,192,368811,12,0,368811,0:0:0:0:
256,192,368893,12,0,368893,0:0:0:0:
256,192,368976,12,0,368976,0:0:0:0:
256,192,369058,12,0,369058,0:0:0:0:
256,192,369140,12,0,369140,0:0:0:0:
256,192,369223,12,0,369223,0:0:0:0:
256,192,369305,12,0,369305,0:0:0:0:
256,192,369387,12,0,369387,0:0:0:0:
256,192,369470,12,0,369470,0:0:0:0:
256,192,369552,12,0,369552,0:0:0:0:
256,192,369634,12,0,369634,0:0:0:0:
256,192,369717,12,0,369717,0:0:0:0:
256,192,369799,12,0,369799,0:0:0:0:
256,192,369881,12,0,369881,0:0:0:0:
256,192,369964,12,0,369964,0:0:0:0:
256,192,370046,12,0,370046,0:0:0:0:
256,192,370128,12,0,370128,0:0:0:0:
256,192,370211,12,0,370211,0:0:0:0:
256,192,370293,12,0,370293,0:0:0:0:
256,192,370375,12,0,370375,0:0:0:0:
256,192,370458,12,0,370458,0:0:0:0:
256,192,370540,12,0,370540,0:0:0:0:
256,192,370622,12,0,370622,0:0:0:0:
256,192,370705,12,0,370705,0:0:0:0:
256,192,370787,12,0,370787,0:0:0:0:
256,192,370869,12,0,370869,0:0:0:0:
256,192,370951,12,0,370951,0:0:0:0:
256,192,371034,12,0,371034,0:0:0:0:
256,192,371116,12,0,371116,0:0:0:0:
256,192,371198,12,0,371198,0:0:0:0:
256,192,371281,12,0,371281,0:0:0:0:
256,192,371363,12,0,371363,0:0:0:0:
256,192,371445,12,0,371445,0:0:0:0:
256,192,371528,12,0,371528,0:0:0:0:
256,192,371610,12,0,371610,0:0:0:0:
256,192,371692,12,0,371692,0:0:0:0:
256,192,371775,12,0,371775,0:0:0:0:
256,192,371857,12,0,371857,0:0:0:0:
256,192,371939,12,0,371939,0:0:0:0:
256,192,372022,12,0,372022,0:0:0:0:
256,192,372104,12,0,372104,0:0:0:0:
256,192,372186,12,0,372186,0:0:0:0:
256,192,372269,12,0,372269,0:0:0:0:
256,192,372351,12,0,372351,0:0:0:0:
256,192,372433,12,0,372433,0:0:0:0:
256,192,372516,12,0,372516,0:0:0:0:
256,192,372598,12,0,372598,0:0:0:0:
256,192,372680,12,0,372680,0:0:0:0:
256,192,372763,12,0,372763,0:0:0:0:
256,192,372845,12,0,372845,0:0:0:0:
256,192,372927,12,0,372927,0:0:0:0:
256,192,373010,12,0,373010,0:0:0:0:
256,192,373092,12,0,373092,0:0:0:0:
256,192,373174,12,0,373174,0:0:0:0:
256,192,373257,12,0,373257,0:0:0:0:
256,192,373339,12,0,373339,0:0:0:0:
256,192,373421,12,0,373421,0:0:0:0:
256,192,373504,12,0,373504,0:0:0:0:
256,192,373586,12,0,373586,0:0:0:0:
256,192,373668,12,0,373668,0:0:0:0:
256,192,373751,12,0,373751,0:0:0:0:
256,192,373833,12,0,373833,0:0:0:0:
256,192,373915,12,0,373915,0:0:0:0:
256,192,373998,12,0,373998,0:0:0:0:
256,192,374080,12,0,374080,0:0:0:0:
256,192,374162,12,0,374162,0:0:0:0:
256,192,374245,12,0,374245,0:0:0:0:
256,192,374327,12,0,374327,0:0:0:0:
256,192,374409,12,0,374409,0:0:0:0:
256,192,374492,12,0,374492,0:0:0:0:
256,192,374574,12,0,374574,0:0:0:0:
256,192,374656,12,0,374656,0:0:0:0:
256,192,374739,12,0,374739,0:0:0:0:
256,192,374821,12,0,374821,0:0:0:0:
256,192,374903,12,0,374903,0:0:0:0:
256,192,374986,12,0,374986,0:0:0:0:
256,192,375068,12,0,375068,0:0:0:0:
256,192,375150,12,0,375150,0:0:0:0:
256,192,375233,12,0,375233,0:0:0:0:
256,192,375315,12,0,375315,0:0:0:0:
256,192,375397,12,0,375397,0:0:0:0:
256,192,375480,12,0,375480,0:0:0:0:
256,192,375562,12,0,375562,0:0:0:0:
256,192,375644,12,0,375644,0:0:0:0:
256,192,375727,12,0,375727,0:0:0:0:
256,192,375809,12,0,375809,0:0:0:0:
256,192,375891,12,0,375891,0:0:0:0:
256,192,375974,12,0,375974,0:0:0:0:
256,192,376056,12,0,376056,0:0:0:0:
256,192,376138,12,0,376138,0:0:0:0:
256,192,376221,12,0,376221,0:0:0:0:
256,192,376303,12,0,376303,0:0:0:0:
256,192,376385,12,0,376385,0:0:0:0:
256,192,376468,12,0,376468,0:0:0:0:
256,192,376550,12,0,376550,0:0:0:0:
256,192,376632,12,0,376632,0:0:0:0:
256,192,376715,12,0,376715,0:0:0:0:
256,192,376797,12,0,376797,0:0:0:0:
256,192,376879,12,0,376879,0:0:0:0:
256,192,376961,12,0,376961,0:0:0:0:
256,192,377044,12,0,377044,0:0:0:0:
256,192,377126,12,0,377126,0:0:0:0:
256,192,377208,12,0,377208,0:0:0:0:
256,192,377291,12,0,377291,0:0:0:0:
256,192,377373,12,0,377373,0:0:0:0:
256,192,377455,12,0,377455,0:0:0:0:
256,192,377538,12,0,377538,0:0:0:0:
256,192,377620,12,0,377620,0:0:0:0:
256,192,377702,12,0,377702,0:0:0:0:
256,192,377785,12,0,377785,0:0:0:0:
256,192,377867,12,0,377867,0:0:0:0:
256,192,377949,12,0,377949,0:0:0:0:
256,192,378032,12,0,378032,0:0:0:0:
256,192,378114,12,0,378114,0:0:0:0:
256,192,378196,12,0,378196,0:0:0:0:
256,192,378279,12,0,378279,0:0:0:0:
256,192,378361,12,0,378361,0:0:0:0:
256,192,378443,12,0,378443,0:0:0:0:
256,192,378526,12,0,378526,0:0:0:0:
256,192,378608,12,0,378608,0:0:0:0:
256,192,378690,12,0,378690,0:0:0:0:
256,192,378773,12,0,378773,0:0:0:0:
256,192,378855,12,0,378855,0:0:0:0:
256,192,378937,12,0,378937,0:0:0:0:
256,192,379020,12,0,379020,0:0:0:0:
256,192,379102,12,0,379102,0:0:0:0:
256,192,379184,12,0,379184,0:0:0:0:
256,192,379267,12,0,379267,0:0:0:0:
256,192,379349,12,0,379349,0:0:0:0:
256,192,379431,12,0,379431,0:0:0:0:
256,192,379514,12,0,379514,0:0:0:0:
256,192,379596,12,0,379596,0:0:0:0:
256,192,379678,12,0,379678,0:0:0:0:
256,192,379761,12,0,379761,0:0:0:0:
256,192,379843,12,0,379843,0:0:0:0:
256,192,379925,12,0,379925,0:0:0:0:
256,192,380008,12,0,380008,0:0:0:0:
256,192,380090,12,0,380090,0:0:0:0:
256,192,380172,12,0,380172,0:0:0:0:
256,192,380255,12,0,380255,0:0:0:0:
256,192,380337,12,0,380337,0:0:0:0:
256,192,380419,12,0,380419,0:0:0:0:
256,192,380502,12,0,380502,0:0:0:0:
256,192,380584,12,0,380584,0:0:0:0:
256,192,380666,12,0,380666,0:0:0:0:
256,192,380749,12,0,380749,0:0:0:0:
256,192,380831,12,0,380831,0:0:0:0:
256,192,380913,12,0,380913,0:0:0:0:
256,192,380996,12,0,380996,0:0:0:0:
256,192,381078,12,0,381078,0:0:0:0:
256,192,381160,12,0,381160,0:0:0:0:
256,192,381243,12,0,381243,0:0:0:0:
256,192,381325,12,0,381325,0:0:0:0:
256,192,381407,12,0,381407,0:0:0:0:
256,192,381490,12,0,381490,0:0:0:0:
256,192,381572,12,0,381572,0:0:0:0:
256,192,381654,12,0,381654,0:0:0:0:
256,192,381737,12,0,381737,0:0:0:0:
256,192,381819,12,0,381819,0:0:0:0:
256,192,381901,12,0,381901,0:0:0:0:
256,192,381984,12,0,381984,0:0:0:0:
256,192,382066,12,0,382066,0:0:0:0:
256,192,382148,12,0,382148,0:0:0:0:
256,192,382231,12,0,382231,0:0:0:0:
256,192,382313,12,0,382313,0:0:0:0:
256,192,382395,12,0,382395,0:0:0:0:
256,192,382478,12,0,382478,0:0:0:0:
256,192,382560,12,0,382560,0:0:0:0:
256,192,382642,12,0,382642,0:0:0:0:
