osu file format v14

[General]
AudioFilename: audio.mp3
AudioLeadIn: 0
PreviewTime: 89787
Countdown: 0
SampleSet: Normal
StackLeniency: 0.7
Mode: 1
LetterboxInBreaks: 0
WidescreenStoryboard: 1

[Editor]
DistanceSpacing: 2
BeatDivisor: 2
GridSize: 32
TimelineZoom: 1.1

[Metadata]
Title:BLUE ARMY (Raytoly's Progressive Hardcore Sped Up Edit)
TitleUnicode:BLUE ARMY (Raytoly's Progressive Hardcore Sped Up Edit)
Artist:DJ SHARPNEL
ArtistUnicode:DJ SHARPNEL
Creator:Raytoly
Version:MUZUKASHII
Source:
Tags:kitafuma Mad Break SHARPNELSOUND Edition Bootleg UK Happy Nightcore Speed J-Core House Electronic Japanese
BeatmapID:2983689
BeatmapSetID:1450030

[Difficulty]
HPDrainRate:6
CircleSize:7
OverallDifficulty:4
ApproachRate:10
SliderMultiplier:1
SliderTickRate:1

[Events]
//Background and Video events
0,0,"4583d8e22a6e2db89e727c71f28a0ec2546c7b23_s2_n2.jpg",0,100
//Break Periods
//Storyboard Layer 0 (Background)
//Storyboard Layer 1 (Fail)
//Storyboard Layer 2 (Pass)
//Storyboard Layer 3 (Foreground)
//Storyboard Layer 4 (Overlay)
//Storyboard Sound Samples

[TimingPoints]
10,222.222222222222,4,1,0,90,1,0
28509,-100,4,1,0,45,0,0
30232,222.222222222222,4,1,0,45,1,0
43545,-100,4,1,0,90,0,0
90676,-100,4,1,0,90,0,1
151120,-100,4,1,0,90,0,0

[HitObjects]
299,158,10,5,4,0:0:0:0:
222,191,232,1,8,0:0:0:0:
197,164,454,1,0,0:0:0:0:
281,126,565,1,0,0:0:0:0:
243,167,676,1,0,0:0:0:0:
243,167,898,1,0,0:0:0:0:
281,126,1121,1,8,0:0:0:0:
281,126,1343,1,0,0:0:0:0:
281,126,1787,1,0,0:0:0:0:
281,126,2009,1,8,0:0:0:0:
240,167,2232,1,0,0:0:0:0:
281,126,2454,1,8,0:0:0:0:
226,155,2565,1,8,0:0:0:0:
281,126,2676,1,0,0:0:0:0:
281,126,2898,1,8,0:0:0:0:
281,126,3121,1,0,0:0:0:0:
281,126,3565,1,0,0:0:0:0:
281,126,3787,1,8,0:0:0:0:
281,126,4009,1,0,0:0:0:0:
226,155,4121,1,0,0:0:0:0:
281,126,4232,1,0,0:0:0:0:
281,126,4454,1,0,0:0:0:0:
281,126,4676,1,8,0:0:0:0:
281,126,4898,1,0,0:0:0:0:
281,126,5343,1,0,0:0:0:0:
281,126,5565,1,8,0:0:0:0:
281,126,5787,1,0,0:0:0:0:
281,126,6009,1,8,0:0:0:0:
263,147,6121,1,8,0:0:0:0:
281,126,6232,1,0,0:0:0:0:
283,161,6454,1,8,0:0:0:0:
217,151,6676,1,0,0:0:0:0:
217,151,7121,1,4,0:0:0:0:
254,191,7343,1,8,0:0:0:0:
254,191,7565,1,0,0:0:0:0:
254,191,7676,1,0,0:0:0:0:
254,191,7787,1,0,0:0:0:0:
254,191,8009,1,0,0:0:0:0:
254,191,8232,1,8,0:0:0:0:
254,191,8454,1,0,0:0:0:0:
254,191,8898,1,0,0:0:0:0:
254,191,9121,1,8,0:0:0:0:
254,191,9343,1,0,0:0:0:0:
254,191,9565,1,8,0:0:0:0:
254,191,9676,1,8,0:0:0:0:
254,191,9787,1,0,0:0:0:0:
254,191,10009,1,8,0:0:0:0:
254,191,10232,1,0,0:0:0:0:
254,191,10676,1,0,0:0:0:0:
254,191,10898,1,8,0:0:0:0:
254,191,11121,1,0,0:0:0:0:
254,191,11232,1,0,0:0:0:0:
254,191,11343,1,0,0:0:0:0:
254,191,11565,1,0,0:0:0:0:
254,191,11787,1,8,0:0:0:0:
254,191,12009,1,0,0:0:0:0:
254,191,12454,1,0,0:0:0:0:
254,191,12676,1,8,0:0:0:0:
254,191,12898,1,0,0:0:0:0:
254,191,13121,1,8,0:0:0:0:
254,191,13232,1,8,0:0:0:0:
254,191,13343,1,0,0:0:0:0:
254,191,13565,1,8,0:0:0:0:
254,191,13787,1,0,0:0:0:0:
254,191,14232,1,4,0:0:0:0:
254,191,14454,1,8,0:0:0:0:
254,191,14676,1,0,0:0:0:0:
254,191,14787,1,0,0:0:0:0:
254,191,14898,1,8,0:0:0:0:
254,191,15121,1,0,0:0:0:0:
254,191,15343,1,8,0:0:0:0:
254,191,15565,1,0,0:0:0:0:
254,191,16009,1,0,0:0:0:0:
254,191,16232,1,8,0:0:0:0:
254,191,16454,1,0,0:0:0:0:
254,191,16676,1,8,0:0:0:0:
254,191,16787,1,8,0:0:0:0:
254,191,16898,1,0,0:0:0:0:
254,191,17121,1,8,0:0:0:0:
254,191,17343,1,0,0:0:0:0:
229,180,17787,1,0,0:0:0:0:
229,180,18009,1,8,0:0:0:0:
229,180,18232,1,0,0:0:0:0:
229,180,18343,1,0,0:0:0:0:
229,180,18454,1,8,0:0:0:0:
229,180,18676,1,0,0:0:0:0:
229,180,18898,1,8,0:0:0:0:
232,178,19121,1,0,0:0:0:0:
232,178,19565,1,0,0:0:0:0:
232,178,19787,1,8,0:0:0:0:
232,178,20009,1,0,0:0:0:0:
232,178,20232,1,8,0:0:0:0:
232,178,20343,1,8,0:0:0:0:
232,178,20454,1,0,0:0:0:0:
232,178,20676,1,8,0:0:0:0:
232,178,20898,1,0,0:0:0:0:
232,196,21343,1,4,0:0:0:0:
247,197,21565,1,8,0:0:0:0:
247,197,21787,1,0,0:0:0:0:
247,197,21898,1,0,0:0:0:0:
247,197,22009,1,8,0:0:0:0:
247,196,22232,1,0,0:0:0:0:
247,197,22454,1,8,0:0:0:0:
247,197,22565,1,8,0:0:0:0:
247,197,22676,1,0,0:0:0:0:
247,196,23121,1,0,0:0:0:0:
247,197,23343,1,8,0:0:0:0:
247,197,23565,1,8,0:0:0:0:
247,197,23676,1,0,0:0:0:0:
247,197,23787,1,8,0:0:0:0:
247,196,24009,1,0,0:0:0:0:
247,197,24232,1,8,0:0:0:0:
192,128,24343,1,8,0:0:0:0:
247,197,24454,1,0,0:0:0:0:
208,137,24898,1,8,0:0:0:0:
222,153,25121,1,0,0:0:0:0:
222,153,25343,1,8,0:0:0:0:
241,175,25454,1,0,0:0:0:0:
241,175,25565,1,8,0:0:0:0:
241,175,25787,1,0,0:0:0:0:
241,175,26009,1,8,0:0:0:0:
241,175,26121,1,8,0:0:0:0:
241,175,26232,1,0,0:0:0:0:
241,175,26454,1,8,0:0:0:0:
243,160,26676,1,0,0:0:0:0:
243,160,26787,1,0,0:0:0:0:
243,160,26898,1,0,0:0:0:0:
243,160,27009,1,0,0:0:0:0:
243,160,27121,1,8,0:0:0:0:
243,160,27343,1,0,0:0:0:0:
243,160,27565,1,8,0:0:0:0:
243,160,27676,1,8,0:0:0:0:
243,160,27787,1,0,0:0:0:0:
243,160,27898,1,0,0:0:0:0:
243,160,28009,1,8,0:0:0:0:
243,160,28121,1,8,0:0:0:0:
243,160,28232,1,8,0:0:0:0:
243,160,28343,1,8,0:0:0:0:
243,160,28454,1,4,0:0:0:0:
237,189,30232,1,8,0:0:0:0:
231,172,32009,1,0,0:0:0:0:
221,187,33787,1,8,0:0:0:0:
221,187,35565,1,0,0:0:0:0:
221,187,37343,1,8,0:0:0:0:
221,187,38231,1,8,0:0:0:0:
221,187,39120,1,0,0:0:0:0:
221,187,40009,1,0,0:0:0:0:
221,187,40898,1,8,0:0:0:0:
221,187,41787,1,8,0:0:0:0:
225,192,42676,1,0,0:0:0:0:
225,192,43565,1,8,0:0:0:0:
246,173,44454,1,4,0:0:0:0:
152,167,44898,1,8,0:0:0:0:
218,167,45343,1,0,0:0:0:0:
218,167,46231,1,8,0:0:0:0:
210,140,46676,1,0,0:0:0:0:
218,167,47120,1,8,0:0:0:0:
218,167,47565,1,8,0:0:0:0:
218,167,48009,1,0,0:0:0:0:
249,137,48454,1,8,0:0:0:0:
218,167,48898,1,0,0:0:0:0:
254,146,49787,1,0,0:0:0:0:
254,146,50231,1,0,0:0:0:0:
254,146,50676,1,8,0:0:0:0:
231,175,51120,1,8,0:0:0:0:
218,167,51565,1,12,0:0:0:0:
218,160,52009,1,8,0:0:0:0:
219,160,52454,1,8,0:0:0:0:
219,160,53343,1,8,0:0:0:0:
218,160,53787,1,8,0:0:0:0:
219,160,54231,1,8,0:0:0:0:
240,156,55120,1,8,0:0:0:0:
216,182,55565,1,8,0:0:0:0:
216,182,56009,1,8,0:0:0:0:
216,182,56454,1,8,0:0:0:0:
216,182,56898,1,12,0:0:0:0:
160,192,57343,1,8,0:0:0:0:
226,187,57565,1,0,0:0:0:0:
226,187,57787,1,0,0:0:0:0:
226,187,58009,1,0,0:0:0:0:
226,187,58231,1,8,0:0:0:0:
226,187,58676,1,12,0:0:0:0:
226,187,59120,1,8,0:0:0:0:
226,187,59343,1,8,0:0:0:0:
226,187,59565,1,0,0:0:0:0:
226,187,59787,1,0,0:0:0:0:
226,187,60009,1,8,0:0:0:0:
256,128,60231,1,0,0:0:0:0:
207,159,60454,1,12,0:0:0:0:
226,187,60676,1,0,0:0:0:0:
179,47,60787,1,0,0:0:0:0:
236,111,60898,1,8,0:0:0:0:
246,186,61120,1,8,0:0:0:0:
246,186,61343,1,0,0:0:0:0:
246,186,61454,1,0,0:0:0:0:
246,186,61565,1,0,0:0:0:0:
246,186,61676,1,0,0:0:0:0:
246,186,61787,1,8,0:0:0:0:
246,186,61898,1,8,0:0:0:0:
246,186,62009,1,8,0:0:0:0:
246,186,62120,1,8,0:0:0:0:
246,186,62231,1,4,0:0:0:0:
227,202,64009,1,8,0:0:0:0:
217,204,65787,1,8,0:0:0:0:
217,204,66676,1,8,0:0:0:0:
217,204,67565,1,0,0:0:0:0:
217,204,68454,1,0,0:0:0:0:
217,204,68898,1,8,0:0:0:0:
217,204,69343,1,0,0:0:0:0:
203,172,71120,1,8,0:0:0:0:
203,172,72898,1,8,0:0:0:0:
203,172,73787,1,8,0:0:0:0:
203,172,74676,1,0,0:0:0:0:
203,172,75565,1,0,0:0:0:0:
203,172,76009,1,8,0:0:0:0:
203,172,76454,1,4,0:0:0:0:
191,160,78231,1,0,0:0:0:0:
237,177,80009,1,0,0:0:0:0:
236,189,81787,1,0,0:0:0:0:
239,200,83565,1,8,0:0:0:0:
239,200,84009,1,0,0:0:0:0:
239,200,84454,1,0,0:0:0:0:
239,200,84898,1,0,0:0:0:0:
239,200,85343,1,8,0:0:0:0:
239,200,85787,1,0,0:0:0:0:
239,200,86231,1,0,0:0:0:0:
239,200,86676,1,0,0:0:0:0:
239,200,87120,1,8,0:0:0:0:
239,200,87343,1,8,0:0:0:0:
239,200,87565,1,0,0:0:0:0:
262,157,87787,1,0,0:0:0:0:
239,200,88009,1,8,0:0:0:0:
262,157,88120,1,8,0:0:0:0:
239,200,88231,1,8,0:0:0:0:
262,151,88343,1,8,0:0:0:0:
239,200,88454,1,0,0:0:0:0:
262,157,88676,1,0,0:0:0:0:
239,200,88898,1,8,0:0:0:0:
262,157,89009,1,8,0:0:0:0:
239,200,89120,1,0,0:0:0:0:
239,200,89231,1,0,0:0:0:0:
239,200,89343,1,8,0:0:0:0:
239,200,89454,1,8,0:0:0:0:
262,157,89565,1,8,0:0:0:0:
239,200,89676,1,8,0:0:0:0:
239,200,89787,1,4,0:0:0:0:
226,164,90676,1,12,0:0:0:0:
253,186,91120,1,8,0:0:0:0:
253,186,91231,1,8,0:0:0:0:
253,186,91343,1,0,0:0:0:0:
253,186,91454,1,0,0:0:0:0:
253,186,91565,1,8,0:0:0:0:
253,186,91787,1,0,0:0:0:0:
253,186,92009,1,8,0:0:0:0:
253,186,92120,1,0,0:0:0:0:
253,186,92231,1,0,0:0:0:0:
253,186,92343,1,0,0:0:0:0:
253,186,92454,1,8,0:0:0:0:
253,186,92676,1,0,0:0:0:0:
253,186,92787,1,8,0:0:0:0:
253,186,92898,1,0,0:0:0:0:
233,184,93120,1,0,0:0:0:0:
233,184,93343,1,8,0:0:0:0:
233,184,93676,1,0,0:0:0:0:
233,184,93787,1,8,0:0:0:0:
233,184,93898,1,8,0:0:0:0:
233,184,94009,1,0,0:0:0:0:
233,184,94120,1,0,0:0:0:0:
233,184,94231,1,8,0:0:0:0:
231,177,94565,1,0,0:0:0:0:
231,177,94676,1,8,0:0:0:0:
231,177,94787,1,0,0:0:0:0:
231,177,94898,1,8,0:0:0:0:
231,177,95009,1,8,0:0:0:0:
231,177,95120,1,0,0:0:0:0:
231,177,95565,1,8,0:0:0:0:
231,172,95787,1,8,0:0:0:0:
231,171,96009,1,0,0:0:0:0:
261,134,96120,1,0,0:0:0:0:
231,171,96231,1,8,0:0:0:0:
261,134,96343,1,0,0:0:0:0:
230,169,96454,1,8,0:0:0:0:
261,134,96565,1,8,0:0:0:0:
229,167,96676,1,0,0:0:0:0:
264,132,96787,1,0,0:0:0:0:
264,132,96898,1,8,0:0:0:0:
264,132,97343,1,8,0:0:0:0:
264,131,97454,1,8,0:0:0:0:
264,131,97565,1,8,0:0:0:0:
264,132,97676,1,8,0:0:0:0:
264,132,97787,1,4,0:0:0:0:
253,186,98231,1,8,0:0:0:0:
253,186,98343,1,8,0:0:0:0:
253,186,98454,1,0,0:0:0:0:
253,186,98565,1,0,0:0:0:0:
253,186,98676,1,8,0:0:0:0:
253,186,98898,1,0,0:0:0:0:
253,186,99120,1,8,0:0:0:0:
253,186,99231,1,0,0:0:0:0:
253,186,99343,1,8,0:0:0:0:
253,186,99454,1,8,0:0:0:0:
253,186,99565,1,0,0:0:0:0:
253,186,99787,1,8,0:0:0:0:
253,186,99898,1,8,0:0:0:0:
253,186,100009,1,0,0:0:0:0:
233,184,100231,1,0,0:0:0:0:
233,184,100454,1,8,0:0:0:0:
233,184,100787,1,0,0:0:0:0:
233,184,100898,1,8,0:0:0:0:
233,184,101009,1,0,0:0:0:0:
233,184,101120,1,0,0:0:0:0:
233,184,101231,1,0,0:0:0:0:
233,184,101343,1,8,0:0:0:0:
231,177,101676,1,8,0:0:0:0:
231,177,101787,1,0,0:0:0:0:
231,177,101898,1,0,0:0:0:0:
231,177,102009,1,8,0:0:0:0:
231,177,102120,1,8,0:0:0:0:
231,177,102231,1,0,0:0:0:0:
231,177,102676,1,8,0:0:0:0:
231,172,102898,1,8,0:0:0:0:
231,171,103120,1,0,0:0:0:0:
261,134,103231,1,0,0:0:0:0:
231,171,103343,1,8,0:0:0:0:
261,134,103454,1,8,0:0:0:0:
230,169,103565,1,0,0:0:0:0:
261,134,103676,1,0,0:0:0:0:
229,167,103787,1,8,0:0:0:0:
264,132,103898,1,0,0:0:0:0:
264,132,104009,1,8,0:0:0:0:
264,132,104454,1,8,0:0:0:0:
264,131,104565,1,0,0:0:0:0:
264,131,104676,1,8,0:0:0:0:
264,132,104787,1,8,0:0:0:0:
264,132,104898,1,4,0:0:0:0:
272,192,105343,1,8,0:0:0:0:
266,194,105454,1,0,0:0:0:0:
266,194,105565,1,0,0:0:0:0:
266,194,105676,1,0,0:0:0:0:
266,194,105787,1,8,0:0:0:0:
266,194,106009,1,0,0:0:0:0:
266,194,106231,1,8,0:0:0:0:
266,194,106343,1,8,0:0:0:0:
266,194,106454,1,0,0:0:0:0:
266,194,106565,1,0,0:0:0:0:
266,194,106676,1,8,0:0:0:0:
266,194,106898,1,0,0:0:0:0:
266,194,107009,1,0,0:0:0:0:
266,194,107120,1,8,0:0:0:0:
266,194,107343,1,0,0:0:0:0:
266,194,107565,1,8,0:0:0:0:
248,219,107898,1,0,0:0:0:0:
248,219,108009,1,8,0:0:0:0:
248,219,108120,1,0,0:0:0:0:
248,219,108231,1,8,0:0:0:0:
248,219,108343,1,8,0:0:0:0:
248,219,108454,1,0,0:0:0:0:
248,219,108787,1,0,0:0:0:0:
248,219,108898,1,0,0:0:0:0:
248,219,109009,1,0,0:0:0:0:
248,219,109120,1,8,0:0:0:0:
248,219,109231,1,8,0:0:0:0:
248,219,109343,1,0,0:0:0:0:
248,219,109787,1,8,0:0:0:0:
248,219,110009,1,0,0:0:0:0:
248,219,110231,1,0,0:0:0:0:
248,219,110343,1,0,0:0:0:0:
248,219,110454,1,8,0:0:0:0:
248,219,110565,1,0,0:0:0:0:
248,219,110676,1,0,0:0:0:0:
248,219,110787,1,0,0:0:0:0:
248,219,110898,1,8,0:0:0:0:
248,219,111009,1,8,0:0:0:0:
248,219,111120,1,0,0:0:0:0:
248,219,111565,1,8,0:0:0:0:
248,219,111676,1,8,0:0:0:0:
248,219,111787,1,8,0:0:0:0:
248,219,111898,1,8,0:0:0:0:
248,219,112009,1,4,0:0:0:0:
252,191,112454,1,8,0:0:0:0:
252,191,112565,1,0,0:0:0:0:
252,191,112676,1,8,0:0:0:0:
252,191,112787,1,8,0:0:0:0:
252,191,112898,1,0,0:0:0:0:
252,191,113120,1,0,0:0:0:0:
252,191,113343,1,8,0:0:0:0:
252,191,113454,1,0,0:0:0:0:
252,191,113565,1,0,0:0:0:0:
252,191,113676,1,0,0:0:0:0:
252,191,113787,1,8,0:0:0:0:
252,191,114009,1,0,0:0:0:0:
252,191,114120,1,0,0:0:0:0:
252,191,114231,1,8,0:0:0:0:
252,191,114454,1,0,0:0:0:0:
252,191,114676,1,8,0:0:0:0:
252,191,115009,1,0,0:0:0:0:
252,191,115120,1,8,0:0:0:0:
252,191,115231,1,8,0:0:0:0:
252,191,115343,1,0,0:0:0:0:
252,191,115454,1,8,0:0:0:0:
252,191,115565,1,0,0:0:0:0:
252,191,115898,1,8,0:0:0:0:
252,191,116009,1,8,0:0:0:0:
252,191,116120,1,0,0:0:0:0:
252,191,116231,1,8,0:0:0:0:
252,191,116343,1,8,0:0:0:0:
252,191,116454,1,0,0:0:0:0:
252,191,116898,1,8,0:0:0:0:
252,191,117120,1,0,0:0:0:0:
252,191,117343,1,8,0:0:0:0:
204,190,117454,1,8,0:0:0:0:
204,190,117565,1,0,0:0:0:0:
204,190,117676,1,0,0:0:0:0:
204,190,117787,1,8,0:0:0:0:
204,190,117898,1,0,0:0:0:0:
204,190,118009,1,8,0:0:0:0:
204,190,118120,1,8,0:0:0:0:
204,190,118231,1,0,0:0:0:0:
204,190,118676,1,8,0:0:0:0:
204,190,118787,1,0,0:0:0:0:
204,190,118898,1,8,0:0:0:0:
204,190,119009,1,8,0:0:0:0:
204,190,119120,1,4,0:0:0:0:
254,189,119565,1,8,0:0:0:0:
254,189,119676,1,8,0:0:0:0:
254,189,119787,1,0,0:0:0:0:
254,189,119898,1,0,0:0:0:0:
254,189,120009,1,8,0:0:0:0:
254,189,120231,1,0,0:0:0:0:
254,189,120454,1,8,0:0:0:0:
254,189,120565,1,8,0:0:0:0:
254,189,120676,1,0,0:0:0:0:
254,189,120787,1,8,0:0:0:0:
254,189,120898,1,0,0:0:0:0:
254,189,121120,1,8,0:0:0:0:
254,189,121231,1,8,0:0:0:0:
254,189,121343,1,0,0:0:0:0:
254,189,121565,1,0,0:0:0:0:
254,189,121787,1,8,0:0:0:0:
254,189,122120,1,0,0:0:0:0:
254,189,122231,1,8,0:0:0:0:
254,189,122343,1,8,0:0:0:0:
254,189,122454,1,0,0:0:0:0:
254,189,122565,1,0,0:0:0:0:
254,189,122676,1,8,0:0:0:0:
254,189,123009,1,8,0:0:0:0:
254,189,123120,1,0,0:0:0:0:
254,189,123231,1,0,0:0:0:0:
254,189,123343,1,8,0:0:0:0:
251,218,123454,1,8,0:0:0:0:
254,189,123565,1,0,0:0:0:0:
251,218,124009,1,0,0:0:0:0:
251,218,124231,1,8,0:0:0:0:
251,218,124454,1,8,0:0:0:0:
227,198,124565,1,0,0:0:0:0:
227,198,124676,1,8,0:0:0:0:
227,198,124787,1,8,0:0:0:0:
227,198,124898,1,0,0:0:0:0:
227,198,125009,1,0,0:0:0:0:
227,198,125120,1,8,0:0:0:0:
227,198,125231,1,0,0:0:0:0:
227,198,125343,1,8,0:0:0:0:
242,200,125787,1,8,0:0:0:0:
243,200,125898,1,8,0:0:0:0:
242,200,126009,1,8,0:0:0:0:
242,200,126120,1,8,0:0:0:0:
242,200,126231,1,4,0:0:0:0:
255,172,126676,1,8,0:0:0:0:
255,172,126787,1,8,0:0:0:0:
255,172,126898,1,0,0:0:0:0:
255,172,127009,1,0,0:0:0:0:
255,172,127120,1,8,0:0:0:0:
255,172,127343,1,0,0:0:0:0:
255,172,127565,1,8,0:0:0:0:
255,172,127676,1,0,0:0:0:0:
255,172,127787,1,8,0:0:0:0:
255,172,127898,1,8,0:0:0:0:
255,172,128009,1,0,0:0:0:0:
255,172,128231,1,8,0:0:0:0:
255,172,128343,1,8,0:0:0:0:
255,172,128454,1,0,0:0:0:0:
255,172,128676,1,0,0:0:0:0:
255,172,128898,1,8,0:0:0:0:
255,172,129231,1,0,0:0:0:0:
255,172,129343,1,8,0:0:0:0:
255,172,129454,1,8,0:0:0:0:
255,172,129565,1,8,0:0:0:0:
255,172,129676,1,0,0:0:0:0:
255,172,129787,1,8,0:0:0:0:
255,172,130120,1,8,0:0:0:0:
255,172,130231,1,0,0:0:0:0:
255,172,130343,1,8,0:0:0:0:
255,172,130454,1,8,0:0:0:0:
255,172,130565,1,8,0:0:0:0:
255,172,130676,1,0,0:0:0:0:
256,181,131120,1,0,0:0:0:0:
256,181,131343,1,8,0:0:0:0:
256,181,131565,1,8,0:0:0:0:
256,181,131676,1,0,0:0:0:0:
256,182,131787,1,8,0:0:0:0:
256,182,131898,1,8,0:0:0:0:
256,181,132009,1,0,0:0:0:0:
256,181,132120,1,8,0:0:0:0:
256,181,132231,1,0,0:0:0:0:
256,181,132343,1,0,0:0:0:0:
256,181,132454,1,8,0:0:0:0:
256,182,132898,1,8,0:0:0:0:
256,181,133009,1,0,0:0:0:0:
256,181,133120,1,8,0:0:0:0:
256,181,133231,1,8,0:0:0:0:
256,181,133343,1,4,0:0:0:0:
256,182,133787,1,8,0:0:0:0:
256,182,133898,1,8,0:0:0:0:
256,181,134009,1,0,0:0:0:0:
256,181,134120,1,0,0:0:0:0:
256,181,134231,1,8,0:0:0:0:
256,182,134454,1,0,0:0:0:0:
256,182,134676,1,8,0:0:0:0:
256,182,134787,1,8,0:0:0:0:
256,182,134898,1,8,0:0:0:0:
256,181,135009,1,0,0:0:0:0:
256,181,135120,1,8,0:0:0:0:
256,182,135343,1,0,0:0:0:0:
256,182,135454,1,0,0:0:0:0:
256,182,135565,1,8,0:0:0:0:
256,182,135787,1,0,0:0:0:0:
256,181,136009,1,8,0:0:0:0:
256,182,136343,1,8,0:0:0:0:
256,182,136454,1,0,0:0:0:0:
256,182,136565,1,8,0:0:0:0:
256,182,136676,1,0,0:0:0:0:
256,182,136787,1,0,0:0:0:0:
256,181,136898,1,8,0:0:0:0:
256,182,137231,1,8,0:0:0:0:
256,182,137343,1,0,0:0:0:0:
256,182,137454,1,8,0:0:0:0:
256,182,137565,1,8,0:0:0:0:
256,182,137676,1,8,0:0:0:0:
256,182,137787,1,0,0:0:0:0:
256,182,138231,1,8,0:0:0:0:
256,182,138454,1,0,0:0:0:0:
256,182,138676,1,8,0:0:0:0:
256,182,138787,1,8,0:0:0:0:
256,182,138898,1,0,0:0:0:0:
256,182,139009,1,0,0:0:0:0:
256,182,139120,1,8,0:0:0:0:
256,182,139231,1,0,0:0:0:0:
256,182,139343,1,8,0:0:0:0:
256,182,139454,1,0,0:0:0:0:
256,182,139565,1,8,0:0:0:0:
256,182,140009,1,8,0:0:0:0:
256,182,140120,1,8,0:0:0:0:
256,182,140231,1,8,0:0:0:0:
256,182,140343,1,8,0:0:0:0:
256,182,140454,1,4,0:0:0:0:
256,182,140898,1,8,0:0:0:0:
256,182,141009,1,8,0:0:0:0:
256,182,141120,1,8,0:0:0:0:
256,182,141231,1,0,0:0:0:0:
256,182,141343,1,8,0:0:0:0:
256,182,141565,1,0,0:0:0:0:
256,182,141787,1,8,0:0:0:0:
256,182,141898,1,8,0:0:0:0:
256,182,142009,1,8,0:0:0:0:
256,182,142120,1,8,0:0:0:0:
256,182,142231,1,0,0:0:0:0:
256,182,142454,1,8,0:0:0:0:
256,182,142565,1,8,0:0:0:0:
256,182,142676,1,0,0:0:0:0:
256,182,142898,1,0,0:0:0:0:
256,182,143120,1,8,0:0:0:0:
256,182,143454,1,8,0:0:0:0:
256,182,143565,1,0,0:0:0:0:
256,182,143676,1,8,0:0:0:0:
256,182,143787,1,8,0:0:0:0:
256,182,143898,1,0,0:0:0:0:
256,182,144009,1,8,0:0:0:0:
256,182,144343,1,8,0:0:0:0:
256,182,144454,1,8,0:0:0:0:
256,182,144565,1,8,0:0:0:0:
256,182,144676,1,0,0:0:0:0:
256,182,144787,1,8,0:0:0:0:
256,182,144898,1,0,0:0:0:0:
256,182,145343,1,8,0:0:0:0:
256,182,145565,1,8,0:0:0:0:
256,182,145787,1,0,0:0:0:0:
256,182,146009,1,8,0:0:0:0:
256,182,146120,1,0,0:0:0:0:
256,182,146231,1,8,0:0:0:0:
256,182,146454,1,0,0:0:0:0:
256,182,146676,1,8,0:0:0:0:
256,182,146787,1,8,0:0:0:0:
256,182,146898,1,0,0:0:0:0:
256,182,147009,1,0,0:0:0:0:
256,182,147120,1,8,0:0:0:0:
256,182,147343,1,0,0:0:0:0:
256,182,147565,1,8,0:0:0:0:
256,182,147676,1,0,0:0:0:0:
256,182,147787,1,8,0:0:0:0:
256,182,147898,1,8,0:0:0:0:
256,182,148009,1,0,0:0:0:0:
256,182,148120,1,0,0:0:0:0:
256,182,148231,1,8,0:0:0:0:
256,182,148454,1,0,0:0:0:0:
256,182,148565,1,0,0:0:0:0:
256,182,148676,1,0,0:0:0:0:
256,182,148787,1,0,0:0:0:0:
256,182,148898,1,8,0:0:0:0:
256,182,149009,1,0,0:0:0:0:
256,182,149120,1,8,0:0:0:0:
256,182,149231,1,8,0:0:0:0:
256,182,149343,1,4,0:0:0:0:
256,168,151120,1,4,0:0:0:0:
258,161,151343,1,8,0:0:0:0:
258,161,151565,1,0,0:0:0:0:
258,162,151787,1,8,0:0:0:0:
217,143,151898,1,8,0:0:0:0:
258,161,152009,1,0,0:0:0:0:
258,161,152231,1,8,0:0:0:0:
243,172,152454,1,0,0:0:0:0:
243,171,152898,1,0,0:0:0:0:
242,169,153120,1,8,0:0:0:0:
236,170,153343,1,0,0:0:0:0:
236,170,153454,1,0,0:0:0:0:
243,171,153565,1,8,0:0:0:0:
243,171,153787,1,0,0:0:0:0:
242,169,154009,1,8,0:0:0:0:
243,171,154231,1,0,0:0:0:0:
143,154,154676,1,0,0:0:0:0:
229,153,154898,1,8,0:0:0:0:
229,153,155120,1,0,0:0:0:0:
229,153,155343,1,8,0:0:0:0:
229,153,155454,1,8,0:0:0:0:
229,153,155565,1,0,0:0:0:0:
229,153,155787,1,8,0:0:0:0:
229,153,156009,1,0,0:0:0:0:
124,162,156454,1,0,0:0:0:0:
223,163,156676,1,8,0:0:0:0:
223,163,156898,1,0,0:0:0:0:
236,170,157009,1,0,0:0:0:0:
223,162,157120,1,8,0:0:0:0:
223,163,157343,1,0,0:0:0:0:
223,163,157565,1,8,0:0:0:0:
236,145,157787,1,8,0:0:0:0:
236,145,157898,1,8,0:0:0:0:
191,135,158009,1,8,0:0:0:0:
236,145,158120,1,8,0:0:0:0:
192,141,158231,1,4,0:0:0:0:
256,192,158454,1,8,0:0:0:0:
256,192,158676,1,0,0:0:0:0:
256,192,158898,1,8,0:0:0:0:
256,192,159009,1,8,0:0:0:0:
256,192,159120,1,0,0:0:0:0:
256,192,159343,1,8,0:0:0:0:
256,192,159565,1,0,0:0:0:0:
256,192,160009,1,0,0:0:0:0:
256,192,160231,1,8,0:0:0:0:
256,192,160454,1,0,0:0:0:0:
256,192,160565,1,0,0:0:0:0:
256,192,160676,1,0,0:0:0:0:
256,192,160898,1,0,0:0:0:0:
256,192,161120,1,8,0:0:0:0:
256,192,161343,1,0,0:0:0:0:
224,201,161787,1,0,0:0:0:0:
224,201,162009,1,8,0:0:0:0:
224,201,162231,1,0,0:0:0:0:
224,201,162454,1,8,0:0:0:0:
224,201,162565,1,8,0:0:0:0:
224,201,162676,1,0,0:0:0:0:
230,201,162898,1,8,0:0:0:0:
230,201,163120,1,0,0:0:0:0:
230,201,163565,1,0,0:0:0:0:
230,201,163787,1,8,0:0:0:0:
230,201,164009,1,0,0:0:0:0:
230,201,164120,1,0,0:0:0:0:
230,201,164231,1,0,0:0:0:0:
230,201,164454,1,0,0:0:0:0:
230,201,164676,1,8,0:0:0:0:
230,201,164898,1,0,0:0:0:0:
230,201,165120,1,8,0:0:0:0:
230,201,165231,1,8,0:0:0:0:
230,201,165343,1,4,0:0:0:0:
246,197,165565,1,8,0:0:0:0:
246,197,165787,1,0,0:0:0:0:
246,197,166009,1,8,0:0:0:0:
246,196,166231,1,8,0:0:0:0:
246,197,166454,1,8,0:0:0:0:
246,197,166676,1,0,0:0:0:0:
246,196,167120,1,0,0:0:0:0:
246,197,167343,1,8,0:0:0:0:
246,197,167565,1,0,0:0:0:0:
246,196,167787,1,8,0:0:0:0:
246,196,168009,1,0,0:0:0:0:
246,197,168231,1,8,0:0:0:0:
246,197,168454,1,0,0:0:0:0:
246,196,168898,1,0,0:0:0:0:
246,197,169120,1,8,0:0:0:0:
246,197,169343,1,0,0:0:0:0:
246,196,169565,1,8,0:0:0:0:
246,196,169787,1,8,0:0:0:0:
246,197,170009,1,8,0:0:0:0:
246,197,170231,1,0,0:0:0:0:
246,196,170676,1,0,0:0:0:0:
246,197,170898,1,8,0:0:0:0:
246,197,171120,1,0,0:0:0:0:
246,196,171343,1,8,0:0:0:0:
246,196,171565,1,0,0:0:0:0:
246,197,171787,1,8,0:0:0:0:
246,197,172009,1,8,0:0:0:0:
219,144,172120,1,8,0:0:0:0:
219,144,172231,1,8,0:0:0:0:
219,144,172343,1,8,0:0:0:0:
219,144,172454,1,4,0:0:0:0:
242,189,172676,1,8,0:0:0:0:
242,189,172898,1,0,0:0:0:0:
254,171,173343,1,0,0:0:0:0:
254,171,173565,1,8,0:0:0:0:
254,171,173787,1,0,0:0:0:0:
240,167,174231,1,0,0:0:0:0:
240,167,174454,1,8,0:0:0:0:
240,167,174676,1,0,0:0:0:0:
240,167,175120,1,0,0:0:0:0:
240,167,175343,1,8,0:0:0:0:
240,167,175565,1,0,0:0:0:0:
216,145,176009,1,8,0:0:0:0:
223,158,176231,1,8,0:0:0:0:
233,174,176454,1,0,0:0:0:0:
233,174,176676,1,0,0:0:0:0:
233,174,176898,1,8,0:0:0:0:
233,174,177120,1,8,0:0:0:0:
233,174,177343,1,0,0:0:0:0:
233,174,177565,1,0,0:0:0:0:
233,174,177787,1,8,0:0:0:0:
233,174,177898,1,8,0:0:0:0:
233,174,178009,1,0,0:0:0:0:
233,174,178120,1,0,0:0:0:0:
233,174,178231,1,8,0:0:0:0:
233,174,178454,1,8,0:0:0:0:
233,174,178676,1,0,0:0:0:0:
233,174,178787,1,0,0:0:0:0:
233,174,178898,1,0,0:0:0:0:
233,174,179009,1,0,0:0:0:0:
233,174,179120,1,8,0:0:0:0:
233,174,179231,1,8,0:0:0:0:
233,174,179343,1,8,0:0:0:0:
233,174,179454,1,8,0:0:0:0:
233,174,179565,1,4,0:0:0:0:
