osu file format v14

[General]
AudioFilename: audio.mp3
AudioLeadIn: 0
PreviewTime:90079
Countdown: 0
SampleSet: Normal
StackLeniency: 0.7
Mode: 1
LetterboxInBreaks: 0
WidescreenStoryboard: 1

[Editor]
DistanceSpacing: 2
BeatDivisor: 4
GridSize: 32
TimelineZoom: 4.299995

[Metadata]
Title:BLUE ARMY (Raytoly's Progressive Hardcore Sped Up Edit)
TitleUnicode:BLUE ARMY (Raytoly's Progressive Hardcore Sped Up Edit)
Artist:DJ SHARPNEL
ArtistUnicode:DJ SHARPNEL
Creator:Hivie
Version:COBALT
Source:
Tags:kyex rinze ler1211 chromb Mad Breaks SHARPNELSOUND Edition Bootleg UK Happy Nightcore Speed J-Core House Electronic Japanese loctek
BeatmapID:3907988
BeatmapSetID:1895673

[Difficulty]
HPDrainRate:4.5
CircleSize:2
OverallDifficulty:7.5
ApproachRate:10
SliderMultiplier:1.4
SliderTickRate:1

[Events]
//Background and Video events
0,0,"bg.jpg",0,130
//Break Periods
//Storyboard Layer 0 (Background)
//Storyboard Layer 1 (Fail)
//Storyboard Layer 2 (Pass)
//Storyboard Layer 3 (Foreground)
//Storyboard Layer 4 (Overlay)
//Storyboard Sound Samples

[TimingPoints]
302,222.222222222222,4,1,0,90,1,0
524,-111.111111111111,4,1,0,90,0,0
7413,-100,4,1,0,90,0,0
7635,-111.111111111111,4,1,0,90,0,0
14524,-95.2380952380952,4,1,0,90,0,0
14746,-105.263157894737,4,1,0,90,0,0
21635,-100,4,1,0,90,0,0
28746,444.444444444444,4,1,0,90,1,0
28746,-50,4,1,0,90,0,0
28801,-16.6666666666667,4,1,0,45,0,0
30523,-125,4,1,0,45,0,0
37187,-111.125,4,1,0,45,0,0
37298,-108.124543906592,4,1,0,45,0,0
37409,-105.281856939839,4,1,0,45,0,0
37520,-102.584814216478,4,1,0,45,0,0
37634,-100,4,1,0,45,0,8
37635,222.222222222222,4,1,0,45,1,8
37635,-200,4,1,0,45,0,0
37854,-196.49455234486,4,1,0,45,0,0
38076,-193.109869646183,4,1,0,45,0,0
38520,-186.678667866787,4,1,0,45,0,0
38854,-182.116200790282,4,1,0,45,0,0
38965,-180.648907599623,4,1,0,45,0,0
39187,-177.784127437674,4,1,0,45,0,0
39409,-175.008789817875,4,1,0,45,0,0
39632,-172.306840210468,4,1,0,45,0,0
39743,-170.992785984198,4,1,0,45,0,0
39854,-169.698622664667,4,1,0,45,0,0
40076,-167.168189145621,4,1,0,45,0,0
40187,-165.931062070805,4,1,0,45,0,0
40298,-164.712111184646,4,1,0,45,0,0
40632,-161.149961149961,4,1,0,45,0,0
40743,-160,4,1,0,45,0,0
40965,-157.748621410915,4,1,0,45,0,0
41187,-155.559722482655,4,1,0,45,0,0
41520,-152.387950036738,4,1,0,45,0,0
41632,-151.350036487473,4,1,0,45,0,0
41854,-149.333973358934,4,1,0,45,0,0
42076,-147.370914258645,4,1,0,45,0,0
42409,-144.521224086871,4,1,0,45,0,0
42520,-143.595661204708,4,1,0,45,0,0
42743,-141.771575049843,4,1,0,45,0,0
42965,-140.001125049221,4,1,0,45,0,0
43187,-138.274348574921,4,1,0,45,0,0
43298,-137.426836002209,4,1,0,45,0,0
43409,-136.589649305746,4,1,0,45,0,0
43632,-134.938191281718,4,1,0,45,0,0
43743,-134.13096200485,4,1,0,45,0,0
43854,-133.333333333333,4,1,0,45,0,0
44726,-100,4,1,0,90,0,0
44837,-166.666666666667,4,1,0,90,0,0
51837,-100,4,1,0,90,0,0
51948,-153.846153846154,4,1,0,90,0,0
55393,-142.857142857143,4,1,0,90,0,0
57187,-125,4,1,0,90,0,0
57298,-124.032089291943,4,1,0,90,0,0
57409,-123.079053025059,4,1,0,90,0,0
57520,-122.140550937693,4,1,0,90,0,0
57632,-121.207989638012,4,1,0,90,0,0
57743,-120.297699594046,4,1,0,90,0,0
57854,-119.400980457995,4,1,0,90,0,0
57965,-118.517530995867,4,1,0,90,0,0
58076,-117.647058823529,4,1,0,90,0,0
58187,-116.789280084078,4,1,0,90,0,0
58298,-115.943919139224,4,1,0,90,0,0
58409,-115.110708273987,4,1,0,90,0,0
58520,-114.289387414026,4,1,0,90,0,0
58632,-113.47246154828,4,1,0,90,0,0
58743,-112.674271229404,4,1,0,90,0,0
58854,-111.887231766409,4,1,0,90,0,0
58965,-111.111111111111,4,1,0,90,0,0
59076,-110.345683609508,4,1,0,90,0,0
59187,-109.590729783037,4,1,0,90,0,0
59298,-108.846036118763,4,1,0,90,0,0
59409,-108.111394868053,4,1,0,90,0,0
59520,-107.386603853355,4,1,0,90,0,0
59632,-106.665066890635,4,1,0,90,0,0
59743,-105.95947556615,4,1,0,90,0,0
59854,-105.263157894737,4,1,0,90,0,0
59965,-104.575932243265,4,1,0,90,0,0
60076,-103.897621691112,4,1,0,90,0,0
60187,-103.228053878309,4,1,0,90,0,0
60298,-102.567060859533,4,1,0,90,0,0
60409,-101.914478963659,4,1,0,90,0,0
60520,-101.270148658655,4,1,0,90,0,0
60632,-100.628218914483,4,1,0,90,0,0
60743,-100,4,1,0,90,0,0
63393,-181.818181818182,4,1,0,90,0,0
69523,-166.666666666667,4,1,0,90,0,0
77187,-170.451058606935,4,1,0,90,0,0
77631,-174.411302982732,4,1,0,90,0,0
78076,-178.56951513528,4,1,0,90,0,0
78520,-182.920805663795,4,1,0,90,0,0
78965,-187.5,4,1,0,90,0,0
79409,-192.303254096469,4,1,0,90,0,0
79854,-197.370758571682,4,1,0,90,0,0
80298,-202.700237182996,4,1,0,90,0,0
80743,-208.33854231779,4,1,0,90,0,0
81187,-214.285714285714,4,1,0,90,0,0
81632,-220.596995168443,4,1,0,90,0,0
82076,-227.2758267985,4,1,0,90,0,0
82520,-234.371703818297,4,1,0,90,0,0
82965,-241.942508710801,4,1,0,90,0,0
83409,-250,4,1,0,90,0,0
83837,-166.666666666667,4,1,0,90,0,0
84076,-162.166271361674,4,1,0,90,0,0
84298,-157.902528572275,4,1,0,90,0,0
84520,-153.857250014425,4,1,0,90,0,0
84743,-149.997187376948,4,1,0,90,0,0
84965,-146.342132704023,4,1,0,90,0,0
85187,-142.86096972944,4,1,0,90,0,0
85409,-139.541577267256,4,1,0,90,0,0
85632,-136.358987471235,4,1,0,90,0,0
85854,-133.331666583329,4,1,0,90,0,0
86076,-130.435846010859,4,1,0,90,0,0
86298,-127.663139751999,4,1,0,90,0,0
86520,-125.005860015939,4,1,0,90,0,0
86743,-122.445699591312,4,1,0,90,0,0
86965,-119.999099950497,4,1,0,90,0,0
87187,-117.648356496801,4,1,0,90,0,0
87409,-115.387944091047,4,1,0,90,0,0
87520,-114.290000428614,4,1,0,90,0,0
87632,-113.203141583528,4,1,0,90,0,0
87743,-112.146191697859,4,1,0,90,0,0
87854,-111.108796199842,4,1,0,90,0,0
87965,-110.090417406383,4,1,0,90,0,0
88076,-109.090537168105,4,1,0,90,0,0
88187,-108.10865599027,4,1,0,90,0,0
88298,-107.144292200747,4,1,0,90,0,0
88409,-106.196981162133,4,1,0,90,0,0
88520,-105.266274525285,4,1,0,90,0,0
88632,-104.343572686363,4,1,0,90,0,0
88743,-103.444931528106,4,1,0,90,0,0
88854,-102.561636986038,4,1,0,90,0,0
88965,-101.693299263949,4,1,0,90,0,0
89076,-100.839541655637,4,1,0,90,0,0
89187,-100,4,1,0,90,0,0
90523,-108.695652173913,4,1,0,90,0,0
90634,-106.382978723404,4,1,0,90,0,0
90746,-104.166666666667,4,1,0,90,0,0
90857,-102.040816326531,4,1,0,90,0,0
90968,-100,4,1,0,100,0,1
149634,-100,4,1,0,100,0,0
151412,-100,4,1,0,100,0,0
151504,-111.111111111111,4,1,0,90,0,0
165726,-117.647058823529,4,1,0,90,0,0
172837,-125,4,1,0,90,0,0
176520,-122.451790633609,4,1,0,90,0,0
176632,-121.205235411743,4,1,0,90,0,0
176743,-119.994600917844,4,1,0,90,0,0
176854,-118.807911617962,4,1,0,90,0,0
176965,-117.644464049404,4,1,0,90,0,0
177187,-115.384615384615,4,1,0,90,0,0
177298,-114.286938635584,4,1,0,90,0,0
177409,-113.209949910858,4,1,0,90,0,0
177520,-112.15306980656,4,1,0,90,0,0
177576,-111.62732295329,4,1,0,90,0,0
177632,-111.106482252958,4,1,0,90,0,0
177687,-110.59965165464,4,1,0,90,0,0
177743,-110.088334846859,4,1,0,90,0,0
177854,-109.088678010471,4,1,0,90,0,0
178076,-107.142857142857,4,1,0,90,0,0
178187,-106.195747391893,4,1,0,90,0,0
178298,-105.265235238396,4,1,0,90,0,0
178409,-104.350888175914,4,1,0,90,0,0
178520,-103.452288595811,4,1,0,90,0,0
178632,-102.561144439317,4,1,0,90,0,0
178743,-101.692976435598,4,1,0,90,0,0
178854,-100.839382940109,4,1,0,90,0,0
178965,-100,4,1,0,90,0,0

[HitObjects]
256,192,302,5,4,0:0:0:0:
256,192,524,1,8,0:0:0:0:
256,192,635,1,0,0:0:0:0:
256,192,690,1,0,0:0:0:0:
256,192,746,1,8,0:0:0:0:
256,192,857,1,0,0:0:0:0:
256,192,968,1,8,0:0:0:0:
256,192,1024,1,0,0:0:0:0:
256,192,1079,1,8,0:0:0:0:
256,192,1190,1,0,0:0:0:0:
256,192,1413,1,8,0:0:0:0:
256,192,1635,1,0,0:0:0:0:
256,192,1746,1,0,0:0:0:0:
256,192,1857,1,8,0:0:0:0:
256,192,1968,1,0,0:0:0:0:
256,192,2079,1,8,0:0:0:0:
256,192,2135,1,8,0:0:0:0:
256,192,2190,1,0,0:0:0:0:
256,192,2246,1,0,0:0:0:0:
256,192,2301,1,8,0:0:0:0:
256,192,2413,1,0,0:0:0:0:
256,192,2524,1,8,0:0:0:0:
256,192,2579,1,8,0:0:0:0:
256,192,2635,1,0,0:0:0:0:
256,192,2746,1,8,0:0:0:0:
256,192,2857,1,8,0:0:0:0:
256,192,2968,1,0,0:0:0:0:
256,192,3190,1,8,0:0:0:0:
256,192,3413,1,0,0:0:0:0:
256,192,3524,1,0,0:0:0:0:
256,192,3635,1,8,0:0:0:0:
256,192,3746,1,8,0:0:0:0:
256,192,3857,1,0,0:0:0:0:
256,192,3913,1,0,0:0:0:0:
256,192,3968,1,0,0:0:0:0:
256,192,4079,1,8,0:0:0:0:
256,192,4190,1,0,0:0:0:0:
256,192,4301,1,8,0:0:0:0:
256,192,4357,1,8,0:0:0:0:
256,192,4413,1,0,0:0:0:0:
256,192,4468,1,8,0:0:0:0:
256,192,4524,1,0,0:0:0:0:
256,192,4635,1,8,0:0:0:0:
256,192,4746,1,0,0:0:0:0:
256,192,4968,1,8,0:0:0:0:
256,192,5190,1,0,0:0:0:0:
256,192,5301,1,0,0:0:0:0:
256,192,5413,1,8,0:0:0:0:
256,192,5524,1,0,0:0:0:0:
256,192,5635,1,8,0:0:0:0:
256,192,5690,1,0,0:0:0:0:
256,192,5746,1,0,0:0:0:0:
256,192,5801,1,0,0:0:0:0:
256,192,5857,1,8,0:0:0:0:
256,192,5968,1,0,0:0:0:0:
256,192,6079,1,8,0:0:0:0:
256,192,6135,1,8,0:0:0:0:
256,192,6190,1,0,0:0:0:0:
256,192,6301,1,8,0:0:0:0:
256,192,6413,1,8,0:0:0:0:
256,192,6524,1,0,0:0:0:0:
256,192,6746,1,8,0:0:0:0:
256,192,6968,1,0,0:0:0:0:
256,192,7079,1,0,0:0:0:0:
256,192,7190,1,8,0:0:0:0:
256,192,7301,1,8,0:0:0:0:
256,192,7413,1,4,0:0:0:0:
256,192,7635,1,8,0:0:0:0:
256,192,7746,1,0,0:0:0:0:
256,192,7801,1,0,0:0:0:0:
256,192,7857,1,8,0:0:0:0:
256,192,7913,1,8,0:0:0:0:
256,192,7968,1,0,0:0:0:0:
256,192,8079,1,8,0:0:0:0:
256,192,8190,1,8,0:0:0:0:
256,192,8301,1,0,0:0:0:0:
256,192,8524,1,8,0:0:0:0:
256,192,8746,1,0,0:0:0:0:
256,192,8857,1,0,0:0:0:0:
256,192,8968,1,8,0:0:0:0:
256,192,9079,1,0,0:0:0:0:
256,192,9190,1,8,0:0:0:0:
256,192,9246,1,8,0:0:0:0:
256,192,9301,1,0,0:0:0:0:
256,192,9357,1,0,0:0:0:0:
256,192,9413,1,8,0:0:0:0:
256,192,9524,1,0,0:0:0:0:
256,192,9635,1,8,0:0:0:0:
256,192,9690,1,0,0:0:0:0:
256,192,9746,1,0,0:0:0:0:
256,192,9857,1,8,0:0:0:0:
256,192,9968,1,8,0:0:0:0:
256,192,10079,1,0,0:0:0:0:
256,192,10301,1,8,0:0:0:0:
256,192,10524,1,0,0:0:0:0:
256,192,10635,1,0,0:0:0:0:
256,192,10746,1,8,0:0:0:0:
256,192,10857,1,8,0:0:0:0:
256,192,10968,1,0,0:0:0:0:
256,192,11024,1,0,0:0:0:0:
256,192,11079,1,8,0:0:0:0:
256,192,11135,1,8,0:0:0:0:
256,192,11190,1,0,0:0:0:0:
256,192,11301,1,8,0:0:0:0:
256,192,11413,1,0,0:0:0:0:
256,192,11468,1,0,0:0:0:0:
256,192,11524,1,0,0:0:0:0:
256,192,11635,1,8,0:0:0:0:
256,192,11746,1,8,0:0:0:0:
256,192,11857,1,0,0:0:0:0:
256,192,12079,1,8,0:0:0:0:
256,192,12301,1,0,0:0:0:0:
256,192,12413,1,0,0:0:0:0:
256,192,12524,1,8,0:0:0:0:
256,192,12635,1,0,0:0:0:0:
256,192,12746,1,8,0:0:0:0:
256,192,12801,1,8,0:0:0:0:
256,192,12857,1,0,0:0:0:0:
256,192,12968,1,8,0:0:0:0:
256,192,13079,1,0,0:0:0:0:
256,192,13135,1,0,0:0:0:0:
256,192,13190,1,8,0:0:0:0:
256,192,13301,1,0,0:0:0:0:
256,192,13413,1,8,0:0:0:0:
256,192,13468,1,0,0:0:0:0:
256,192,13524,1,8,0:0:0:0:
256,192,13635,1,0,0:0:0:0:
256,192,13857,1,8,0:0:0:0:
256,192,14079,1,0,0:0:0:0:
256,192,14190,1,0,0:0:0:0:
256,192,14301,1,8,0:0:0:0:
256,192,14413,1,8,0:0:0:0:
256,192,14524,1,4,0:0:0:0:
256,192,14746,1,8,0:0:0:0:
256,192,14857,1,0,0:0:0:0:
256,192,14968,1,8,0:0:0:0:
256,192,15024,1,8,0:0:0:0:
256,192,15079,1,0,0:0:0:0:
256,192,15190,1,8,0:0:0:0:
256,192,15301,1,0,0:0:0:0:
256,192,15357,1,0,0:0:0:0:
256,192,15413,1,8,0:0:0:0:
256,192,15524,1,0,0:0:0:0:
256,192,15635,1,8,0:0:0:0:
256,192,15746,1,0,0:0:0:0:
256,192,15801,1,0,0:0:0:0:
256,192,15857,1,8,0:0:0:0:
256,192,15913,1,8,0:0:0:0:
256,192,15968,1,0,0:0:0:0:
256,192,16079,1,8,0:0:0:0:
256,192,16301,1,0,0:0:0:0:
256,192,16357,1,0,0:0:0:0:
256,192,16413,1,0,0:0:0:0:
256,192,16524,1,8,0:0:0:0:
256,192,16635,1,0,0:0:0:0:
256,192,16690,1,0,0:0:0:0:
256,192,16746,1,8,0:0:0:0:
256,192,16857,1,0,0:0:0:0:
256,192,16968,1,8,0:0:0:0:
256,192,17024,1,8,0:0:0:0:
256,192,17079,1,8,0:0:0:0:
256,192,17135,1,8,0:0:0:0:
256,192,17190,1,0,0:0:0:0:
256,192,17301,1,8,0:0:0:0:
256,192,17413,1,0,0:0:0:0:
256,192,17468,1,0,0:0:0:0:
256,192,17524,1,0,0:0:0:0:
256,192,17635,1,8,0:0:0:0:
256,192,17746,1,0,0:0:0:0:
256,192,17857,1,8,0:0:0:0:
256,192,18079,1,0,0:0:0:0:
256,192,18135,1,8,0:0:0:0:
256,192,18190,1,0,0:0:0:0:
256,192,18301,1,8,0:0:0:0:
256,192,18413,1,0,0:0:0:0:
256,192,18524,1,8,0:0:0:0:
256,192,18579,1,8,0:0:0:0:
256,192,18635,1,0,0:0:0:0:
256,192,18690,1,0,0:0:0:0:
256,192,18746,1,8,0:0:0:0:
256,192,18857,1,0,0:0:0:0:
256,192,18968,1,8,0:0:0:0:
256,192,19079,1,0,0:0:0:0:
256,192,19135,1,0,0:0:0:0:
256,192,19190,1,8,0:0:0:0:
256,192,19246,1,8,0:0:0:0:
256,192,19301,1,0,0:0:0:0:
256,192,19413,1,8,0:0:0:0:
256,192,19524,1,0,0:0:0:0:
256,192,19579,1,0,0:0:0:0:
256,192,19635,1,8,0:0:0:0:
256,192,19857,1,8,0:0:0:0:
256,192,19913,1,8,0:0:0:0:
256,192,19968,1,8,0:0:0:0:
256,192,20079,1,0,0:0:0:0:
256,192,20190,1,8,0:0:0:0:
256,192,20246,1,8,0:0:0:0:
256,192,20301,1,0,0:0:0:0:
256,192,20413,1,8,0:0:0:0:
256,192,20524,1,0,0:0:0:0:
256,192,20635,1,8,0:0:0:0:
256,192,20746,1,0,0:0:0:0:
256,192,20801,1,8,0:0:0:0:
256,192,20857,1,0,0:0:0:0:
256,192,20913,1,0,0:0:0:0:
256,192,20968,1,8,0:0:0:0:
256,192,21079,1,0,0:0:0:0:
256,192,21190,1,8,0:0:0:0:
256,192,21246,1,8,0:0:0:0:
256,192,21301,1,0,0:0:0:0:
256,192,21357,1,0,0:0:0:0:
256,192,21413,1,8,0:0:0:0:
256,192,21524,1,0,0:0:0:0:
256,192,21635,1,12,0:0:0:0:
256,192,21857,1,8,0:0:0:0:
256,192,21913,1,8,0:0:0:0:
256,192,21968,1,0,0:0:0:0:
256,192,22024,1,0,0:0:0:0:
256,192,22079,1,8,0:0:0:0:
256,192,22190,1,0,0:0:0:0:
256,192,22301,1,8,0:0:0:0:
256,192,22357,1,8,0:0:0:0:
256,192,22413,1,0,0:0:0:0:
256,192,22524,1,8,0:0:0:0:
256,192,22635,1,0,0:0:0:0:
256,192,22690,1,0,0:0:0:0:
256,192,22746,1,8,0:0:0:0:
256,192,22801,1,0,0:0:0:0:
256,192,22857,1,8,0:0:0:0:
256,192,22913,1,8,0:0:0:0:
256,192,22968,1,0,0:0:0:0:
256,192,23079,1,8,0:0:0:0:
256,192,23190,1,0,0:0:0:0:
256,192,23246,1,0,0:0:0:0:
256,192,23301,1,8,0:0:0:0:
256,192,23357,1,8,0:0:0:0:
256,192,23413,1,0,0:0:0:0:
256,192,23635,1,8,0:0:0:0:
256,192,23746,1,0,0:0:0:0:
256,192,23801,1,0,0:0:0:0:
256,192,23857,1,8,0:0:0:0:
256,192,23968,1,0,0:0:0:0:
256,192,24079,1,8,0:0:0:0:
256,192,24135,1,0,0:0:0:0:
256,192,24190,1,8,0:0:0:0:
256,192,24246,1,8,0:0:0:0:
256,192,24301,1,0,0:0:0:0:
256,192,24413,1,8,0:0:0:0:
256,192,24524,1,0,0:0:0:0:
256,192,24579,1,0,0:0:0:0:
256,192,24635,1,8,0:0:0:0:
256,192,24690,1,8,0:0:0:0:
256,192,24746,1,0,0:0:0:0:
256,192,24857,1,8,0:0:0:0:
256,192,24968,1,0,0:0:0:0:
256,192,25024,1,0,0:0:0:0:
256,192,25079,1,0,0:0:0:0:
256,192,25135,1,0,0:0:0:0:
256,192,25190,1,8,0:0:0:0:
256,192,25413,1,8,0:0:0:0:
256,192,25524,1,0,0:0:0:0:
256,192,25579,1,0,0:0:0:0:
256,192,25635,1,8,0:0:0:0:
256,192,25690,1,0,0:0:0:0:
256,192,25746,1,8,0:0:0:0:
256,192,25857,1,0,0:0:0:0:
256,192,25968,1,8,0:0:0:0:
256,192,26024,1,8,0:0:0:0:
256,192,26079,1,0,0:0:0:0:
256,192,26190,1,0,0:0:0:0:
256,192,26301,1,8,0:0:0:0:
256,192,26357,1,0,0:0:0:0:
256,192,26413,1,8,0:0:0:0:
256,192,26468,1,8,0:0:0:0:
256,192,26524,1,0,0:0:0:0:
256,192,26635,1,8,0:0:0:0:
256,192,26690,1,8,0:0:0:0:
256,192,26746,1,8,0:0:0:0:
256,192,26857,1,0,0:0:0:0:
256,192,26968,1,8,0:0:0:0:
256,192,27079,1,0,0:0:0:0:
256,192,27135,1,0,0:0:0:0:
256,192,27190,1,8,0:0:0:0:
256,192,27301,1,0,0:0:0:0:
256,192,27413,1,8,0:0:0:0:
256,192,27468,1,8,0:0:0:0:
256,192,27524,1,0,0:0:0:0:
256,192,27579,1,0,0:0:0:0:
256,192,27635,1,8,0:0:0:0:
256,192,27746,1,8,0:0:0:0:
256,192,27857,1,0,0:0:0:0:
256,192,27913,1,0,0:0:0:0:
256,192,27968,1,8,0:0:0:0:
256,192,28024,1,0,0:0:0:0:
256,192,28079,1,8,0:0:0:0:
256,192,28135,1,8,0:0:0:0:
256,192,28190,1,0,0:0:0:0:
256,192,28301,1,8,0:0:0:0:
256,192,28357,1,8,0:0:0:0:
256,192,28413,1,8,0:0:0:0:
256,192,28468,1,8,0:0:0:0:
256,192,28524,1,0,0:0:0:0:
256,192,28579,1,0,0:0:0:0:
256,192,28635,1,8,0:0:0:0:
256,192,28690,1,8,0:0:0:0:
256,192,28746,1,0,0:0:0:0:
256,192,28801,12,0,30301,0:0:0:0:
256,192,30523,5,8,0:0:0:0:
256,192,32301,1,0,0:0:0:0:
256,192,34079,1,8,0:0:0:0:
256,192,35857,1,0,0:0:0:0:
256,192,36745,1,8,0:0:0:0:
256,192,37190,1,8,0:0:0:0:
256,192,37301,1,8,0:0:0:0:
256,192,37412,1,8,0:0:0:0:
256,192,37523,1,8,0:0:0:0:
256,192,37635,1,0,0:0:0:0:
256,192,37857,1,0,0:0:0:0:
256,192,38079,1,8,0:0:0:0:
256,192,38523,1,0,0:0:0:0:
256,192,38857,1,0,0:0:0:0:
256,192,38968,1,8,0:0:0:0:
256,192,39190,1,0,0:0:0:0:
256,192,39412,1,0,0:0:0:0:
256,192,39635,1,0,0:0:0:0:
256,192,39746,1,0,0:0:0:0:
256,192,39857,1,8,0:0:0:0:
256,192,40079,1,0,0:0:0:0:
256,192,40190,1,8,0:0:0:0:
256,192,40301,1,0,0:0:0:0:
256,192,40635,1,0,0:0:0:0:
256,192,40746,1,8,0:0:0:0:
256,192,40968,1,0,0:0:0:0:
256,192,41190,1,0,0:0:0:0:
256,192,41523,1,0,0:0:0:0:
256,192,41634,1,8,0:0:0:0:
256,192,41857,1,0,0:0:0:0:
256,192,42079,1,0,0:0:0:0:
256,192,42412,1,0,0:0:0:0:
256,192,42523,1,8,0:0:0:0:
256,192,42746,1,8,0:0:0:0:
256,192,42968,1,0,0:0:0:0:
256,192,43190,1,0,0:0:0:0:
256,192,43301,1,0,0:0:0:0:
256,192,43412,1,8,0:0:0:0:
256,192,43634,1,0,0:0:0:0:
256,192,43746,1,0,0:0:0:0:
256,192,43857,12,0,44523,0:0:0:0:
256,192,44746,5,12,0:0:0:0:
256,192,44968,1,0,0:0:0:0:
256,192,45079,1,0,0:0:0:0:
256,192,45190,1,8,0:0:0:0:
256,192,45412,1,8,0:0:0:0:
256,192,45634,1,0,0:0:0:0:
256,192,45746,1,0,0:0:0:0:
256,192,45968,1,0,0:0:0:0:
256,192,46079,1,8,0:0:0:0:
256,192,46301,1,0,0:0:0:0:
256,192,46523,1,8,0:0:0:0:
256,192,46746,1,0,0:0:0:0:
256,192,46857,1,0,0:0:0:0:
256,192,46968,1,8,0:0:0:0:
256,192,47190,1,0,0:0:0:0:
256,192,47301,1,8,0:0:0:0:
256,192,47412,1,0,0:0:0:0:
256,192,47523,1,0,0:0:0:0:
256,192,47746,1,0,0:0:0:0:
256,192,47857,1,8,0:0:0:0:
256,192,47968,1,0,0:0:0:0:
256,192,48079,1,8,0:0:0:0:
256,192,48301,1,0,0:0:0:0:
256,192,48523,1,0,0:0:0:0:
256,192,48634,1,0,0:0:0:0:
256,192,48746,1,8,0:0:0:0:
256,192,48968,1,0,0:0:0:0:
256,192,49190,1,0,0:0:0:0:
256,192,49301,1,0,0:0:0:0:
256,192,49523,1,0,0:0:0:0:
256,192,49634,1,8,0:0:0:0:
256,192,49857,1,8,0:0:0:0:
256,192,50079,1,0,0:0:0:0:
256,192,50301,1,0,0:0:0:0:
256,192,50412,1,0,0:0:0:0:
256,192,50523,1,8,0:0:0:0:
256,192,50746,1,0,0:0:0:0:
256,192,50857,1,0,0:0:0:0:
256,192,50968,1,8,0:0:0:0:
256,192,51079,1,0,0:0:0:0:
256,192,51301,1,0,0:0:0:0:
256,192,51412,1,8,0:0:0:0:
256,192,51634,1,0,0:0:0:0:
256,192,51857,1,12,0:0:0:0:
256,192,52079,1,0,0:0:0:0:
256,192,52190,1,0,0:0:0:0:
256,192,52301,1,8,0:0:0:0:
256,192,52523,1,0,0:0:0:0:
256,192,52746,1,8,0:0:0:0:
256,192,52857,1,0,0:0:0:0:
256,192,53079,1,0,0:0:0:0:
256,192,53190,1,8,0:0:0:0:
256,192,53412,1,0,0:0:0:0:
256,192,53634,1,8,0:0:0:0:
256,192,53746,1,8,0:0:0:0:
256,192,53857,1,0,0:0:0:0:
256,192,53968,1,0,0:0:0:0:
256,192,54079,1,8,0:0:0:0:
256,192,54301,1,0,0:0:0:0:
256,192,54412,1,0,0:0:0:0:
256,192,54523,1,8,0:0:0:0:
256,192,54634,1,0,0:0:0:0:
256,192,54857,1,0,0:0:0:0:
256,192,54968,1,8,0:0:0:0:
256,192,55190,1,0,0:0:0:0:
256,192,55412,1,8,0:0:0:0:
256,192,55634,1,8,0:0:0:0:
256,192,55746,1,0,0:0:0:0:
256,192,55857,1,8,0:0:0:0:
256,192,56079,1,8,0:0:0:0:
256,192,56301,1,8,0:0:0:0:
256,192,56412,1,0,0:0:0:0:
256,192,56523,1,8,0:0:0:0:
256,192,56634,1,0,0:0:0:0:
256,192,56746,1,8,0:0:0:0:
256,192,56968,1,8,0:0:0:0:
256,192,57190,1,12,0:0:0:0:
256,192,57301,1,0,0:0:0:0:
256,192,57412,1,0,0:0:0:0:
256,192,57523,1,0,0:0:0:0:
256,192,57634,1,8,0:0:0:0:
256,192,57746,1,0,0:0:0:0:
256,192,57857,1,0,0:0:0:0:
256,192,57968,1,0,0:0:0:0:
256,192,58079,1,8,0:0:0:0:
256,192,58190,1,0,0:0:0:0:
256,192,58301,1,0,0:0:0:0:
256,192,58412,1,0,0:0:0:0:
256,192,58523,1,8,0:0:0:0:
256,192,58634,1,0,0:0:0:0:
256,192,58746,1,0,0:0:0:0:
256,192,58857,1,0,0:0:0:0:
256,192,58968,1,12,0:0:0:0:
256,192,59079,1,0,0:0:0:0:
256,192,59190,1,8,0:0:0:0:
256,192,59301,1,0,0:0:0:0:
256,192,59412,1,8,0:0:0:0:
256,192,59523,1,0,0:0:0:0:
256,192,59634,1,8,0:0:0:0:
256,192,59746,1,8,0:0:0:0:
256,192,59857,1,0,0:0:0:0:
256,192,59968,1,0,0:0:0:0:
256,192,60079,1,8,0:0:0:0:
256,192,60190,1,0,0:0:0:0:
256,192,60301,1,8,0:0:0:0:
256,192,60412,1,0,0:0:0:0:
256,192,60523,1,8,0:0:0:0:
256,192,60634,1,8,0:0:0:0:
256,192,60746,1,0,0:0:0:0:
256,192,60801,1,0,0:0:0:0:
256,192,60857,1,8,0:0:0:0:
256,192,60912,1,0,0:0:0:0:
256,192,60968,1,8,0:0:0:0:
256,192,61023,1,8,0:0:0:0:
256,192,61079,1,0,0:0:0:0:
256,192,61190,1,8,0:0:0:0:
256,192,61246,1,8,0:0:0:0:
256,192,61301,1,8,0:0:0:0:
256,192,61412,1,0,0:0:0:0:
256,192,61468,1,0,0:0:0:0:
256,192,61523,1,8,0:0:0:0:
256,192,61634,1,0,0:0:0:0:
256,192,61690,1,0,0:0:0:0:
256,192,61746,1,8,0:0:0:0:
256,192,61801,1,0,0:0:0:0:
256,192,61857,1,8,0:0:0:0:
256,192,61912,1,8,0:0:0:0:
256,192,61968,1,0,0:0:0:0:
256,192,62079,1,8,0:0:0:0:
256,192,62134,1,8,0:0:0:0:
256,192,62190,1,0,0:0:0:0:
256,192,62246,1,0,0:0:0:0:
256,192,62301,1,8,0:0:0:0:
256,192,62357,1,8,0:0:0:0:
256,192,62412,1,8,0:0:0:0:
256,192,62468,1,8,0:0:0:0:
256,192,62523,1,0,0:0:0:0:
256,192,64301,1,8,0:0:0:0:
256,192,66079,1,8,0:0:0:0:
256,192,66968,1,0,0:0:0:0:
256,192,67857,1,8,0:0:0:0:
256,192,68746,1,0,0:0:0:0:
256,192,69190,1,8,0:0:0:0:
256,192,69634,1,0,0:0:0:0:
256,192,69801,1,0,0:0:0:0:
256,192,69968,1,8,0:0:0:0:
256,192,70079,1,0,0:0:0:0:
256,192,70246,1,0,0:0:0:0:
256,192,70412,1,8,0:0:0:0:
256,192,70523,1,0,0:0:0:0:
256,192,70690,1,0,0:0:0:0:
256,192,70857,1,8,0:0:0:0:
256,192,70968,1,0,0:0:0:0:
256,192,71134,1,0,0:0:0:0:
256,192,71301,1,8,0:0:0:0:
256,192,71412,1,0,0:0:0:0:
256,192,71579,1,8,0:0:0:0:
256,192,71746,1,8,0:0:0:0:
256,192,71857,1,0,0:0:0:0:
256,192,72023,1,8,0:0:0:0:
256,192,72190,1,8,0:0:0:0:
256,192,72301,1,0,0:0:0:0:
256,192,72468,1,8,0:0:0:0:
256,192,72634,1,8,0:0:0:0:
256,192,72746,1,0,0:0:0:0:
256,192,72912,1,8,0:0:0:0:
256,192,73079,1,8,0:0:0:0:
256,192,73190,1,8,0:0:0:0:
256,192,73357,1,0,0:0:0:0:
256,192,73523,1,8,0:0:0:0:
256,192,73634,1,8,0:0:0:0:
256,192,73801,1,0,0:0:0:0:
256,192,73968,1,8,0:0:0:0:
256,192,74079,1,0,0:0:0:0:
256,192,74246,1,8,0:0:0:0:
256,192,74412,1,8,0:0:0:0:
256,192,74523,1,0,0:0:0:0:
256,192,74690,1,8,0:0:0:0:
256,192,74857,1,8,0:0:0:0:
256,192,74968,1,0,0:0:0:0:
256,192,75134,1,0,0:0:0:0:
256,192,75301,1,8,0:0:0:0:
256,192,75412,1,0,0:0:0:0:
256,192,75579,1,0,0:0:0:0:
256,192,75746,1,8,0:0:0:0:
256,192,75857,1,0,0:0:0:0:
256,192,76023,1,0,0:0:0:0:
256,192,76190,1,0,0:0:0:0:
256,192,76301,1,8,0:0:0:0:
256,192,76468,1,8,0:0:0:0:
256,192,76634,1,8,0:0:0:0:
256,192,76746,1,4,0:0:0:0:
256,192,77190,1,8,0:0:0:0:
256,192,78079,1,8,0:0:0:0:
256,192,78523,1,0,0:0:0:0:
256,192,78968,1,8,0:0:0:0:
256,192,79857,1,8,0:0:0:0:
256,192,80301,1,0,0:0:0:0:
256,192,80746,1,8,0:0:0:0:
256,192,81634,1,8,0:0:0:0:
256,192,82079,1,0,0:0:0:0:
256,192,82523,1,8,0:0:0:0:
256,192,83412,1,8,0:0:0:0:
256,192,83857,1,8,0:0:0:0:
256,192,84079,1,0,0:0:0:0:
256,192,84301,1,8,0:0:0:0:
256,192,84523,1,0,0:0:0:0:
256,192,84746,1,8,0:0:0:0:
256,192,84968,1,0,0:0:0:0:
256,192,85190,1,8,0:0:0:0:
256,192,85412,1,0,0:0:0:0:
256,192,85634,1,8,0:0:0:0:
256,192,85857,1,0,0:0:0:0:
256,192,86079,1,8,0:0:0:0:
256,192,86301,1,0,0:0:0:0:
256,192,86523,1,8,0:0:0:0:
256,192,86746,1,0,0:0:0:0:
256,192,86968,1,8,0:0:0:0:
256,192,87190,1,0,0:0:0:0:
256,192,87412,1,8,0:0:0:0:
256,192,87523,1,0,0:0:0:0:
256,192,87634,1,8,0:0:0:0:
256,192,87746,1,0,0:0:0:0:
256,192,87857,1,8,0:0:0:0:
256,192,87968,1,0,0:0:0:0:
256,192,88079,1,8,0:0:0:0:
256,192,88190,1,0,0:0:0:0:
256,192,88301,1,8,0:0:0:0:
256,192,88412,1,8,0:0:0:0:
256,192,88523,1,8,0:0:0:0:
256,192,88634,1,8,0:0:0:0:
256,192,88746,1,8,0:0:0:0:
256,192,88857,1,8,0:0:0:0:
256,192,88968,1,8,0:0:0:0:
256,192,89079,1,8,0:0:0:0:
256,192,89190,1,0,0:0:0:0:
256,192,89246,1,0,0:0:0:0:
256,192,89301,1,8,0:0:0:0:
256,192,89357,1,0,0:0:0:0:
256,192,89412,1,8,0:0:0:0:
256,192,89468,1,8,0:0:0:0:
256,192,89523,1,0,0:0:0:0:
256,192,89634,1,8,0:0:0:0:
256,192,89690,1,8,0:0:0:0:
256,192,89746,1,8,0:0:0:0:
256,192,89801,1,8,0:0:0:0:
256,192,89857,1,0,0:0:0:0:
256,192,89912,1,0,0:0:0:0:
256,192,89968,1,0,0:0:0:0:
256,192,90023,1,0,0:0:0:0:
256,192,90079,1,8,0:0:0:0:
256,192,90523,1,8,0:0:0:0:
256,192,90634,1,8,0:0:0:0:
256,192,90746,1,0,0:0:0:0:
256,192,90857,1,0,0:0:0:0:
256,192,90968,1,8,0:0:0:0:
256,192,91023,1,8,0:0:0:0:
256,192,91079,1,0,0:0:0:0:
256,192,91134,1,0,0:0:0:0:
256,192,91190,1,8,0:0:0:0:
256,192,91301,1,0,0:0:0:0:
256,192,91412,1,8,0:0:0:0:
256,192,91468,1,8,0:0:0:0:
256,192,91523,1,0,0:0:0:0:
256,192,91579,1,8,0:0:0:0:
256,192,91634,1,0,0:0:0:0:
256,192,91690,1,0,0:0:0:0:
256,192,91746,1,8,0:0:0:0:
256,192,91857,1,0,0:0:0:0:
256,192,91913,1,0,0:0:0:0:
256,192,91968,1,0,0:0:0:0:
256,192,92079,1,8,0:0:0:0:
256,192,92190,1,0,0:0:0:0:
256,192,92301,1,8,0:0:0:0:
256,192,92357,1,0,0:0:0:0:
256,192,92412,1,8,0:0:0:0:
256,192,92468,1,0,0:0:0:0:
256,192,92523,1,8,0:0:0:0:
256,192,92579,1,8,0:0:0:0:
256,192,92634,1,0,0:0:0:0:
256,192,92746,1,8,0:0:0:0:
256,192,92801,1,8,0:0:0:0:
256,192,92857,1,8,0:0:0:0:
256,192,92968,1,0,0:0:0:0:
256,192,93023,1,0,0:0:0:0:
256,192,93079,1,8,0:0:0:0:
256,192,93190,1,0,0:0:0:0:
256,192,93246,1,0,0:0:0:0:
256,192,93301,1,0,0:0:0:0:
256,192,93412,1,8,0:0:0:0:
256,192,93468,1,8,0:0:0:0:
256,192,93523,1,0,0:0:0:0:
256,192,93579,1,0,0:0:0:0:
256,192,93634,1,8,0:0:0:0:
256,192,93690,1,0,0:0:0:0:
256,192,93746,1,0,0:0:0:0:
256,192,93801,1,0,0:0:0:0:
256,192,93857,1,8,0:0:0:0:
256,192,93968,1,0,0:0:0:0:
256,192,94079,1,8,0:0:0:0:
256,192,94134,1,0,0:0:0:0:
256,192,94190,1,8,0:0:0:0:
256,192,94246,1,8,0:0:0:0:
256,192,94301,1,0,0:0:0:0:
256,192,94357,1,0,0:0:0:0:
256,192,94412,1,8,0:0:0:0:
256,192,94468,1,8,0:0:0:0:
256,192,94523,1,0,0:0:0:0:
256,192,94634,1,8,0:0:0:0:
256,192,94746,1,0,0:0:0:0:
256,192,94857,1,8,0:0:0:0:
256,192,94912,1,8,0:0:0:0:
256,192,94968,1,8,0:0:0:0:
256,192,95079,1,0,0:0:0:0:
256,192,95134,1,0,0:0:0:0:
256,192,95190,1,8,0:0:0:0:
256,192,95246,1,0,0:0:0:0:
256,192,95301,1,8,0:0:0:0:
256,192,95357,1,8,0:0:0:0:
256,192,95412,1,0,0:0:0:0:
256,192,95468,1,0,0:0:0:0:
256,192,95523,1,8,0:0:0:0:
256,192,95634,1,0,0:0:0:0:
256,192,95746,1,8,0:0:0:0:
256,192,95857,1,0,0:0:0:0:
256,192,95912,1,0,0:0:0:0:
256,192,95968,1,8,0:0:0:0:
256,192,96079,1,0,0:0:0:0:
256,192,96134,1,0,0:0:0:0:
256,192,96190,1,0,0:0:0:0:
256,192,96301,1,8,0:0:0:0:
256,192,96357,1,8,0:0:0:0:
256,192,96412,1,0,0:0:0:0:
256,192,96523,1,8,0:0:0:0:
256,192,96579,1,8,0:0:0:0:
256,192,96634,1,8,0:0:0:0:
256,192,96746,1,0,0:0:0:0:
256,192,96801,1,0,0:0:0:0:
256,192,96857,1,8,0:0:0:0:
256,192,96968,1,0,0:0:0:0:
256,192,97023,1,0,0:0:0:0:
256,192,97079,1,8,0:0:0:0:
256,192,97134,1,0,0:0:0:0:
256,192,97190,1,8,0:0:0:0:
256,192,97246,1,8,0:0:0:0:
256,192,97301,1,0,0:0:0:0:
256,192,97412,1,8,0:0:0:0:
256,192,97523,1,8,0:0:0:0:
256,192,97634,1,0,0:0:0:0:
256,192,97690,1,0,0:0:0:0:
256,192,97746,1,8,0:0:0:0:
256,192,97801,1,0,0:0:0:0:
256,192,97857,1,8,0:0:0:0:
256,192,97912,1,8,0:0:0:0:
256,192,97968,1,0,0:0:0:0:
256,192,98079,1,8,0:0:0:0:
256,192,98134,1,8,0:0:0:0:
256,192,98190,1,8,0:0:0:0:
256,192,98246,1,8,0:0:0:0:
256,192,98301,1,0,0:0:0:0:
256,192,98412,1,0,0:0:0:0:
256,192,98523,1,8,0:0:0:0:
256,192,98579,1,8,0:0:0:0:
256,192,98634,1,0,0:0:0:0:
256,192,98690,1,8,0:0:0:0:
256,192,98746,1,0,0:0:0:0:
256,192,98857,1,8,0:0:0:0:
256,192,98968,1,0,0:0:0:0:
256,192,99023,1,0,0:0:0:0:
256,192,99079,1,8,0:0:0:0:
256,192,99134,1,0,0:0:0:0:
256,192,99190,1,8,0:0:0:0:
256,192,99246,1,8,0:0:0:0:
256,192,99301,1,0,0:0:0:0:
256,192,99412,1,8,0:0:0:0:
256,192,99468,1,0,0:0:0:0:
256,192,99523,1,8,0:0:0:0:
256,192,99579,1,0,0:0:0:0:
256,192,99634,1,8,0:0:0:0:
256,192,99690,1,8,0:0:0:0:
256,192,99746,1,0,0:0:0:0:
256,192,99801,1,0,0:0:0:0:
256,192,99857,1,8,0:0:0:0:
256,192,99968,1,0,0:0:0:0:
256,192,100079,1,8,0:0:0:0:
256,192,100134,1,8,0:0:0:0:
256,192,100190,1,0,0:0:0:0:
256,192,100301,1,8,0:0:0:0:
256,192,100357,1,8,0:0:0:0:
256,192,100412,1,8,0:0:0:0:
256,192,100523,1,0,0:0:0:0:
256,192,100579,1,0,0:0:0:0:
256,192,100634,1,8,0:0:0:0:
256,192,100746,1,0,0:0:0:0:
256,192,100801,1,0,0:0:0:0:
256,192,100857,1,0,0:0:0:0:
256,192,100912,1,0,0:0:0:0:
256,192,100968,1,8,0:0:0:0:
256,192,101079,1,0,0:0:0:0:
256,192,101190,1,8,0:0:0:0:
256,192,101246,1,0,0:0:0:0:
256,192,101301,1,8,0:0:0:0:
256,192,101357,1,8,0:0:0:0:
256,192,101412,1,0,0:0:0:0:
256,192,101468,1,8,0:0:0:0:
256,192,101523,1,0,0:0:0:0:
256,192,101579,1,0,0:0:0:0:
256,192,101634,1,8,0:0:0:0:
256,192,101746,1,0,0:0:0:0:
256,192,101857,1,8,0:0:0:0:
256,192,101912,1,8,0:0:0:0:
256,192,101968,1,0,0:0:0:0:
256,192,102079,1,8,0:0:0:0:
256,192,102134,1,0,0:0:0:0:
256,192,102190,1,8,0:0:0:0:
256,192,102246,1,8,0:0:0:0:
256,192,102301,1,0,0:0:0:0:
256,192,102412,1,8,0:0:0:0:
256,192,102523,1,0,0:0:0:0:
256,192,102579,1,0,0:0:0:0:
256,192,102634,1,0,0:0:0:0:
256,192,102746,1,8,0:0:0:0:
256,192,102857,1,0,0:0:0:0:
256,192,102968,1,8,0:0:0:0:
256,192,103023,1,8,0:0:0:0:
256,192,103079,1,0,0:0:0:0:
256,192,103190,1,8,0:0:0:0:
256,192,103246,1,8,0:0:0:0:
256,192,103301,1,8,0:0:0:0:
256,192,103412,1,0,0:0:0:0:
256,192,103468,1,0,0:0:0:0:
256,192,103523,1,8,0:0:0:0:
256,192,103634,1,0,0:0:0:0:
256,192,103690,1,0,0:0:0:0:
256,192,103746,1,0,0:0:0:0:
256,192,103857,1,8,0:0:0:0:
256,192,103912,1,8,0:0:0:0:
256,192,103968,1,0,0:0:0:0:
256,192,104079,1,8,0:0:0:0:
256,192,104134,1,8,0:0:0:0:
256,192,104190,1,8,0:0:0:0:
256,192,104301,1,0,0:0:0:0:
256,192,104357,1,0,0:0:0:0:
256,192,104412,1,8,0:0:0:0:
256,192,104468,1,0,0:0:0:0:
256,192,104523,1,8,0:0:0:0:
256,192,104634,1,0,0:0:0:0:
256,192,104746,1,8,0:0:0:0:
256,192,104801,1,8,0:0:0:0:
256,192,104857,1,0,0:0:0:0:
256,192,104968,1,8,0:0:0:0:
256,192,105023,1,8,0:0:0:0:
256,192,105079,1,8,0:0:0:0:
256,192,105134,1,8,0:0:0:0:
256,192,105190,1,0,0:0:0:0:
256,192,105246,1,0,0:0:0:0:
256,192,105301,1,0,0:0:0:0:
256,192,105357,1,0,0:0:0:0:
256,192,105412,1,8,0:0:0:0:
256,192,105523,1,0,0:0:0:0:
256,192,105634,1,8,0:0:0:0:
256,192,105690,1,0,0:0:0:0:
256,192,105746,1,8,0:0:0:0:
256,192,105801,1,8,0:0:0:0:
256,192,105856,1,0,0:0:0:0:
256,192,105912,1,0,0:0:0:0:
256,192,105968,1,8,0:0:0:0:
256,192,106079,1,0,0:0:0:0:
256,192,106134,1,0,0:0:0:0:
256,192,106190,1,0,0:0:0:0:
256,192,106301,1,8,0:0:0:0:
256,192,106412,1,0,0:0:0:0:
256,192,106523,1,8,0:0:0:0:
256,192,106579,1,8,0:0:0:0:
256,192,106634,1,0,0:0:0:0:
256,192,106690,1,8,0:0:0:0:
256,192,106745,1,0,0:0:0:0:
256,192,106801,1,0,0:0:0:0:
256,192,106857,1,8,0:0:0:0:
256,192,106912,1,0,0:0:0:0:
256,192,106968,1,8,0:0:0:0:
256,192,107079,1,0,0:0:0:0:
256,192,107190,1,8,0:0:0:0:
256,192,107246,1,8,0:0:0:0:
256,192,107301,1,0,0:0:0:0:
256,192,107412,1,8,0:0:0:0:
256,192,107468,1,8,0:0:0:0:
256,192,107523,1,8,0:0:0:0:
256,192,107634,1,0,0:0:0:0:
256,192,107690,1,0,0:0:0:0:
256,192,107746,1,8,0:0:0:0:
256,192,107801,1,0,0:0:0:0:
256,192,107857,1,8,0:0:0:0:
256,192,107912,1,8,0:0:0:0:
256,192,107968,1,0,0:0:0:0:
256,192,108079,1,8,0:0:0:0:
256,192,108190,1,0,0:0:0:0:
256,192,108301,1,8,0:0:0:0:
256,192,108356,1,0,0:0:0:0:
256,192,108412,1,8,0:0:0:0:
256,192,108468,1,8,0:0:0:0:
256,192,108523,1,0,0:0:0:0:
256,192,108579,1,0,0:0:0:0:
256,192,108634,1,8,0:0:0:0:
256,192,108690,1,8,0:0:0:0:
256,192,108745,1,0,0:0:0:0:
256,192,108856,1,8,0:0:0:0:
256,192,108968,1,0,0:0:0:0:
256,192,109079,1,8,0:0:0:0:
256,192,109134,1,8,0:0:0:0:
256,192,109190,1,8,0:0:0:0:
256,192,109301,1,0,0:0:0:0:
256,192,109356,1,0,0:0:0:0:
256,192,109412,1,8,0:0:0:0:
256,192,109468,1,0,0:0:0:0:
256,192,109523,1,8,0:0:0:0:
256,192,109579,1,8,0:0:0:0:
256,192,109634,1,0,0:0:0:0:
256,192,109690,1,0,0:0:0:0:
256,192,109745,1,8,0:0:0:0:
256,192,109856,1,0,0:0:0:0:
256,192,109968,1,8,0:0:0:0:
256,192,110079,1,0,0:0:0:0:
256,192,110134,1,0,0:0:0:0:
256,192,110190,1,0,0:0:0:0:
256,192,110301,1,8,0:0:0:0:
256,192,110357,1,8,0:0:0:0:
256,192,110412,1,0,0:0:0:0:
256,192,110523,1,8,0:0:0:0:
256,192,110579,1,8,0:0:0:0:
256,192,110634,1,8,0:0:0:0:
256,192,110745,1,0,0:0:0:0:
256,192,110801,1,0,0:0:0:0:
256,192,110857,1,8,0:0:0:0:
256,192,110912,1,0,0:0:0:0:
256,192,110968,1,8,0:0:0:0:
256,192,111023,1,8,0:0:0:0:
256,192,111079,1,0,0:0:0:0:
256,192,111190,1,8,0:0:0:0:
256,192,111245,1,8,0:0:0:0:
256,192,111301,1,0,0:0:0:0:
256,192,111356,1,0,0:0:0:0:
256,192,111412,1,8,0:0:0:0:
256,192,111468,1,8,0:0:0:0:
256,192,111523,1,8,0:0:0:0:
256,192,111579,1,8,0:0:0:0:
256,192,111634,1,0,0:0:0:0:
256,192,111745,1,8,0:0:0:0:
256,192,111856,1,0,0:0:0:0:
256,192,111912,1,0,0:0:0:0:
256,192,111968,1,8,0:0:0:0:
256,192,112023,1,0,0:0:0:0:
256,192,112079,1,8,0:0:0:0:
256,192,112134,1,8,0:0:0:0:
256,192,112190,1,0,0:0:0:0:
256,192,112301,1,8,0:0:0:0:
256,192,112356,1,8,0:0:0:0:
256,192,112412,1,8,0:0:0:0:
256,192,112468,1,8,0:0:0:0:
256,192,112523,1,0,0:0:0:0:
256,192,112634,1,0,0:0:0:0:
256,192,112745,1,8,0:0:0:0:
256,192,112801,1,8,0:0:0:0:
256,192,112856,1,0,0:0:0:0:
256,192,112912,1,8,0:0:0:0:
256,192,112968,1,0,0:0:0:0:
256,192,113079,1,8,0:0:0:0:
256,192,113190,1,0,0:0:0:0:
256,192,113245,1,0,0:0:0:0:
256,192,113301,1,8,0:0:0:0:
256,192,113356,1,0,0:0:0:0:
256,192,113412,1,8,0:0:0:0:
256,192,113468,1,8,0:0:0:0:
256,192,113523,1,0,0:0:0:0:
256,192,113634,1,8,0:0:0:0:
256,192,113690,1,0,0:0:0:0:
256,192,113745,1,8,0:0:0:0:
256,192,113801,1,0,0:0:0:0:
256,192,113856,1,8,0:0:0:0:
256,192,113912,1,8,0:0:0:0:
256,192,113968,1,0,0:0:0:0:
256,192,114023,1,0,0:0:0:0:
256,192,114079,1,8,0:0:0:0:
256,192,114190,1,0,0:0:0:0:
256,192,114301,1,8,0:0:0:0:
256,192,114356,1,8,0:0:0:0:
256,192,114412,1,0,0:0:0:0:
256,192,114523,1,8,0:0:0:0:
256,192,114579,1,8,0:0:0:0:
256,192,114634,1,8,0:0:0:0:
256,192,114745,1,0,0:0:0:0:
256,192,114801,1,0,0:0:0:0:
256,192,114856,1,8,0:0:0:0:
256,192,114912,1,0,0:0:0:0:
256,192,114968,1,8,0:0:0:0:
256,192,115023,1,8,0:0:0:0:
256,192,115079,1,0,0:0:0:0:
256,192,115134,1,0,0:0:0:0:
256,192,115190,1,8,0:0:0:0:
256,192,115301,1,0,0:0:0:0:
256,192,115412,1,8,0:0:0:0:
256,192,115468,1,0,0:0:0:0:
256,192,115523,1,8,0:0:0:0:
256,192,115579,1,8,0:0:0:0:
256,192,115634,1,0,0:0:0:0:
256,192,115690,1,8,0:0:0:0:
256,192,115745,1,0,0:0:0:0:
256,192,115801,1,0,0:0:0:0:
256,192,115856,1,8,0:0:0:0:
256,192,115968,1,0,0:0:0:0:
256,192,116079,1,8,0:0:0:0:
256,192,116134,1,0,0:0:0:0:
256,192,116190,1,8,0:0:0:0:
256,192,116245,1,8,0:0:0:0:
256,192,116301,1,0,0:0:0:0:
256,192,116356,1,0,0:0:0:0:
256,192,116412,1,8,0:0:0:0:
256,192,116468,1,0,0:0:0:0:
256,192,116523,1,8,0:0:0:0:
256,192,116579,1,8,0:0:0:0:
256,192,116634,1,0,0:0:0:0:
256,192,116745,1,8,0:0:0:0:
256,192,116856,1,0,0:0:0:0:
256,192,116912,1,0,0:0:0:0:
256,192,116968,1,8,0:0:0:0:
256,192,117079,1,0,0:0:0:0:
256,192,117190,1,8,0:0:0:0:
256,192,117245,1,8,0:0:0:0:
256,192,117301,1,0,0:0:0:0:
256,192,117356,1,0,0:0:0:0:
256,192,117412,1,8,0:0:0:0:
256,192,117468,1,8,0:0:0:0:
256,192,117523,1,0,0:0:0:0:
256,192,117579,1,8,0:0:0:0:
256,192,117634,1,0,0:0:0:0:
256,192,117745,1,8,0:0:0:0:
256,192,117856,1,0,0:0:0:0:
256,192,117912,1,0,0:0:0:0:
256,192,117968,1,8,0:0:0:0:
256,192,118023,1,0,0:0:0:0:
256,192,118079,1,8,0:0:0:0:
256,192,118134,1,8,0:0:0:0:
256,192,118190,1,0,0:0:0:0:
256,192,118245,1,0,0:0:0:0:
256,192,118301,1,8,0:0:0:0:
256,192,118412,1,0,0:0:0:0:
256,192,118523,1,8,0:0:0:0:
256,192,118579,1,8,0:0:0:0:
256,192,118634,1,0,0:0:0:0:
256,192,118690,1,0,0:0:0:0:
256,192,118745,1,8,0:0:0:0:
256,192,118856,1,0,0:0:0:0:
256,192,118968,5,8,0:0:0:0:
256,192,119023,1,8,0:0:0:0:
256,192,119079,1,8,0:0:0:0:
256,192,119190,1,0,0:0:0:0:
256,192,119245,1,0,0:0:0:0:
256,192,119301,1,0,0:0:0:0:
256,192,119356,1,0,0:0:0:0:
256,192,119412,1,8,0:0:0:0:
256,192,119468,1,8,0:0:0:0:
256,192,119523,1,8,0:0:0:0:
256,192,119579,1,8,0:0:0:0:
256,192,119634,1,0,0:0:0:0:
256,192,119746,1,8,0:0:0:0:
256,192,119857,1,0,0:0:0:0:
256,192,119913,1,0,0:0:0:0:
256,192,119968,1,8,0:0:0:0:
256,192,120023,1,0,0:0:0:0:
256,192,120079,1,8,0:0:0:0:
256,192,120135,1,8,0:0:0:0:
256,192,120190,1,0,0:0:0:0:
256,192,120302,1,8,0:0:0:0:
256,192,120413,1,0,0:0:0:0:
256,192,120468,1,0,0:0:0:0:
256,192,120524,1,8,0:0:0:0:
256,192,120579,1,8,0:0:0:0:
256,192,120635,1,0,0:0:0:0:
256,192,120746,1,8,0:0:0:0:
256,192,120802,1,0,0:0:0:0:
256,192,120857,1,8,0:0:0:0:
256,192,120912,1,8,0:0:0:0:
256,192,120968,1,0,0:0:0:0:
256,192,121024,1,8,0:0:0:0:
256,192,121079,1,0,0:0:0:0:
256,192,121135,1,0,0:0:0:0:
256,192,121191,1,8,0:0:0:0:
256,192,121302,1,0,0:0:0:0:
256,192,121413,1,8,0:0:0:0:
256,192,121468,1,0,0:0:0:0:
256,192,121524,1,0,0:0:0:0:
256,192,121579,1,0,0:0:0:0:
256,192,121635,1,8,0:0:0:0:
256,192,121691,1,0,0:0:0:0:
256,192,121746,1,8,0:0:0:0:
256,192,121802,1,8,0:0:0:0:
256,192,121857,1,0,0:0:0:0:
256,192,121912,1,0,0:0:0:0:
256,192,121968,1,8,0:0:0:0:
256,192,122079,1,0,0:0:0:0:
256,192,122134,1,0,0:0:0:0:
256,192,122190,1,8,0:0:0:0:
256,192,122246,1,0,0:0:0:0:
256,192,122302,1,8,0:0:0:0:
256,192,122413,1,0,0:0:0:0:
256,192,122524,1,8,0:0:0:0:
256,192,122579,1,0,0:0:0:0:
256,192,122635,1,8,0:0:0:0:
256,192,122691,1,8,0:0:0:0:
256,192,122746,1,0,0:0:0:0:
256,192,122802,1,8,0:0:0:0:
256,192,122857,1,0,0:0:0:0:
256,192,122913,1,0,0:0:0:0:
256,192,122968,1,8,0:0:0:0:
256,192,123023,1,8,0:0:0:0:
256,192,123079,1,0,0:0:0:0:
256,192,123191,1,8,0:0:0:0:
256,192,123302,1,0,0:0:0:0:
256,192,123357,1,0,0:0:0:0:
256,192,123413,1,8,0:0:0:0:
256,192,123468,1,0,0:0:0:0:
256,192,123524,1,8,0:0:0:0:
256,192,123579,1,0,0:0:0:0:
256,192,123635,1,8,0:0:0:0:
256,192,123691,1,8,0:0:0:0:
256,192,123746,1,0,0:0:0:0:
256,192,123801,1,0,0:0:0:0:
256,192,123857,1,8,0:0:0:0:
256,192,123968,1,0,0:0:0:0:
256,192,124079,1,8,0:0:0:0:
256,192,124135,1,0,0:0:0:0:
256,192,124191,1,8,0:0:0:0:
256,192,124246,1,0,0:0:0:0:
256,192,124302,1,8,0:0:0:0:
256,192,124357,1,8,0:0:0:0:
256,192,124413,1,0,0:0:0:0:
256,192,124468,1,0,0:0:0:0:
256,192,124524,1,8,0:0:0:0:
256,192,124579,1,0,0:0:0:0:
256,192,124635,1,0,0:0:0:0:
256,192,124691,1,0,0:0:0:0:
256,192,124746,1,8,0:0:0:0:
256,192,124857,1,0,0:0:0:0:
256,192,124968,1,8,0:0:0:0:
256,192,125024,1,8,0:0:0:0:
256,192,125079,1,0,0:0:0:0:
256,192,125135,1,0,0:0:0:0:
256,192,125191,1,8,0:0:0:0:
256,192,125302,1,0,0:0:0:0:
256,192,125413,1,8,0:0:0:0:
256,192,125468,1,8,0:0:0:0:
256,192,125524,1,0,0:0:0:0:
256,192,125579,1,0,0:0:0:0:
256,192,125635,1,8,0:0:0:0:
256,192,125691,1,8,0:0:0:0:
256,192,125746,1,8,0:0:0:0:
256,192,125802,1,8,0:0:0:0:
256,192,125857,1,0,0:0:0:0:
256,192,125968,1,8,0:0:0:0:
256,192,126079,1,0,0:0:0:0:
256,192,126135,1,0,0:0:0:0:
256,192,126191,1,8,0:0:0:0:
256,192,126246,1,0,0:0:0:0:
256,192,126302,1,8,0:0:0:0:
256,192,126357,1,8,0:0:0:0:
256,192,126413,1,0,0:0:0:0:
256,192,126468,1,0,0:0:0:0:
256,192,126524,1,8,0:0:0:0:
256,192,126579,1,8,0:0:0:0:
256,192,126635,1,8,0:0:0:0:
256,192,126691,1,8,0:0:0:0:
256,192,126746,1,0,0:0:0:0:
256,192,126857,1,0,0:0:0:0:
256,192,126968,1,8,0:0:0:0:
256,192,127024,1,8,0:0:0:0:
256,192,127079,1,0,0:0:0:0:
256,192,127135,1,8,0:0:0:0:
256,192,127191,1,0,0:0:0:0:
256,192,127246,1,0,0:0:0:0:
256,192,127302,1,8,0:0:0:0:
256,192,127413,1,0,0:0:0:0:
256,192,127468,1,0,0:0:0:0:
256,192,127524,1,8,0:0:0:0:
256,192,127579,1,0,0:0:0:0:
256,192,127635,1,8,0:0:0:0:
256,192,127746,1,0,0:0:0:0:
256,192,127857,1,8,0:0:0:0:
256,192,127913,1,0,0:0:0:0:
256,192,127968,1,8,0:0:0:0:
256,192,128024,1,0,0:0:0:0:
256,192,128079,1,8,0:0:0:0:
256,192,128135,1,8,0:0:0:0:
256,192,128191,1,0,0:0:0:0:
256,192,128246,1,0,0:0:0:0:
256,192,128302,1,8,0:0:0:0:
256,192,128413,1,0,0:0:0:0:
256,192,128524,1,8,0:0:0:0:
256,192,128579,1,8,0:0:0:0:
256,192,128635,1,0,0:0:0:0:
256,192,128691,1,0,0:0:0:0:
256,192,128746,1,8,0:0:0:0:
256,192,128802,1,8,0:0:0:0:
256,192,128857,1,8,0:0:0:0:
256,192,128913,1,8,0:0:0:0:
256,192,128968,1,0,0:0:0:0:
256,192,129023,1,0,0:0:0:0:
256,192,129079,1,8,0:0:0:0:
256,192,129191,1,0,0:0:0:0:
256,192,129246,1,0,0:0:0:0:
256,192,129302,1,8,0:0:0:0:
256,192,129357,1,8,0:0:0:0:
256,192,129413,1,0,0:0:0:0:
256,192,129524,1,8,0:0:0:0:
256,192,129635,1,0,0:0:0:0:
256,192,129691,1,0,0:0:0:0:
256,192,129746,1,8,0:0:0:0:
256,192,129802,1,8,0:0:0:0:
256,192,129857,1,0,0:0:0:0:
256,192,129913,1,8,0:0:0:0:
256,192,129968,1,0,0:0:0:0:
256,192,130024,1,0,0:0:0:0:
256,192,130079,1,8,0:0:0:0:
256,192,130134,1,8,0:0:0:0:
256,192,130191,1,0,0:0:0:0:
256,192,130302,1,8,0:0:0:0:
256,192,130357,1,0,0:0:0:0:
256,192,130413,1,8,0:0:0:0:
256,192,130468,1,8,0:0:0:0:
256,192,130524,1,0,0:0:0:0:
256,192,130579,1,0,0:0:0:0:
256,192,130635,1,8,0:0:0:0:
256,192,130746,1,0,0:0:0:0:
256,192,130801,1,0,0:0:0:0:
256,192,130857,1,0,0:0:0:0:
256,192,130968,1,8,0:0:0:0:
256,192,131023,1,8,0:0:0:0:
256,192,131079,1,0,0:0:0:0:
256,192,131135,1,0,0:0:0:0:
256,192,131191,1,8,0:0:0:0:
256,192,131246,1,0,0:0:0:0:
256,192,131302,1,8,0:0:0:0:
256,192,131413,1,0,0:0:0:0:
256,192,131468,1,0,0:0:0:0:
256,192,131524,1,8,0:0:0:0:
256,192,131635,1,0,0:0:0:0:
256,192,131691,1,0,0:0:0:0:
256,192,131746,1,0,0:0:0:0:
256,192,131857,1,8,0:0:0:0:
256,192,131912,1,8,0:0:0:0:
256,192,131968,1,0,0:0:0:0:
256,192,132023,1,0,0:0:0:0:
256,192,132079,1,8,0:0:0:0:
256,192,132134,1,0,0:0:0:0:
256,192,132191,1,8,0:0:0:0:
256,192,132246,1,0,0:0:0:0:
256,192,132302,1,8,0:0:0:0:
256,192,132357,1,8,0:0:0:0:
256,192,132413,1,0,0:0:0:0:
256,192,132468,1,0,0:0:0:0:
256,192,132524,1,8,0:0:0:0:
256,192,132635,1,0,0:0:0:0:
256,192,132746,1,8,0:0:0:0:
256,192,132802,1,8,0:0:0:0:
256,192,132857,1,0,0:0:0:0:
256,192,132913,1,0,0:0:0:0:
256,192,132968,1,8,0:0:0:0:
256,192,133079,1,0,0:0:0:0:
256,192,133191,5,8,0:0:0:0:
256,192,133246,1,8,0:0:0:0:
256,192,133302,1,0,0:0:0:0:
256,192,133413,1,8,0:0:0:0:
256,192,133468,1,8,0:0:0:0:
256,192,133523,1,0,0:0:0:0:
256,192,133579,1,0,0:0:0:0:
256,192,133634,5,8,0:0:0:0:
256,192,133690,1,8,0:0:0:0:
256,192,133746,1,8,0:0:0:0:
256,192,133801,1,8,0:0:0:0:
256,192,133857,1,0,0:0:0:0:
256,192,133968,1,8,0:0:0:0:
256,192,134079,1,0,0:0:0:0:
256,192,134135,1,0,0:0:0:0:
256,192,134190,1,8,0:0:0:0:
256,192,134245,1,0,0:0:0:0:
256,192,134301,1,8,0:0:0:0:
256,192,134357,1,8,0:0:0:0:
256,192,134412,1,0,0:0:0:0:
256,192,134468,1,0,0:0:0:0:
256,192,134524,1,8,0:0:0:0:
256,192,134579,1,8,0:0:0:0:
256,192,134634,1,8,0:0:0:0:
256,192,134690,1,8,0:0:0:0:
256,192,134746,1,0,0:0:0:0:
256,192,134857,1,8,0:0:0:0:
256,192,134968,1,0,0:0:0:0:
256,192,135024,1,0,0:0:0:0:
256,192,135079,1,8,0:0:0:0:
256,192,135190,1,0,0:0:0:0:
256,192,135246,1,0,0:0:0:0:
256,192,135301,1,8,0:0:0:0:
256,192,135357,1,0,0:0:0:0:
256,192,135413,1,8,0:0:0:0:
256,192,135468,1,8,0:0:0:0:
256,192,135524,1,0,0:0:0:0:
256,192,135635,1,8,0:0:0:0:
256,192,135690,1,8,0:0:0:0:
256,192,135746,1,8,0:0:0:0:
256,192,135857,1,0,0:0:0:0:
256,192,135913,1,0,0:0:0:0:
256,192,135968,1,8,0:0:0:0:
256,192,136024,1,8,0:0:0:0:
256,192,136079,1,0,0:0:0:0:
256,192,136134,1,0,0:0:0:0:
256,192,136190,1,8,0:0:0:0:
256,192,136246,1,0,0:0:0:0:
256,192,136301,1,8,0:0:0:0:
256,192,136357,1,8,0:0:0:0:
256,192,136412,1,0,0:0:0:0:
256,192,136468,1,0,0:0:0:0:
256,192,136524,1,8,0:0:0:0:
256,192,136635,1,0,0:0:0:0:
256,192,136746,1,8,0:0:0:0:
256,192,136801,1,0,0:0:0:0:
256,192,136857,1,8,0:0:0:0:
256,192,136913,1,8,0:0:0:0:
256,192,136968,1,0,0:0:0:0:
256,192,137023,1,0,0:0:0:0:
256,192,137079,1,8,0:0:0:0:
256,192,137135,1,0,0:0:0:0:
256,192,137190,1,8,0:0:0:0:
256,192,137245,1,8,0:0:0:0:
256,192,137301,1,0,0:0:0:0:
256,192,137413,1,8,0:0:0:0:
256,192,137524,1,0,0:0:0:0:
256,192,137579,1,0,0:0:0:0:
256,192,137635,1,8,0:0:0:0:
256,192,137690,1,0,0:0:0:0:
256,192,137746,1,8,0:0:0:0:
256,192,137801,1,0,0:0:0:0:
256,192,137857,1,8,0:0:0:0:
256,192,137913,1,8,0:0:0:0:
256,192,137968,1,0,0:0:0:0:
256,192,138023,1,0,0:0:0:0:
256,192,138079,1,8,0:0:0:0:
256,192,138134,1,8,0:0:0:0:
256,192,138190,1,0,0:0:0:0:
256,192,138301,1,8,0:0:0:0:
256,192,138412,1,0,0:0:0:0:
256,192,138468,1,0,0:0:0:0:
256,192,138524,1,8,0:0:0:0:
256,192,138579,1,0,0:0:0:0:
256,192,138635,1,8,0:0:0:0:
256,192,138690,1,0,0:0:0:0:
256,192,138746,1,8,0:0:0:0:
256,192,138801,1,8,0:0:0:0:
256,192,138857,1,0,0:0:0:0:
256,192,138968,1,8,0:0:0:0:
256,192,139023,1,8,0:0:0:0:
256,192,139079,1,0,0:0:0:0:
256,192,139190,1,8,0:0:0:0:
256,192,139246,1,8,0:0:0:0:
256,192,139301,1,8,0:0:0:0:
256,192,139412,1,0,0:0:0:0:
256,192,139468,1,0,0:0:0:0:
256,192,139524,1,8,0:0:0:0:
256,192,139579,1,0,0:0:0:0:
256,192,139635,1,8,0:0:0:0:
256,192,139690,1,8,0:0:0:0:
256,192,139746,1,0,0:0:0:0:
256,192,139801,1,0,0:0:0:0:
256,192,139857,1,8,0:0:0:0:
256,192,139913,1,8,0:0:0:0:
256,192,139968,1,8,0:0:0:0:
256,192,140024,1,8,0:0:0:0:
256,192,140079,1,0,0:0:0:0:
256,192,140190,1,8,0:0:0:0:
256,192,140301,1,0,0:0:0:0:
256,192,140357,1,0,0:0:0:0:
256,192,140413,1,8,0:0:0:0:
256,192,140468,1,0,0:0:0:0:
256,192,140524,1,8,0:0:0:0:
256,192,140579,1,8,0:0:0:0:
256,192,140635,1,0,0:0:0:0:
256,192,140690,1,0,0:0:0:0:
256,192,140746,1,8,0:0:0:0:
256,192,140801,1,8,0:0:0:0:
256,192,140857,1,8,0:0:0:0:
256,192,140913,1,8,0:0:0:0:
256,192,140968,1,0,0:0:0:0:
256,192,141079,1,8,0:0:0:0:
256,192,141190,1,0,0:0:0:0:
256,192,141246,1,0,0:0:0:0:
256,192,141301,1,8,0:0:0:0:
256,192,141357,1,8,0:0:0:0:
256,192,141413,1,0,0:0:0:0:
256,192,141468,1,8,0:0:0:0:
256,192,141524,1,0,0:0:0:0:
256,192,141579,1,0,0:0:0:0:
256,192,141635,1,8,0:0:0:0:
256,192,141690,1,8,0:0:0:0:
256,192,141746,1,0,0:0:0:0:
256,192,141857,1,8,0:0:0:0:
256,192,141912,1,8,0:0:0:0:
256,192,141968,1,8,0:0:0:0:
256,192,142079,1,0,0:0:0:0:
256,192,142135,1,0,0:0:0:0:
256,192,142190,1,8,0:0:0:0:
256,192,142246,1,0,0:0:0:0:
256,192,142301,1,8,0:0:0:0:
256,192,142357,1,8,0:0:0:0:
256,192,142413,1,0,0:0:0:0:
256,192,142468,1,0,0:0:0:0:
256,192,142524,1,8,0:0:0:0:
256,192,142579,1,8,0:0:0:0:
256,192,142635,1,8,0:0:0:0:
256,192,142690,1,8,0:0:0:0:
256,192,142746,1,0,0:0:0:0:
256,192,142857,1,8,0:0:0:0:
256,192,142968,1,0,0:0:0:0:
256,192,143024,1,0,0:0:0:0:
256,192,143079,1,8,0:0:0:0:
256,192,143134,1,0,0:0:0:0:
256,192,143190,1,8,0:0:0:0:
256,192,143245,1,8,0:0:0:0:
256,192,143301,1,0,0:0:0:0:
256,192,143357,1,0,0:0:0:0:
256,192,143413,1,8,0:0:0:0:
256,192,143524,1,0,0:0:0:0:
256,192,143579,1,0,0:0:0:0:
256,192,143635,1,0,0:0:0:0:
256,192,143746,1,8,0:0:0:0:
256,192,143857,1,0,0:0:0:0:
256,192,143913,1,0,0:0:0:0:
256,192,143968,1,8,0:0:0:0:
256,192,144024,1,0,0:0:0:0:
256,192,144079,1,8,0:0:0:0:
256,192,144135,1,8,0:0:0:0:
256,192,144190,1,0,0:0:0:0:
256,192,144246,1,0,0:0:0:0:
256,192,144301,1,8,0:0:0:0:
256,192,144356,1,8,0:0:0:0:
256,192,144412,1,8,0:0:0:0:
256,192,144468,1,8,0:0:0:0:
256,192,144524,1,0,0:0:0:0:
256,192,144635,1,8,0:0:0:0:
256,192,144746,1,0,0:0:0:0:
256,192,144801,1,0,0:0:0:0:
256,192,144857,1,8,0:0:0:0:
256,192,144913,1,0,0:0:0:0:
256,192,144968,1,8,0:0:0:0:
256,192,145023,1,8,0:0:0:0:
256,192,145079,1,0,0:0:0:0:
256,192,145134,1,8,0:0:0:0:
256,192,145190,1,0,0:0:0:0:
256,192,145246,1,0,0:0:0:0:
256,192,145301,1,8,0:0:0:0:
256,192,145412,1,0,0:0:0:0:
256,192,145468,1,0,0:0:0:0:
256,192,145524,1,0,0:0:0:0:
256,192,145635,1,8,0:0:0:0:
256,192,145690,1,8,0:0:0:0:
256,192,145746,1,0,0:0:0:0:
256,192,145801,1,0,0:0:0:0:
256,192,145857,1,8,0:0:0:0:
256,192,145913,1,8,0:0:0:0:
256,192,145968,1,0,0:0:0:0:
256,192,146079,1,8,0:0:0:0:
256,192,146134,1,8,0:0:0:0:
256,192,146190,1,8,0:0:0:0:
256,192,146301,1,0,0:0:0:0:
256,192,146357,1,0,0:0:0:0:
256,192,146412,1,8,0:0:0:0:
256,192,146523,1,0,0:0:0:0:
256,192,146579,1,0,0:0:0:0:
256,192,146634,1,0,0:0:0:0:
256,192,146746,1,8,0:0:0:0:
256,192,146801,1,8,0:0:0:0:
256,192,146857,1,0,0:0:0:0:
256,192,146968,5,8,0:0:0:0:
256,192,147023,1,8,0:0:0:0:
256,192,147079,1,8,0:0:0:0:
256,192,147190,1,0,0:0:0:0:
256,192,147246,1,0,0:0:0:0:
256,192,147301,1,8,0:0:0:0:
256,192,147412,1,0,0:0:0:0:
256,192,147468,1,0,0:0:0:0:
256,192,147523,1,0,0:0:0:0:
256,192,147634,1,8,0:0:0:0:
256,192,147690,1,8,0:0:0:0:
256,192,147746,1,0,0:0:0:0:
256,192,147857,1,8,0:0:0:0:
256,192,147912,1,8,0:0:0:0:
256,192,147968,1,0,0:0:0:0:
256,192,148023,1,0,0:0:0:0:
256,192,148079,1,8,0:0:0:0:
256,192,148134,1,0,0:0:0:0:
256,192,148190,1,8,0:0:0:0:
256,192,148246,1,8,0:0:0:0:
256,192,148301,1,0,0:0:0:0:
256,192,148357,1,0,0:0:0:0:
256,192,148412,1,8,0:0:0:0:
256,192,148468,1,0,0:0:0:0:
256,192,148523,1,8,0:0:0:0:
256,192,148579,1,8,0:0:0:0:
256,192,148634,1,0,0:0:0:0:
256,192,148746,1,8,0:0:0:0:
256,192,148801,1,8,0:0:0:0:
256,192,148857,1,0,0:0:0:0:
256,192,148912,1,8,0:0:0:0:
256,192,148968,1,0,0:0:0:0:
256,192,149023,1,0,0:0:0:0:
256,192,149079,1,8,0:0:0:0:
256,192,149134,1,0,0:0:0:0:
256,192,149190,1,8,0:0:0:0:
256,192,149246,1,8,0:0:0:0:
256,192,149301,1,0,0:0:0:0:
256,192,149357,1,0,0:0:0:0:
256,192,149412,1,8,0:0:0:0:
256,192,149468,1,8,0:0:0:0:
256,192,149523,1,8,0:0:0:0:
256,192,149579,1,8,0:0:0:0:
256,192,149634,1,0,0:0:0:0:
256,192,150523,12,0,151190,0:0:0:0:
256,192,151412,5,4,0:0:0:0:
256,192,151634,1,8,0:0:0:0:
256,192,151746,1,0,0:0:0:0:
256,192,151857,1,8,0:0:0:0:
256,192,151912,1,8,0:0:0:0:
256,192,151968,1,0,0:0:0:0:
256,192,152023,1,0,0:0:0:0:
256,192,152079,1,8,0:0:0:0:
256,192,152190,1,0,0:0:0:0:
256,192,152246,1,0,0:0:0:0:
256,192,152301,1,0,0:0:0:0:
256,192,152412,1,8,0:0:0:0:
256,192,152523,1,0,0:0:0:0:
256,192,152634,1,8,0:0:0:0:
256,192,152690,1,0,0:0:0:0:
256,192,152746,1,8,0:0:0:0:
256,192,152801,1,8,0:0:0:0:
256,192,152857,1,0,0:0:0:0:
256,192,152968,1,8,0:0:0:0:
256,192,153079,1,8,0:0:0:0:
256,192,153190,1,0,0:0:0:0:
256,192,153412,1,8,0:0:0:0:
256,192,153523,1,0,0:0:0:0:
256,192,153634,1,8,0:0:0:0:
256,192,153690,1,0,0:0:0:0:
256,192,153746,1,0,0:0:0:0:
256,192,153801,1,0,0:0:0:0:
256,192,153857,1,8,0:0:0:0:
256,192,153968,1,0,0:0:0:0:
256,192,154079,1,8,0:0:0:0:
256,192,154134,1,8,0:0:0:0:
256,192,154190,1,0,0:0:0:0:
256,192,154301,1,8,0:0:0:0:
256,192,154412,1,8,0:0:0:0:
256,192,154523,1,0,0:0:0:0:
256,192,154579,1,0,0:0:0:0:
256,192,154634,1,8,0:0:0:0:
256,192,154690,1,0,0:0:0:0:
256,192,154746,1,8,0:0:0:0:
256,192,154857,1,0,0:0:0:0:
256,192,154968,1,8,0:0:0:0:
256,192,155190,1,8,0:0:0:0:
256,192,155301,1,0,0:0:0:0:
256,192,155412,1,8,0:0:0:0:
256,192,155468,1,8,0:0:0:0:
256,192,155523,1,0,0:0:0:0:
256,192,155634,1,8,0:0:0:0:
256,192,155746,1,0,0:0:0:0:
256,192,155801,1,0,0:0:0:0:
256,192,155857,1,8,0:0:0:0:
256,192,155968,1,0,0:0:0:0:
256,192,156079,1,8,0:0:0:0:
256,192,156190,1,0,0:0:0:0:
256,192,156246,1,0,0:0:0:0:
256,192,156301,1,8,0:0:0:0:
256,192,156357,1,0,0:0:0:0:
256,192,156412,1,8,0:0:0:0:
256,192,156468,1,8,0:0:0:0:
256,192,156523,1,0,0:0:0:0:
256,192,156634,1,8,0:0:0:0:
256,192,156746,1,0,0:0:0:0:
256,192,156968,1,8,0:0:0:0:
256,192,157079,1,0,0:0:0:0:
256,192,157190,1,8,0:0:0:0:
256,192,157246,1,8,0:0:0:0:
256,192,157301,1,0,0:0:0:0:
256,192,157357,1,0,0:0:0:0:
256,192,157412,1,8,0:0:0:0:
256,192,157523,1,0,0:0:0:0:
256,192,157579,1,0,0:0:0:0:
256,192,157634,1,0,0:0:0:0:
256,192,157746,1,8,0:0:0:0:
256,192,157857,1,0,0:0:0:0:
256,192,157912,1,8,0:0:0:0:
256,192,157968,1,0,0:0:0:0:
256,192,158023,1,0,0:0:0:0:
256,192,158079,1,8,0:0:0:0:
256,192,158190,1,0,0:0:0:0:
256,192,158301,1,8,0:0:0:0:
256,192,158412,1,8,0:0:0:0:
256,192,158523,1,4,0:0:0:0:
256,192,158746,1,8,0:0:0:0:
256,192,158857,1,0,0:0:0:0:
256,192,158968,1,8,0:0:0:0:
256,192,159023,1,0,0:0:0:0:
256,192,159079,1,0,0:0:0:0:
256,192,159190,1,8,0:0:0:0:
256,192,159301,1,0,0:0:0:0:
256,192,159412,1,8,0:0:0:0:
256,192,159468,1,8,0:0:0:0:
256,192,159523,1,0,0:0:0:0:
256,192,159579,1,0,0:0:0:0:
256,192,159634,1,8,0:0:0:0:
256,192,159746,1,0,0:0:0:0:
256,192,159801,1,0,0:0:0:0:
256,192,159857,1,0,0:0:0:0:
256,192,159968,1,8,0:0:0:0:
256,192,160079,1,0,0:0:0:0:
256,192,160190,1,8,0:0:0:0:
256,192,160301,1,0,0:0:0:0:
256,192,160523,1,8,0:0:0:0:
256,192,160634,1,0,0:0:0:0:
256,192,160690,1,0,0:0:0:0:
256,192,160746,1,8,0:0:0:0:
256,192,160801,1,8,0:0:0:0:
256,192,160857,1,0,0:0:0:0:
256,192,160968,1,8,0:0:0:0:
256,192,161079,1,0,0:0:0:0:
256,192,161134,1,0,0:0:0:0:
256,192,161190,1,8,0:0:0:0:
256,192,161301,1,0,0:0:0:0:
256,192,161412,1,8,0:0:0:0:
256,192,161523,1,0,0:0:0:0:
256,192,161634,1,8,0:0:0:0:
256,192,161690,1,8,0:0:0:0:
256,192,161746,1,0,0:0:0:0:
256,192,161801,1,0,0:0:0:0:
256,192,161857,1,8,0:0:0:0:
256,192,161968,1,0,0:0:0:0:
256,192,162079,1,8,0:0:0:0:
256,192,162301,1,8,0:0:0:0:
256,192,162412,1,0,0:0:0:0:
256,192,162468,1,0,0:0:0:0:
256,192,162523,1,8,0:0:0:0:
256,192,162579,1,0,0:0:0:0:
256,192,162634,1,8,0:0:0:0:
256,192,162746,1,0,0:0:0:0:
256,192,162857,1,8,0:0:0:0:
256,192,162968,1,0,0:0:0:0:
256,192,163023,1,0,0:0:0:0:
256,192,163079,1,0,0:0:0:0:
256,192,163190,1,8,0:0:0:0:
256,192,163301,1,0,0:0:0:0:
256,192,163412,1,8,0:0:0:0:
256,192,163523,1,0,0:0:0:0:
256,192,163579,1,0,0:0:0:0:
256,192,163634,1,8,0:0:0:0:
256,192,163690,1,8,0:0:0:0:
256,192,163746,1,0,0:0:0:0:
256,192,163857,1,8,0:0:0:0:
256,192,164079,1,8,0:0:0:0:
256,192,164190,1,0,0:0:0:0:
256,192,164246,1,0,0:0:0:0:
256,192,164301,1,8,0:0:0:0:
256,192,164412,1,0,0:0:0:0:
256,192,164523,1,8,0:0:0:0:
256,192,164634,1,0,0:0:0:0:
256,192,164690,1,0,0:0:0:0:
256,192,164746,1,8,0:0:0:0:
256,192,164801,1,8,0:0:0:0:
256,192,164857,1,0,0:0:0:0:
256,192,164968,1,8,0:0:0:0:
256,192,165079,1,8,0:0:0:0:
256,192,165190,1,0,0:0:0:0:
256,192,165246,1,0,0:0:0:0:
256,192,165301,1,0,0:0:0:0:
256,192,165412,1,8,0:0:0:0:
256,192,165468,1,8,0:0:0:0:
256,192,165523,1,8,0:0:0:0:
256,192,165579,1,8,0:0:0:0:
256,192,165634,1,0,0:0:0:0:
256,192,165857,1,8,0:0:0:0:
256,192,165968,1,0,0:0:0:0:
256,192,166023,1,0,0:0:0:0:
256,192,166079,1,8,0:0:0:0:
256,192,166190,1,0,0:0:0:0:
256,192,166301,1,8,0:0:0:0:
256,192,166412,1,8,0:0:0:0:
256,192,166523,1,0,0:0:0:0:
256,192,166579,1,0,0:0:0:0:
256,192,166634,1,0,0:0:0:0:
256,192,166746,1,8,0:0:0:0:
256,192,166857,1,0,0:0:0:0:
256,192,166912,1,0,0:0:0:0:
256,192,166968,1,8,0:0:0:0:
256,192,167079,1,0,0:0:0:0:
256,192,167190,1,8,0:0:0:0:
256,192,167246,1,8,0:0:0:0:
256,192,167301,1,0,0:0:0:0:
256,192,167412,1,8,0:0:0:0:
256,192,167634,1,8,0:0:0:0:
256,192,167746,1,0,0:0:0:0:
256,192,167801,1,0,0:0:0:0:
256,192,167857,1,8,0:0:0:0:
256,192,167968,1,0,0:0:0:0:
256,192,168079,1,8,0:0:0:0:
256,192,168190,1,8,0:0:0:0:
256,192,168301,1,0,0:0:0:0:
256,192,168412,1,0,0:0:0:0:
256,192,168523,1,8,0:0:0:0:
256,192,168579,1,8,0:0:0:0:
256,192,168634,1,0,0:0:0:0:
256,192,168746,1,8,0:0:0:0:
256,192,168857,1,0,0:0:0:0:
256,192,168912,1,0,0:0:0:0:
256,192,168968,1,8,0:0:0:0:
256,192,169079,1,0,0:0:0:0:
256,192,169190,1,8,0:0:0:0:
256,192,169412,1,8,0:0:0:0:
256,192,169523,1,0,0:0:0:0:
256,192,169579,1,0,0:0:0:0:
256,192,169634,1,8,0:0:0:0:
256,192,169746,1,0,0:0:0:0:
256,192,169857,1,8,0:0:0:0:
256,192,169968,1,8,0:0:0:0:
256,192,170079,1,0,0:0:0:0:
256,192,170190,1,8,0:0:0:0:
256,192,170246,1,8,0:0:0:0:
256,192,170301,1,0,0:0:0:0:
256,192,170357,1,0,0:0:0:0:
256,192,170412,1,8,0:0:0:0:
256,192,170523,1,0,0:0:0:0:
256,192,170634,1,0,0:0:0:0:
256,192,170746,1,8,0:0:0:0:
256,192,170801,1,8,0:0:0:0:
256,192,170857,1,0,0:0:0:0:
256,192,170968,1,8,0:0:0:0:
256,192,171190,1,8,0:0:0:0:
256,192,171301,1,0,0:0:0:0:
256,192,171357,1,0,0:0:0:0:
256,192,171412,1,8,0:0:0:0:
256,192,171523,1,0,0:0:0:0:
256,192,171634,1,8,0:0:0:0:
256,192,171746,1,0,0:0:0:0:
256,192,171857,1,8,0:0:0:0:
256,192,171968,1,0,0:0:0:0:
256,192,172079,1,8,0:0:0:0:
256,192,172134,1,8,0:0:0:0:
256,192,172190,1,0,0:0:0:0:
256,192,172301,1,8,0:0:0:0:
256,192,172412,1,8,0:0:0:0:
256,192,172523,1,8,0:0:0:0:
256,192,172634,1,8,0:0:0:0:
256,192,172746,1,4,0:0:0:0:
256,192,172968,1,8,0:0:0:0:
256,192,173079,1,0,0:0:0:0:
256,192,173190,1,0,0:0:0:0:
256,192,173301,1,0,0:0:0:0:
256,192,173412,1,8,0:0:0:0:
256,192,173634,1,0,0:0:0:0:
256,192,173746,1,0,0:0:0:0:
256,192,173857,1,8,0:0:0:0:
256,192,173912,1,8,0:0:0:0:
256,192,173968,1,0,0:0:0:0:
256,192,174079,1,8,0:0:0:0:
256,192,174190,1,0,0:0:0:0:
256,192,174301,1,8,0:0:0:0:
256,192,174523,1,0,0:0:0:0:
256,192,174746,1,8,0:0:0:0:
256,192,174857,1,8,0:0:0:0:
256,192,174968,1,0,0:0:0:0:
256,192,175079,1,0,0:0:0:0:
256,192,175190,1,8,0:0:0:0:
256,192,175412,1,0,0:0:0:0:
256,192,175523,1,0,0:0:0:0:
256,192,175634,1,8,0:0:0:0:
256,192,175746,1,0,0:0:0:0:
256,192,175801,1,0,0:0:0:0:
256,192,175857,1,8,0:0:0:0:
256,192,175968,1,0,0:0:0:0:
256,192,176079,1,8,0:0:0:0:
256,192,176301,1,0,0:0:0:0:
256,192,176523,1,8,0:0:0:0:
256,192,176634,1,0,0:0:0:0:
256,192,176746,1,8,0:0:0:0:
256,192,176857,1,0,0:0:0:0:
256,192,176968,1,8,0:0:0:0:
256,192,177190,1,8,0:0:0:0:
256,192,177301,1,0,0:0:0:0:
256,192,177412,1,8,0:0:0:0:
256,192,177523,1,0,0:0:0:0:
256,192,177579,1,0,0:0:0:0:
256,192,177634,1,8,0:0:0:0:
256,192,177690,1,8,0:0:0:0:
256,192,177746,1,0,0:0:0:0:
256,192,177857,1,8,0:0:0:0:
256,192,178079,1,8,0:0:0:0:
256,192,178190,1,8,0:0:0:0:
256,192,178301,1,8,0:0:0:0:
256,192,178412,1,8,0:0:0:0:
256,192,178523,1,0,0:0:0:0:
256,192,178634,1,0,0:0:0:0:
256,192,178746,1,8,0:0:0:0:
256,192,178857,1,8,0:0:0:0:
256,192,178968,1,0,0:0:0:0:
256,192,179023,1,0,0:0:0:0:
256,192,179079,1,8,0:0:0:0:
256,192,179134,1,0,0:0:0:0:
256,192,179190,1,8,0:0:0:0:
256,192,179246,1,8,0:0:0:0:
256,192,179301,1,0,0:0:0:0:
256,192,179412,1,8,0:0:0:0:
256,192,179468,1,8,0:0:0:0:
256,192,179523,1,0,0:0:0:0:
256,192,179579,1,0,0:0:0:0:
256,192,179634,1,8,0:0:0:0:
256,192,179690,1,8,0:0:0:0:
256,192,179746,1,8,0:0:0:0:
256,192,179801,1,8,0:0:0:0:
256,192,179857,1,0,0:0:0:0:
