osu file format v14

[General]
AudioFilename: Charon.mp3
AudioLeadIn: 0
PreviewTime: 44848
Countdown: 0
SampleSet: Normal
StackLeniency: 0.7
Mode: 0
LetterboxInBreaks: 0
WidescreenStoryboard: 0

[Editor]
Bookmarks: 12362,34305,45276,67219,78191,89162,100133,111105,144191,154991
DistanceSpacing: 0.7
BeatDivisor: 4
GridSize: 8
TimelineZoom: 1.9

[Metadata]
Title:Charon
TitleUnicode:Charon
Artist:DJ SEVEN
ArtistUnicode:DJ SEVEN
Creator:Syrus
Version:Extra
Source:
Tags:
BeatmapID:782319
BeatmapSetID:355327

[Difficulty]
HPDrainRate:6
CircleSize:4
OverallDifficulty:7
ApproachRate:9
SliderMultiplier:3
SliderTickRate:1

[Events]
//Background and Video events
0,0,"Bakcground.png",0,0
//Break Periods
2,68791,77591
2,101705,110162
//Storyboard Layer 0 (Background)
//Storyboard Layer 1 (Fail)
//Storyboard Layer 2 (Pass)
//Storyboard Layer 3 (Foreground)
//Storyboard Sound Samples

[TimingPoints]
1391,342.857142857143,4,2,1,100,1,0
14591,-133.333333333333,4,2,1,100,0,0
14676,-100,4,2,1,100,0,0
14762,-100,4,2,1,100,0,0
28048,-90.9090909090909,4,2,1,100,0,0
28905,-100,4,2,1,100,0,0
32844,-133.333333333333,4,2,1,100,0,0
34305,-133.333333333333,4,3,1,100,0,0
36191,-200,4,3,1,100,0,0
36533,-133.333333333333,4,3,1,100,0,0
39791,-200,4,3,1,100,0,0
45276,-83.3333333333333,4,1,1,100,0,1
50762,-1000,4,1,1,100,0,1
51436,-250,4,1,1,100,0,1
52133,-142.857142857143,4,1,1,100,0,1
52819,-100,4,1,1,100,0,1
53076,-83.3333333333333,4,1,1,100,0,1
60791,-100,4,1,1,100,0,1
67219,-100,4,2,1,100,0,0
80419,-133.333333333333,4,2,1,100,0,0
80505,-100,4,2,1,100,0,0
87791,-200,4,1,1,100,0,0
88648,-100,4,2,1,100,0,0
89505,-200,4,2,1,100,0,0
111105,-66.6666666666667,4,1,1,100,0,1
113676,-55.5555555555556,4,1,1,100,0,1
113848,-66.6666666666667,4,1,1,100,0,1
116591,-200,4,1,1,100,0,1
117276,-125,4,1,1,100,0,1
117962,-83.3333333333333,4,1,1,100,0,1
118648,-62.5,4,1,1,100,0,1
118819,-66.6666666666667,4,1,1,100,0,1
122076,-55.5555555555556,4,1,1,100,0,1
122248,-66.6666666666667,4,1,1,100,0,1
131676,-200,4,1,1,100,0,0
132362,-100,4,2,1,100,0,0
133048,-66.6666666666667,4,1,1,100,0,1
138533,-200,4,1,1,100,0,1
139219,-100,4,1,1,100,0,1
139905,-66.6666666666667,4,1,1,100,0,1
140591,-50,4,1,1,100,0,1
140762,-66.6666666666667,4,1,1,100,0,1
142648,-200,4,1,1,100,0,1
143333,-66.6666666666667,4,1,1,100,0,1
144019,-50,4,1,1,100,0,1
144191,-100,4,1,1,100,0,0
149505,-66.6666666666667,4,1,1,100,0,0
154991,-100,4,1,1,100,0,0

[HitObjects]
77,51,12362,6,0,B|70:83|70:83|74:211,1,150,4|0,0:0|0:0,0:0:0:0:
211,369,12705,1,0,0:0:0:0:
105,199,12876,1,0,0:0:0:0:
220,31,13048,1,0,0:0:0:0:
220,31,13219,1,0,0:0:0:0:
349,215,13391,6,0,P|324:282|254:293,1,150,0|0,0:0|0:0,0:0:0:0:
77,162,13733,1,0,0:0:0:0:
77,162,13819,1,0,0:0:0:0:
77,162,13905,1,0,0:0:0:0:
285,229,14076,1,0,0:0:0:0:
76,295,14247,1,0,0:0:0:0:
206,120,14419,1,0,0:0:0:0:
206,339,14591,6,0,L|253:309,1,56.2500021457673,0|0,0:0|0:0,0:0:0:0:
289,305,14762,1,0,0:0:0:0:
422,124,14933,1,0,0:0:0:0:
125,72,15105,5,0,0:0:0:0:
125,72,15276,1,0,0:0:0:0:
173,368,15448,5,0,0:0:0:0:
173,368,15619,1,0,0:0:0:0:
195,55,15791,6,0,P|122:64|82:125,1,150,0|0,0:0|0:0,0:0:0:0:
200,152,16133,1,0,0:0:0:0:
83,124,16305,5,0,0:0:0:0:
75,173,16390,1,0,0:0:0:0:
80,224,16476,1,0,0:0:0:0:
116,262,16562,1,0,0:0:0:0:
157,287,16648,2,0,P|224:319|293:295,1,150,0|0,0:0|0:0,0:0:0:0:
295,69,16991,1,0,0:0:0:0:
86,157,17162,6,0,B|123:248|123:248|157:287,1,150,0|0,0:0|0:0,0:0:0:0:
368,229,17505,2,0,B|396:127|396:127|416:87,1,150,0|0,0:0|0:0,0:0:0:0:
264,188,17848,5,0,0:0:0:0:
450,313,18019,1,0,0:0:0:0:
248,224,18191,1,0,0:0:0:0:
277,1,18362,1,0,0:0:0:0:
88,123,18533,1,0,0:0:0:0:
232,276,18705,2,0,L|261:207,1,75,0|0,0:0|0:0,0:0:0:0:
261,166,18876,1,0,0:0:0:0:
72,68,19048,6,0,B|83:100|83:100|61:213,1,150,0|0,0:0|0:0,0:0:0:0:
240,48,19391,1,0,0:0:0:0:
100,232,19562,1,0,0:0:0:0:
300,336,19733,2,0,B|368:248|368:248|380:211,1,150,0|0,0:0|0:0,0:0:0:0:
164,64,20248,5,0,0:0:0:0:
372,280,20591,1,0,0:0:0:0:
132,100,20933,5,0,0:0:0:0:
372,96,21105,1,0,0:0:0:0:
372,96,21191,1,0,0:0:0:0:
372,96,21276,1,0,0:0:0:0:
152,344,21448,2,0,L|92:188,1,150,0|0,0:0|0:0,0:0:0:0:
336,244,21791,1,0,0:0:0:0:
336,244,21876,1,0,0:0:0:0:
336,244,21962,1,0,0:0:0:0:
104,36,22133,5,0,0:0:0:0:
304,104,22305,1,0,0:0:0:0:
132,224,22476,1,0,0:0:0:0:
331,328,22648,1,0,0:0:0:0:
227,129,22819,1,0,0:0:0:0:
442,197,22991,1,0,0:0:0:0:
100,56,23162,5,0,0:0:0:0:
100,56,23248,1,0,0:0:0:0:
100,56,23334,2,0,B|104:91|104:91|66:199,1,150,0|0,0:0|0:0,0:0:0:0:
268,104,23676,1,0,0:0:0:0:
456,228,23848,1,0,0:0:0:0:
248,312,24019,2,0,P|179:285|151:218,1,150,0|0,0:0|0:0,0:0:0:0:
276,28,24362,1,0,0:0:0:0:
448,172,24533,1,0,0:0:0:0:
72,332,24705,5,0,0:0:0:0:
76,108,24876,2,0,B|76:156|76:156|127:244,1,150,0|0,0:0|0:0,0:0:0:0:
348,60,25219,1,0,0:0:0:0:
360,96,25305,1,0,0:0:0:0:
364,131,25391,2,0,P|290:143|215:136,1,150,0|0,0:0|0:0,0:0:0:0:
88,52,25733,5,0,0:0:0:0:
136,108,25905,1,0,0:0:0:0:
96,172,26076,1,0,0:0:0:0:
432,248,26248,6,0,L|336:120,1,150,0|0,0:0|0:0,0:0:0:0:
80,136,26591,2,0,L|176:264,1,150,0|0,0:0|0:0,0:0:0:0:
192,32,26933,1,0,0:0:0:0:
352,76,27105,1,0,0:0:0:0:
296,232,27276,1,0,0:0:0:0:
164,132,27448,1,0,0:0:0:0:
164,132,27533,1,0,0:0:0:0:
164,132,27619,2,0,P|156:200|189:280,1,150,0|0,0:0|0:0,0:0:0:0:
278,291,27962,1,0,0:0:0:0:
330,216,28133,6,0,L|206:108,1,165.000005035401,0|0,0:0|0:0,0:0:0:0:
284,64,28476,2,0,P|141:50|163:191,1,330.000010070801,0|0,0:0|0:0,0:0:0:0:
324,304,28991,5,0,0:0:0:0:
384,120,29162,1,0,0:0:0:0:
204,140,29333,1,0,0:0:0:0:
75,217,29505,2,0,P|79:291|132:341,1,150,0|0,0:0|0:0,0:0:0:0:
272,287,29848,1,0,0:0:0:0:
282,137,30019,2,0,P|205:139|154:196,1,150,0|0,0:0|0:0,0:0:0:0:
243,208,30362,5,0,0:0:0:0:
194,66,30533,1,0,0:0:0:0:
343,46,30705,2,0,P|414:90|439:154,1,150,0|0,0:0|0:0,0:0:0:0:
413,297,31048,1,0,0:0:0:0:
264,311,31219,5,0,0:0:0:0:
151,221,31391,1,0,0:0:0:0:
299,178,31562,1,0,0:0:0:0:
444,348,31733,5,0,0:0:0:0:
218,340,31905,1,0,0:0:0:0:
348,157,32076,1,0,0:0:0:0:
367,381,32248,1,0,0:0:0:0:
193,238,32419,1,0,0:0:0:0:
416,208,32591,1,0,0:0:0:0:
233,338,32762,1,0,0:0:0:0:
340,266,32933,5,0,0:0:0:0:
353,229,33018,1,0,0:0:0:0:
353,190,33104,1,0,0:0:0:0:
338,153,33190,1,0,0:0:0:0:
312,124,33275,1,0,0:0:0:0:
277,107,33361,1,0,0:0:0:0:
237,111,33448,6,0,L|277:207,1,56.2500021457673
244,277,33620,2,0,L|215:217,1,56.2500021457673
152,79,33791,2,0,L|173:130,1,56.2500021457673
199,348,33963,2,0,L|177:296,1,56.2500021457673
161,260,34133,1,0,0:0:0:0:
34,46,34305,6,0,L|61:182,1,112.500004291535,4|0,0:0|0:0,0:0:0:0:
45,194,34562,1,0,0:0:0:0:
45,194,34819,5,0,0:0:0:0:
231,280,34991,1,0,0:0:0:0:
231,280,35162,1,0,0:0:0:0:
314,188,35333,2,0,L|353:147,2,56.2500021457673,0|0|0,0:0|0:0|0:0,0:0:0:0:
346,330,35676,5,0,0:0:0:0:
93,103,35848,1,0,0:0:0:0:
93,103,36191,6,0,B|115:97|115:97|149:104|205:111,1,112.5,0|0,0:0|0:0,0:0:0:0:
313,131,36619,1,0,0:0:0:0:
352,134,36705,1,0,0:0:0:0:
406,232,36876,2,0,L|333:270,1,56.2500021457673,0|0,0:0|0:0,0:0:0:0:
331,289,37048,1,0,0:0:0:0:
200,320,37304,5,0,0:0:0:0:
164,338,37391,2,0,L|75:266,1,112.500004291535,0|0,0:0|0:0,0:0:0:0:
413,67,37733,1,0,0:0:0:0:
413,67,38076,1,0,0:0:0:0:
388,51,38420,6,0,P|334:34|279:38,1,112.500004291535,0|0,0:0|0:0,0:0:0:0:
87,155,38762,2,0,L|107:275,1,112.500004291535,0|0,0:0|0:0,0:0:0:0:
125,299,39019,1,0,0:0:0:0:
159,317,39105,1,0,0:0:0:0:
451,339,39276,5,0,0:0:0:0:
234,76,39448,1,0,0:0:0:0:
231,182,39791,6,0,P|285:174|318:130,1,112.5,4|0,0:0|0:0,0:0:0:0:
243,103,40305,1,0,0:0:0:0:
101,153,40476,5,0,0:0:0:0:
102,179,40562,2,0,L|62:296,1,112.5,0|0,0:0|0:0,0:0:0:0:
103,323,41333,1,0,0:0:0:0:
135,36,41676,5,0,0:0:0:0:
312,44,41848,1,0,0:0:0:0:
331,60,41933,1,0,0:0:0:0:
286,163,42105,2,0,L|260:216,1,37.5,0|0,0:0|0:0,0:0:0:0:
194,281,42362,5,0,0:0:0:0:
83,85,42533,1,0,0:0:0:0:
83,85,42791,2,0,L|72:139,1,37.5,0|0,0:0|0:0,0:0:0:0:
428,81,43048,5,0,0:0:0:0:
256,275,43391,1,0,0:0:0:0:
308,159,43562,1,0,0:0:0:0:
75,340,43733,5,0,0:0:0:0:
109,353,43818,1,0,0:0:0:0:
145,347,43904,1,0,0:0:0:0:
174,324,43990,1,0,0:0:0:0:
186,289,44075,1,0,0:0:0:0:
178,252,44161,1,0,0:0:0:0:
156,227,44248,1,0,0:0:0:0:
128,202,44333,5,0,0:0:0:0:
111,148,44418,1,0,0:0:0:0:
125,94,44504,1,0,0:0:0:0:
164,55,44590,1,0,0:0:0:0:
218,42,44675,1,0,0:0:0:0:
271,59,44761,1,0,0:0:0:0:
308,101,44847,1,0,0:0:0:0:
311,161,44933,5,4,0:0:0:0:
389,198,45019,1,8,0:0:0:0:
468,164,45105,1,8,0:0:0:0:
484,76,45276,6,0,B|463:155|368:128|368:128|336:148,1,179.999994506836,0|0,0:0|0:0,0:0:0:0:
95,224,45619,1,0,0:0:0:0:
329,318,45791,1,0,0:0:0:0:
226,88,45962,1,0,0:0:0:0:
226,88,46048,1,0,0:0:0:0:
226,88,46133,1,0,0:0:0:0:
98,306,46305,5,0,0:0:0:0:
345,350,46476,1,0,0:0:0:0:
240,120,46648,1,0,0:0:0:0:
36,232,46819,2,0,B|92:216|92:216|151:109,1,179.999994506836,0|0,0:0|0:0,0:0:0:0:
476,152,47162,2,0,B|420:168|420:168|361:275,1,179.999994506836,0|0,0:0|0:0,0:0:0:0:
144,296,47505,1,0,0:0:0:0:
144,296,47591,1,0,0:0:0:0:
144,296,47676,1,0,0:0:0:0:
58,57,47848,5,0,0:0:0:0:
308,46,48019,2,0,P|358:114|301:175,1,179.999994506836,0|0,0:0|0:0,0:0:0:0:
245,111,48362,1,0,0:0:0:0:
89,308,48533,1,0,0:0:0:0:
341,288,48705,1,0,0:0:0:0:
156,117,48876,1,0,0:0:0:0:
279,337,49048,1,0,0:0:0:0:
368,29,49219,5,0,0:0:0:0:
456,47,49391,1,0,0:0:0:0:
483,188,49562,1,0,0:0:0:0:
329,339,49733,1,0,0:0:0:0:
177,93,49905,1,0,0:0:0:0:
472,296,50076,1,0,0:0:0:0:
71,131,50248,1,0,0:0:0:0:
100,49,50419,5,0,0:0:0:0:
100,49,50591,1,0,0:0:0:0:
462,154,50762,2,0,L|458:170,1,15,4|0,0:0|0:0,0:0:0:0:
286,324,51105,5,0,0:0:0:0:
286,324,51276,1,0,0:0:0:0:
102,135,51448,2,0,L|167:116,1,60,4|0,0:0|0:0,0:0:0:0:
480,24,51791,5,0,0:0:0:0:
292,152,51962,1,0,0:0:0:0:
480,24,52133,2,0,B|464:59|464:59|401:93,1,104.999996795654,4|0,0:0|0:0,0:0:0:0:
432,136,52476,5,0,0:0:0:0:
159,274,52648,1,0,0:0:0:0:
432,136,52819,2,0,B|391:138|391:138|368:184|368:184|316:209,1,150,4|0,0:0|0:0,0:0:0:0:
120,60,53162,5,0,0:0:0:0:
120,60,53248,1,0,0:0:0:0:
120,60,53333,1,0,0:0:0:0:
316,208,53505,2,0,P|301:293|221:326,1,179.999994506836,0|0,0:0|0:0,0:0:0:0:
496,264,53848,5,0,0:0:0:0:
292,332,54019,1,0,0:0:0:0:
308,116,54191,1,0,0:0:0:0:
120,224,54362,1,0,0:0:0:0:
336,236,54533,1,0,0:0:0:0:
236,44,54705,1,0,0:0:0:0:
364,220,54876,5,0,0:0:0:0:
359,273,54961,1,0,0:0:0:0:
325,316,55047,1,0,0:0:0:0:
274,335,55133,1,0,0:0:0:0:
221,325,55218,1,0,0:0:0:0:
182,288,55304,1,0,0:0:0:0:
166,234,55391,2,0,P|86:270|56:353,1,179.999994506836,0|0,0:0|0:0,0:0:0:0:
261,148,55733,6,0,L|265:237,1,89.9999972534181,0|0,0:0|0:0,0:0:0:0:
179,50,55905,2,0,L|95:17,1,89.9999972534181,0|0,0:0|0:0,0:0:0:0:
329,50,56076,2,0,L|412:17,1,89.9999972534181,0|0,0:0|0:0,0:0:0:0:
416,128,56248,5,0,0:0:0:0:
254,320,56419,1,0,0:0:0:0:
61,155,56591,1,0,0:0:0:0:
301,80,56762,1,0,0:0:0:0:
127,262,56933,1,0,0:0:0:0:
375,309,57105,1,0,0:0:0:0:
378,57,57276,1,0,0:0:0:0:
101,75,57448,5,0,0:0:0:0:
442,299,57619,1,0,0:0:0:0:
75,288,57791,1,0,0:0:0:0:
448,97,57962,1,0,0:0:0:0:
95,27,58133,1,0,0:0:0:0:
250,280,58305,1,0,0:0:0:0:
174,325,58476,2,0,P|253:360|327:316,1,179.999994506836,0|0,0:0|0:0,0:0:0:0:
293,308,58819,5,0,0:0:0:0:
293,75,58991,1,0,0:0:0:0:
156,264,59162,1,0,0:0:0:0:
378,192,59333,1,0,0:0:0:0:
156,119,59505,1,0,0:0:0:0:
344,286,59676,1,0,0:0:0:0:
80,36,59848,5,0,0:0:0:0:
424,136,60019,1,0,0:0:0:0:
120,128,60191,1,0,0:0:0:0:
364,224,60362,1,0,0:0:0:0:
168,236,60533,1,0,0:0:0:0:
284,356,60705,1,0,0:0:0:0:
80,60,60876,5,0,0:0:0:0:
228,80,61048,2,0,B|200:156|200:156|194:224,1,150,0|0,0:0|0:0,0:0:0:0:
332,164,61391,1,0,0:0:0:0:
303,36,61562,2,0,P|376:24|433:69,1,150,0|0,0:0|0:0,0:0:0:0:
396,216,61905,1,0,0:0:0:0:
256,268,62076,1,0,0:0:0:0:
144,168,62248,1,0,0:0:0:0:
144,168,62333,1,0,0:0:0:0:
144,168,62419,1,0,0:0:0:0:
332,40,62591,5,0,0:0:0:0:
460,224,62762,1,0,0:0:0:0:
248,296,62933,1,0,0:0:0:0:
264,72,63105,1,0,0:0:0:0:
448,200,63276,1,0,0:0:0:0:
232,272,63448,1,0,0:0:0:0:
360,88,63619,5,0,0:0:0:0:
208,248,63791,1,0,0:0:0:0:
47,135,63962,2,0,P|118:155|185:125,1,150,0|0,0:0|0:0,0:0:0:0:
396,48,64305,1,0,0:0:0:0:
320,260,64476,1,0,0:0:0:0:
88,336,64648,5,0,0:0:0:0:
104,96,64819,1,0,0:0:0:0:
104,96,64905,1,0,0:0:0:0:
104,96,64991,1,0,0:0:0:0:
324,60,65162,5,0,0:0:0:0:
472,200,65333,1,0,0:0:0:0:
472,200,65419,1,0,0:0:0:0:
472,200,65505,1,0,0:0:0:0:
276,308,65676,1,0,0:0:0:0:
76,64,65848,5,0,0:0:0:0:
109,33,65933,1,0,0:0:0:0:
153,23,66019,1,0,0:0:0:0:
195,38,66105,1,0,0:0:0:0:
224,73,66190,1,0,0:0:0:0:
231,118,66276,1,0,0:0:0:0:
214,159,66362,1,0,0:0:0:0:
320,328,66533,5,0,0:0:0:0:
366,298,66618,1,0,0:0:0:0:
400,254,66704,1,0,0:0:0:0:
415,201,66790,1,0,0:0:0:0:
411,146,66875,1,0,0:0:0:0:
387,96,66961,1,0,0:0:0:0:
348,58,67047,1,0,0:0:0:0:
256,192,67218,1,4,0:0:0:0:
256,192,67305,12,0,68591,0:0:0:0:
49,94,78191,6,0,B|70:131|70:131|31:232,1,150,0|0,0:0|0:0,0:0:0:0:
218,356,78533,1,0,0:0:0:0:
202,130,78705,1,0,0:0:0:0:
15,254,78876,1,0,0:0:0:0:
213,146,79048,1,0,0:0:0:0:
411,40,79219,1,0,0:0:0:0:
411,40,79304,1,0,0:0:0:0:
411,40,79390,1,0,0:0:0:0:
412,265,79562,5,0,0:0:0:0:
187,270,79733,2,0,P|170:206|204:71,1,150,0|0,0:0|0:0,0:0:0:0:
199,120,80076,1,0,0:0:0:0:
199,120,80248,1,0,0:0:0:0:
371,263,80419,6,0,L|423:300,1,56.2500021457673,0|0,0:0|0:0,0:0:0:0:
435,319,80591,1,0,0:0:0:0:
457,103,80762,1,0,0:0:0:0:
277,238,80933,2,0,P|232:295|150:318,1,150,0|0,0:0|0:0,0:0:0:0:
147,203,81276,1,0,0:0:0:0:
132,91,81448,2,0,P|167:30|281:44,1,150,0|0,0:0|0:0,0:0:0:0:
441,118,81791,1,0,0:0:0:0:
230,104,81962,1,0,0:0:0:0:
184,278,82133,6,0,B|275:351|275:351|309:353,1,150,0|0,0:0|0:0,0:0:0:0:
132,91,82476,2,0,B|170:99|170:99|255:169,1,150,0|0,0:0|0:0,0:0:0:0:
444,292,82819,1,0,0:0:0:0:
438,66,82991,1,0,0:0:0:0:
438,66,83076,1,0,0:0:0:0:
438,66,83162,1,0,0:0:0:0:
338,267,83333,6,0,B|321:239|321:239|265:257|210:305,1,150,0|0,0:0|0:0,0:0:0:0:
19,193,83676,2,0,B|-5:171|-5:171|-32:108|23:66,1,150,0|0,0:0|0:0,0:0:0:0:
59,59,83933,1,0,0:0:0:0:
96,54,84019,1,0,0:0:0:0:
321,68,84191,1,0,0:0:0:0:
235,275,84362,1,0,0:0:0:0:
418,145,84533,1,0,0:0:0:0:
410,222,84876,5,0,0:0:0:0:
110,226,85219,2,0,P|79:160|117:99,1,150,0|0,0:0|0:0,0:0:0:0:
169,171,85562,1,0,0:0:0:0:
169,171,85733,1,0,0:0:0:0:
377,84,85905,5,0,0:0:0:0:
377,84,85991,1,0,0:0:0:0:
377,84,86076,2,0,P|420:176|377:230,1,150,0|0,0:0|0:0,0:0:0:0:
212,335,86419,2,0,P|254:276|234:207,1,150,0|0,0:0|0:0,0:0:0:0:
10,177,86762,2,0,P|34:99|107:75,1,150,0|0,0:0|0:0,0:0:0:0:
111,173,87105,1,0,0:0:0:0:
270,15,87276,1,0,0:0:0:0:
453,145,87448,2,0,P|379:149|321:195,1,150,0|0,0:0|0:0,0:0:0:0:
281,340,87791,6,0,L|354:373,1,75,4|0,0:0|0:0,0:0:0:0:
88,205,88048,2,0,L|20:250,1,75,4|0,0:0|0:0,0:0:0:0:
301,107,88305,2,0,L|295:25,1,75,4|0,0:0|0:0,0:0:0:0:
229,223,88648,5,0,0:0:0:0:
443,71,88819,1,0,0:0:0:0:
464,168,88990,1,0,0:0:0:0:
434,210,89076,1,0,0:0:0:0:
386,229,89162,2,0,P|370:158|306:123,1,150,4|0,0:0|0:0,0:0:0:0:
277,232,89505,6,0,L|193:242,1,75,0|0,0:0|0:0,0:0:0:0:
488,72,89848,1,0,0:0:0:0:
382,150,90019,2,0,L|298:140,1,75,0|0,0:0|0:0,0:0:0:0:
236,266,90533,6,0,L|162:258,1,75,0|0,0:0|0:0,0:0:0:0:
47,239,90876,1,0,0:0:0:0:
347,287,91048,1,0,0:0:0:0:
448,42,91305,5,0,0:0:0:0:
440,67,91391,2,0,P|412:101|355:122,1,75,0|0,0:0|0:0,0:0:0:0:
167,195,91733,1,0,0:0:0:0:
244,310,91905,2,0,L|323:254,1,75,0|0,0:0|0:0,0:0:0:0:
83,67,92248,1,0,0:0:0:0:
512,40,92762,5,0,0:0:0:0:
507,189,92933,1,0,0:0:0:0:
358,163,93105,1,0,0:0:0:0:
358,163,93191,1,0,0:0:0:0:
358,163,93276,2,0,L|275:198,1,75,0|0,0:0|0:0,0:0:0:0:
225,55,93619,1,0,0:0:0:0:
88,111,93791,1,0,0:0:0:0:
254,248,93962,6,0,L|255:177,1,37.5,0|0,0:0|0:0,0:0:0:0:
254,173,94133,1,0,0:0:0:0:
392,117,94304,1,0,0:0:0:0:
111,225,94476,1,0,0:0:0:0:
110,74,94648,2,0,L|181:37,1,75,0|0,0:0|0:0,0:0:0:0:
326,52,94991,2,0,L|259:86,2,75,0|0|0,0:0|0:0|0:0,0:0:0:0:
43,155,95505,5,0,0:0:0:0:
313,299,95676,1,0,0:0:0:0:
313,299,96019,2,0,L|246:264,1,75,0|0,0:0|0:0,0:0:0:0:
312,129,96362,2,0,L|378:163,1,75,0|0,0:0|0:0,0:0:0:0:
186,46,96705,1,0,0:0:0:0:
186,46,96791,1,0,0:0:0:0:
186,46,96876,1,0,0:0:0:0:
444,203,97048,6,0,L|377:237,1,75,0|0,0:0|0:0,0:0:0:0:
392,87,97391,1,0,0:0:0:0:
201,317,97733,2,0,L|124:370,2,75,0|0|0,0:0|0:0|0:0,0:0:0:0:
94,138,98248,5,0,0:0:0:0:
334,316,98419,1,0,0:0:0:0:
295,17,98591,1,0,0:0:0:0:
156,72,98762,6,0,P|119:74|85:57,1,75,4|0,0:0|0:0,0:0:0:0:
436,69,99019,2,0,P|405:89|389:123,1,75,4|0,0:0|0:0,0:0:0:0:
250,366,99276,2,0,P|248:329|228:299,1,75,4|0,0:0|0:0,0:0:0:0:
134,311,99619,1,0,0:0:0:0:
316,71,99791,1,0,0:0:0:0:
35,60,99962,5,0,0:0:0:0:
48,82,100048,1,0,0:0:0:0:
256,192,100133,12,0,101505,0:0:0:0:
94,89,110762,5,0,0:0:0:0:
188,108,110848,1,0,0:0:0:0:
292,88,110933,1,0,0:0:0:0:
400,110,111105,6,0,B|390:130|420:147|420:147|403:207|336:195|336:195|290:218|287:261,1,225.000008583069,0|0,0:0|0:0,0:0:0:0:
306,346,111448,1,0,0:0:0:0:
306,37,111619,1,0,0:0:0:0:
124,287,111791,1,0,0:0:0:0:
418,192,111962,1,0,0:0:0:0:
124,96,112133,1,0,0:0:0:0:
303,298,112305,1,0,0:0:0:0:
323,246,112391,1,0,0:0:0:0:
298,195,112476,1,0,0:0:0:0:
38,271,112648,6,0,B|36:231|36:231|45:195|69:172|69:172|124:198|162:190|187:154,1,225.000008583069,0|0,0:0|0:0,0:0:0:0:
474,113,112991,2,0,B|476:153|476:153|467:189|443:212|443:212|388:186|350:194|325:230,1,225.000008583069,0|0,0:0|0:0,0:0:0:0:
414,299,113333,1,0,0:0:0:0:
455,261,113418,1,0,0:0:0:0:
480,211,113504,1,0,0:0:0:0:
483,155,113590,1,0,0:0:0:0:
464,103,113676,2,0,B|438:133|438:133|407:153|373:154|373:154|334:121|330:63|344:42|344:42|371:14,1,269.999991760254,0|0,0:0|0:0,0:0:0:0:
48,146,114019,5,0,0:0:0:0:
301,51,114191,1,0,0:0:0:0:
242,313,114362,1,0,0:0:0:0:
168,53,114533,1,0,0:0:0:0:
417,157,114705,1,0,0:0:0:0:
156,225,114876,1,0,0:0:0:0:
380,73,115048,1,0,0:0:0:0:
351,340,115219,5,0,0:0:0:0:
266,82,115391,1,0,0:0:0:0:
199,342,115562,1,0,0:0:0:0:
378,85,115733,1,0,0:0:0:0:
468,340,115905,1,0,0:0:0:0:
275,93,116076,1,0,0:0:0:0:
93,45,116248,5,0,0:0:0:0:
93,45,116419,1,0,0:0:0:0:
443,120,116591,2,0,L|411:188,1,75,4|0,0:0|0:0,0:0:0:0:
81,77,116933,5,0,0:0:0:0:
81,77,117105,1,0,0:0:0:0:
455,90,117276,2,0,L|388:244,1,120,4|0,0:0|0:0,0:0:0:0:
102,302,117619,5,0,0:0:0:0:
370,62,117790,1,0,0:0:0:0:
109,307,117962,2,0,B|123:269|123:269|100:220|54:191|54:191|43:162|46:138,1,179.999994506836,4|0,0:0|0:0,0:0:0:0:
393,64,118305,5,0,0:0:0:0:
97,339,118476,1,0,0:0:0:0:
400,67,118648,2,0,B|426:65|446:84|446:84|424:131|436:171|436:171|469:200|475:248|475:248|566:279,1,240,4|0,0:0|0:0,0:0:0:0:
196,320,118991,1,0,0:0:0:0:
165,260,119076,1,0,0:0:0:0:
192,198,119162,1,0,0:0:0:0:
164,136,119248,1,0,0:0:0:0:
201,77,119333,2,0,B|221:133|221:133|151:197|151:197|204:361,1,225.000008583069,0|0,0:0|0:0,0:0:0:0:
443,270,119676,5,0,0:0:0:0:
311,33,119848,1,0,0:0:0:0:
192,275,120019,1,0,0:0:0:0:
434,153,120191,1,0,0:0:0:0:
164,158,120362,2,0,B|254:234|254:234|396:203,1,225.000008583069,0|0,0:0|0:0,0:0:0:0:
399,185,120619,1,0,0:0:0:0:
434,153,120705,1,0,0:0:0:0:
178,71,120876,1,0,0:0:0:0:
214,95,120962,2,0,B|273:104|273:104|335:169,1,112.500004291535,0|0,0:0|0:0,0:0:0:0:
114,330,121219,5,0,0:0:0:0:
34,70,121391,1,0,0:0:0:0:
34,70,121476,1,0,0:0:0:0:
34,70,121562,1,0,0:0:0:0:
304,72,121733,1,0,0:0:0:0:
359,65,121818,1,0,0:0:0:0:
409,89,121904,1,0,0:0:0:0:
439,136,121990,1,0,0:0:0:0:
459,189,122076,2,0,B|453:215|453:215|421:247|421:247|469:295|469:295|421:364|340:310,1,269.999991760254,4|0,0:0|0:0,0:0:0:0:
80,80,122419,5,0,0:0:0:0:
416,64,122591,1,0,0:0:0:0:
208,328,122762,1,0,0:0:0:0:
128,80,122933,1,0,0:0:0:0:
400,280,123105,1,0,0:0:0:0:
408,64,123276,1,0,0:0:0:0:
184,320,123448,2,0,B|271:255|271:255|321:150,1,225.000008583069,0|0,0:0|0:0,0:0:0:0:
106,356,123791,1,0,0:0:0:0:
103,45,123962,2,0,B|149:95|113:147|113:147|170:162|231:147,1,225.000008583069,0|0,0:0|0:0,0:0:0:0:
466,28,124305,5,0,0:0:0:0:
466,28,124391,1,0,0:0:0:0:
466,28,124476,1,0,0:0:0:0:
386,357,124648,1,0,0:0:0:0:
87,198,124819,1,0,0:0:0:0:
424,173,124991,1,0,0:0:0:0:
100,353,125162,1,0,0:0:0:0:
166,22,125333,5,0,0:0:0:0:
306,329,125505,1,0,0:0:0:0:
62,96,125676,1,0,0:0:0:0:
380,211,125848,1,0,0:0:0:0:
29,218,126019,1,0,0:0:0:0:
335,43,126191,1,0,0:0:0:0:
167,334,126362,1,0,0:0:0:0:
103,3,126533,1,0,0:0:0:0:
456,122,126705,1,0,0:0:0:0:
331,252,126876,6,0,P|270:169|346:100,1,225.000008583069,0|0,0:0|0:0,0:0:0:0:
452,135,127219,1,0,0:0:0:0:
443,247,127391,1,0,0:0:0:0:
331,252,127562,2,0,P|346:166|510:177,1,225.000008583069,0|0,0:0|0:0,0:0:0:0:
472,248,127905,1,0,0:0:0:0:
393,327,128076,1,0,0:0:0:0:
282,305,128248,1,0,0:0:0:0:
262,194,128419,1,0,0:0:0:0:
478,50,128591,5,0,0:0:0:0:
426,30,128676,1,0,0:0:0:0:
371,41,128762,1,0,0:0:0:0:
332,81,128848,1,0,0:0:0:0:
321,135,128933,2,0,P|294:277|188:222,1,225.000008583069,0|0,0:0|0:0,0:0:0:0:
0,198,129275,1,0,0:0:0:0:
321,134,129447,2,0,P|428:145|478:241,1,225.000008583069,0|0,0:0|0:0,0:0:0:0:
212,298,129791,5,0,0:0:0:0:
95,55,129962,1,0,0:0:0:0:
363,38,130133,2,0,B|436:49|436:49|460:136|430:197,1,225.000008583069,0|0,0:0|0:0,0:0:0:0:
128,352,130476,1,0,0:0:0:0:
72,64,130648,1,0,0:0:0:0:
336,352,130819,1,0,0:0:0:0:
416,72,130991,1,0,0:0:0:0:
144,352,131162,1,0,0:0:0:0:
128,64,131333,2,0,B|191:154|191:154|174:267,1,225.000008583069,0|0,0:0|0:0,0:0:0:0:
397,72,131676,6,0,L|339:7,1,75,4|0,0:0|0:0,0:0:0:0:
240,362,131933,2,0,L|325:344,1,75,4|0,0:0|0:0,0:0:0:0:
67,81,132191,2,0,L|39:163,1,75,4|0,0:0|0:0,0:0:0:0:
203,131,132533,5,0,0:0:0:0:
212,94,132618,1,0,0:0:0:0:
235,65,132704,1,0,0:0:0:0:
268,47,132790,1,0,0:0:0:0:
305,44,132875,1,0,0:0:0:0:
340,55,132961,1,0,0:0:0:0:
368,80,133048,2,0,B|328:128|328:128|312:232|336:248|336:248|384:328,1,225.000008583069,4|0,0:0|0:0,0:0:0:0:
416,344,133391,5,0,0:0:0:0:
132,162,133562,1,0,0:0:0:0:
274,251,133733,2,0,P|339:169|416:67,1,225.000008583069,0|0,0:0|0:0,0:0:0:0:
206,342,134076,1,0,0:0:0:0:
19,59,134248,1,0,0:0:0:0:
72,42,134333,1,0,0:0:0:0:
128,45,134419,2,0,B|97:108|124:158|124:158|183:151|215:208,1,225.000008583069,0|0,0:0|0:0,0:0:0:0:
499,23,134762,1,0,0:0:0:0:
251,251,134933,2,0,B|234:228|234:228|188:157|128:157|128:157|39:166,1,225.000008583069,0|0,0:0|0:0,0:0:0:0:
384,49,135276,5,0,0:0:0:0:
205,97,135448,1,0,0:0:0:0:
205,97,135533,1,0,0:0:0:0:
205,97,135619,2,0,P|309:125|384:49,1,225.000008583069,0|0,0:0|0:0,0:0:0:0:
72,352,135962,5,0,0:0:0:0:
289,39,136133,1,0,0:0:0:0:
243,352,136305,1,0,0:0:0:0:
10,43,136476,1,0,0:0:0:0:
58,352,136648,1,0,0:0:0:0:
276,40,136819,1,0,0:0:0:0:
74,151,136991,5,0,0:0:0:0:
368,364,137162,1,0,0:0:0:0:
256,19,137333,1,0,0:0:0:0:
143,364,137505,1,0,0:0:0:0:
438,151,137676,1,0,0:0:0:0:
119,35,137848,1,0,0:0:0:0:
269,335,138019,1,0,0:0:0:0:
440,42,138191,5,0,0:0:0:0:
440,42,138362,1,0,0:0:0:0:
64,112,138533,2,0,B|102:139|102:139|134:189,1,75,4|0,0:0|0:0,0:0:0:0:
454,301,138876,5,0,0:0:0:0:
454,301,139048,1,0,0:0:0:0:
55,97,139219,2,0,B|78:142|78:142|58:165|61:194|61:194|79:246,1,150,4|0,0:0|0:0,0:0:0:0:
390,45,139562,5,0,0:0:0:0:
134,344,139733,1,0,0:0:0:0:
390,45,139905,2,0,B|330:29|276:62|276:62|305:126|278:166,1,225.000008583069,4|0,0:0|0:0,0:0:0:0:
52,85,140247,5,0,0:0:0:0:
435,323,140419,1,0,0:0:0:0:
52,85,140591,2,0,B|117:57|117:57|139:137|210:128|210:128|303:106|341:243,1,300,4|0,0:0|0:0,0:0:0:0:
240,206,140933,1,0,0:0:0:0:
240,206,141019,1,0,0:0:0:0:
240,206,141105,2,0,P|208:78|304:54,1,225.000008583069,0|0,0:0|0:0,0:0:0:0:
268,128,141448,2,0,P|182:220|127:164,1,225.000008583069,0|0,0:0|0:0,0:0:0:0:
446,51,141791,5,0,0:0:0:0:
288,348,141962,1,0,0:0:0:0:
263,12,142133,1,0,0:0:0:0:
473,277,142305,1,0,0:0:0:0:
156,162,142476,1,0,0:0:0:0:
421,6,142648,6,0,L|371:98,1,75,4|0,0:0|0:0,0:0:0:0:
250,384,142905,2,0,L|195:294,1,75,4|0,0:0|0:0,0:0:0:0:
17,38,143162,2,0,L|121:35,1,75,4|0,0:0|0:0,0:0:0:0:
401,174,143505,5,0,0:0:0:0:
70,110,143676,1,0,0:0:0:0:
43,159,143761,1,0,0:0:0:0:
49,215,143847,1,0,0:0:0:0:
75,261,143933,1,0,0:0:0:0:
125,284,144019,2,0,B|125:241|125:241|186:264|293:268|302:168|277:90,1,300,0|0,0:0|0:0,0:0:0:0:
200,167,144362,5,0,0:0:0:0:
200,167,144533,2,0,L|299:283,1,150,0|0,0:0|0:0,0:0:0:0:
398,79,144876,1,0,0:0:0:0:
407,304,145048,2,0,L|310:189,1,150,0|0,0:0|0:0,0:0:0:0:
154,26,145391,1,0,0:0:0:0:
154,26,145476,1,0,0:0:0:0:
154,26,145562,1,0,0:0:0:0:
310,189,145733,6,0,L|213:303,1,150,0|0,0:0|0:0,0:0:0:0:
406,74,146076,1,0,0:0:0:0:
180,74,146248,1,0,0:0:0:0:
180,298,146419,2,0,L|31:143,1,150,0|0,0:0|0:0,0:0:0:0:
232,27,146762,5,0,0:0:0:0:
306,238,146933,1,0,0:0:0:0:
403,65,147105,2,0,P|409:138|367:198,1,150,0|0,0:0|0:0,0:0:0:0:
173,82,147448,1,0,0:0:0:0:
204,304,147619,1,0,0:0:0:0:
204,304,147705,1,0,0:0:0:0:
204,304,147791,2,0,L|345:217,1,150,0|0,0:0|0:0,0:0:0:0:
248,16,148133,5,0,0:0:0:0:
32,83,148305,1,0,0:0:0:0:
255,101,148476,1,0,0:0:0:0:
40,170,148648,1,0,0:0:0:0:
207,20,148819,1,0,0:0:0:0:
301,225,148991,1,0,0:0:0:0:
426,39,149162,1,0,0:0:0:0:
205,81,149333,1,0,0:0:0:0:
438,326,149505,6,0,B|473:221|473:221|365:172,1,225.000008583069,0|0,0:0|0:0,0:0:0:0:
38,99,149848,2,0,B|11:210|11:210|119:234,1,225.000008583069,0|0,0:0|0:0,0:0:0:0:
401,48,150191,6,0,P|331:153|199:153,1,225.000008583069,0|0,0:0|0:0,0:0:0:0:
111,336,150533,2,0,P|181:231|313:231,1,225.000008583069,0|0,0:0|0:0,0:0:0:0:
205,104,150876,6,0,B|136:126|118:50|118:50|69:32|2:56,1,225.000008583069,0|0,0:0|0:0,0:0:0:0:
307,280,151219,2,0,B|376:258|393:333|393:333|442:351|510:328,1,225.000008583069,0|0,0:0|0:0,0:0:0:0:
156,52,151562,6,0,P|53:77|29:181,1,225.000008583069,0|0,0:0|0:0,0:0:0:0:
355,331,151905,2,0,P|458:306|482:202,1,225.000008583069,0|0,0:0|0:0,0:0:0:0:
183,43,152248,5,0,0:0:0:0:
46,350,152419,1,0,0:0:0:0:
351,204,152591,1,0,0:0:0:0:
21,134,152762,1,0,0:0:0:0:
344,40,152933,1,0,0:0:0:0:
223,356,153105,1,0,0:0:0:0:
265,22,153276,1,0,0:0:0:0:
454,302,153448,1,0,0:0:0:0:
127,221,153619,5,0,0:0:0:0:
454,135,153791,1,0,0:0:0:0:
178,328,153962,1,0,0:0:0:0:
303,15,154133,1,0,0:0:0:0:
367,347,154305,1,0,0:0:0:0:
87,159,154476,1,0,0:0:0:0:
410,59,154648,1,0,0:0:0:0:
146,268,154819,1,0,0:0:0:0:
331,139,154991,5,4,0:0:0:0:
256,192,155076,12,0,157733,0:0:0:0:
