osu file format v14

[General]
AudioFilename: f974yTj6dFLH.128.mp3
AudioLeadIn: 3000
PreviewTime: -1
Countdown: 1
SampleSet: Soft
StackLeniency: 1
Mode: 0
LetterboxInBreaks: 0
EpilepsyWarning: 1
WidescreenStoryboard: 0

[Editor]
Bookmarks: 23146,32289,41432,50575,59718,76860,78003,95146,122575,142003,151146,159146,169432,177432,178575,195718,213718
DistanceSpacing: 0.9
BeatDivisor: 2
GridSize: 8
TimelineZoom: 1

[Metadata]
Title:MTC
TitleUnicode:MTC
Artist:DJ S3RL
ArtistUnicode:DJ S3RL
Creator:Remyria
Version:PrivatHansi1's Insano
Source:
Tags:PrivatHansi1
BeatmapID:2015026
BeatmapSetID:962310

[Difficulty]
HPDrainRate:3
CircleSize:4
OverallDifficulty:3
ApproachRate:9
SliderMultiplier:1.4
SliderTickRate:2

[Events]
//Background and Video events
0,0,"hot-anime-girl-in-bra_1680x1050 - Kopie.jpg",0,0
//Break Periods
2,42289,49718
2,96003,103432
2,161432,167432
//Storyboard Layer 0 (Background)
//Storyboard Layer 1 (Fail)
//Storyboard Layer 2 (Pass)
//Storyboard Layer 3 (Foreground)
//Storyboard Sound Samples

[TimingPoints]
3718,285.714285714286,4,1,0,50,1,0
4860,-100,4,1,0,50,0,1
4932,-100,4,1,0,50,0,0
5146,-100,4,2,0,50,0,0
23146,-100,4,1,0,50,0,1
23218,-100,4,1,0,50,0,0
32289,-80,4,1,0,50,0,1
32289,-80,4,1,0,50,0,0
32360,-80,4,1,0,50,0,0
39622,-133.333333333333,4,1,0,50,0,0
40194,-80,4,1,0,50,0,0
41432,-80,4,1,0,50,0,1
41503,-80,4,1,0,50,0,0
50575,-80,4,1,0,50,0,1
50646,-80,4,1,0,50,0,0
55146,-80,4,1,0,50,0,1
58479,-80,4,1,0,50,0,0
58575,-80,4,1,0,50,0,1
58670,-80,4,1,0,50,0,0
59718,-66.6666666666667,4,2,0,50,0,1
68670,-66.6666666666667,4,2,0,50,0,0
68860,-66.6666666666667,4,2,0,50,0,1
76861,-66.6666666666667,4,1,0,50,0,0
78003,-57.1428571428571,4,1,0,50,0,1
78003,-66.6666666666667,4,1,0,50,0,1
95075,-66.6666666666667,4,1,0,50,0,0
95146,-66.6666666666667,4,1,0,50,0,1
95218,-66.6666666666667,4,1,0,50,0,0
105432,-80,4,1,0,50,0,0
122575,-50,4,1,0,50,0,1
123718,-100,4,1,0,50,0,0
151146,-80,4,1,0,50,0,1
159146,-80,4,1,0,50,0,0
160289,-80,4,1,0,50,0,1
160432,-80,4,1,0,50,0,0
169432,-100,4,2,0,50,0,0
169718,-100,4,2,0,50,0,0
174003,-80,4,2,0,50,0,1
177432,-80,4,1,0,50,0,0
178575,-66.6666666666667,4,1,0,50,0,1
195575,-66.6666666666667,4,1,0,50,0,0
195718,-66.6666666666667,4,1,0,50,0,1
195860,-66.6666666666667,4,1,0,50,0,0
196575,-66.6666666666667,4,1,0,50,0,1
210575,-66.6666666666667,4,1,0,20,0,1
214003,-66.6666666666667,4,1,0,20,0,0

[Colours]
Combo1 : 48,180,250
Combo2 : 128,255,255
Combo3 : 85,139,253
Combo4 : 181,0,181
Combo5 : 156,57,255

[HitObjects]
256,192,3717,12,0,4860,0:0:0:0:
128,256,5145,5,0,0:0:0:0:
128,128,5431,1,0,0:0:0:0:
240,192,5717,2,0,B|296:192|296:96|240:96,1,140
368,96,6288,2,0,B|312:96|312:192|368:192,1,140
368,320,6860,1,0,0:0:0:0:
256,256,7145,1,0,0:0:0:0:
144,320,7431,2,0,B|144:176,1,140
16,184,8002,1,0,0:0:0:0:
144,180,8288,2,0,B|144:40,1,140
256,104,8860,5,0,0:0:0:0:
256,104,9145,1,0,0:0:0:0:
384,104,9431,1,0,0:0:0:0:
384,104,9717,1,0,0:0:0:0:
384,232,10002,2,0,B|384:376,1,140
256,376,10574,2,0,B|256:232,1,140
128,232,11145,5,0,0:0:0:0:
128,232,11431,1,0,0:0:0:0:
64,336,11717,1,0,0:0:0:0:
184,336,12002,1,0,0:0:0:0:
392,192,12288,1,0,0:0:0:0:
392,192,12574,2,0,B|392:48,1,140
264,56,13145,1,0,0:0:0:0:
264,184,13431,2,0,B|120:184,1,140
120,56,14002,1,0,0:0:0:0:
120,184,14288,6,0,B|64:184|64:280|120:280,1,140
240,288,14860,2,0,B|296:288|296:384|240:384,1,140
480,288,15431,1,0,0:0:0:0:
480,160,15717,1,0,0:0:0:0:
368,224,16002,1,0,0:0:0:0:
368,224,16288,2,0,B|312:224|312:128|368:128,1,140
32,96,16860,1,0,0:0:0:0:
32,224,17146,1,0,0:0:0:0:
144,160,17431,5,0,0:0:0:0:
144,160,17717,2,0,B|200:160|200:256|144:256,1,140
146,255,18288,1,0,0:0:0:0:
256,320,18574,1,0,0:0:0:0:
368,256,18860,1,0,0:0:0:0:
368,128,19145,1,0,0:0:0:0:
144,128,19431,1,0,0:0:0:0:
368,0,19717,1,0,0:0:0:0:
144,0,20002,2,0,B|183:-39|251:28|211:67,1,140
368,0,20574,2,0,B|328:-39|260:28|300:67,1,140
256,312,21431,5,0,0:0:0:0:
256,184,21717,1,0,0:0:0:0:
352,264,22002,1,0,0:0:0:0:
256,184,22288,1,0,0:0:0:0:
160,264,22574,1,0,0:0:0:0:
256,312,22860,1,4,0:0:0:0:
256,312,23002,1,4,0:0:0:0:
256,312,23145,1,4,0:0:0:0:
144,88,23431,5,2,0:0:0:0:
368,88,23716,1,0,0:0:0:0:
256,24,24002,1,2,0:0:0:0:
376,248,24288,2,0,B|296:272|264:272|264:272|264:248,1,140,0|2,0:0|0:0,0:0:0:0:
136,248,24860,2,0,B|216:272|248:272|248:272|248:248,1,140,0|2,0:0|0:0,0:0:0:0:
184,136,25431,1,0,0:0:0:0:
328,136,25717,1,2,0:0:0:0:
112,264,26002,1,0,0:0:0:0:
400,264,26288,1,2,0:0:0:0:
256,56,26574,1,0,0:0:0:0:
256,96,26860,5,2,0:0:0:0:
256,112,26956,1,0,0:0:0:0:
256,128,27050,1,0,0:0:0:0:
256,144,27146,1,0,0:0:0:0:
272,240,27431,2,0,B|296:232|296:232|352:232|368:280|368:280|368:304,1,140,2|0,0:0|0:0,0:0:0:0:
240,320,28002,2,0,B|216:328|216:328|160:328|144:280|144:280|144:256,1,140,2|0,0:0|0:0,0:0:0:0:
272,144,28574,2,0,B|296:152|296:152|352:152|368:104|368:104|368:80,1,140,2|0,0:0|0:0,0:0:0:0:
240,64,29145,2,0,B|216:56|216:56|160:56|144:104|144:104|144:128,1,140,2|0,0:0|0:0,0:0:0:0:
184,240,29718,5,2,0:0:0:0:
200,248,29813,1,0,0:0:0:0:
216,256,29908,1,0,0:0:0:0:
232,256,30003,1,0,0:0:0:0:
248,256,30099,1,0,0:0:0:0:
264,256,30194,1,0,0:0:0:0:
280,256,30289,1,2,0:0:0:0:
296,256,30384,1,0,0:0:0:0:
312,248,30479,1,0,0:0:0:0:
328,240,30575,1,0,0:0:0:0:
352,112,30860,5,2,0:0:0:0:
256,192,31146,1,0,0:0:0:0:
160,112,31432,1,2,0:0:0:0:
256,24,31718,1,0,0:0:0:0:
256,24,32003,1,0,0:0:0:0:
176,112,32288,5,4,0:0:0:0:
336,112,32575,1,2,0:0:0:0:
256,240,32860,2,0,B|168:280|80:240,1,175,0|2,0:0|0:0,0:0:0:0:
224,168,33431,2,0,B|312:128|400:168,1,175,0|2,0:0|0:0,0:0:0:0:
256,80,34002,2,0,B|168:120|80:80,1,175,0|2,0:0|0:0,0:0:0:0:
88,240,34574,1,0,0:0:0:0:
200,352,34860,1,2,0:0:0:0:
304,240,35145,1,0,0:0:0:0:
424,144,35431,1,2,0:0:0:0:
304,40,35718,5,0,0:0:0:0:
288,48,35813,1,0,0:0:0:0:
272,56,35908,1,0,0:0:0:0:
256,56,36004,1,2,0:0:0:0:
240,56,36099,1,0,0:0:0:0:
224,48,36194,1,0,0:0:0:0:
208,40,36289,1,0,0:0:0:0:
48,128,36574,5,2,0:0:0:0:
48,288,36860,1,0,0:0:0:0:
208,288,37145,1,2,0:0:0:0:
48,288,37431,1,0,0:0:0:0:
208,288,37717,2,0,B|384:288,1,175,2|0,0:0|0:0,0:0:0:0:
448,152,38289,2,0,B|272:152,1,175,2|0,0:0|0:0,0:0:0:0:
112,152,38860,2,0,B|112:40,2,87.5,2|0|0,0:0|0:0|0:0,0:0:0:0:
112,312,39432,5,2,0:0:0:0:
112,312,39527,1,0,0:0:0:0:
112,312,39623,2,2,B|224:352|320:312,1,210.000008010865,0|6,0:0|0:0,0:0:0:0:
256,192,40288,12,4,41432,0:0:0:0:
256,88,50574,5,8,0:0:0:0:
336,224,50860,1,10,0:0:0:0:
176,224,51145,1,8,0:0:0:0:
96,88,51432,1,10,0:0:0:0:
416,88,51717,1,10,0:0:0:0:
256,360,52002,5,10,0:0:0:0:
256,88,52288,5,8,0:0:0:0:
176,224,52574,1,10,0:0:0:0:
336,224,52859,1,8,0:0:0:0:
416,88,53145,1,10,0:0:0:0:
96,88,53431,1,8,0:0:0:0:
256,360,53716,5,10,0:0:0:0:
336,224,54002,1,10,0:0:0:0:
176,224,54287,1,10,0:0:0:0:
96,360,54573,1,8,0:0:0:0:
416,360,54859,1,10,0:0:0:0:
256,88,55144,1,10,0:0:0:0:
256,104,55240,5,0,0:0:0:0:
256,120,55336,1,0,0:0:0:0:
256,136,55431,1,8,0:0:0:0:
256,152,55526,1,0,0:0:0:0:
256,168,55621,1,0,0:0:0:0:
256,184,55718,1,10,0:0:0:0:
256,200,55812,1,0,0:0:0:0:
256,216,55907,1,0,0:0:0:0:
256,232,56002,1,8,0:0:0:0:
256,248,56097,1,0,0:0:0:0:
256,264,56193,1,0,0:0:0:0:
256,280,56288,6,0,B|192:280,12,58.3333333333333,10|0|0|8|0|0|10|0|0|8|0|0|10,0:0|0:0|0:0|0:0|0:0|0:0|0:0|0:0|0:0|0:0|0:0|0:0|0:0,0:0:0:0:
256,296,57526,6,0,B|320:296,11,58.3333333333333,0|0|10|0|0|10|0|0|10|0|0|12,0:0|0:0|0:0|0:0|0:0|0:0|0:0|0:0|0:0|0:0|0:0|0:0,0:0:0:0:
256,48,59717,5,0,0:0:0:0:
424,112,60002,1,4,0:0:0:0:
424,112,60097,1,4,0:0:0:0:
424,112,60193,2,0,B|424:216,1,105.000004005432
328,312,60574,1,0,0:0:0:0:
256,152,60860,1,0,0:0:0:0:
64,152,61145,1,0,0:0:0:0:
64,312,61431,1,0,0:0:0:0:
160,152,61717,1,0,0:0:0:0:
112,64,62002,6,0,B|112:-32|240:-32|240:64,1,210.000008010865
256,152,62454,1,4,0:0:0:0:
256,152,62550,1,4,0:0:0:0:
256,152,62645,2,0,B|256:248|384:248|384:152,1,210.000008010865
320,88,63145,2,0,B|320:-8|448:-8|448:88,1,210.000008010865
448,272,63717,5,0,0:0:0:0:
256,272,64002,1,0,0:0:0:0:
64,272,64288,1,4,0:0:0:0:
64,80,64574,1,0,0:0:0:0:
160,240,64860,1,0,0:0:0:0:
256,80,65145,1,0,0:0:0:0:
352,240,65431,5,4,0:0:0:0:
352,224,65526,1,0,0:0:0:0:
352,208,65621,1,0,0:0:0:0:
344,192,65717,1,0,0:0:0:0:
352,48,66002,1,0,0:0:0:0:
352,64,66097,1,0,0:0:0:0:
352,80,66192,1,0,0:0:0:0:
360,96,66288,1,0,0:0:0:0:
64,112,66574,5,4,0:0:0:0:
256,112,66859,1,0,0:0:0:0:
448,112,67145,1,0,0:0:0:0:
368,288,67431,1,0,0:0:0:0:
160,144,67717,5,4,0:0:0:0:
160,160,67812,1,0,0:0:0:0:
160,176,67907,1,0,0:0:0:0:
168,192,68003,1,0,0:0:0:0:
160,336,68288,5,0,0:0:0:0:
160,320,68383,1,0,0:0:0:0:
160,304,68478,1,0,0:0:0:0:
152,288,68574,1,0,0:0:0:0:
24,192,68859,5,4,0:0:0:0:
456,48,69146,1,8,0:0:0:0:
456,336,69431,1,4,0:0:0:0:
488,192,69717,1,8,0:0:0:0:
56,48,70002,1,12,0:0:0:0:
56,336,70288,1,12,0:0:0:0:
88,192,70574,1,4,0:0:0:0:
168,368,70859,1,12,0:0:0:0:
256,192,71145,1,4,0:0:0:0:
344,368,71431,1,8,0:0:0:0:
424,192,71717,1,4,0:0:0:0:
328,32,72002,5,8,0:0:0:0:
184,32,72288,1,4,0:0:0:0:
400,152,72574,1,12,0:0:0:0:
112,152,72860,1,4,0:0:0:0:
256,272,73145,1,12,0:0:0:0:
256,272,73431,1,12,0:0:0:0:
448,272,73717,1,8,0:0:0:0:
64,272,74002,1,4,0:0:0:0:
400,152,74288,1,8,0:0:0:0:
112,152,74574,1,4,0:0:0:0:
328,32,74860,1,12,0:0:0:0:
184,32,75145,1,4,0:0:0:0:
256,208,75431,5,12,0:0:0:0:
400,336,75717,1,4,0:0:0:0:
112,336,76002,1,12,0:0:0:0:
256,208,76288,1,4,0:0:0:0:
256,16,76574,1,12,0:0:0:0:
256,192,76859,12,4,77717,0:0:0:0:
64,32,78002,5,4,0:0:0:0:
256,32,78288,1,12,0:0:0:0:
160,192,78574,1,4,0:0:0:0:
352,192,78859,1,12,0:0:0:0:
256,32,79145,1,4,0:0:0:0:
448,32,79431,1,12,0:0:0:0:
256,32,79717,1,4,0:0:0:0:
352,192,80002,1,12,0:0:0:0:
160,192,80288,1,4,0:0:0:0:
256,352,80574,1,12,0:0:0:0:
352,192,80859,5,4,0:0:0:0:
160,192,81145,1,12,0:0:0:0:
64,352,81431,1,4,0:0:0:0:
448,352,81717,1,12,0:0:0:0:
256,352,82002,1,4,0:0:0:0:
96,16,82574,5,4,0:0:0:0:
176,192,82859,1,12,0:0:0:0:
256,16,83145,1,4,0:0:0:0:
416,368,83431,1,12,0:0:0:0:
336,192,83716,1,4,0:0:0:0:
256,368,84002,1,12,0:0:0:0:
176,192,84288,1,4,0:0:0:0:
96,368,84574,1,12,0:0:0:0:
256,24,84859,5,4,0:0:0:0:
256,216,85145,2,4,B|312:240|368:264|392:232|392:232|384:192|416:160,1,210.000008010865,12|4,0:0|0:0,0:0:0:0:
256,216,85717,2,4,B|200:240|144:264|120:232|120:232|128:192|96:160,1,210.000008010865,12|4,0:0|0:0,0:0:0:0:
256,288,86288,1,12,0:0:0:0:
448,288,86574,1,4,0:0:0:0:
448,96,86860,1,12,0:0:0:0:
256,96,87145,1,4,0:0:0:0:
64,96,87431,1,12,0:0:0:0:
64,288,87716,1,4,0:0:0:0:
256,288,88002,6,4,B|184:240|184:240|208:184|152:152|152:152|136:168,1,210.000008010865,12|4,0:0|0:0,0:0:0:0:
256,44,88574,2,4,B|184:92|184:92|208:148|152:180|152:180|136:164,1,210.000008010865,12|4,0:0|0:0,0:0:0:0:
256,288,89145,2,4,B|328:240|328:240|304:184|360:152|360:152|376:168,1,210.000008010865,12|4,0:0|0:0,0:0:0:0:
256,44,89717,2,4,B|328:92|328:92|304:148|360:180|360:180|376:164,1,210.000008010865,12|4,0:0|0:0,0:0:0:0:
464,336,90288,1,12,0:0:0:0:
48,336,90574,1,4,0:0:0:0:
48,48,90859,1,12,0:0:0:0:
464,48,91145,1,4,0:0:0:0:
192,168,91431,6,4,B|208:104|248:88|304:96|304:96|304:56|328:40,1,210.000008010865,12|4,0:0|0:0,0:0:0:0:
320,216,92003,2,4,B|304:280|264:296|208:288|208:288|208:328|184:344,1,210.000008010865,12|4,0:0|0:0,0:0:0:0:
256,192,92574,1,12,0:0:0:0:
256,192,92859,12,4,95144,0:0:0:0:
256,192,104288,12,0,105145,0:0:0:0:
360,56,105431,6,0,B|344:104|304:136,1,87.5,2|0,0:0|0:0,0:0:0:0:
152,56,105717,2,0,B|168:104|208:136,1,87.5,0|0,0:0|0:0,0:0:0:0:
456,192,106002,6,0,B|424:288|344:352,1,175
56,192,106574,2,0,B|88:288|168:352,1,175
360,336,107145,6,0,B|344:288|304:256,1,87.5
152,336,107431,2,0,B|168:288|208:256,1,87.5
181,48,107717,6,0,B|152:133|81:190,1,175,2|0,0:0|0:0,0:0:0:0:
330,48,108288,2,0,B|359:133|430:190,1,175
320,304,108859,6,0,B|336:352|376:384,2,87.5
256,272,109288,2,0,B|256:360,1,87.5
256,359,109574,1,0,0:0:0:0:
192,304,109717,2,0,B|176:352|136:384,2,87.5,0|0|2,0:0|0:0|0:0,0:0:0:0:
256,160,110288,6,0,B|227:74|156:17,1,175
256,160,110859,2,0,B|284:74|355:17,1,175
200,64,111431,2,0,B|200:136|88:136|88:136|88:160|64:168,1,175
200,312,112002,2,0,B|200:240|88:240|88:240|88:216|64:208,1,175,0|2,0:0|0:0,0:0:0:0:
312,64,112574,2,0,B|312:136|424:136|424:136|424:160|448:168,1,175
312,312,113145,2,0,B|312:240|424:240|424:240|424:216|448:208,1,175
256,192,113574,12,2,114574,0:0:0:0:
176,104,114859,5,0,0:0:0:0:
176,104,115002,1,0,0:0:0:0:
336,104,115145,1,0,0:0:0:0:
336,104,115288,1,0,0:0:0:0:
256,240,115431,1,0,0:0:0:0:
256,240,115574,1,2,0:0:0:0:
304,304,115717,6,2,B|400:320|392:232|392:232|456:176|512:232,1,262.5
504,224,116217,1,0,0:0:0:0:
504,224,116288,1,0,0:0:0:0:
208,304,116574,2,2,B|112:320|120:232|120:232|56:176|0:232,1,262.5,2|2,0:0|0:0,0:0:0:0:
8,224,117074,1,0,0:0:0:0:
8,224,117145,1,0,0:0:0:0:
120,112,117431,5,0,0:0:0:0:
176,56,117574,1,0,0:0:0:0:
256,80,117717,1,0,0:0:0:0:
336,56,117859,1,0,0:0:0:0:
392,112,118002,1,2,0:0:0:0:
256,184,118288,2,0,B|280:224|256:272,2,87.5,2|0|2,0:0|0:0|0:0,0:0:0:0:
184,224,118717,2,0,B|160:184|184:136,2,87.5,0|0|0,0:0|0:0|0:0,0:0:0:0:
184,224,119145,1,2,0:0:0:0:
392,272,119431,5,0,0:0:0:0:
336,328,119574,1,0,0:0:0:0:
256,304,119717,1,0,0:0:0:0:
176,328,119859,1,0,0:0:0:0:
120,272,120002,1,0,0:0:0:0:
256,200,120288,2,0,B|232:160|256:112,2,87.5,2|2|0,0:0|0:0|0:0,0:0:0:0:
328,160,120717,2,2,B|352:200|328:248,2,87.5,2|2|0,0:0|0:0|0:0,0:0:0:0:
328,160,121145,1,2,0:0:0:0:
256,192,121289,12,0,122289,0:0:0:0:
256,64,122575,6,10,B|400:64|408:272|256:320|112:272|120:64|256:64,2,560
344,192,124003,2,2,B|368:200|368:200|424:200|440:152|440:152|440:128,1,140
168,192,124575,2,2,B|144:200|144:200|88:200|72:152|72:152|72:128,1,140,2|2,0:0|0:0,0:0:0:0:
144,32,125146,1,0,0:0:0:0:
256,96,125432,1,0,0:0:0:0:
368,32,125718,1,0,0:0:0:0:
336,168,126003,2,2,B|344:192|344:192|320:264|192:264|160:192|160:192|168:160,1,280
256,96,126860,5,8,0:0:0:0:
256,96,127003,1,8,0:0:0:0:
256,96,127146,1,8,0:0:0:0:
440,264,127432,1,0,0:0:0:0:
72,264,127718,1,0,0:0:0:0:
72,264,128003,2,2,B|94:252|94:252|136:216|111:167|111:167|94:150,1,140
96,152,128575,2,2,B|73:140|73:140|32:104|56:55|56:55|73:38,1,140
256,216,129146,1,2,0:0:0:0:
256,88,129432,1,2,0:0:0:0:
440,40,129718,2,2,B|462:51|462:51|504:88|479:136|479:136|462:153,1,140
464,152,130290,2,2,B|441:163|441:163|400:200|424:248|424:248|441:265,1,140
256,296,130860,5,2,0:0:0:0:
184,192,131146,2,10,B|168:184|168:184|136:144,1,70
328,192,131432,2,10,B|344:184|344:184|376:144,1,70,10|8,0:0|0:0,0:0:0:0:
256,104,131718,1,10,0:0:0:0:
64,280,132289,5,0,0:0:0:0:
64,152,132575,1,0,0:0:0:0:
176,216,132860,1,4,0:0:0:0:
448,280,133146,1,8,0:0:0:0:
448,152,133432,1,0,0:0:0:0:
336,216,133717,1,8,0:0:0:0:
256,120,134003,1,0,0:0:0:0:
320,7,134289,1,8,0:0:0:0:
192,7,134575,1,0,0:0:0:0:
256,264,134860,1,8,0:0:0:0:
192,377,135146,1,0,0:0:0:0:
320,377,135432,1,8,0:0:0:0:
192,160,135718,5,0,0:0:0:0:
192,160,135860,1,0,0:0:0:0:
192,160,136003,2,8,B|256:128|328:160,1,140,8|0,0:0|0:0,0:0:0:0:
256,192,136432,12,0,137432,0:0:0:0:
360,192,137718,5,0,0:0:0:0:
256,120,138003,1,0,0:0:0:0:
152,192,138289,1,0,0:0:0:0:
256,264,138575,1,0,0:0:0:0:
392,56,138860,1,0,0:0:0:0:
120,56,139146,1,0,0:0:0:0:
256,120,139432,1,0,0:0:0:0:
360,192,139718,2,2,B|256:240|152:192,1,210
156,194,140289,1,2,0:0:0:0:
256,272,140575,5,0,0:0:0:0:
256,272,140860,1,0,0:0:0:0:
376,296,141146,1,0,0:0:0:0:
136,296,141432,1,0,0:0:0:0:
80,48,141718,2,2,B|112:72|112:72|160:48|208:72,1,140
256,176,142289,1,2,0:0:0:0:
256,176,142575,1,2,0:0:0:0:
432,48,142860,2,2,B|400:72|400:72|352:48|304:72,1,140
256,176,143432,5,2,0:0:0:0:
384,176,143718,1,2,0:0:0:0:
320,280,144003,1,2,0:0:0:0:
256,176,144289,1,2,0:0:0:0:
128,176,144575,1,2,0:0:0:0:
192,72,144860,1,2,0:0:0:0:
256,176,145146,1,2,0:0:0:0:
256,176,145432,1,2,0:0:0:0:
256,240,145718,5,0,0:0:0:0:
248,256,145814,1,0,0:0:0:0:
264,272,145908,1,0,0:0:0:0:
256,288,146004,1,0,0:0:0:0:
104,88,146289,1,2,0:0:0:0:
408,88,146575,1,2,0:0:0:0:
104,216,146860,1,2,0:0:0:0:
408,216,147146,1,2,0:0:0:0:
104,344,147432,1,2,0:0:0:0:
408,344,147718,1,2,0:0:0:0:
256,144,148003,1,2,0:0:0:0:
256,144,148289,6,2,B|256:288,1,140
384,192,148860,2,2,B|472:80,1,140
128,192,149432,2,2,B|40:80,1,140
168,56,150003,2,2,B|232:0|232:0|280:0|280:0|336:56,1,210
334,54,150503,1,0,0:0:0:0:
334,54,150575,1,0,0:0:0:0:
256,296,150860,5,0,0:0:0:0:
376,192,151146,2,0,B|408:184|432:168|432:168|416:136|416:96|440:56,1,175,4|0,0:0|0:0,0:0:0:0:
136,192,151718,2,0,B|104:200|80:216|80:216|96:248|96:288|72:328,1,175
376,192,152289,1,0,0:0:0:0:
136,192,152575,1,0,0:0:0:0:
256,88,152860,1,0,0:0:0:0:
256,368,153146,1,0,0:0:0:0:
376,272,153432,1,0,0:0:0:0:
136,272,153718,1,0,0:0:0:0:
256,368,154003,1,0,0:0:0:0:
256,208,154289,1,0,0:0:0:0:
200,312,154575,5,0,0:0:0:0:
216,304,154670,1,0,0:0:0:0:
232,296,154765,1,0,0:0:0:0:
248,304,154861,1,0,0:0:0:0:
264,296,154956,1,0,0:0:0:0:
280,304,155051,1,0,0:0:0:0:
296,312,155146,1,0,0:0:0:0:
464,48,155432,5,0,0:0:0:0:
464,48,155575,2,0,B|472:48|472:48|448:104|472:128|472:128|456:128,1,87.5
464,280,156003,1,0,0:0:0:0:
344,184,156289,1,0,0:0:0:0:
184,184,156575,1,0,0:0:0:0:
48,48,156860,1,0,0:0:0:0:
48,48,157003,2,0,B|40:48|40:48|64:104|40:128|40:128|56:128,1,87.5
48,280,157432,1,0,0:0:0:0:
256,48,157718,1,0,0:0:0:0:
464,280,158003,1,0,0:0:0:0:
336,192,158289,1,0,0:0:0:0:
176,192,158575,1,0,0:0:0:0:
256,328,158860,1,0,0:0:0:0:
256,192,159146,12,0,160289,0:0:0:0:
256,192,168289,12,0,169432,0:0:0:0:
80,256,169718,5,0,0:0:0:0:
80,128,170004,1,0,0:0:0:0:
192,192,170290,2,0,B|248:192|248:96|192:96,1,140
320,96,170861,2,0,B|264:96|264:192|320:192,1,140
432,128,171432,1,0,0:0:0:0:
432,256,171718,1,0,0:0:0:0:
192,312,172003,5,0,0:0:0:0:
320,312,172289,1,0,0:0:0:0:
256,200,172575,1,0,0:0:0:0:
51,200,172861,1,0,0:0:0:0:
320,80,173146,1,0,0:0:0:0:
192,80,173432,1,0,0:0:0:0:
256,320,174003,1,0,0:0:0:0:
256,304,174099,5,0,0:0:0:0:
256,288,174195,1,0,0:0:0:0:
256,272,174290,1,0,0:0:0:0:
256,256,174385,1,0,0:0:0:0:
256,240,174480,1,0,0:0:0:0:
256,224,174576,1,0,0:0:0:0:
256,208,174671,1,0,0:0:0:0:
256,192,174766,1,0,0:0:0:0:
256,176,174861,1,0,0:0:0:0:
256,160,174956,1,0,0:0:0:0:
256,144,175052,1,0,0:0:0:0:
256,128,175147,6,0,B|192:128,12,58.3333333333333
256,112,176385,6,0,B|320:112,11,58.3333333333333
256,288,178575,6,0,B|224:304|224:304|132:300|104:224|104:224|112:192,1,210.000008010865
256,288,179146,2,0,B|288:304|288:304|379:300|408:224|408:224|400:192,1,210.000008010865
160,24,179718,2,0,B|125:126|40:194,1,210.000008010865
352,24,180289,2,0,B|386:126|472:194,1,210.000008010865
336,328,180860,1,0,0:0:0:0:
256,160,181146,1,0,0:0:0:0:
176,328,181432,1,0,0:0:0:0:
256,160,181718,1,0,0:0:0:0:
72,112,182003,6,0,B|104:128|104:128|195:124|224:48|224:48|216:16,1,210.000008010865
440,112,182575,2,0,B|408:128|408:128|316:124|288:48|288:48|296:16,1,210.000008010865
256,216,183146,1,0,0:0:0:0:
24,296,183432,1,0,0:0:0:0:
152,168,183718,1,0,0:0:0:0:
360,168,184003,1,0,0:0:0:0:
488,296,184289,2,0,B|416:296|416:224,2,105.000004005432
24,296,184860,2,0,B|96:296|96:224,2,105.000004005432
256,128,185432,6,0,B|256:232,1,105.000004005432
256,233,185718,1,0,0:0:0:0:
80,168,186003,2,0,B|80:64,1,105.000004005432
80,63,186289,1,0,0:0:0:0:
432,168,186575,2,0,B|432:64,1,105.000004005432
432,63,186861,1,0,0:0:0:0:
304,200,187146,2,0,B|256:160|201:204,2,105.000004005432
256,16,187718,5,0,0:0:0:0:
103,127,188004,1,0,0:0:0:0:
161,306,188290,1,0,0:0:0:0:
350,306,188575,1,0,0:0:0:0:
408,127,188861,1,0,0:0:0:0:
104,127,189146,1,0,0:0:0:0:
351,306,189432,1,0,0:0:0:0:
256,16,189718,1,0,0:0:0:0:
162,306,190003,1,0,0:0:0:0:
409,127,190289,1,0,0:0:0:0:
104,127,190575,2,0,B|128:176|192:208|192:208|224:168|272:192,1,210.000008010865
408,127,191146,2,0,B|384:176|320:208|320:208|288:168|240:192,1,210.000008010865
256,288,191718,1,0,0:0:0:0:
256,288,191860,1,0,0:0:0:0:
256,288,192003,1,0,0:0:0:0:
416,16,192289,5,0,0:0:0:0:
336,192,192574,1,0,0:0:0:0:
256,16,192860,1,0,0:0:0:0:
96,368,193146,1,0,0:0:0:0:
176,192,193431,1,0,0:0:0:0:
256,368,193717,1,0,0:0:0:0:
336,192,194003,1,0,0:0:0:0:
416,368,194289,1,0,0:0:0:0:
256,16,194575,1,0,0:0:0:0:
176,192,194860,5,0,0:0:0:0:
192,200,194955,1,0,0:0:0:0:
208,208,195050,1,0,0:0:0:0:
224,208,195145,1,0,0:0:0:0:
240,200,195241,1,0,0:0:0:0:
256,200,195336,1,0,0:0:0:0:
272,208,195431,1,0,0:0:0:0:
288,208,195526,1,0,0:0:0:0:
304,200,195621,1,0,0:0:0:0:
320,192,195717,1,0,0:0:0:0:
122,191,196575,5,0,0:0:0:0:
255,325,196860,1,0,0:0:0:0:
389,192,197146,1,0,0:0:0:0:
256,58,197432,1,0,0:0:0:0:
322,76,197718,5,0,0:0:0:0:
371,258,198003,1,0,0:0:0:0:
189,307,198289,1,0,0:0:0:0:
140,125,198574,1,0,0:0:0:0:
189,76,198860,5,0,0:0:0:0:
140,258,199146,1,0,0:0:0:0:
322,307,199431,1,0,0:0:0:0:
371,125,199716,1,0,0:0:0:0:
320,80,200003,6,0,B|357:51|421:59|421:59|453:107|437:163,1,210.000008010865
320,304,200575,2,0,B|352:336|421:324|421:324|453:276|437:220,1,210.000008010865
371,258,201146,1,0,0:0:0:0:
184,256,201432,1,0,0:0:0:0:
184,256,201718,2,0,B|184:200|184:200|248:136|184:64,1,210.000008010865
88,64,202289,1,0,0:0:0:0:
88,64,202575,2,0,B|88:120|88:120|24:184|88:256,1,210.000008010865
87,255,203146,1,0,0:0:0:0:
280,256,203432,5,0,0:0:0:0:
288,240,203527,1,0,0:0:0:0:
296,224,203622,1,0,0:0:0:0:
296,208,203717,1,0,0:0:0:0:
288,192,203813,1,0,0:0:0:0:
288,176,203908,1,0,0:0:0:0:
296,160,204003,1,0,0:0:0:0:
296,144,204098,1,0,0:0:0:0:
288,128,204193,1,0,0:0:0:0:
280,112,204289,1,0,0:0:0:0:
352,56,204575,1,0,0:0:0:0:
176,128,204860,1,0,0:0:0:0:
352,192,205146,1,0,0:0:0:0:
176,256,205432,1,0,0:0:0:0:
352,328,205718,1,0,0:0:0:0:
352,192,206003,2,0,B|356:188|356:188|360:192|360:192|364:188|364:188|368:192|368:192|372:188|372:188|376:192|376:192|380:188|380:188|384:192|384:192|388:188|388:188|392:192|392:192|396:188|396:188|400:196|400:196|404:184|404:184|408:192|408:192|412:188|412:188|416:192|416:192|420:188|420:188|424:192|424:192|428:188|428:188|432:192|432:192|436:188|436:188|440:192|440:192|444:188|444:188|448:192|448:192|452:187|452:187|456:196|456:196|460:184|460:184|464:192|464:192|468:188|468:188|472:192|488:192,1,210.000008010865
323,124,206575,2,0,B|323:118|323:118|329:118|329:118|329:112|329:112|335:112|335:112|335:107|335:107|340:107|340:107|340:101|340:101|346:101|346:101|346:95|346:95|352:95|352:95|352:90|352:90|360:93|360:93|354:81|354:81|363:84|363:84|363:78|363:78|369:78|369:78|369:73|369:73|374:73|374:73|374:67|374:67|380:67|380:67|380:61|380:61|386:61|386:61|386:56|386:56|392:55|392:55|391:50|391:50|400:53|400:53|394:42|394:42|403:44|403:44|403:39|403:39|408:39|420:27,1,210.000008010865
323,259,207146,2,0,B|323:265|323:265|329:265|329:265|329:271|329:271|335:271|335:271|335:276|335:276|340:276|340:276|340:282|340:282|346:282|346:282|346:288|346:288|352:288|352:288|352:293|352:293|360:290|360:290|354:302|354:302|363:299|363:299|363:305|363:305|369:305|369:305|369:310|369:310|374:310|374:310|374:316|374:316|380:316|380:316|380:322|380:322|386:322|386:322|386:327|386:327|392:328|392:328|391:333|391:333|400:330|400:330|394:341|394:341|403:339|403:339|403:344|403:344|408:344|420:356,1,210.000008010865
160,192,207718,2,0,B|156:196|156:196|152:192|152:192|148:196|148:196|144:192|144:192|140:196|140:196|136:192|136:192|132:196|132:196|128:192|128:192|124:196|124:196|120:192|120:192|116:196|116:196|112:188|112:188|108:200|108:200|104:192|104:192|100:196|100:196|96:192|96:192|92:196|92:196|88:192|88:192|84:196|84:196|80:192|80:192|76:196|76:196|72:192|72:192|68:196|68:196|63:192|63:192|59:196|59:196|56:188|56:188|52:200|52:200|48:192|48:192|44:196|44:196|40:192|24:192,1,210.000008010865
188,259,208290,2,0,B|188:265|188:265|182:265|182:265|182:271|182:271|176:271|176:271|176:276|176:276|171:276|171:276|171:282|171:282|165:282|165:282|165:288|165:288|159:288|159:288|159:293|159:293|151:290|151:290|157:302|157:302|148:299|148:299|148:305|148:305|142:305|142:305|142:310|142:310|137:310|137:310|137:316|137:316|131:316|131:316|131:322|131:322|125:322|125:322|125:327|125:327|119:328|119:328|120:333|120:333|111:330|111:330|117:341|117:341|108:339|108:339|108:344|108:344|103:344|91:356,1,210.000008010865
188,124,208861,2,0,B|188:118|188:118|182:118|182:118|182:112|182:112|176:112|176:112|176:107|176:107|171:107|171:107|171:101|171:101|165:101|165:101|165:95|165:95|159:95|159:95|159:90|159:90|151:93|151:93|157:81|157:81|148:84|148:84|148:78|148:78|142:78|142:78|142:73|142:73|137:73|137:73|137:67|137:67|131:67|131:67|131:61|131:61|125:61|125:61|125:56|125:56|119:55|119:55|120:50|120:50|111:53|111:53|117:42|117:42|108:44|108:44|108:39|108:39|103:39|91:27,1,210.000008010865
248,144,209432,5,0,0:0:0:0:
256,160,209527,1,0,0:0:0:0:
264,176,209622,1,0,0:0:0:0:
256,192,209718,1,0,0:0:0:0:
264,208,209813,1,0,0:0:0:0:
256,224,209908,1,0,0:0:0:0:
248,240,210003,1,0,0:0:0:0:
432,192,210289,1,0,0:0:0:0:
256,192,210575,12,0,214003,0:0:0:0:
