osu file format v14

[General]
AudioFilename: audio.mp3
AudioLeadIn: 0
PreviewTime: 22089
Countdown: 0
SampleSet: Normal
StackLeniency: 0.7
Mode: 3
LetterboxInBreaks: 0
SpecialStyle: 0
WidescreenStoryboard: 1

[Editor]
Bookmarks: 1178,10636,20094,24823,34281,43739,48468,53197,57926,62655,67384,72113,76843,87483,106399,111128,120586
DistanceSpacing: 2.5
BeatDivisor: 12
GridSize: 32
TimelineZoom: 2.399999

[Metadata]
Title:T.R.A.P.
TitleUnicode:T.R.A.P.
Artist:DJ Raisei
ArtistUnicode:DJ Raisei
Creator:Ryax
Version:I.N.S.A.N.E.
Source:osu! World Cup 2022
Tags:trap OWC osu!original owc2022 electronic instrumental hardcore 200step featured artist fa ln tech
BeatmapID:3904524
BeatmapSetID:1894276

[Difficulty]
HPDrainRate:8
CircleSize:4
OverallDifficulty:7.5
ApproachRate:5
SliderMultiplier:1.4
SliderTickRate:1

[Events]
//Background and Video events
0,0,"68735879_p1.jpg",0,0
//Break Periods
//Storyboard Layer 0 (Background)
//Storyboard Layer 1 (Fail)
//Storyboard Layer 2 (Pass)
//Storyboard Layer 3 (Foreground)
//Storyboard Layer 4 (Overlay)
//Storyboard Sound Samples

[TimingPoints]
1178,295.566502463054,4,1,1,50,1,0
87483,-100,4,1,1,50,0,1
105217,-100,4,1,1,50,0,0

[HitObjects]
64,192,1178,5,0,0:0:0:0:
448,192,1178,1,0,0:0:0:0:
192,192,1178,128,0,1325:0:0:0:0:
320,192,1325,128,0,1473:0:0:0:0:
64,192,1473,128,0,1621:0:0:0:0:
192,192,1621,128,0,1769:0:0:0:0:
320,192,1769,128,0,1916:0:0:0:0:
448,192,1916,128,0,2138:0:0:0:0:
320,192,2064,1,0,0:0:0:0:
192,192,2212,128,0,2360:0:0:0:0:
320,192,2360,128,0,2508:0:0:0:0:
64,192,2508,128,0,2655:0:0:0:0:
192,192,2655,128,0,2803:0:0:0:0:
320,192,2803,128,0,3025:0:0:0:0:
64,192,2951,1,0,0:0:0:0:
448,192,3099,128,0,3320:0:0:0:0:
192,192,3246,1,0,0:0:0:0:
320,192,3394,128,0,3542:0:0:0:0:
64,192,3542,128,0,3690:0:0:0:0:
320,192,3690,128,0,3838:0:0:0:0:
192,192,3838,128,0,3985:0:0:0:0:
64,192,3985,128,0,4207:0:0:0:0:
192,192,4133,1,0,0:0:0:0:
64,192,4281,128,0,4429:0:0:0:0:
320,192,4429,128,0,4577:0:0:0:0:
192,192,4577,128,0,4724:0:0:0:0:
320,192,4724,128,0,4872:0:0:0:0:
448,192,4872,128,0,5020:0:0:0:0:
320,192,5020,128,0,5168:0:0:0:0:
64,192,5168,128,0,5315:0:0:0:0:
320,192,5315,128,0,5463:0:0:0:0:
192,192,5463,128,0,5611:0:0:0:0:
448,192,5611,128,0,5759:0:0:0:0:
320,192,5759,128,0,5907:0:0:0:0:
192,192,5907,128,0,6054:0:0:0:0:
448,192,5907,1,0,0:0:0:0:
64,192,5907,1,0,0:0:0:0:
320,192,6054,128,0,6202:0:0:0:0:
64,192,6202,128,0,6350:0:0:0:0:
448,192,6202,1,0,0:0:0:0:
192,192,6350,128,0,6498:0:0:0:0:
320,192,6498,128,0,6645:0:0:0:0:
64,192,6498,1,0,0:0:0:0:
448,192,6645,128,0,6867:0:0:0:0:
64,192,6793,1,0,0:0:0:0:
320,192,6793,1,0,0:0:0:0:
192,192,6941,128,0,7089:0:0:0:0:
320,192,7089,128,0,7237:0:0:0:0:
448,192,7089,1,0,0:0:0:0:
64,192,7237,128,0,7384:0:0:0:0:
192,192,7384,128,0,7532:0:0:0:0:
320,192,7384,1,0,0:0:0:0:
448,192,7532,128,0,7754:0:0:0:0:
64,192,7680,1,0,0:0:0:0:
192,192,7680,1,0,0:0:0:0:
320,192,7828,128,0,7976:0:0:0:0:
64,192,7976,128,0,8123:0:0:0:0:
192,192,7976,1,0,0:0:0:0:
448,192,8123,128,0,8271:0:0:0:0:
320,192,8271,128,0,8419:0:0:0:0:
64,192,8271,1,0,0:0:0:0:
192,192,8419,128,0,8567:0:0:0:0:
448,192,8419,1,0,0:0:0:0:
64,192,8567,128,0,8714:0:0:0:0:
320,192,8567,1,0,0:0:0:0:
192,192,8714,128,0,8862:0:0:0:0:
448,192,8714,1,0,0:0:0:0:
320,192,8862,128,0,9010:0:0:0:0:
64,192,8862,1,0,0:0:0:0:
448,192,9010,128,0,9158:0:0:0:0:
192,192,9010,1,0,0:0:0:0:
320,192,9158,128,0,9306:0:0:0:0:
64,192,9158,1,0,0:0:0:0:
192,192,9306,128,0,9453:0:0:0:0:
64,192,9306,1,0,0:0:0:0:
320,192,9453,1,0,0:0:0:0:
448,192,9453,1,0,0:0:0:0:
192,192,9527,1,0,0:0:0:0:
64,192,9527,1,0,0:0:0:0:
320,192,9601,1,0,0:0:0:0:
448,192,9601,1,0,0:0:0:0:
192,192,9675,1,0,0:0:0:0:
64,192,9675,1,0,0:0:0:0:
320,192,9749,1,0,0:0:0:0:
448,192,9749,1,0,0:0:0:0:
192,192,9823,1,0,0:0:0:0:
64,192,9823,1,0,0:0:0:0:
448,192,9897,1,0,0:0:0:0:
320,192,9897,1,0,0:0:0:0:
192,192,9971,1,0,0:0:0:0:
64,192,9971,1,0,0:0:0:0:
448,192,10044,1,0,0:0:0:0:
320,192,10081,1,0,0:0:0:0:
64,192,10118,1,0,0:0:0:0:
192,192,10155,1,0,0:0:0:0:
448,192,10192,1,0,0:0:0:0:
320,192,10229,1,0,0:0:0:0:
64,192,10266,1,0,0:0:0:0:
192,192,10303,1,0,0:0:0:0:
448,192,10340,1,0,0:0:0:0:
320,192,10340,1,0,0:0:0:0:
64,192,10636,128,0,10857:0:0:0:0:
192,192,10636,128,0,10857:0:0:0:0:
320,192,10636,128,0,10931:0:0:0:0:
448,192,10636,128,0,10931:0:0:0:0:
64,192,10931,1,0,0:0:0:0:
192,192,10931,1,0,0:0:0:0:
192,192,11079,128,0,11301:0:0:0:0:
64,192,11079,128,0,11301:0:0:0:0:
320,192,11079,128,0,11375:0:0:0:0:
448,192,11079,128,0,11375:0:0:0:0:
64,192,11375,1,0,0:0:0:0:
192,192,11375,1,0,0:0:0:0:
320,192,11448,1,0,0:0:0:0:
64,192,11522,1,0,0:0:0:0:
448,192,11596,1,0,0:0:0:0:
192,192,11670,1,0,0:0:0:0:
320,192,11670,1,0,0:0:0:0:
320,192,11818,1,0,0:0:0:0:
448,192,11818,1,0,0:0:0:0:
64,192,11818,1,0,0:0:0:0:
192,192,11966,1,0,0:0:0:0:
448,192,12040,1,0,0:0:0:0:
64,192,12113,1,0,0:0:0:0:
320,192,12113,1,0,0:0:0:0:
192,192,12261,1,0,0:0:0:0:
448,192,12409,128,0,12557:0:0:0:0:
64,192,12557,1,0,0:0:0:0:
192,192,12557,1,0,0:0:0:0:
448,192,12705,128,0,12926:0:0:0:0:
320,192,12705,128,0,12926:0:0:0:0:
64,192,13000,128,0,13222:0:0:0:0:
192,192,13000,128,0,13222:0:0:0:0:
320,192,13000,128,0,13296:0:0:0:0:
448,192,13000,128,0,13296:0:0:0:0:
64,192,13296,1,0,0:0:0:0:
192,192,13296,1,0,0:0:0:0:
192,192,13444,128,0,13591:0:0:0:0:
64,192,13444,128,0,13813:0:0:0:0:
320,192,13444,128,0,13591:0:0:0:0:
448,192,13444,128,0,13591:0:0:0:0:
320,192,13665,128,0,13813:0:0:0:0:
448,192,13665,128,0,14182:0:0:0:0:
192,192,13665,128,0,13813:0:0:0:0:
64,192,13887,128,0,14182:0:0:0:0:
192,192,13887,128,0,14182:0:0:0:0:
320,192,13887,128,0,14182:0:0:0:0:
448,192,14330,1,0,0:0:0:0:
320,192,14404,1,0,0:0:0:0:
448,192,14478,1,0,0:0:0:0:
64,192,14478,1,0,0:0:0:0:
192,192,14478,1,0,0:0:0:0:
320,192,14626,1,0,0:0:0:0:
192,192,14626,1,0,0:0:0:0:
64,192,14626,1,0,0:0:0:0:
448,192,14774,128,0,15291:0:0:0:0:
320,192,14774,128,0,14995:0:0:0:0:
192,192,14774,128,0,14995:0:0:0:0:
64,192,14774,128,0,14995:0:0:0:0:
64,192,15069,128,0,15586:0:0:0:0:
192,192,15069,128,0,15291:0:0:0:0:
320,192,15069,128,0,15291:0:0:0:0:
192,192,15365,128,0,15586:0:0:0:0:
320,192,15365,128,0,15660:0:0:0:0:
448,192,15365,128,0,15660:0:0:0:0:
64,192,15660,1,0,0:0:0:0:
192,192,15660,1,0,0:0:0:0:
192,192,15808,128,0,16030:0:0:0:0:
64,192,15808,128,0,16030:0:0:0:0:
448,192,15808,128,0,16104:0:0:0:0:
320,192,15808,128,0,16104:0:0:0:0:
64,192,16104,1,0,0:0:0:0:
192,192,16104,1,0,0:0:0:0:
448,192,16251,1,0,0:0:0:0:
320,192,16251,1,0,0:0:0:0:
192,192,16325,1,0,0:0:0:0:
64,192,16399,1,0,0:0:0:0:
320,192,16399,1,0,0:0:0:0:
192,192,16547,128,0,16769:0:0:0:0:
64,192,16547,128,0,16769:0:0:0:0:
320,192,16547,128,0,16843:0:0:0:0:
448,192,16547,128,0,16843:0:0:0:0:
192,192,16843,1,0,0:0:0:0:
64,192,16843,1,0,0:0:0:0:
192,192,16990,128,0,17212:0:0:0:0:
64,192,16990,128,0,17434:0:0:0:0:
320,192,16990,128,0,17212:0:0:0:0:
448,192,16990,128,0,17212:0:0:0:0:
320,192,17286,128,0,17434:0:0:0:0:
448,192,17286,128,0,17729:0:0:0:0:
192,192,17286,128,0,17434:0:0:0:0:
64,192,17508,128,0,17655:0:0:0:0:
192,192,17508,128,0,17655:0:0:0:0:
320,192,17508,128,0,17729:0:0:0:0:
64,192,17729,1,0,0:0:0:0:
192,192,17729,1,0,0:0:0:0:
320,192,17803,1,0,0:0:0:0:
64,192,17877,1,0,0:0:0:0:
192,192,17877,1,0,0:0:0:0:
320,192,17951,1,0,0:0:0:0:
448,192,17951,1,0,0:0:0:0:
64,192,18025,1,0,0:0:0:0:
448,192,18099,1,0,0:0:0:0:
320,192,18099,1,0,0:0:0:0:
192,192,18173,1,0,0:0:0:0:
64,192,18173,1,0,0:0:0:0:
448,192,18246,1,0,0:0:0:0:
320,192,18320,1,0,0:0:0:0:
192,192,18320,1,0,0:0:0:0:
64,192,18394,1,0,0:0:0:0:
448,192,18468,1,0,0:0:0:0:
320,192,18468,1,0,0:0:0:0:
192,192,18542,1,0,0:0:0:0:
64,192,18542,1,0,0:0:0:0:
448,192,18616,1,0,0:0:0:0:
192,192,18690,1,0,0:0:0:0:
64,192,18690,1,0,0:0:0:0:
320,192,18764,1,0,0:0:0:0:
448,192,18764,1,0,0:0:0:0:
192,192,18838,1,0,0:0:0:0:
64,192,18911,128,0,19207:0:0:0:0:
448,192,18911,128,0,19207:0:0:0:0:
320,192,19059,1,0,0:0:0:0:
192,192,19133,1,0,0:0:0:0:
320,192,19207,1,0,0:0:0:0:
192,192,19281,1,0,0:0:0:0:
64,192,19281,1,0,0:0:0:0:
448,192,19355,1,0,0:0:0:0:
64,192,19503,1,0,0:0:0:0:
192,192,19503,1,0,0:0:0:0:
448,192,19650,1,0,0:0:0:0:
64,192,19650,1,0,0:0:0:0:
320,192,19798,1,0,0:0:0:0:
448,192,19798,1,0,0:0:0:0:
192,192,19798,1,0,0:0:0:0:
448,192,20094,128,0,20537:0:0:0:0:
320,192,20094,128,0,20463:0:0:0:0:
192,192,20094,128,0,20389:0:0:0:0:
64,192,20094,128,0,20315:0:0:0:0:
320,192,20537,5,0,0:0:0:0:
64,192,20611,1,0,0:0:0:0:
320,192,20685,1,0,0:0:0:0:
64,192,20759,1,0,0:0:0:0:
320,192,20833,1,0,0:0:0:0:
64,192,20907,1,0,0:0:0:0:
320,192,20980,1,0,0:0:0:0:
448,192,21128,1,0,0:0:0:0:
192,192,21202,1,0,0:0:0:0:
448,192,21276,1,0,0:0:0:0:
192,192,21350,1,0,0:0:0:0:
448,192,21424,1,0,0:0:0:0:
192,192,21498,1,0,0:0:0:0:
448,192,21572,1,0,0:0:0:0:
320,192,21719,1,0,0:0:0:0:
64,192,21793,1,0,0:0:0:0:
320,192,21867,1,0,0:0:0:0:
64,192,21941,1,0,0:0:0:0:
320,192,22015,1,0,0:0:0:0:
448,192,22089,128,0,22532:0:0:0:0:
192,192,22532,1,0,0:0:0:0:
64,192,22532,1,0,0:0:0:0:
320,192,22606,1,0,0:0:0:0:
448,192,22606,1,0,0:0:0:0:
320,192,22828,128,0,22976:0:0:0:0:
192,192,22902,128,0,23049:0:0:0:0:
64,192,22976,128,0,23123:0:0:0:0:
448,192,23049,128,0,23246:0:0:0:0:
320,192,23148,128,0,23246:0:0:0:0:
192,192,23246,128,0,23591:0:0:0:0:
64,192,23246,128,0,23591:0:0:0:0:
448,192,23591,128,0,23788:0:0:0:0:
320,192,23591,128,0,23788:0:0:0:0:
64,192,23788,128,0,24232:0:0:0:0:
448,192,23936,128,0,24379:0:0:0:0:
320,192,24232,128,0,24379:0:0:0:0:
192,192,24379,1,0,0:0:0:0:
64,192,24379,1,0,0:0:0:0:
320,192,24453,1,0,0:0:0:0:
192,192,24527,1,0,0:0:0:0:
64,192,24527,1,0,0:0:0:0:
448,192,24527,1,0,0:0:0:0:
320,192,24823,128,0,25192:0:0:0:0:
192,192,24823,128,0,25118:0:0:0:0:
64,192,24823,128,0,25044:0:0:0:0:
448,192,24823,128,0,25266:0:0:0:0:
320,192,25266,1,0,0:0:0:0:
192,192,25285,1,0,0:0:0:0:
192,192,25414,1,0,0:0:0:0:
64,192,25414,1,0,0:0:0:0:
448,192,25414,1,0,0:0:0:0:
320,192,25488,1,0,0:0:0:0:
64,192,25562,1,0,0:0:0:0:
320,192,25636,1,0,0:0:0:0:
192,192,25710,1,0,0:0:0:0:
448,192,25783,1,0,0:0:0:0:
192,192,25857,1,0,0:0:0:0:
448,192,25931,1,0,0:0:0:0:
64,192,26005,1,0,0:0:0:0:
320,192,26079,1,0,0:0:0:0:
64,192,26153,1,0,0:0:0:0:
320,192,26227,1,0,0:0:0:0:
192,192,26301,1,0,0:0:0:0:
64,192,26375,1,0,0:0:0:0:
320,192,26448,1,0,0:0:0:0:
448,192,26448,1,0,0:0:0:0:
192,192,26522,1,0,0:0:0:0:
64,192,26596,1,0,0:0:0:0:
320,192,26596,1,0,0:0:0:0:
448,192,26596,1,0,0:0:0:0:
448,192,26744,1,0,0:0:0:0:
320,192,26769,1,0,0:0:0:0:
192,192,26892,1,0,0:0:0:0:
320,192,26916,1,0,0:0:0:0:
192,192,27040,1,0,0:0:0:0:
64,192,27064,1,0,0:0:0:0:
64,192,27187,1,0,0:0:0:0:
448,192,27187,1,0,0:0:0:0:
64,192,27335,1,0,0:0:0:0:
192,192,27384,1,0,0:0:0:0:
448,192,27434,1,0,0:0:0:0:
320,192,27483,1,0,0:0:0:0:
192,192,27532,1,0,0:0:0:0:
448,192,27631,128,0,27705:0:0:0:0:
64,192,27631,128,0,27705:0:0:0:0:
192,192,27705,128,0,27778:0:0:0:0:
64,192,27778,1,0,0:0:0:0:
320,192,27778,128,0,27852:0:0:0:0:
448,192,27778,128,0,27852:0:0:0:0:
320,192,27926,128,0,28000:0:0:0:0:
448,192,27926,128,0,28000:0:0:0:0:
320,192,28074,128,0,28148:0:0:0:0:
192,192,28074,128,0,28148:0:0:0:0:
64,192,28222,128,0,28296:0:0:0:0:
192,192,28222,128,0,28296:0:0:0:0:
448,192,28296,128,0,28370:0:0:0:0:
320,192,28296,128,0,28370:0:0:0:0:
64,192,28370,128,0,28444:0:0:0:0:
192,192,28370,128,0,28444:0:0:0:0:
320,192,28517,128,0,28591:0:0:0:0:
448,192,28517,128,0,28591:0:0:0:0:
64,192,28665,1,0,0:0:0:0:
192,192,28665,1,0,0:0:0:0:
192,192,28813,128,0,28887:0:0:0:0:
64,192,28813,128,0,28887:0:0:0:0:
320,192,28887,128,0,28961:0:0:0:0:
64,192,28961,1,0,0:0:0:0:
192,192,28961,1,0,0:0:0:0:
448,192,28961,1,0,0:0:0:0:
320,192,29035,1,0,0:0:0:0:
448,192,29109,1,0,0:0:0:0:
192,192,29182,1,0,0:0:0:0:
320,192,29256,1,0,0:0:0:0:
64,192,29330,1,0,0:0:0:0:
320,192,29404,1,0,0:0:0:0:
192,192,29478,1,0,0:0:0:0:
448,192,29552,128,0,29847:0:0:0:0:
64,192,29552,128,0,29995:0:0:0:0:
320,192,29552,128,0,29921:0:0:0:0:
192,192,29995,1,0,0:0:0:0:
320,192,30014,1,0,0:0:0:0:
192,192,30143,1,0,0:0:0:0:
64,192,30143,1,0,0:0:0:0:
448,192,30143,1,0,0:0:0:0:
320,192,30217,1,0,0:0:0:0:
64,192,30291,1,0,0:0:0:0:
320,192,30365,1,0,0:0:0:0:
192,192,30439,1,0,0:0:0:0:
320,192,30512,1,0,0:0:0:0:
448,192,30586,1,0,0:0:0:0:
64,192,30586,1,0,0:0:0:0:
192,192,30660,1,0,0:0:0:0:
448,192,30734,1,0,0:0:0:0:
192,192,30808,1,0,0:0:0:0:
320,192,30882,1,0,0:0:0:0:
64,192,30956,1,0,0:0:0:0:
320,192,31030,1,0,0:0:0:0:
64,192,31104,1,0,0:0:0:0:
320,192,31177,1,0,0:0:0:0:
448,192,31177,1,0,0:0:0:0:
192,192,31251,1,0,0:0:0:0:
320,192,31325,1,0,0:0:0:0:
448,192,31325,1,0,0:0:0:0:
64,192,31325,1,0,0:0:0:0:
448,192,31473,1,0,0:0:0:0:
64,192,31522,1,0,0:0:0:0:
320,192,31572,1,0,0:0:0:0:
192,192,31621,1,0,0:0:0:0:
448,192,31769,1,0,0:0:0:0:
192,192,31818,1,0,0:0:0:0:
320,192,31867,1,0,0:0:0:0:
64,192,31916,1,0,0:0:0:0:
448,192,31916,128,0,32212:0:0:0:0:
320,192,31990,128,0,32212:0:0:0:0:
192,192,32064,128,0,32212:0:0:0:0:
64,192,32138,128,0,32212:0:0:0:0:
192,192,32360,128,0,32508:0:0:0:0:
320,192,32409,128,0,32508:0:0:0:0:
64,192,32508,1,0,0:0:0:0:
448,192,32508,1,0,0:0:0:0:
192,192,32655,128,0,32803:0:0:0:0:
64,192,32705,128,0,32803:0:0:0:0:
320,192,32803,1,0,0:0:0:0:
448,192,32803,1,0,0:0:0:0:
320,192,32951,128,0,33099:0:0:0:0:
448,192,33000,128,0,33099:0:0:0:0:
320,192,33246,128,0,33394:0:0:0:0:
448,192,33296,128,0,33394:0:0:0:0:
192,192,33394,1,0,0:0:0:0:
64,192,33394,1,0,0:0:0:0:
192,192,33542,1,0,0:0:0:0:
320,192,33616,1,0,0:0:0:0:
64,192,33690,1,0,0:0:0:0:
448,192,33690,1,0,0:0:0:0:
192,192,33764,1,0,0:0:0:0:
64,192,33838,1,0,0:0:0:0:
448,192,33911,1,0,0:0:0:0:
320,192,33985,1,0,0:0:0:0:
448,192,34044,1,0,0:0:0:0:
64,192,34104,1,0,0:0:0:0:
192,192,34163,1,0,0:0:0:0:
320,192,34281,128,0,34687:0:0:0:0:
448,192,34281,128,0,34613:0:0:0:0:
64,192,34281,128,0,34761:0:0:0:0:
448,192,34761,128,0,34835:0:0:0:0:
192,192,34835,128,0,34909:0:0:0:0:
448,192,34909,128,0,34983:0:0:0:0:
192,192,34983,128,0,35057:0:0:0:0:
448,192,35057,128,0,35131:0:0:0:0:
192,192,35131,128,0,35205:0:0:0:0:
320,192,35352,128,0,35426:0:0:0:0:
192,192,35426,128,0,35500:0:0:0:0:
320,192,35500,128,0,35574:0:0:0:0:
192,192,35574,128,0,35648:0:0:0:0:
320,192,35648,128,0,35722:0:0:0:0:
192,192,35722,128,0,35796:0:0:0:0:
320,192,35796,128,0,35870:0:0:0:0:
64,192,35870,128,0,35944:0:0:0:0:
320,192,35944,128,0,36017:0:0:0:0:
64,192,36017,128,0,36091:0:0:0:0:
320,192,36091,128,0,36165:0:0:0:0:
64,192,36202,1,0,0:0:0:0:
192,192,36239,1,0,0:0:0:0:
320,192,36276,1,0,0:0:0:0:
64,192,36350,1,0,0:0:0:0:
192,192,36350,1,0,0:0:0:0:
448,192,36350,1,0,0:0:0:0:
320,192,36498,1,0,0:0:0:0:
192,192,36498,1,0,0:0:0:0:
320,192,36645,128,0,36793:0:0:0:0:
448,192,36645,128,0,36867:0:0:0:0:
64,192,36645,1,0,0:0:0:0:
192,192,36793,128,0,36941:0:0:0:0:
64,192,36793,128,0,36941:0:0:0:0:
320,192,36941,128,0,37163:0:0:0:0:
448,192,37015,128,0,37163:0:0:0:0:
64,192,37089,128,0,37237:0:0:0:0:
192,192,37089,128,0,37163:0:0:0:0:
448,192,37237,128,0,37458:0:0:0:0:
320,192,37237,1,0,0:0:0:0:
192,192,37311,1,0,0:0:0:0:
64,192,37384,128,0,37458:0:0:0:0:
320,192,37532,128,0,37754:0:0:0:0:
448,192,37569,1,0,0:0:0:0:
64,192,37606,1,0,0:0:0:0:
192,192,37680,128,0,37754:0:0:0:0:
192,192,37828,128,0,38049:0:0:0:0:
64,192,37828,1,0,0:0:0:0:
448,192,37902,1,0,0:0:0:0:
320,192,37976,128,0,38049:0:0:0:0:
64,192,38123,128,0,38345:0:0:0:0:
192,192,38160,1,0,0:0:0:0:
448,192,38197,1,0,0:0:0:0:
320,192,38271,128,0,38345:0:0:0:0:
448,192,38419,1,0,0:0:0:0:
64,192,38419,1,0,0:0:0:0:
192,192,38493,1,0,0:0:0:0:
320,192,38567,1,0,0:0:0:0:
448,192,38567,1,0,0:0:0:0:
64,192,38641,1,0,0:0:0:0:
192,192,38641,1,0,0:0:0:0:
448,192,38714,1,0,0:0:0:0:
192,192,38788,128,0,38936:0:0:0:0:
320,192,38788,128,0,38936:0:0:0:0:
64,192,38862,128,0,38936:0:0:0:0:
448,192,38862,128,0,39010:0:0:0:0:
320,192,39010,128,0,39306:0:0:0:0:
192,192,39010,128,0,39379:0:0:0:0:
64,192,39010,128,0,39453:0:0:0:0:
192,192,39453,1,0,0:0:0:0:
320,192,39472,1,0,0:0:0:0:
448,192,39601,1,0,0:0:0:0:
320,192,39601,1,0,0:0:0:0:
192,192,39675,1,0,0:0:0:0:
64,192,39749,1,0,0:0:0:0:
320,192,39823,1,0,0:0:0:0:
64,192,39897,1,0,0:0:0:0:
192,192,39897,1,0,0:0:0:0:
448,192,39956,1,0,0:0:0:0:
320,192,40015,1,0,0:0:0:0:
192,192,40074,1,0,0:0:0:0:
320,192,40133,1,0,0:0:0:0:
448,192,40192,1,0,0:0:0:0:
64,192,40192,1,0,0:0:0:0:
192,192,40266,1,0,0:0:0:0:
320,192,40340,1,0,0:0:0:0:
64,192,40414,1,0,0:0:0:0:
320,192,40488,1,0,0:0:0:0:
192,192,40488,1,0,0:0:0:0:
448,192,40586,1,0,0:0:0:0:
192,192,40685,1,0,0:0:0:0:
448,192,40783,1,0,0:0:0:0:
320,192,40783,1,0,0:0:0:0:
192,192,40857,1,0,0:0:0:0:
64,192,40931,1,0,0:0:0:0:
320,192,41005,1,0,0:0:0:0:
448,192,41079,1,0,0:0:0:0:
192,192,41079,1,0,0:0:0:0:
64,192,41079,1,0,0:0:0:0:
320,192,41227,1,0,0:0:0:0:
192,192,41227,1,0,0:0:0:0:
320,192,41375,1,0,0:0:0:0:
64,192,41375,1,0,0:0:0:0:
448,192,41375,1,0,0:0:0:0:
448,192,41596,1,0,0:0:0:0:
64,192,41596,1,0,0:0:0:0:
320,192,41596,1,0,0:0:0:0:
448,192,41818,1,0,0:0:0:0:
64,192,41818,1,0,0:0:0:0:
320,192,41818,1,0,0:0:0:0:
448,192,41966,1,0,0:0:0:0:
192,192,41966,1,0,0:0:0:0:
64,192,41966,1,0,0:0:0:0:
448,192,42187,1,0,0:0:0:0:
64,192,42187,1,0,0:0:0:0:
192,192,42187,1,0,0:0:0:0:
448,192,42409,1,0,0:0:0:0:
64,192,42409,1,0,0:0:0:0:
192,192,42409,1,0,0:0:0:0:
64,192,42557,128,0,43049:0:0:0:0:
320,192,42557,1,0,0:0:0:0:
448,192,42557,1,0,0:0:0:0:
192,192,42655,128,0,42951:0:0:0:0:
320,192,42754,128,0,42852:0:0:0:0:
448,192,42852,128,0,43148:0:0:0:0:
320,192,42951,128,0,43222:0:0:0:0:
192,192,43049,128,0,43296:0:0:0:0:
64,192,43148,128,0,43641:0:0:0:0:
448,192,43222,128,0,43370:0:0:0:0:
320,192,43296,128,0,43444:0:0:0:0:
192,192,43370,128,0,43542:0:0:0:0:
448,192,43444,128,0,43641:0:0:0:0:
320,192,43542,128,0,43641:0:0:0:0:
192,192,43641,128,0,43739:0:0:0:0:
64,192,43739,128,0,44035:0:0:0:0:
448,192,43739,128,0,44035:0:0:0:0:
320,192,43739,128,0,44035:0:0:0:0:
448,192,44182,128,0,44478:0:0:0:0:
192,192,44182,128,0,44404:0:0:0:0:
64,192,44182,128,0,44404:0:0:0:0:
320,192,44182,128,0,44478:0:0:0:0:
192,192,44478,1,0,0:0:0:0:
64,192,44478,1,0,0:0:0:0:
192,192,44921,128,0,45217:0:0:0:0:
64,192,44921,128,0,45217:0:0:0:0:
320,192,44921,128,0,45217:0:0:0:0:
448,192,44921,128,0,45217:0:0:0:0:
192,192,45365,128,0,45586:0:0:0:0:
64,192,45365,128,0,45808:0:0:0:0:
320,192,45365,128,0,45586:0:0:0:0:
448,192,45365,128,0,45586:0:0:0:0:
320,192,45660,128,0,45808:0:0:0:0:
448,192,45660,128,0,46030:0:0:0:0:
192,192,45660,128,0,45808:0:0:0:0:
64,192,45882,128,0,46325:0:0:0:0:
192,192,45882,128,0,46030:0:0:0:0:
320,192,45882,128,0,46030:0:0:0:0:
192,192,46104,128,0,46325:0:0:0:0:
448,192,46104,128,0,46399:0:0:0:0:
320,192,46104,128,0,46399:0:0:0:0:
64,192,46399,1,0,0:0:0:0:
192,192,46399,1,0,0:0:0:0:
192,192,46547,128,0,46769:0:0:0:0:
64,192,46547,128,0,46769:0:0:0:0:
320,192,46547,128,0,46843:0:0:0:0:
448,192,46547,128,0,46843:0:0:0:0:
64,192,46843,1,0,0:0:0:0:
192,192,46843,1,0,0:0:0:0:
448,192,47286,5,0,0:0:0:0:
320,192,47286,1,0,0:0:0:0:
192,192,47360,1,0,0:0:0:0:
64,192,47360,1,0,0:0:0:0:
320,192,47434,1,0,0:0:0:0:
448,192,47434,1,0,0:0:0:0:
192,192,47508,1,0,0:0:0:0:
64,192,47508,1,0,0:0:0:0:
320,192,47581,1,0,0:0:0:0:
448,192,47581,1,0,0:0:0:0:
192,192,47655,1,0,0:0:0:0:
64,192,47655,1,0,0:0:0:0:
320,192,47729,1,0,0:0:0:0:
448,192,47729,1,0,0:0:0:0:
192,192,47803,1,0,0:0:0:0:
64,192,47803,1,0,0:0:0:0:
448,192,47877,1,0,0:0:0:0:
320,192,47877,1,0,0:0:0:0:
192,192,47951,1,0,0:0:0:0:
64,192,47951,1,0,0:0:0:0:
320,192,48025,1,0,0:0:0:0:
448,192,48025,1,0,0:0:0:0:
192,192,48099,1,0,0:0:0:0:
320,192,48173,1,0,0:0:0:0:
448,192,48173,1,0,0:0:0:0:
64,192,48173,1,0,0:0:0:0:
64,192,48468,1,0,0:0:0:0:
448,192,48468,1,0,0:0:0:0:
320,192,48468,128,0,48616:0:0:0:0:
192,192,48542,128,0,48616:0:0:0:0:
64,192,48616,1,0,0:0:0:0:
320,192,48690,1,0,0:0:0:0:
448,192,48764,1,0,0:0:0:0:
192,192,48764,128,0,48911:0:0:0:0:
64,192,48838,128,0,48911:0:0:0:0:
448,192,48911,128,0,49059:0:0:0:0:
320,192,48985,128,0,49059:0:0:0:0:
64,192,49059,1,0,0:0:0:0:
192,192,49059,1,0,0:0:0:0:
448,192,49133,1,0,0:0:0:0:
192,192,49207,1,0,0:0:0:0:
320,192,49281,1,0,0:0:0:0:
448,192,49355,1,0,0:0:0:0:
64,192,49355,1,0,0:0:0:0:
192,192,49429,1,0,0:0:0:0:
448,192,49503,1,0,0:0:0:0:
64,192,49577,1,0,0:0:0:0:
192,192,49650,1,0,0:0:0:0:
320,192,49650,128,0,49798:0:0:0:0:
448,192,49724,128,0,49798:0:0:0:0:
64,192,49798,1,0,0:0:0:0:
320,192,49872,1,0,0:0:0:0:
448,192,49946,1,0,0:0:0:0:
64,192,49946,128,0,50094:0:0:0:0:
192,192,50020,128,0,50094:0:0:0:0:
448,192,50094,128,0,50242:0:0:0:0:
320,192,50168,128,0,50242:0:0:0:0:
64,192,50242,1,0,0:0:0:0:
192,192,50242,1,0,0:0:0:0:
448,192,50315,1,0,0:0:0:0:
64,192,50389,128,0,50537:0:0:0:0:
192,192,50463,128,0,50537:0:0:0:0:
448,192,50537,1,0,0:0:0:0:
320,192,50537,128,0,50685:0:0:0:0:
64,192,50611,128,0,50685:0:0:0:0:
192,192,50685,1,0,0:0:0:0:
448,192,50759,1,0,0:0:0:0:
64,192,50833,1,0,0:0:0:0:
192,192,50833,128,0,50980:0:0:0:0:
320,192,50907,128,0,50980:0:0:0:0:
448,192,50980,1,0,0:0:0:0:
192,192,51054,1,0,0:0:0:0:
64,192,51128,1,0,0:0:0:0:
320,192,51128,128,0,51276:0:0:0:0:
448,192,51202,128,0,51276:0:0:0:0:
64,192,51276,128,0,51424:0:0:0:0:
192,192,51350,128,0,51424:0:0:0:0:
320,192,51424,1,0,0:0:0:0:
448,192,51424,1,0,0:0:0:0:
64,192,51498,1,0,0:0:0:0:
320,192,51572,1,0,0:0:0:0:
192,192,51645,1,0,0:0:0:0:
448,192,51719,1,0,0:0:0:0:
64,192,51719,1,0,0:0:0:0:
320,192,51793,1,0,0:0:0:0:
64,192,51867,1,0,0:0:0:0:
448,192,51941,1,0,0:0:0:0:
320,192,52015,1,0,0:0:0:0:
192,192,52015,128,0,52163:0:0:0:0:
64,192,52089,128,0,52163:0:0:0:0:
448,192,52163,1,0,0:0:0:0:
192,192,52237,1,0,0:0:0:0:
64,192,52311,1,0,0:0:0:0:
448,192,52311,128,0,52458:0:0:0:0:
320,192,52384,128,0,52458:0:0:0:0:
192,192,52458,1,0,0:0:0:0:
64,192,52458,1,0,0:0:0:0:
320,192,52532,1,0,0:0:0:0:
64,192,52606,1,0,0:0:0:0:
192,192,52606,1,0,0:0:0:0:
320,192,52754,1,0,0:0:0:0:
448,192,52754,1,0,0:0:0:0:
192,192,52828,1,0,0:0:0:0:
448,192,52902,1,0,0:0:0:0:
64,192,52902,1,0,0:0:0:0:
192,192,53049,1,0,0:0:0:0:
320,192,53049,1,0,0:0:0:0:
64,192,53197,128,0,53641:0:0:0:0:
192,192,53197,128,0,53567:0:0:0:0:
320,192,53197,128,0,53493:0:0:0:0:
448,192,53197,128,0,53419:0:0:0:0:
448,192,53641,1,0,0:0:0:0:
320,192,53641,1,0,0:0:0:0:
192,192,53788,1,0,0:0:0:0:
64,192,53788,1,0,0:0:0:0:
448,192,53788,1,0,0:0:0:0:
64,192,53936,1,0,0:0:0:0:
192,192,53936,1,0,0:0:0:0:
448,192,54232,1,0,0:0:0:0:
192,192,54232,1,0,0:0:0:0:
192,192,54379,1,0,0:0:0:0:
320,192,54379,1,0,0:0:0:0:
64,192,54527,1,0,0:0:0:0:
192,192,54527,1,0,0:0:0:0:
448,192,54675,1,0,0:0:0:0:
320,192,54700,1,0,0:0:0:0:
192,192,54724,1,0,0:0:0:0:
448,192,54823,1,0,0:0:0:0:
192,192,54897,1,0,0:0:0:0:
64,192,54897,1,0,0:0:0:0:
448,192,54971,1,0,0:0:0:0:
320,192,54971,1,0,0:0:0:0:
192,192,55118,1,0,0:0:0:0:
64,192,55118,1,0,0:0:0:0:
192,192,55266,1,0,0:0:0:0:
64,192,55266,1,0,0:0:0:0:
192,192,55414,1,0,0:0:0:0:
64,192,55414,1,0,0:0:0:0:
448,192,55488,1,0,0:0:0:0:
320,192,55488,1,0,0:0:0:0:
192,192,55562,1,0,0:0:0:0:
64,192,55562,1,0,0:0:0:0:
64,192,55710,1,0,0:0:0:0:
192,192,55759,1,0,0:0:0:0:
448,192,55808,1,0,0:0:0:0:
320,192,55857,1,0,0:0:0:0:
192,192,55907,1,0,0:0:0:0:
448,192,56005,1,0,0:0:0:0:
320,192,56030,1,0,0:0:0:0:
448,192,56153,1,0,0:0:0:0:
320,192,56153,1,0,0:0:0:0:
64,192,56153,1,0,0:0:0:0:
192,192,56301,1,0,0:0:0:0:
64,192,56325,1,0,0:0:0:0:
448,192,56448,1,0,0:0:0:0:
320,192,56448,1,0,0:0:0:0:
192,192,56596,1,0,0:0:0:0:
64,192,56621,1,0,0:0:0:0:
320,192,56744,1,0,0:0:0:0:
192,192,56769,1,0,0:0:0:0:
448,192,56892,1,0,0:0:0:0:
64,192,56892,1,0,0:0:0:0:
320,192,56966,1,0,0:0:0:0:
448,192,57040,1,0,0:0:0:0:
64,192,57040,1,0,0:0:0:0:
192,192,57040,1,0,0:0:0:0:
192,192,57187,1,0,0:0:0:0:
320,192,57261,1,0,0:0:0:0:
448,192,57261,1,0,0:0:0:0:
64,192,57335,1,0,0:0:0:0:
192,192,57409,1,0,0:0:0:0:
448,192,57483,1,0,0:0:0:0:
320,192,57483,1,0,0:0:0:0:
192,192,57557,1,0,0:0:0:0:
64,192,57631,1,0,0:0:0:0:
448,192,57631,1,0,0:0:0:0:
320,192,57705,1,0,0:0:0:0:
192,192,57705,1,0,0:0:0:0:
448,192,57778,1,0,0:0:0:0:
64,192,57852,1,0,0:0:0:0:
448,192,57926,5,0,0:0:0:0:
320,192,57926,1,0,0:0:0:0:
192,192,57926,1,0,0:0:0:0:
320,192,58074,1,0,0:0:0:0:
192,192,58148,1,0,0:0:0:0:
64,192,58222,1,0,0:0:0:0:
320,192,58222,1,0,0:0:0:0:
448,192,58222,1,0,0:0:0:0:
64,192,58370,1,0,0:0:0:0:
320,192,58444,1,0,0:0:0:0:
448,192,58517,1,0,0:0:0:0:
192,192,58517,1,0,0:0:0:0:
64,192,58517,1,0,0:0:0:0:
448,192,58665,1,0,0:0:0:0:
192,192,58739,1,0,0:0:0:0:
64,192,58813,1,0,0:0:0:0:
320,192,58813,1,0,0:0:0:0:
448,192,58813,1,0,0:0:0:0:
64,192,58961,1,0,0:0:0:0:
320,192,59035,1,0,0:0:0:0:
64,192,59109,1,0,0:0:0:0:
448,192,59109,1,0,0:0:0:0:
192,192,59109,1,0,0:0:0:0:
448,192,59256,1,0,0:0:0:0:
192,192,59330,1,0,0:0:0:0:
64,192,59404,1,0,0:0:0:0:
448,192,59404,1,0,0:0:0:0:
320,192,59404,1,0,0:0:0:0:
64,192,59552,1,0,0:0:0:0:
448,192,59626,1,0,0:0:0:0:
320,192,59700,1,0,0:0:0:0:
192,192,59700,1,0,0:0:0:0:
64,192,59700,1,0,0:0:0:0:
320,192,59847,1,0,0:0:0:0:
192,192,59921,1,0,0:0:0:0:
64,192,59921,1,0,0:0:0:0:
320,192,59995,1,0,0:0:0:0:
448,192,59995,1,0,0:0:0:0:
320,192,60143,1,0,0:0:0:0:
192,192,60143,1,0,0:0:0:0:
64,192,60143,1,0,0:0:0:0:
448,192,60291,1,0,0:0:0:0:
320,192,60328,1,0,0:0:0:0:
64,192,60365,1,0,0:0:0:0:
192,192,60402,1,0,0:0:0:0:
448,192,60439,1,0,0:0:0:0:
320,192,60439,1,0,0:0:0:0:
192,192,60512,1,0,0:0:0:0:
448,192,60586,1,0,0:0:0:0:
320,192,60586,1,0,0:0:0:0:
64,192,60586,1,0,0:0:0:0:
448,192,60734,1,0,0:0:0:0:
64,192,60808,1,0,0:0:0:0:
448,192,60882,1,0,0:0:0:0:
192,192,60882,1,0,0:0:0:0:
320,192,60882,1,0,0:0:0:0:
192,192,61030,1,0,0:0:0:0:
320,192,61104,1,0,0:0:0:0:
448,192,61177,1,0,0:0:0:0:
64,192,61177,1,0,0:0:0:0:
192,192,61177,1,0,0:0:0:0:
192,192,61325,1,0,0:0:0:0:
448,192,61325,1,0,0:0:0:0:
64,192,61325,1,0,0:0:0:0:
192,192,61473,1,0,0:0:0:0:
64,192,61473,1,0,0:0:0:0:
448,192,61473,1,0,0:0:0:0:
192,192,61695,1,0,0:0:0:0:
64,192,61695,1,0,0:0:0:0:
448,192,61695,1,0,0:0:0:0:
192,192,61916,1,0,0:0:0:0:
64,192,61916,1,0,0:0:0:0:
448,192,61916,1,0,0:0:0:0:
192,192,62064,1,0,0:0:0:0:
64,192,62064,1,0,0:0:0:0:
320,192,62138,1,0,0:0:0:0:
448,192,62138,1,0,0:0:0:0:
192,192,62212,1,0,0:0:0:0:
64,192,62212,1,0,0:0:0:0:
64,192,62360,128,0,62434:0:0:0:0:
448,192,62360,128,0,62434:0:0:0:0:
320,192,62508,1,0,0:0:0:0:
192,192,62508,1,0,0:0:0:0:
64,192,62655,128,0,62951:0:0:0:0:
192,192,62655,128,0,62877:0:0:0:0:
320,192,62655,128,0,62877:0:0:0:0:
448,192,62655,128,0,62877:0:0:0:0:
192,192,62951,1,0,0:0:0:0:
320,192,62951,1,0,0:0:0:0:
448,192,62951,1,0,0:0:0:0:
64,192,63099,1,0,0:0:0:0:
192,192,63123,1,0,0:0:0:0:
448,192,63246,1,0,0:0:0:0:
320,192,63271,1,0,0:0:0:0:
64,192,63320,1,0,0:0:0:0:
192,192,63345,1,0,0:0:0:0:
320,192,63394,1,0,0:0:0:0:
448,192,63394,1,0,0:0:0:0:
192,192,63468,1,0,0:0:0:0:
448,192,63542,1,0,0:0:0:0:
64,192,63542,1,0,0:0:0:0:
320,192,63542,1,0,0:0:0:0:
192,192,63690,1,0,0:0:0:0:
320,192,63714,1,0,0:0:0:0:
64,192,63838,1,0,0:0:0:0:
192,192,63862,1,0,0:0:0:0:
320,192,63985,1,0,0:0:0:0:
448,192,63985,1,0,0:0:0:0:
448,192,64133,1,0,0:0:0:0:
320,192,64133,1,0,0:0:0:0:
64,192,64133,1,0,0:0:0:0:
320,192,64281,1,0,0:0:0:0:
192,192,64281,1,0,0:0:0:0:
64,192,64429,128,0,64503:0:0:0:0:
192,192,64429,128,0,64503:0:0:0:0:
448,192,64577,1,0,0:0:0:0:
320,192,64577,1,0,0:0:0:0:
192,192,64650,1,0,0:0:0:0:
320,192,64724,1,0,0:0:0:0:
64,192,64724,1,0,0:0:0:0:
448,192,64724,128,0,64872:0:0:0:0:
192,192,64872,128,0,65020:0:0:0:0:
320,192,64921,128,0,65020:0:0:0:0:
448,192,65020,1,0,0:0:0:0:
64,192,65020,128,0,65168:0:0:0:0:
320,192,65168,128,0,65315:0:0:0:0:
192,192,65217,128,0,65315:0:0:0:0:
448,192,65315,1,0,0:0:0:0:
64,192,65315,128,0,65463:0:0:0:0:
192,192,65463,128,0,65611:0:0:0:0:
448,192,65463,128,0,65611:0:0:0:0:
64,192,65611,1,0,0:0:0:0:
320,192,65611,128,0,65759:0:0:0:0:
64,192,65759,128,0,65907:0:0:0:0:
192,192,65808,128,0,65907:0:0:0:0:
448,192,65907,128,0,66054:0:0:0:0:
320,192,65907,1,0,0:0:0:0:
320,192,66054,128,0,66202:0:0:0:0:
192,192,66054,128,0,66202:0:0:0:0:
448,192,66202,1,0,0:0:0:0:
64,192,66202,1,0,0:0:0:0:
320,192,66276,1,0,0:0:0:0:
64,192,66350,1,0,0:0:0:0:
448,192,66424,1,0,0:0:0:0:
320,192,66424,1,0,0:0:0:0:
192,192,66498,1,0,0:0:0:0:
448,192,66572,1,0,0:0:0:0:
192,192,66645,1,0,0:0:0:0:
64,192,66645,1,0,0:0:0:0:
320,192,66719,1,0,0:0:0:0:
448,192,66793,128,0,66892:0:0:0:0:
64,192,66793,1,0,0:0:0:0:
192,192,66892,128,0,66990:0:0:0:0:
448,192,66990,128,0,67089:0:0:0:0:
192,192,67089,128,0,67187:0:0:0:0:
448,192,67187,128,0,67286:0:0:0:0:
192,192,67286,128,0,67384:0:0:0:0:
64,192,67384,1,0,0:0:0:0:
448,192,67384,128,0,67828:0:0:0:0:
320,192,67384,1,0,0:0:0:0:
320,192,67828,128,0,68271:0:0:0:0:
192,192,68271,128,0,68714:0:0:0:0:
64,192,68714,128,0,69010:0:0:0:0:
64,192,69306,128,0,69453:0:0:0:0:
192,192,69453,128,0,69601:0:0:0:0:
320,192,69601,128,0,69897:0:0:0:0:
64,192,70636,1,0,0:0:0:0:
64,192,70783,1,0,0:0:0:0:
192,192,70833,1,0,0:0:0:0:
320,192,70882,1,0,0:0:0:0:
448,192,70931,128,0,71227:0:0:0:0:
320,192,71227,128,0,71522:0:0:0:0:
64,192,71522,128,0,71818:0:0:0:0:
320,192,71818,128,0,72113:0:0:0:0:
448,192,72113,1,0,0:0:0:0:
192,192,72113,1,0,0:0:0:0:
64,192,72113,1,0,0:0:0:0:
192,192,72261,128,0,72409:0:0:0:0:
320,192,72409,1,0,0:0:0:0:
448,192,72409,1,0,0:0:0:0:
192,192,72557,128,0,72705:0:0:0:0:
320,192,72705,1,0,0:0:0:0:
448,192,72705,1,0,0:0:0:0:
192,192,72852,128,0,73000:0:0:0:0:
320,192,73000,1,0,0:0:0:0:
64,192,73000,1,0,0:0:0:0:
448,192,73148,128,0,73296:0:0:0:0:
192,192,73296,1,0,0:0:0:0:
64,192,73296,1,0,0:0:0:0:
320,192,73444,128,0,73591:0:0:0:0:
192,192,73591,1,0,0:0:0:0:
64,192,73591,1,0,0:0:0:0:
320,192,73739,128,0,73887:0:0:0:0:
192,192,73887,128,0,74035:0:0:0:0:
448,192,73887,1,0,0:0:0:0:
64,192,74035,128,0,74182:0:0:0:0:
448,192,74035,1,0,0:0:0:0:
320,192,74035,1,0,0:0:0:0:
320,192,74182,128,0,74330:0:0:0:0:
64,192,74330,1,0,0:0:0:0:
192,192,74330,1,0,0:0:0:0:
320,192,74404,1,0,0:0:0:0:
448,192,74404,1,0,0:0:0:0:
192,192,74478,1,0,0:0:0:0:
64,192,74478,1,0,0:0:0:0:
320,192,74626,128,0,74774:0:0:0:0:
64,192,74774,1,0,0:0:0:0:
448,192,74774,1,0,0:0:0:0:
64,192,74921,1,0,0:0:0:0:
320,192,74921,128,0,75069:0:0:0:0:
192,192,74921,1,0,0:0:0:0:
448,192,75069,1,0,0:0:0:0:
192,192,75069,128,0,75217:0:0:0:0:
320,192,75217,128,0,75365:0:0:0:0:
64,192,75365,1,0,0:0:0:0:
192,192,75365,1,0,0:0:0:0:
448,192,75365,1,0,0:0:0:0:
64,192,75512,128,0,75660:0:0:0:0:
192,192,75660,1,0,0:0:0:0:
448,192,75660,1,0,0:0:0:0:
192,192,75808,128,0,75956:0:0:0:0:
64,192,75808,1,0,0:0:0:0:
320,192,75808,1,0,0:0:0:0:
320,192,75956,128,0,76104:0:0:0:0:
448,192,75956,1,0,0:0:0:0:
64,192,76030,1,0,0:0:0:0:
448,192,76104,128,0,76251:0:0:0:0:
192,192,76251,128,0,76399:0:0:0:0:
64,192,76251,1,0,0:0:0:0:
320,192,76399,128,0,76547:0:0:0:0:
448,192,76399,1,0,0:0:0:0:
192,192,76547,1,0,0:0:0:0:
448,192,76547,1,0,0:0:0:0:
64,192,76547,1,0,0:0:0:0:
448,192,76843,1,0,0:0:0:0:
320,192,76843,1,0,0:0:0:0:
192,192,76843,1,0,0:0:0:0:
192,192,76990,128,0,77138:0:0:0:0:
64,192,77138,1,0,0:0:0:0:
320,192,77138,1,0,0:0:0:0:
320,192,77286,128,0,77434:0:0:0:0:
64,192,77434,128,0,77508:0:0:0:0:
448,192,77434,1,0,0:0:0:0:
192,192,77581,128,0,77729:0:0:0:0:
448,192,77729,1,0,0:0:0:0:
64,192,77729,1,0,0:0:0:0:
448,192,77877,128,0,78025:0:0:0:0:
320,192,78025,1,0,0:0:0:0:
192,192,78025,1,0,0:0:0:0:
192,192,78173,128,0,78320:0:0:0:0:
64,192,78320,1,0,0:0:0:0:
320,192,78320,1,0,0:0:0:0:
320,192,78468,128,0,78616:0:0:0:0:
448,192,78616,128,0,78764:0:0:0:0:
64,192,78616,1,0,0:0:0:0:
320,192,78764,128,0,78911:0:0:0:0:
192,192,78911,128,0,79059:0:0:0:0:
448,192,78911,1,0,0:0:0:0:
64,192,79059,128,0,79207:0:0:0:0:
320,192,79207,1,0,0:0:0:0:
192,192,79207,1,0,0:0:0:0:
192,192,79355,128,0,79503:0:0:0:0:
64,192,79503,1,0,0:0:0:0:
320,192,79503,1,0,0:0:0:0:
320,192,79650,128,0,79798:0:0:0:0:
64,192,79798,128,0,79872:0:0:0:0:
448,192,79798,1,0,0:0:0:0:
192,192,79946,128,0,80094:0:0:0:0:
448,192,80094,1,0,0:0:0:0:
64,192,80094,1,0,0:0:0:0:
448,192,80242,128,0,80389:0:0:0:0:
320,192,80389,1,0,0:0:0:0:
192,192,80389,1,0,0:0:0:0:
320,192,80537,128,0,80685:0:0:0:0:
64,192,80685,1,0,0:0:0:0:
448,192,80685,1,0,0:0:0:0:
192,192,80833,128,0,80980:0:0:0:0:
448,192,80980,128,0,81128:0:0:0:0:
64,192,80980,1,0,0:0:0:0:
320,192,81128,128,0,81276:0:0:0:0:
192,192,81276,128,0,81424:0:0:0:0:
448,192,81276,1,0,0:0:0:0:
64,192,81424,128,0,81572:0:0:0:0:
320,192,81572,1,0,0:0:0:0:
448,192,81572,1,0,0:0:0:0:
192,192,81572,1,0,0:0:0:0:
448,192,81719,1,0,0:0:0:0:
64,192,81719,1,0,0:0:0:0:
64,192,81867,1,0,0:0:0:0:
320,192,81867,1,0,0:0:0:0:
448,192,82015,1,0,0:0:0:0:
192,192,82015,1,0,0:0:0:0:
320,192,82015,1,0,0:0:0:0:
448,192,82163,1,0,0:0:0:0:
64,192,82163,1,0,0:0:0:0:
64,192,82311,1,0,0:0:0:0:
320,192,82311,1,0,0:0:0:0:
192,192,82458,1,0,0:0:0:0:
320,192,82458,1,0,0:0:0:0:
448,192,82606,1,0,0:0:0:0:
192,192,82606,1,0,0:0:0:0:
448,192,82754,1,0,0:0:0:0:
64,192,82754,1,0,0:0:0:0:
64,192,82902,1,0,0:0:0:0:
320,192,82902,1,0,0:0:0:0:
192,192,83049,1,0,0:0:0:0:
320,192,83049,1,0,0:0:0:0:
448,192,83197,1,0,0:0:0:0:
192,192,83197,1,0,0:0:0:0:
64,192,83345,1,0,0:0:0:0:
448,192,83345,1,0,0:0:0:0:
320,192,83493,1,0,0:0:0:0:
64,192,83493,1,0,0:0:0:0:
320,192,83641,1,0,0:0:0:0:
192,192,83641,1,0,0:0:0:0:
448,192,83788,1,0,0:0:0:0:
192,192,83788,1,0,0:0:0:0:
448,192,83936,5,0,0:0:0:0:
320,192,83936,1,0,0:0:0:0:
192,192,84010,1,0,0:0:0:0:
64,192,84010,1,0,0:0:0:0:
320,192,84084,1,0,0:0:0:0:
448,192,84084,1,0,0:0:0:0:
192,192,84158,1,0,0:0:0:0:
64,192,84158,1,0,0:0:0:0:
320,192,84232,1,0,0:0:0:0:
448,192,84232,1,0,0:0:0:0:
192,192,84306,1,0,0:0:0:0:
64,192,84306,1,0,0:0:0:0:
320,192,84379,1,0,0:0:0:0:
448,192,84379,1,0,0:0:0:0:
192,192,84453,1,0,0:0:0:0:
64,192,84453,1,0,0:0:0:0:
320,192,84527,1,0,0:0:0:0:
448,192,84527,1,0,0:0:0:0:
192,192,84601,1,0,0:0:0:0:
64,192,84601,1,0,0:0:0:0:
320,192,84675,1,0,0:0:0:0:
448,192,84675,1,0,0:0:0:0:
192,192,84749,1,0,0:0:0:0:
64,192,84749,1,0,0:0:0:0:
320,192,84823,1,0,0:0:0:0:
448,192,84823,1,0,0:0:0:0:
192,192,84897,1,0,0:0:0:0:
64,192,84897,1,0,0:0:0:0:
320,192,84971,128,0,85044:0:0:0:0:
192,192,85044,128,0,85118:0:0:0:0:
448,192,85118,128,0,85192:0:0:0:0:
448,192,85266,128,0,85340:0:0:0:0:
64,192,85340,128,0,85414:0:0:0:0:
64,192,85488,128,0,85562:0:0:0:0:
320,192,85562,128,0,85636:0:0:0:0:
64,192,85710,128,0,85783:0:0:0:0:
192,192,85783,128,0,85857:0:0:0:0:
320,192,85857,128,0,85931:0:0:0:0:
448,192,86005,128,0,86227:0:0:0:0:
320,192,86079,128,0,86227:0:0:0:0:
192,192,86153,128,0,86227:0:0:0:0:
64,192,86227,128,0,86596:0:0:0:0:
448,192,86301,128,0,86522:0:0:0:0:
320,192,86301,128,0,86522:0:0:0:0:
192,192,86301,128,0,86596:0:0:0:0:
448,192,86596,1,0,0:0:0:0:
320,192,86596,1,0,0:0:0:0:
192,192,86670,1,0,0:0:0:0:
64,192,86744,1,0,0:0:0:0:
448,192,86744,1,0,0:0:0:0:
448,192,86892,1,0,0:0:0:0:
192,192,86892,1,0,0:0:0:0:
64,192,87040,1,0,0:0:0:0:
320,192,87040,1,0,0:0:0:0:
448,192,87187,1,0,0:0:0:0:
64,192,87187,1,0,0:0:0:0:
192,192,87187,1,0,0:0:0:0:
448,192,87483,128,0,87631:0:0:0:0:
192,192,87483,1,0,0:0:0:0:
64,192,87483,128,0,87631:0:0:0:0:
320,192,87631,1,0,0:0:0:0:
192,192,87705,128,0,87852:0:0:0:0:
448,192,87778,1,0,0:0:0:0:
320,192,87778,128,0,87926:0:0:0:0:
64,192,87926,128,0,88074:0:0:0:0:
320,192,88074,1,0,0:0:0:0:
192,192,88074,128,0,88222:0:0:0:0:
448,192,88074,128,0,88222:0:0:0:0:
64,192,88222,1,0,0:0:0:0:
320,192,88296,128,0,88444:0:0:0:0:
64,192,88370,1,0,0:0:0:0:
192,192,88370,128,0,88517:0:0:0:0:
448,192,88517,128,0,88591:0:0:0:0:
320,192,88591,128,0,88665:0:0:0:0:
64,192,88665,128,0,88813:0:0:0:0:
448,192,88665,128,0,88813:0:0:0:0:
192,192,88665,1,0,0:0:0:0:
320,192,88813,1,0,0:0:0:0:
192,192,88887,128,0,89035:0:0:0:0:
64,192,88961,128,0,89109:0:0:0:0:
320,192,88961,1,0,0:0:0:0:
448,192,89109,128,0,89256:0:0:0:0:
320,192,89256,128,0,89404:0:0:0:0:
192,192,89256,128,0,89404:0:0:0:0:
64,192,89256,1,0,0:0:0:0:
448,192,89404,1,0,0:0:0:0:
64,192,89478,128,0,89626:0:0:0:0:
192,192,89552,128,0,89700:0:0:0:0:
448,192,89552,1,0,0:0:0:0:
320,192,89700,128,0,89847:0:0:0:0:
64,192,89847,128,0,89995:0:0:0:0:
448,192,89847,128,0,89995:0:0:0:0:
192,192,89847,1,0,0:0:0:0:
320,192,89995,1,0,0:0:0:0:
192,192,90069,128,0,90217:0:0:0:0:
320,192,90143,128,0,90291:0:0:0:0:
448,192,90143,1,0,0:0:0:0:
64,192,90291,128,0,90439:0:0:0:0:
320,192,90439,128,0,90512:0:0:0:0:
192,192,90439,1,0,0:0:0:0:
448,192,90439,1,0,0:0:0:0:
64,192,90512,128,0,90586:0:0:0:0:
320,192,90586,128,0,90660:0:0:0:0:
448,192,90734,128,0,90808:0:0:0:0:
64,192,90734,1,0,0:0:0:0:
192,192,90808,128,0,90882:0:0:0:0:
320,192,90882,128,0,90956:0:0:0:0:
64,192,90956,128,0,91030:0:0:0:0:
320,192,91030,128,0,91177:0:0:0:0:
448,192,91030,128,0,91177:0:0:0:0:
192,192,91030,1,0,0:0:0:0:
64,192,91177,1,0,0:0:0:0:
192,192,91251,128,0,91399:0:0:0:0:
448,192,91325,1,0,0:0:0:0:
320,192,91325,128,0,91473:0:0:0:0:
64,192,91473,128,0,91621:0:0:0:0:
320,192,91621,128,0,91695:0:0:0:0:
448,192,91621,1,0,0:0:0:0:
192,192,91695,128,0,91769:0:0:0:0:
320,192,91769,128,0,91843:0:0:0:0:
448,192,91843,128,0,91916:0:0:0:0:
192,192,91916,128,0,91990:0:0:0:0:
64,192,91916,1,0,0:0:0:0:
448,192,91990,128,0,92064:0:0:0:0:
320,192,92064,128,0,92138:0:0:0:0:
192,192,92138,128,0,92212:0:0:0:0:
64,192,92212,128,0,92360:0:0:0:0:
320,192,92212,1,0,0:0:0:0:
448,192,92212,128,0,92360:0:0:0:0:
192,192,92360,1,0,0:0:0:0:
320,192,92434,128,0,92581:0:0:0:0:
64,192,92508,1,0,0:0:0:0:
192,192,92508,128,0,92655:0:0:0:0:
448,192,92655,128,0,92803:0:0:0:0:
192,192,92803,1,0,0:0:0:0:
320,192,92803,128,0,92951:0:0:0:0:
64,192,92803,128,0,92951:0:0:0:0:
448,192,92951,1,0,0:0:0:0:
192,192,93025,128,0,93173:0:0:0:0:
448,192,93099,1,0,0:0:0:0:
320,192,93099,128,0,93246:0:0:0:0:
64,192,93246,128,0,93320:0:0:0:0:
192,192,93320,128,0,93394:0:0:0:0:
448,192,93394,128,0,93542:0:0:0:0:
64,192,93394,128,0,93542:0:0:0:0:
320,192,93394,1,0,0:0:0:0:
192,192,93542,1,0,0:0:0:0:
320,192,93616,128,0,93764:0:0:0:0:
448,192,93690,128,0,93838:0:0:0:0:
192,192,93690,1,0,0:0:0:0:
64,192,93838,128,0,93985:0:0:0:0:
192,192,93985,128,0,94133:0:0:0:0:
448,192,93985,128,0,94133:0:0:0:0:
320,192,93985,1,0,0:0:0:0:
64,192,94133,1,0,0:0:0:0:
320,192,94207,128,0,94355:0:0:0:0:
192,192,94281,128,0,94429:0:0:0:0:
64,192,94281,1,0,0:0:0:0:
448,192,94429,128,0,94577:0:0:0:0:
64,192,94577,128,0,94724:0:0:0:0:
320,192,94577,128,0,94724:0:0:0:0:
192,192,94577,1,0,0:0:0:0:
448,192,94724,1,0,0:0:0:0:
192,192,94798,128,0,94946:0:0:0:0:
320,192,94872,128,0,95020:0:0:0:0:
448,192,94872,1,0,0:0:0:0:
64,192,95020,128,0,95168:0:0:0:0:
448,192,95168,128,0,95315:0:0:0:0:
192,192,95168,128,0,95315:0:0:0:0:
320,192,95168,1,0,0:0:0:0:
64,192,95315,1,0,0:0:0:0:
320,192,95389,128,0,95537:0:0:0:0:
192,192,95463,128,0,95611:0:0:0:0:
64,192,95463,1,0,0:0:0:0:
448,192,95611,128,0,95685:0:0:0:0:
192,192,95685,128,0,95759:0:0:0:0:
448,192,95759,128,0,95907:0:0:0:0:
64,192,95759,128,0,95833:0:0:0:0:
320,192,95759,1,0,0:0:0:0:
320,192,95907,128,0,95980:0:0:0:0:
64,192,95980,128,0,96054:0:0:0:0:
448,192,96054,1,0,0:0:0:0:
320,192,96054,128,0,96202:0:0:0:0:
64,192,96128,128,0,96202:0:0:0:0:
448,192,96202,128,0,96276:0:0:0:0:
192,192,96350,1,0,0:0:0:0:
320,192,96350,1,0,0:0:0:0:
64,192,96350,128,0,96498:0:0:0:0:
448,192,96424,128,0,96572:0:0:0:0:
320,192,96498,128,0,96572:0:0:0:0:
192,192,96572,128,0,96645:0:0:0:0:
448,192,96645,128,0,96793:0:0:0:0:
64,192,96645,128,0,96719:0:0:0:0:
320,192,96719,128,0,96793:0:0:0:0:
192,192,96793,128,0,96867:0:0:0:0:
320,192,96867,128,0,96941:0:0:0:0:
448,192,96941,128,0,97089:0:0:0:0:
192,192,96941,1,0,0:0:0:0:
64,192,96941,128,0,97089:0:0:0:0:
320,192,97089,1,0,0:0:0:0:
192,192,97163,128,0,97311:0:0:0:0:
448,192,97237,1,0,0:0:0:0:
320,192,97237,128,0,97384:0:0:0:0:
64,192,97384,128,0,97532:0:0:0:0:
320,192,97532,1,0,0:0:0:0:
192,192,97532,128,0,97680:0:0:0:0:
448,192,97532,128,0,97680:0:0:0:0:
64,192,97680,1,0,0:0:0:0:
320,192,97754,128,0,97902:0:0:0:0:
64,192,97828,1,0,0:0:0:0:
192,192,97828,128,0,97976:0:0:0:0:
448,192,97976,128,0,98049:0:0:0:0:
320,192,98049,128,0,98123:0:0:0:0:
64,192,98123,128,0,98271:0:0:0:0:
448,192,98123,128,0,98271:0:0:0:0:
192,192,98123,1,0,0:0:0:0:
320,192,98271,1,0,0:0:0:0:
192,192,98345,128,0,98493:0:0:0:0:
64,192,98419,128,0,98567:0:0:0:0:
320,192,98419,1,0,0:0:0:0:
448,192,98567,128,0,98714:0:0:0:0:
320,192,98714,128,0,98862:0:0:0:0:
192,192,98714,128,0,98862:0:0:0:0:
64,192,98714,1,0,0:0:0:0:
448,192,98862,1,0,0:0:0:0:
64,192,98936,128,0,99084:0:0:0:0:
320,192,99010,128,0,99158:0:0:0:0:
448,192,99010,1,0,0:0:0:0:
192,192,99158,128,0,99306:0:0:0:0:
448,192,99306,128,0,99453:0:0:0:0:
320,192,99306,1,0,0:0:0:0:
64,192,99306,128,0,99453:0:0:0:0:
192,192,99453,1,0,0:0:0:0:
320,192,99527,128,0,99675:0:0:0:0:
64,192,99601,1,0,0:0:0:0:
448,192,99601,128,0,99749:0:0:0:0:
192,192,99749,128,0,99897:0:0:0:0:
64,192,99897,128,0,100044:0:0:0:0:
320,192,99897,1,0,0:0:0:0:
448,192,99897,128,0,100044:0:0:0:0:
192,192,100044,1,0,0:0:0:0:
320,192,100118,128,0,100266:0:0:0:0:
448,192,100192,128,0,100340:0:0:0:0:
64,192,100192,1,0,0:0:0:0:
192,192,100340,128,0,100488:0:0:0:0:
448,192,100488,128,0,100636:0:0:0:0:
320,192,100488,1,0,0:0:0:0:
64,192,100488,128,0,100636:0:0:0:0:
192,192,100636,1,0,0:0:0:0:
320,192,100710,128,0,100857:0:0:0:0:
64,192,100783,1,0,0:0:0:0:
448,192,100783,128,0,100931:0:0:0:0:
192,192,100931,128,0,101079:0:0:0:0:
320,192,101079,128,0,101153:0:0:0:0:
64,192,101079,128,0,101227:0:0:0:0:
448,192,101227,128,0,101301:0:0:0:0:
64,192,101301,128,0,101375:0:0:0:0:
192,192,101375,128,0,101448:0:0:0:0:
320,192,101375,128,0,101522:0:0:0:0:
64,192,101448,128,0,101522:0:0:0:0:
448,192,101522,128,0,101596:0:0:0:0:
320,192,101596,128,0,101670:0:0:0:0:
64,192,101670,1,0,0:0:0:0:
448,192,101670,1,0,0:0:0:0:
192,192,101670,1,0,0:0:0:0:
192,192,101818,1,0,0:0:0:0:
64,192,101818,1,0,0:0:0:0:
64,192,101966,1,0,0:0:0:0:
192,192,101966,1,0,0:0:0:0:
64,192,102113,1,0,0:0:0:0:
192,192,102113,1,0,0:0:0:0:
320,192,102261,1,0,0:0:0:0:
448,192,102261,1,0,0:0:0:0:
64,192,102261,128,0,102409:0:0:0:0:
192,192,102409,128,0,102557:0:0:0:0:
320,192,102483,128,0,102557:0:0:0:0:
448,192,102631,128,0,102778:0:0:0:0:
320,192,102705,128,0,102778:0:0:0:0:
192,192,102778,128,0,102852:0:0:0:0:
448,192,102852,1,0,0:0:0:0:
320,192,102852,1,0,0:0:0:0:
64,192,102852,1,0,0:0:0:0:
320,192,103000,1,0,0:0:0:0:
448,192,103000,1,0,0:0:0:0:
320,192,103148,1,0,0:0:0:0:
448,192,103148,1,0,0:0:0:0:
64,192,103222,1,0,0:0:0:0:
192,192,103222,1,0,0:0:0:0:
448,192,103296,1,0,0:0:0:0:
320,192,103296,1,0,0:0:0:0:
448,192,103444,1,0,0:0:0:0:
320,192,103444,1,0,0:0:0:0:
64,192,103444,1,0,0:0:0:0:
192,192,103517,128,0,103739:0:0:0:0:
320,192,103591,128,0,103739:0:0:0:0:
448,192,103665,128,0,103739:0:0:0:0:
64,192,103739,128,0,103961:0:0:0:0:
192,192,103813,128,0,103961:0:0:0:0:
320,192,103887,128,0,103961:0:0:0:0:
448,192,103961,128,0,104035:0:0:0:0:
320,192,104035,1,0,0:0:0:0:
192,192,104035,1,0,0:0:0:0:
64,192,104035,128,0,104182:0:0:0:0:
192,192,104182,128,0,104330:0:0:0:0:
320,192,104330,128,0,104478:0:0:0:0:
448,192,104478,128,0,104626:0:0:0:0:
320,192,104626,128,0,104774:0:0:0:0:
192,192,104921,128,0,105069:0:0:0:0:
320,192,105069,128,0,105217:0:0:0:0:
64,192,105217,5,0,0:0:0:0:
448,192,105291,1,0,0:0:0:0:
448,192,105365,128,0,105439:0:0:0:0:
64,192,105512,1,0,0:0:0:0:
64,192,105586,128,0,105660:0:0:0:0:
448,192,105734,1,0,0:0:0:0:
448,192,105808,128,0,106104:0:0:0:0:
320,192,105882,128,0,106153:0:0:0:0:
192,192,105956,128,0,106202:0:0:0:0:
64,192,106030,128,0,106251:0:0:0:0:
64,192,106399,128,0,106695:0:0:0:0:
192,192,106399,128,0,106695:0:0:0:0:
320,192,106399,128,0,106695:0:0:0:0:
448,192,106399,128,0,106695:0:0:0:0:
192,192,106843,128,0,107064:0:0:0:0:
64,192,106843,128,0,107064:0:0:0:0:
320,192,106843,128,0,107138:0:0:0:0:
448,192,106843,128,0,107138:0:0:0:0:
64,192,107138,1,0,0:0:0:0:
192,192,107138,1,0,0:0:0:0:
192,192,107581,128,0,107803:0:0:0:0:
64,192,107581,128,0,107803:0:0:0:0:
320,192,107581,128,0,107877:0:0:0:0:
448,192,107581,128,0,107877:0:0:0:0:
192,192,107877,1,0,0:0:0:0:
64,192,107877,1,0,0:0:0:0:
192,192,108025,128,0,108246:0:0:0:0:
64,192,108025,128,0,108468:0:0:0:0:
320,192,108025,128,0,108246:0:0:0:0:
448,192,108025,128,0,108246:0:0:0:0:
320,192,108320,128,0,108468:0:0:0:0:
448,192,108320,128,0,108764:0:0:0:0:
192,192,108320,128,0,108468:0:0:0:0:
64,192,108542,128,0,108690:0:0:0:0:
192,192,108542,128,0,108690:0:0:0:0:
320,192,108542,128,0,108764:0:0:0:0:
192,192,108764,1,0,0:0:0:0:
64,192,108764,1,0,0:0:0:0:
320,192,108838,1,0,0:0:0:0:
64,192,108911,1,0,0:0:0:0:
192,192,108911,1,0,0:0:0:0:
320,192,108985,1,0,0:0:0:0:
448,192,108985,1,0,0:0:0:0:
64,192,109059,1,0,0:0:0:0:
320,192,109133,1,0,0:0:0:0:
448,192,109133,1,0,0:0:0:0:
64,192,109207,1,0,0:0:0:0:
192,192,109207,1,0,0:0:0:0:
320,192,109281,1,0,0:0:0:0:
64,192,109355,1,0,0:0:0:0:
448,192,109355,1,0,0:0:0:0:
192,192,109453,1,0,0:0:0:0:
320,192,109453,1,0,0:0:0:0:
64,192,109552,1,0,0:0:0:0:
448,192,109552,1,0,0:0:0:0:
320,192,109650,1,0,0:0:0:0:
192,192,109650,1,0,0:0:0:0:
64,192,109749,1,0,0:0:0:0:
448,192,109749,1,0,0:0:0:0:
192,192,109847,1,0,0:0:0:0:
64,192,109946,1,0,0:0:0:0:
448,192,109946,1,0,0:0:0:0:
320,192,109946,1,0,0:0:0:0:
320,192,110315,1,0,0:0:0:0:
192,192,110315,1,0,0:0:0:0:
64,192,110389,1,0,0:0:0:0:
320,192,110537,1,0,0:0:0:0:
64,192,110537,1,0,0:0:0:0:
448,192,110611,1,0,0:0:0:0:
192,192,110685,1,0,0:0:0:0:
320,192,110833,1,0,0:0:0:0:
64,192,110833,1,0,0:0:0:0:
448,192,110833,1,0,0:0:0:0:
448,192,111128,1,0,0:0:0:0:
64,192,111128,1,0,0:0:0:0:
320,192,111128,128,0,111276:0:0:0:0:
192,192,111202,128,0,111276:0:0:0:0:
64,192,111276,1,0,0:0:0:0:
320,192,111350,1,0,0:0:0:0:
448,192,111424,1,0,0:0:0:0:
64,192,111424,128,0,111572:0:0:0:0:
192,192,111498,128,0,111572:0:0:0:0:
448,192,111572,128,0,111719:0:0:0:0:
320,192,111645,128,0,111719:0:0:0:0:
64,192,111719,1,0,0:0:0:0:
192,192,111719,1,0,0:0:0:0:
448,192,111793,1,0,0:0:0:0:
192,192,111867,1,0,0:0:0:0:
320,192,111941,1,0,0:0:0:0:
448,192,112015,1,0,0:0:0:0:
64,192,112015,1,0,0:0:0:0:
192,192,112089,1,0,0:0:0:0:
320,192,112163,1,0,0:0:0:0:
64,192,112237,1,0,0:0:0:0:
448,192,112311,1,0,0:0:0:0:
320,192,112311,128,0,112458:0:0:0:0:
192,192,112384,128,0,112458:0:0:0:0:
64,192,112458,1,0,0:0:0:0:
448,192,112458,1,0,0:0:0:0:
320,192,112532,1,0,0:0:0:0:
64,192,112606,128,0,112754:0:0:0:0:
448,192,112606,1,0,0:0:0:0:
192,192,112680,128,0,112754:0:0:0:0:
320,192,112754,128,0,112902:0:0:0:0:
448,192,112828,128,0,112902:0:0:0:0:
64,192,112902,1,0,0:0:0:0:
192,192,112902,1,0,0:0:0:0:
448,192,112976,1,0,0:0:0:0:
320,192,112976,1,0,0:0:0:0:
64,192,113049,1,0,0:0:0:0:
320,192,113123,1,0,0:0:0:0:
448,192,113123,1,0,0:0:0:0:
192,192,113197,1,0,0:0:0:0:
64,192,113197,1,0,0:0:0:0:
320,192,113345,1,0,0:0:0:0:
448,192,113493,128,0,113862:0:0:0:0:
320,192,113493,128,0,113788:0:0:0:0:
192,192,113493,128,0,113714:0:0:0:0:
64,192,113493,128,0,113641:0:0:0:0:
192,192,113862,1,0,0:0:0:0:
64,192,113862,1,0,0:0:0:0:
320,192,113936,1,0,0:0:0:0:
448,192,113936,1,0,0:0:0:0:
192,192,114084,5,0,0:0:0:0:
64,192,114084,1,0,0:0:0:0:
448,192,114158,1,0,0:0:0:0:
64,192,114232,1,0,0:0:0:0:
192,192,114306,1,0,0:0:0:0:
448,192,114379,1,0,0:0:0:0:
320,192,114379,1,0,0:0:0:0:
64,192,114453,1,0,0:0:0:0:
448,192,114527,1,0,0:0:0:0:
320,192,114601,1,0,0:0:0:0:
64,192,114675,1,0,0:0:0:0:
192,192,114675,1,0,0:0:0:0:
448,192,114749,1,0,0:0:0:0:
64,192,114823,1,0,0:0:0:0:
192,192,114897,1,0,0:0:0:0:
448,192,114971,1,0,0:0:0:0:
320,192,114971,1,0,0:0:0:0:
64,192,115044,1,0,0:0:0:0:
320,192,115118,128,0,115266:0:0:0:0:
448,192,115118,128,0,115266:0:0:0:0:
192,192,115266,1,0,0:0:0:0:
64,192,115266,1,0,0:0:0:0:
192,192,115414,128,0,115783:0:0:0:0:
448,192,115414,128,0,115636:0:0:0:0:
320,192,115562,128,0,115636:0:0:0:0:
64,192,115562,128,0,115783:0:0:0:0:
320,192,115710,128,0,115857:0:0:0:0:
448,192,115710,128,0,115857:0:0:0:0:
64,192,115857,1,0,0:0:0:0:
192,192,115857,1,0,0:0:0:0:
64,192,116153,1,0,0:0:0:0:
192,192,116153,1,0,0:0:0:0:
320,192,116301,1,0,0:0:0:0:
64,192,116301,1,0,0:0:0:0:
448,192,116448,1,0,0:0:0:0:
192,192,116448,1,0,0:0:0:0:
320,192,116596,1,0,0:0:0:0:
448,192,116596,1,0,0:0:0:0:
192,192,116744,1,0,0:0:0:0:
320,192,116744,1,0,0:0:0:0:
448,192,116892,1,0,0:0:0:0:
64,192,116892,1,0,0:0:0:0:
192,192,117040,1,0,0:0:0:0:
64,192,117040,1,0,0:0:0:0:
192,192,117187,1,0,0:0:0:0:
64,192,117187,1,0,0:0:0:0:
192,192,117335,1,0,0:0:0:0:
64,192,117335,1,0,0:0:0:0:
64,192,117483,1,0,0:0:0:0:
192,192,117483,1,0,0:0:0:0:
320,192,117557,1,0,0:0:0:0:
448,192,117557,1,0,0:0:0:0:
192,192,117631,1,0,0:0:0:0:
64,192,117631,1,0,0:0:0:0:
320,192,117778,1,0,0:0:0:0:
192,192,117778,1,0,0:0:0:0:
448,192,117926,1,0,0:0:0:0:
320,192,117926,1,0,0:0:0:0:
64,192,117926,1,0,0:0:0:0:
192,192,118074,1,0,0:0:0:0:
448,192,118222,1,0,0:0:0:0:
320,192,118259,1,0,0:0:0:0:
192,192,118296,1,0,0:0:0:0:
64,192,118333,1,0,0:0:0:0:
448,192,118370,1,0,0:0:0:0:
320,192,118444,1,0,0:0:0:0:
192,192,118517,1,0,0:0:0:0:
64,192,118517,1,0,0:0:0:0:
320,192,118665,1,0,0:0:0:0:
192,192,118665,1,0,0:0:0:0:
64,192,118739,1,0,0:0:0:0:
320,192,118813,1,0,0:0:0:0:
448,192,118813,1,0,0:0:0:0:
64,192,118887,1,0,0:0:0:0:
192,192,118924,1,0,0:0:0:0:
320,192,118961,1,0,0:0:0:0:
64,192,119035,1,0,0:0:0:0:
192,192,119109,1,0,0:0:0:0:
448,192,119109,1,0,0:0:0:0:
320,192,119182,1,0,0:0:0:0:
64,192,119256,1,0,0:0:0:0:
192,192,119293,1,0,0:0:0:0:
448,192,119330,1,0,0:0:0:0:
320,192,119367,1,0,0:0:0:0:
64,192,119404,1,0,0:0:0:0:
320,192,119552,1,0,0:0:0:0:
448,192,119552,1,0,0:0:0:0:
64,192,119626,1,0,0:0:0:0:
192,192,119663,1,0,0:0:0:0:
320,192,119700,1,0,0:0:0:0:
64,192,119774,1,0,0:0:0:0:
320,192,119847,1,0,0:0:0:0:
448,192,119884,1,0,0:0:0:0:
64,192,119921,1,0,0:0:0:0:
192,192,119958,1,0,0:0:0:0:
448,192,119995,1,0,0:0:0:0:
320,192,120032,1,0,0:0:0:0:
192,192,120069,1,0,0:0:0:0:
64,192,120106,1,0,0:0:0:0:
448,192,120143,1,0,0:0:0:0:
320,192,120217,1,0,0:0:0:0:
64,192,120291,1,0,0:0:0:0:
192,192,120291,1,0,0:0:0:0:
448,192,120365,1,0,0:0:0:0:
320,192,120402,1,0,0:0:0:0:
192,192,120439,1,0,0:0:0:0:
448,192,120512,1,0,0:0:0:0:
320,192,120586,128,0,121030:0:0:0:0:
192,192,120586,128,0,120956:0:0:0:0:
64,192,120586,128,0,120882:0:0:0:0:
