osu file format v14

[General]
AudioFilename: audio.ogg
AudioLeadIn: 0
PreviewTime: 118780
Countdown: 0
SampleSet: Normal
StackLeniency: 0.7
Mode: 1
LetterboxInBreaks: 0
WidescreenStoryboard: 0

[Editor]
Bookmarks: 11972,24729,37487,47055,50244,63002,72570,78948,91706,104463,116423,118815,128383,137952,144330,150709,158682,160277,166656,173035,174629,185792,198549,211307,217701,224064,233632,236822,243200,251174,255957,265525,268715,278283,279877,286256,292635,305392
DistanceSpacing: 0.7
BeatDivisor: 4
GridSize: 32
TimelineZoom: 1.859209

[Metadata]
Title:Fractured Angel
TitleUnicode:Fractured Angel
Artist:DJ Raisei
ArtistUnicode:DJ Raisei
Creator:paz08
Version:Divine Split
Source:Expert Global Taiko Showdown 2022
Tags:electronic instrumental japanese fa featured artist isekai speedcore melodic hardcore 闇音レンリ Yamine Renri utau gtsosu egts ro32 tiebreaker tb BespokE : GTS Sound Team 2022
BeatmapID:3955062
BeatmapSetID:1916710

[Difficulty]
HPDrainRate:3.8
CircleSize:2
OverallDifficulty:8.2
ApproachRate:10
SliderMultiplier:1.4
SliderTickRate:1

[Events]
//Background and Video events
0,0,"99572285_p0.jpg",0,40
//Break Periods
2,211522,217251
//Storyboard Layer 0 (Background)
//Storyboard Layer 1 (Fail)
//Storyboard Layer 2 (Pass)
//Storyboard Layer 3 (Foreground)
//Storyboard Layer 4 (Overlay)
//Storyboard Sound Samples

[TimingPoints]
-770,398.671096345515,4,1,0,40,1,0
213,-142.857142857143,4,1,0,40,0,0
8785,-133.333333333333,4,1,0,40,0,0
10379,-125,4,1,0,60,0,0
11974,-111.111111111111,4,1,0,80,0,0
23934,-110.443405,4,1,0,80,0,0
24067,-109.56156,4,1,0,80,0,0
24200,-108.68675,4,1,0,80,0,0
24333,-107.818924,4,1,0,80,0,0
24466,-106.95804,4,1,0,80,0,0
24599,-106.10403,4,1,0,80,0,0
24731,-105.26317,4,1,0,80,0,0
36492,-104.9573,4,1,0,80,0,0
36692,-104.04424,4,1,0,80,0,0
36791,-103.376495,4,1,0,80,0,0
36891,-102.56411,4,1,0,80,0,0
37090,-100.562416,4,1,0,80,0,0
37190,-99.37889,4,1,0,80,0,0
37290,-98.088165,4,1,0,80,0,0
37389,-96.71399,4,1,0,80,0,0
37489,-95.2381,4,1,0,80,0,0
46559,-93.590385,4,1,0,80,0,0
46658,-93.05113,4,1,0,80,0,0
46858,-91.97121,4,1,0,80,0,0
47057,-90.90909,4,1,0,80,0,0
48452,-87.86352,4,1,0,81,0,0
48552,-86.37181,4,1,0,81,0,0
48652,-84.90544,4,1,0,82,0,0
48751,-83.47824,4,1,0,82,0,0
48851,-82.06099,4,1,0,83,0,0
48901,-81.36142,4,1,0,83,0,0
48951,-80.6678,4,1,0,83,0,0
49001,-79.9801,4,1,0,83,0,0
49050,-79.311844,4,1,0,83,0,0
49150,-77.96532,4,1,0,84,0,0
49200,-77.30067,4,1,0,84,0,0
49250,-76.64166,4,1,0,84,0,0
49349,-75.353386,4,1,0,85,0,0
49449,-74.07407,4,1,0,85,0,0
49648,-73.39661,4,1,0,86,0,0
49748,-72.22918,4,1,0,87,0,0
49848,-70.37631,4,1,0,88,0,0
49914,-68.77564,4,1,0,88,0,0
49981,-66.86232,4,1,0,88,0,0
50047,-64.72243,4,1,0,89,0,0
50147,-61.083138,4,1,0,89,0,0
50246,-57.142857,4,1,0,90,0,0
50545,-66.6666666666667,4,1,0,90,0,0
56226,-65.816795,4,1,0,90,0,0
56293,-65.24779,4,1,0,90,0,0
56359,-64.692085,4,1,0,90,0,0
56426,-64.132805,4,1,0,90,0,0
56492,-63.586594,4,1,0,90,0,0
56559,-63.03687,4,1,0,90,0,0
56625,-62.5,4,1,0,90,0,0
60014,-62.021637,4,1,0,90,0,0
60114,-61.78263,4,1,0,90,0,0
60213,-61.546936,4,1,0,90,0,0
60413,-61.0735,4,1,0,90,0,0
60612,-60.60606,4,1,0,90,0,0
60662,-60.548344,4,1,0,90,0,0
60712,-60.412365,4,1,0,90,0,0
60811,-59.965023,4,1,0,90,0,0
60911,-59.31315,4,1,0,90,0,0
60961,-58.922535,4,1,0,90,0,0
61011,-58.493526,4,1,0,90,0,0
61110,-57.54312,4,1,0,90,0,0
61210,-56.46599,4,1,0,90,0,0
61260,-55.889954,4,1,0,90,0,0
61310,-55.29226,4,1,0,90,0,0
61359,-54.687782,4,1,0,90,0,0
61409,-54.054058,4,1,0,90,0,0
61708,-56.999702,4,1,0,90,0,0
61808,-58.020267,4,1,0,90,0,0
62007,-60.10586,4,1,0,90,0,0
62207,-62.277493,4,1,0,90,0,0
62306,-63.3813,4,1,0,90,0,0
62406,-50,4,1,0,90,0,0
62456,-51.217266,4,1,0,90,0,0
62506,-52.46416,4,1,0,90,0,0
62555,-53.715576,4,1,0,90,0,0
62605,-55.023296,4,1,0,90,0,0
62655,-56.362854,4,1,0,90,0,0
62705,-57.735027,4,1,0,90,0,0
62755,-59.1406,4,1,0,90,0,0
62805,-60.580395,4,1,0,90,0,0
62904,-63.535427,4,1,0,90,0,0
63004,-55.5555555555556,4,1,0,90,0,0
63801,-111.111111111111,8,1,0,70,0,0
68984,-98.29464,4,1,0,70,0,0
69050,-96.321945,4,1,0,72,0,0
69117,-94.359856,4,1,0,73,0,0
69183,-92.46613,4,1,0,75,0,0
69250,-90.58259,4,1,0,77,0,0
69316,-88.76466,4,1,0,78,0,0
69383,-86.95652,4,1,0,90,0,0
72373,-85.12111,4,1,0,90,0,0
72472,-84.226974,4,1,0,90,0,0
72572,-83.333336,4,1,0,90,0,0
72771,-83.0103,4,1,0,90,0,0
72971,-82.049706,4,1,0,90,0,0
73170,-80.50429,4,1,0,90,0,0
73369,-78.43716,4,1,0,90,0,0
73419,-77.84529,4,1,0,90,0,0
73469,-77.227104,4,1,0,90,0,0
73569,-75.91763,4,1,0,90,0,0
73668,-74.535,4,1,0,90,0,0
73718,-73.807785,4,1,0,90,0,0
73768,-73.063126,4,1,0,90,0,0
73868,-71.52738,4,1,0,90,0,0
73967,-69.955414,4,1,0,90,0,0
74017,-69.14544,4,1,0,90,0,0
74067,-68.32646,4,1,0,90,0,0
74117,-67.499794,4,1,0,90,0,0
74167,-66.666664,4,1,0,90,0,0
74217,-66.06777,4,1,0,90,0,0
74266,-65.486084,4,1,0,90,0,0
74316,-64.897804,4,1,0,90,0,0
74366,-64.314804,4,1,0,90,0,0
74466,-63.164486,4,1,0,90,0,0
74565,-62.04592,4,1,0,90,0,0
74615,-61.48854,4,1,0,90,0,0
74665,-60.936172,4,1,0,90,0,0
74715,-60.38876,4,1,0,90,0,0
74765,-59.846275,4,1,0,90,0,0
74864,-58.786476,4,1,0,90,0,0
74964,-57.735027,4,1,0,90,0,0
75014,-57.216373,4,1,0,90,0,0
75064,-56.70238,4,1,0,90,0,0
75114,-56.193005,4,1,0,90,0,0
75163,-55.69826,4,1,0,90,0,0
75263,-55.349445,4,1,0,90,0,0
75313,-54.91953,4,1,0,90,0,0
75363,-54.32874,4,1,0,90,0,0
75462,-52.727566,4,1,0,90,0,0
75562,-50.61967,4,1,0,90,0,0
75662,-48.143566,4,1,0,90,0,0
75761,-45.454544,4,1,0,90,0,0
75861,-37.037037037037,4,1,0,70,0,0
77369,199.335548172757,8,1,0,90,1,0
77369,-86.95652,8,1,0,90,0,0
77405,-87.70692398,8,1,0,90,0,0
77455,-88.47932398,8,1,0,90,0,0
77505,-89.25851399,8,1,0,90,0,0
77555,-90.04458001,8,1,0,90,0,0
77605,-90.83756001,8,1,0,90,0,0
77655,-91.63753001,8,1,0,90,0,0
77704,-92.42832,8,1,0,90,0,0
77754,-93.2423,8,1,0,90,0,0
77804,-94.06344999,8,1,0,90,0,0
77854,-94.89181999,8,1,0,90,0,0
77904,-95.72748999,8,1,0,90,0,0
77954,-96.57052,8,1,0,90,0,0
78003,-97.40389,8,1,0,90,0,0
78053,-98.26169,8,1,0,90,0,0
78103,-99.12703001,8,1,0,90,0,0
78153,-100,8,1,0,90,0,0
78253,-102.75498,8,1,0,90,0,0
78302,-104.132484,8,1,0,90,0,0
78352,-105.55716,8,1,0,90,0,0
78402,-107.00131,8,1,0,90,0,0
78452,-108.46522,8,1,0,90,0,0
78552,-111.453415,8,1,0,90,0,0
78751,-117.64706,8,1,0,90,0,0
78950,-100,8,1,0,90,0,0
83734,-100.62316,8,1,0,90,0,0
83834,-101.881165,8,1,0,90,0,0
84033,-104.43157,8,1,0,90,0,0
84233,-107.05912,8,1,0,90,0,0
84432,-109.73914,8,1,0,90,0,0
84482,-110.42299,8,1,0,90,0,0
84532,-104.16666,8,1,0,90,0,0
84681,-106.71412,8,1,0,90,0,0
84831,-109.34162,8,1,0,90,0,0
84930,-111.111115,8,1,0,90,0,0
85329,-100,8,1,0,90,0,0
90113,-95.2381,8,1,0,90,0,0
90163,-96.81023,8,1,0,90,0,0
90213,-98.40829,8,1,0,90,0,0
90262,-100,8,1,0,90,0,0
90512,-95.2381,8,1,0,90,0,0
90561,-96.77853,8,1,0,90,0,0
90611,-98.37608,8,1,0,90,0,0
90661,-100,8,1,0,90,0,0
90910,-90.90909,8,1,0,90,0,0
91010,-94.91438,8,1,0,90,0,0
91060,-96.98273,8,1,0,90,0,0
91110,-99.09614,8,1,0,90,0,0
91159,-101.21197,8,1,0,90,0,0
91209,-103.417534,8,1,0,90,0,0
91309,-107.97393,8,1,0,90,0,0
91508,-117.647064,8,1,0,90,0,0
91708,-100,8,1,0,90,0,0
97289,-101.18018,8,1,0,90,0,0
97439,-104.804985,8,1,0,90,0,0
97588,-108.53419,8,1,0,90,0,0
97688,-111.111115,8,1,0,90,0,0
98086,-100,8,1,0,90,0,0
101276,-95.2381,8,1,0,90,0,0
101326,-96.01831,8,1,0,90,0,0
101375,-96.78912,8,1,0,90,0,0
101425,-97.582054,8,1,0,90,0,0
101475,-98.38147,8,1,0,90,0,0
101575,-100,8,1,0,90,0,0
101874,-95.2381,8,1,0,90,0,0
101924,-96.01831,8,1,0,90,0,0
101973,-96.78912,8,1,0,90,0,0
102023,-97.582054,8,1,0,90,0,0
102073,-98.38147,8,1,0,90,0,0
102173,-100,8,1,0,90,0,0
102272,-95.2381,8,1,0,90,0,0
102322,-95.82217,8,1,0,90,0,0
102372,-96.409836,8,1,0,90,0,0
102472,-97.59597,8,1,0,90,0,0
102571,-98.78463,8,1,0,90,0,0
102621,-99.39046,8,1,0,90,0,0
102671,-100,8,1,0,90,0,0
102870,-105.26317,8,1,0,90,0,0
102920,-103.92195,8,1,0,90,0,0
102970,-102.59785,8,1,0,90,0,0
103070,-100,8,1,0,90,0,0
103269,-105.263157894737,8,1,0,90,0,0
103369,-100,8,1,0,90,0,0
103568,-105.26317,8,1,0,90,0,0
103618,-104.210724,8,1,0,90,0,0
103668,-103.1688,8,1,0,90,0,0
103767,-101.13642,8,1,0,90,0,0
103867,-99.12416,8,1,0,90,0,0
103967,-97.15195,8,1,0,90,0,0
104066,-95.2381,8,1,0,90,0,0
104116,-93.657715,8,1,0,90,0,0
104166,-92.10356,8,1,0,90,0,0
104216,-90.57519,8,1,0,90,0,0
104266,-89.072174,8,1,0,90,0,0
104365,-86.1694,8,1,0,90,0,0
104465,-83.33334,8,1,0,90,0,0
104664,-125,8,1,0,80,0,0
106060,-95.2380952380952,8,1,0,90,0,0
107355,-97.63273,8,1,0,90,0,0
107405,-98.86493,8,1,0,90,0,0
107455,-100.112686,8,1,0,90,0,0
107555,-102.655624,8,1,0,90,0,0
107655,-105.26317,8,1,0,90,0,0
107854,-125,8,1,0,80,0,0
109249,-95.2380952380952,8,1,0,90,0,0
110445,-97.16756,8,1,0,90,0,0
110512,-98.48212,8,1,0,90,0,0
110578,-99.79443,8,1,0,90,0,0
110645,-101.14453,8,1,0,90,0,0
110711,-102.49233,8,1,0,90,0,0
110777,-103.858086,8,1,0,90,0,0
110844,-105.26317,8,1,0,90,0,0
111043,-125,8,1,0,80,0,0
111641,-95.2380952380952,8,1,0,90,0,0
112040,-95.319695,8,1,0,90,0,0
112090,-95.46331,8,1,0,90,0,0
112140,-95.70157,8,1,0,90,0,0
112189,-96.04254,8,1,0,90,0,0
112239,-96.515434,8,1,0,90,0,0
112339,-97.90348,8,1,0,90,0,0
112439,-100,8,1,0,90,0,0
112638,-125,8,1,0,90,0,0
113236,-95.2380952380952,8,1,0,90,0,0
114233,-125,8,1,0,90,0,0
114332,-123.233572822001,8,1,0,90,0,0
114432,-121.499272880799,8,1,0,90,0,0
114631,-118.189285388336,8,1,0,90,0,0
114731,-116.593139461601,8,1,0,90,0,0
114831,-95.2380952380952,8,1,0,90,0,0
115030,-112.067846480031,8,1,0,90,0,0
115130,-110.631754303533,8,1,0,90,0,0
115229,-109.245824194365,8,1,0,90,0,0
115429,-106.549284186276,8,1,0,90,0,0
115528,-105.263157894737,8,1,0,90,0,0
115628,-90.90909,8,1,0,90,0,0
115678,-92.06079,8,1,0,90,0,0
115728,-93.227066,8,1,0,90,0,0
115777,-94.38438,8,1,0,90,0,0
115827,-95.58012,8,1,0,90,0,0
115927,-98.0172,8,1,0,90,0,0
115977,-99.25895,8,1,0,90,0,0
116027,-100.51643,8,1,0,90,0,0
116076,-101.76421,8,1,0,90,0,0
116126,-103.05344,8,1,0,90,0,0
116226,-105.68109,8,1,0,90,0,0
116276,-107.019936,8,1,0,90,0,0
116326,-108.37573,8,1,0,90,0,0
116375,-109.721085,8,1,0,90,0,0
116425,-111.111115,8,1,0,90,0,0
116525,-125,8,1,0,80,0,0
118020,-121.43997,8,1,0,80,0,0
118120,-120.89997,8,1,0,80,0,0
118219,-120.32729,8,1,0,80,0,0
118319,-119.71088,8,1,0,80,0,0
118419,-119.05696,8,1,0,80,0,0
118518,-118.373344,8,1,0,80,0,0
118618,-117.64706,8,1,0,80,0,0
118830,199.335548172757,4,1,0,100,1,1
122019,-90.90909,4,1,0,100,0,0
122205,-92.054634,4,1,0,100,0,0
122305,-92.63572,4,1,0,100,0,0
122405,-93.22048,4,1,0,100,0,0
122604,-94.39515,4,1,0,100,0,0
122704,-94.991005,4,1,0,100,0,0
122803,-95.584625,4,1,0,100,0,0
122903,-96.187996,4,1,0,100,0,0
123003,-96.79518,4,1,0,100,0,0
123102,-97.400055,4,1,0,100,0,0
123202,-98.014885,4,1,0,100,0,0
123401,-99.24998,4,1,0,100,0,0
123501,-99.87649,4,1,0,100,0,0
123601,-100.50695,4,1,0,100,0,0
123700,-101.135025,4,1,0,100,0,0
123800,-101.77343,4,1,0,100,0,0
123900,-102.41586,4,1,0,100,0,0
123999,-103.05587,4,1,0,100,0,0
124199,-104.36105,4,1,0,100,0,0
124398,-105.67609,4,1,0,100,0,0
124498,-106.34318,4,1,0,100,0,0
124597,-107.00772,4,1,0,100,0,0
124697,-107.683205,4,1,0,100,0,0
124896,-109.040115,4,1,0,100,0,0
124946,-109.38373,4,1,0,100,0,0
124996,-109.72843,4,1,0,100,0,0
125096,-110.42108,4,1,0,100,0,0
125208,-100,4,1,0,100,0,1
127999,-100,4,1,0,100,0,0
128185,-103.092783505155,4,1,0,100,0,0
128398,-90.90909,4,1,0,100,0,1
128434,-90.90957,4,1,0,100,0,1
128484,-90.911896,4,1,0,100,0,1
128534,-90.91689,4,1,0,100,0,1
128584,-90.92517,4,1,0,100,0,1
128634,-90.93726,4,1,0,100,0,1
128684,-90.953606,4,1,0,100,0,1
128733,-90.97416,4,1,0,100,0,1
128783,-91.00014,4,1,0,100,0,1
128883,-91.06866,4,1,0,100,0,1
128933,-91.11187,4,1,0,100,0,1
128983,-91.16147,4,1,0,100,0,1
129032,-91.21658,4,1,0,100,0,1
129082,-91.27974,4,1,0,100,0,1
129182,-91.42816,4,1,0,100,0,1
129232,-91.514,4,1,0,100,0,1
129331,-91.70825,4,1,0,100,0,1
129381,-91.819176,4,1,0,100,0,1
129481,-92.06824,4,1,0,100,0,1
129531,-92.20695,4,1,0,100,0,1
129581,-92.35551,4,1,0,100,0,1
129630,-92.51093,4,1,0,100,0,1
129680,-92.67985,4,1,0,100,0,1
129780,-93.05028,4,1,0,100,0,1
129830,-93.25241,4,1,0,100,0,1
129880,-93.46626,4,1,0,100,0,1
130079,-94.44045,4,1,0,100,0,1
130112,-94.62209,4,1,0,100,0,1
130145,-94.80972,4,1,0,100,0,1
130179,-95.009476,4,1,0,100,0,1
130228,-95.30904,4,1,0,100,0,1
130278,-95.62939,4,1,0,100,0,1
130378,-96.31625,4,1,0,100,0,1
130411,-96.55694,4,1,0,100,0,1
130444,-96.80484,4,1,0,100,0,1
130478,-97.06795,4,1,0,100,0,1
130527,-97.4612,4,1,0,100,0,1
130577,-97.88012,4,1,0,100,0,1
130627,-98.31743,4,1,0,100,0,1
130677,-98.77373,4,1,0,100,0,1
130710,-99.08562,4,1,0,100,0,1
130743,-99.40625,4,1,0,100,0,1
130777,-99.74598,4,1,0,100,0,1
130826,-100.25275,4,1,0,100,0,1
130876,-100.79141,4,1,0,100,0,1
130976,-101.93724,4,1,0,100,0,1
131026,-102.54609,4,1,0,100,0,1
131076,-103.18013,4,1,0,100,0,1
131175,-104.51366,4,1,0,100,0,1
131288,-105.97313,4,1,0,100,0,0
131375,-107.55509,4,1,0,100,0,0
131424,-108.37815,4,1,0,100,0,0
131474,-109.25235,4,1,0,100,0,0
131524,-110.162796,4,1,0,100,0,0
131587,-100,4,1,0,100,0,1
134365,-101.03531,4,1,0,100,0,1
134415,-101.55698,4,1,0,100,0,1
134464,-102.07082,4,1,0,100,0,1
134514,-102.59784,4,1,0,100,0,1
134564,-103.12758,4,1,0,100,0,1
134664,-104.19526,4,1,0,100,0,1
134776,-86.95652,4,1,0,100,0,0
134830,-89.7915,4,1,0,100,0,0
134896,-92.67449,4,1,0,100,0,0
134963,-95.69588,4,1,0,100,0,0
135029,-98.76847,4,1,0,100,0,0
135096,-101.988525,4,1,0,100,0,0
135162,-105.26317,4,1,0,100,0,0
135361,-102.60445,4,1,0,100,0,0
135461,-101.29385,4,1,0,100,0,0
135561,-86.95652,4,1,0,100,0,0
135627,-88.995415,4,1,0,100,0,0
135694,-91.114105,4,1,0,100,0,0
135760,-93.25048,4,1,0,100,0,0
135826,-95.43695,4,1,0,100,0,0
135893,-97.70899,4,1,0,100,0,0
135959,-100,4,1,0,100,0,0
136059,-102.67579,4,1,0,100,0,0
136159,-105.42317,4,1,0,100,0,0
136258,-108.21551,4,1,0,100,0,0
136358,-111.111115,4,1,0,100,0,0
136458,-100,4,1,0,100,0,0
136508,-97.565956,4,1,0,100,0,0
136557,-95.2381,4,1,0,100,0,0
136657,-105.263157894737,4,1,0,100,0,0
136757,-100,4,1,0,100,0,0
136807,-97.565956,4,1,0,100,0,0
136856,-95.2381,4,1,0,100,0,0
136956,-105.263157894737,4,1,0,100,0,0
137056,-100,4,1,0,100,0,0
137106,-97.565956,4,1,0,100,0,0
137155,-95.2381,4,1,0,100,0,0
137355,-125,4,1,0,100,0,0
137454,-121.390915,4,1,0,100,0,0
137654,-114.41458,4,1,0,100,0,0
137753,-111.111115,4,1,0,100,0,0
137966,-86.95652,4,1,0,100,0,1
138152,-89.26893,4,1,0,100,0,1
138252,-90.45405,4,1,0,100,0,1
138351,-91.64282,4,1,0,100,0,1
138551,-94.09225,4,1,0,100,0,1
138650,-95.32883,4,1,0,100,0,1
138751,-96.60715,4,1,0,100,0,1
138850,-97.87677,4,1,0,100,0,1
139049,-100.479576,4,1,0,100,0,1
139149,-101.81353,4,1,0,100,0,1
139248,-103.15157,4,1,0,100,0,1
139348,-104.52101,4,1,0,100,0,1
139547,-107.3005,4,1,0,100,0,1
139647,-108.725006,4,1,0,100,0,1
139747,-110.16842,4,1,0,100,0,1
139846,-111.61628,4,1,0,100,0,1
139946,-113.098076,4,1,0,100,0,1
140145,-116.10566,4,1,0,100,0,1
140245,-117.647064,4,1,0,100,0,1
140345,-119.775696,4,1,0,100,0,1
140444,-121.92098,4,1,0,100,0,1
140644,-126.372826,4,1,0,100,0,1
140843,-130.96375,4,1,0,100,0,1
140956,-100,4,1,0,100,0,0
141155,-90.90909,4,1,0,100,0,1
141192,-92.36962,4,1,0,100,0,1
141242,-93.853615,4,1,0,100,0,1
141292,-95.36146,4,1,0,100,0,1
141341,-96.86264,4,1,0,100,0,1
141454,-100,4,1,0,100,0,0
141753,-90.90909,4,1,0,100,0,1
141790,-92.36962,4,1,0,100,0,1
141840,-93.853615,4,1,0,100,0,1
141890,-95.36146,4,1,0,100,0,1
141939,-96.86264,4,1,0,100,0,1
142052,-100,4,1,0,100,0,0
142351,-90.90909,4,1,0,100,0,1
142388,-92.00138,4,1,0,100,0,1
142438,-93.10681,4,1,0,100,0,1
142488,-94.22551,4,1,0,100,0,1
142550,-95.33488,4,1,0,100,0,0
142750,-100,4,1,0,100,0,1
142836,-98.82308,4,1,0,100,0,1
142886,-98.23394,4,1,0,100,0,1
142936,-97.64833,4,1,0,100,0,1
143036,-96.48755,4,1,0,100,0,1
143069,-96.10751,4,1,0,100,0,1
143102,-95.72899,4,1,0,100,0,1
143135,-95.35196,4,1,0,100,0,1
143235,-94.218475,4,1,0,100,0,1
143335,-93.098465,4,1,0,100,0,1
143368,-92.73178,4,1,0,100,0,1
143401,-92.36656,4,1,0,100,0,1
143434,-92.00277,4,1,0,100,0,1
143484,-91.454285,4,1,0,100,0,1
143534,-90.90909,4,1,0,100,0,1
143634,-94.61506,4,1,0,99,0,1
143684,-96.52431,4,1,0,98,0,1
143733,-98.43275,4,1,0,98,0,1
143833,-102.445404,4,1,0,96,0,1
143933,-106.62165,4,1,0,95,0,1
144032,-110.92381,4,1,0,94,0,1
144132,-115.44569,4,1,0,92,0,1
144232,-120.15189,4,1,0,91,0,1
144344,398.671096345515,4,1,0,90,1,0
144344,-50,4,1,0,90,0,0
144978,-90.9090909090909,4,1,0,70,0,0
149314,-87.60157,4,1,0,70,0,0
149414,-85.985214,4,1,0,70,0,0
149513,-84.41439,4,1,0,70,0,0
149613,-82.856834,4,1,0,70,0,0
149663,-82.088875,4,1,0,70,0,0
149713,-81.32802,4,1,0,70,0,0
149812,-79.842285,4,1,0,70,0,0
149912,-78.369095,4,1,0,70,0,0
150012,-76.92308,4,1,0,70,0,0
150111,-74.687546,4,1,0,73,0,0
150161,-73.58331,4,1,0,74,0,0
150211,-72.495384,4,1,0,76,0,0
150261,-71.42355,4,1,0,77,0,0
150311,-70.36758,4,1,0,79,0,0
150410,-68.32255,4,1,0,81,0,0
150510,-66.31722,4,1,0,84,0,0
150610,-64.370735,4,1,0,87,0,0
150709,-62.5,4,1,0,90,0,0
154098,-62.021637,4,1,0,90,0,0
154198,-61.78263,4,1,0,90,0,0
154297,-61.546936,4,1,0,90,0,0
154497,-61.0735,4,1,0,90,0,0
154696,-60.60606,4,1,0,90,0,0
154746,-60.548344,4,1,0,90,0,0
154796,-60.412365,4,1,0,90,0,0
154895,-59.965023,4,1,0,90,0,0
154995,-59.31315,4,1,0,90,0,0
155045,-58.922535,4,1,0,90,0,0
155095,-58.493526,4,1,0,90,0,0
155194,-57.54312,4,1,0,90,0,0
155294,-56.46599,4,1,0,90,0,0
155344,-55.889954,4,1,0,90,0,0
155394,-55.29226,4,1,0,90,0,0
155443,-54.687782,4,1,0,90,0,0
155493,-54.054058,4,1,0,90,0,0
155792,-56.999702,4,1,0,90,0,0
155892,-58.020267,4,1,0,90,0,0
156091,-60.10586,4,1,0,90,0,0
156291,-62.277493,4,1,0,90,0,0
156390,-63.3813,4,1,0,90,0,0
156490,-50,4,1,0,90,0,0
156540,-51.217266,4,1,0,90,0,0
156590,-52.46416,4,1,0,90,0,0
156639,-53.715576,4,1,0,90,0,0
156689,-55.023296,4,1,0,90,0,0
156739,-56.362854,4,1,0,90,0,0
156789,-57.735027,4,1,0,90,0,0
156839,-59.1406,4,1,0,90,0,0
156889,-60.580395,4,1,0,90,0,0
156988,-63.535427,4,1,0,90,0,0
157088,-55.5555555555556,4,1,0,90,0,0
157188,-52.6315789473684,4,1,0,70,0,0
158696,199.335548172757,8,1,0,90,1,0
158696,-86.95652,8,1,0,90,0,0
158732,-87.706924,8,1,0,90,0,0
158782,-88.479324,8,1,0,90,0,0
158832,-89.258514,8,1,0,90,0,0
158882,-90.04458,8,1,0,90,0,0
158932,-90.83756,8,1,0,90,0,0
158982,-91.63753,8,1,0,90,0,0
159031,-92.42832,8,1,0,90,0,0
159081,-93.2423,8,1,0,90,0,0
159131,-94.06345,8,1,0,90,0,0
159181,-94.89182,8,1,0,90,0,0
159231,-95.72749,8,1,0,90,0,0
159281,-96.57052,8,1,0,90,0,0
159330,-97.40389,8,1,0,90,0,0
159380,-98.26169,8,1,0,90,0,0
159430,-99.12703,8,1,0,90,0,0
159480,-100,8,1,0,90,0,0
159580,-102.72706,4,1,0,80,0,0
159629,-104.132484,4,1,0,80,0,0
159679,-105.55716,4,1,0,80,0,0
159729,-107.00131,4,1,0,80,0,0
159779,-108.46522,4,1,0,80,0,0
159879,-111.423134,4,1,0,80,0,0
160078,-117.64706,4,1,0,80,0,0
160290,199.335548172757,4,1,0,100,1,8
160292,199.335548172757,4,1,0,100,1,1
166371,-100,4,1,0,100,0,0
166558,-103.092783505155,4,1,0,100,0,0
166670,-95.2380952380952,4,1,0,100,0,1
169561,-95.2380952380952,4,1,0,100,0,0
169860,-86.95652,4,1,0,100,0,1
169896,-88.26263,4,1,0,100,0,1
169946,-89.6156,4,1,0,100,0,1
169996,-90.9893,4,1,0,100,0,1
170046,-92.38409,4,1,0,100,0,1
170159,-95.2381,4,1,0,100,0,0
170657,-86.95652,4,1,0,100,0,1
170694,-88.289474,4,1,0,100,0,1
170744,-89.64286,4,1,0,100,0,1
170793,-90.9893,4,1,0,100,0,1
170843,-92.38409,4,1,0,100,0,1
170956,-95.2381,4,1,0,100,0,0
171454,-83.333336,4,1,0,100,0,1
171491,-84.29077,4,1,0,100,0,1
171541,-85.25919,4,1,0,100,0,1
171641,-87.22956,4,1,0,100,0,1
171740,-89.225075,4,1,0,100,0,1
171790,-90.25019,4,1,0,100,0,1
171840,-91.2871,4,1,0,100,0,1
171940,-93.39677,4,1,0,100,0,1
172039,-95.53338,4,1,0,100,0,1
172089,-96.63096,4,1,0,100,0,1
172139,-97.74117,4,1,0,100,0,1
172189,-98.864136,4,1,0,100,0,1
172239,-100,4,1,0,100,0,1
172936,-105.263157894737,4,1,0,90,0,1
173049,199.335548172757,4,1,0,90,1,8
173050,199.335548172757,8,1,0,90,1,0
173050,-95.2380952380952,4,1,0,90,0,0
173236,-125,8,1,0,80,0,0
173336,-124.937706,8,1,0,81,0,0
173435,-124.707565,8,1,0,81,0,0
173535,-124.27165,8,1,0,82,0,0
173734,-122.73307,8,1,0,84,0,0
173834,-121.609566,8,1,0,84,0,0
173884,-120.959885,8,1,0,85,0,0
173934,-120.25236,8,1,0,85,0,0
174033,-118.68482,8,1,0,86,0,0
174133,-116.88565,8,1,0,86,0,0
174233,-114.88349,8,1,0,87,0,0
174282,-113.8333,8,1,0,87,0,0
174332,-112.71782,8,1,0,88,0,0
174432,-110.36372,8,1,0,89,0,0
174532,-107.862724,8,1,0,89,0,0
174644,-100,8,1,0,90,0,1
175528,-101.712845,8,1,0,90,0,1
175578,-102.58904,8,1,0,90,0,1
175628,-103.47278,8,1,0,90,0,1
175678,-104.36413,8,1,0,90,0,1
175728,-105.26317,8,1,0,90,0,1
175840,-100,4,1,0,70,0,0
176239,199.335548172757,4,1,0,100,1,1
178631,-100,4,1,0,100,0,0
178767,-102.27789,4,1,0,100,0,0
178917,-104.62348,4,1,0,100,0,0
179016,-106.20095,4,1,0,100,0,0
179116,-107.818504,4,1,0,100,0,0
179315,-111.111115,4,1,0,100,0,0
179428,-95.2380952380952,4,1,0,100,0,1
182106,-96.80492,4,1,0,100,0,1
182156,-97.59797,4,1,0,100,0,1
182206,-98.39751,4,1,0,100,0,1
182255,-99.18742,4,1,0,100,0,1
182318,-100,4,1,0,100,0,0
182617,-95.2380952380952,4,1,0,100,0,1
184199,-95.17301,4,1,0,100,0,1
184249,-95.07617,4,1,0,100,0,1
184299,-94.929245,4,1,0,100,0,1
184398,-94.47843,4,1,0,100,0,1
184498,-93.79467,4,1,0,100,0,1
184548,-93.364136,4,1,0,100,0,1
184598,-92.87409,4,1,0,100,0,1
184697,-91.729645,4,1,0,100,0,1
184797,-90.344765,4,1,0,100,0,1
184847,-89.56962,4,1,0,100,0,1
184897,-88.741844,4,1,0,100,0,1
184930,-88.16776,4,1,0,100,0,1
184963,-87.57242,4,1,0,100,0,1
184996,-86.95652,4,1,0,100,0,1
185594,-125,4,1,0,90,0,1
185807,-83.3333333333333,4,1,0,90,0,0
185893,-66.666664,4,1,0,90,0,0
185994,-71.79939,4,1,0,87,0,0
186094,-77.27053,4,1,0,83,0,0
186193,-83.09753,4,1,0,80,0,0
186293,-89.42959,4,1,0,77,0,0
186393,-96.244156,4,1,0,73,0,0
186492,-103.50196,4,1,0,70,0,0
186604,199.335548172757,4,1,0,67,1,8
186604,-111.30709,4,1,0,67,0,8
186691,-119.78872,4,1,0,63,0,8
186790,-128.82202,4,1,0,60,0,8
186890,-138.6383,4,1,0,57,0,8
186990,-149.20259,4,1,0,53,0,8
187089,-160.45401,4,1,0,50,0,8
187189,-172.68065,4,1,0,47,0,8
187289,-185.839,4,1,0,43,0,8
187401,398.671096345515,4,1,0,40,1,8
187401,-99.92658,4,1,0,40,0,8
187402,398.671096345515,4,1,0,40,1,0
188585,-142.85715,4,1,0,40,0,8
195362,-133.333333333333,4,1,0,40,0,0
196957,-125,4,1,0,50,0,0
198551,-111.111111111111,4,1,0,60,0,0
211309,-83.333336,4,1,0,65,0,0
211508,-111.111115,4,1,0,64,0,0
211707,-112.01392,4,1,0,63,0,0
211906,-112.92407,4,1,0,63,0,0
212106,-113.84625,4,1,0,62,0,0
212305,-114.771286,4,1,0,61,0,0
212504,-115.703835,4,1,0,60,0,0
212704,-116.64871,4,1,0,60,0,0
212903,-117.59652,4,1,0,59,0,0
213102,-118.55203,4,1,0,58,0,0
213302,-119.520164,4,1,0,57,0,0
213501,-120.4913,4,1,0,56,0,0
213700,-121.47034,4,1,0,56,0,0
213900,-122.462296,4,1,0,55,0,0
214099,-123.457344,4,1,0,54,0,0
214298,-124.46047,4,1,0,53,0,0
214498,-125.47686,4,1,0,53,0,0
214697,-126.4964,4,1,0,52,0,0
214896,-127.524216,4,1,0,51,0,0
215096,-128.56563,4,1,0,50,0,0
215295,-129.61026,4,1,0,49,0,0
215494,-130.66338,4,1,0,49,0,0
215694,-131.73042,4,1,0,48,0,0
215893,-132.80078,4,1,0,47,0,0
216092,-133.87982,4,1,0,46,0,0
216292,-134.97313,4,1,0,45,0,0
216491,-136.06984,4,1,0,45,0,0
216690,-137.17545,4,1,0,44,0,0
216890,-138.29565,4,1,0,43,0,0
217089,-139.41934,4,1,0,42,0,0
217288,-140.55219,4,1,0,42,0,0
217488,-141.69998,4,1,0,41,0,0
217688,-142.85133,4,1,0,40,0,0
217886,-140.19087,4,1,0,40,0,0
218086,-137.56697,4,1,0,40,0,0
218285,-135.00494,4,1,0,40,0,0
218484,-132.49062,4,1,0,40,0,0
218684,-130.01083,4,1,0,40,0,0
218883,-127.58953,4,1,0,40,0,0
219082,-125.21332,4,1,0,40,0,0
219282,-122.86974,4,1,0,40,0,0
219481,-120.581436,4,1,0,41,0,0
219680,-118.33574,4,1,0,43,0,0
219879,-116.13185,4,1,0,44,0,0
220079,-113.95826,4,1,0,46,0,0
220278,-111.83591,4,1,0,47,0,0
220477,-109.75308,4,1,0,49,0,0
220677,-107.698875,4,1,0,50,0,0
220876,-105.6931,4,1,0,52,0,0
221075,-103.724686,4,1,0,53,0,0
221275,-101.78331,4,1,0,55,0,0
221474,-99.88771,4,1,0,56,0,0
221673,-98.0274,4,1,0,58,0,0
221873,-96.19266,4,1,0,60,0,0
222072,-94.40117,4,1,0,61,0,0
222271,-92.64305,4,1,0,62,0,0
222471,-90.90909,4,1,0,64,0,0
223268,-86.95652,4,1,0,70,0,0
223369,-83.067924,4,1,0,72,0,0
223418,-81.24453,4,1,0,73,0,0
223467,-79.46114,4,1,0,74,0,0
223518,-77.64654,4,1,0,75,0,0
223568,-75.907745,4,1,0,75,0,0
223667,-72.57896,4,1,0,77,0,0
223767,-69.36473,4,1,0,79,0,0
223817,-67.8114,4,1,0,80,0,0
223866,-66.32289,4,1,0,81,0,0
223967,-63.35701,4,1,0,83,0,0
224065,-60.60606,4,1,0,85,0,0
224365,-66.666664,4,1,0,90,0,0
230046,-65.816795,4,1,0,90,0,0
230113,-65.24779,4,1,0,90,0,0
230179,-64.692085,4,1,0,90,0,0
230246,-64.132805,4,1,0,90,0,0
230312,-63.586594,4,1,0,90,0,0
230379,-63.03687,4,1,0,90,0,0
230445,-62.5,4,1,0,90,0,0
233834,-62.021637,4,1,0,90,0,0
233934,-61.78263,4,1,0,90,0,0
234033,-61.546936,4,1,0,90,0,0
234232,-61.0735,4,1,0,90,0,0
234432,-60.60606,4,1,0,90,0,0
234482,-60.548344,4,1,0,90,0,0
234532,-60.412365,4,1,0,90,0,0
234631,-59.965023,4,1,0,90,0,0
234731,-59.31315,4,1,0,90,0,0
234781,-58.922535,4,1,0,90,0,0
234830,-58.493526,4,1,0,90,0,0
234930,-57.54312,4,1,0,90,0,0
235030,-56.46599,4,1,0,90,0,0
235080,-55.889954,4,1,0,90,0,0
235129,-55.29226,4,1,0,90,0,0
235179,-54.687782,4,1,0,90,0,0
235229,-54.054058,4,1,0,90,0,0
235528,-56.999702,4,1,0,90,0,0
235628,-58.020267,4,1,0,90,0,0
235827,-60.10586,4,1,0,90,0,0
236026,-62.277493,4,1,0,90,0,0
236126,-63.3813,4,1,0,90,0,0
236226,-50,4,1,0,90,0,0
236276,-51.217266,4,1,0,90,0,0
236325,-52.46416,4,1,0,90,0,0
236375,-53.715576,4,1,0,90,0,0
236425,-55.023296,4,1,0,90,0,0
236475,-56.362854,4,1,0,90,0,0
236525,-57.735027,4,1,0,90,0,0
236575,-59.1406,4,1,0,90,0,0
236624,-60.580395,4,1,0,90,0,0
236724,-63.535427,4,1,0,90,0,0
236824,-55.5555555555556,4,1,0,90,0,0
237621,-111.111111111111,8,1,0,70,0,0
242804,-98.29464,4,1,0,70,0,0
242870,-96.321945,4,1,0,72,0,0
242937,-94.359856,4,1,0,73,0,0
243003,-92.46613,4,1,0,75,0,0
243070,-90.58259,4,1,0,77,0,0
243136,-88.76466,4,1,0,78,0,0
243202,-86.95652,4,1,0,90,0,0
246192,-85.12111,4,1,0,90,0,0
246292,-84.226974,4,1,0,90,0,0
246392,-83.333336,4,1,0,90,0,0
246591,-83.0103,4,1,0,90,0,0
246790,-82.049706,4,1,0,90,0,0
246990,-80.50429,4,1,0,90,0,0
247189,-78.43716,4,1,0,90,0,0
247239,-77.84529,4,1,0,90,0,0
247289,-77.227104,4,1,0,90,0,0
247389,-75.91763,4,1,0,90,0,0
247488,-74.535,4,1,0,90,0,0
247538,-73.807785,4,1,0,90,0,0
247588,-73.063126,4,1,0,90,0,0
247688,-71.52738,4,1,0,90,0,0
247787,-69.955414,4,1,0,90,0,0
247837,-69.14544,4,1,0,90,0,0
247887,-68.32646,4,1,0,90,0,0
247937,-67.499794,4,1,0,90,0,0
247987,-66.666664,4,1,0,90,0,0
248036,-66.06777,4,1,0,90,0,0
248086,-65.486084,4,1,0,90,0,0
248136,-64.897804,4,1,0,90,0,0
248186,-64.314804,4,1,0,90,0,0
248286,-63.164486,4,1,0,90,0,0
248385,-62.04592,4,1,0,90,0,0
248435,-61.48854,4,1,0,90,0,0
248485,-60.936172,4,1,0,90,0,0
248535,-60.38876,4,1,0,90,0,0
248585,-59.846275,4,1,0,90,0,0
248684,-58.786476,4,1,0,90,0,0
248784,-57.735027,4,1,0,90,0,0
248834,-57.216373,4,1,0,90,0,0
248884,-56.70238,4,1,0,90,0,0
248933,-56.193005,4,1,0,90,0,0
248983,-55.69826,4,1,0,90,0,0
249083,-55.349445,4,1,0,90,0,0
249133,-54.91953,4,1,0,90,0,0
249183,-54.32874,4,1,0,90,0,0
249282,-52.727566,4,1,0,90,0,0
249382,-50.61967,4,1,0,90,0,0
249482,-48.143566,4,1,0,90,0,0
249581,-45.454544,4,1,0,90,0,0
249681,-37.037037037037,4,1,0,70,0,0
251189,199.335548172757,8,1,0,90,1,0
251189,-86.95652,8,1,0,90,0,0
251225,-87.70692398,8,1,0,90,0,0
251275,-88.47932398,8,1,0,90,0,0
251325,-89.25851399,8,1,0,90,0,0
251375,-90.04458001,8,1,0,90,0,0
251425,-90.83756001,8,1,0,90,0,0
251475,-91.63753001,8,1,0,90,0,0
251524,-92.42832,8,1,0,90,0,0
251574,-93.2423,8,1,0,90,0,0
251624,-94.06344999,8,1,0,90,0,0
251674,-94.89181999,8,1,0,90,0,0
251724,-95.72748999,8,1,0,90,0,0
251774,-96.57052,8,1,0,90,0,0
251823,-97.40389,8,1,0,90,0,0
251873,-98.26169,8,1,0,90,0,0
251923,-99.12703001,8,1,0,90,0,0
251973,-100,8,1,0,90,0,0
252073,-102.75498,8,1,0,90,0,0
252122,-104.132484,8,1,0,90,0,0
252172,-105.55716,8,1,0,90,0,0
252222,-107.00131,8,1,0,90,0,0
252272,-108.46522,8,1,0,90,0,0
252372,-111.453415,8,1,0,90,0,0
252571,-117.64706,8,1,0,90,0,0
252783,398.671096345515,4,1,0,90,1,0
252783,-50,4,1,0,90,0,0
252869,-44.4444444444445,4,1,0,70,0,0
253567,-52.631584,4,1,0,79,0,0
253766,-51.740826,4,1,0,82,0,0
253966,-50.860786,4,1,0,82,0,0
254165,-50,4,1,0,87,0,0
254377,199.335548172757,4,1,0,100,1,8
254378,199.335548172757,4,1,0,100,1,1
255262,-100.861435,4,1,0,100,0,1
255311,-101.286255,4,1,0,100,0,1
255361,-101.721565,4,1,0,100,0,1
255411,-102.15876,4,1,0,100,0,1
255461,-102.59784,4,1,0,100,0,1
255574,-103.48166,4,1,0,90,0,0
255760,-105.26317,4,1,0,90,0,0
255972,-95.2380952380952,4,1,0,100,0,1
258763,-95.2380952380952,4,1,0,70,0,0
259162,-95.2380952380952,4,1,0,100,0,1
262338,-86.95652,4,1,0,100,0,1
262388,-88.715225,4,1,0,100,0,1
262438,-90.50948,4,1,0,100,0,1
262487,-92.30307,4,1,0,100,0,1
262537,-94.16991,4,1,0,100,0,1
262587,-96.074486,4,1,0,100,0,1
262637,-98.017586,4,1,0,100,0,1
262700,-100,4,1,0,100,0,0
262737,-101.010101010101,4,1,0,70,0,0
263148,-86.95652,4,1,0,100,0,1
263185,-88.715225,4,1,0,100,0,1
263235,-90.50948,4,1,0,100,0,1
263285,-92.34004,4,1,0,100,0,1
263335,-94.20763,4,1,0,100,0,1
263384,-96.074486,4,1,0,100,0,1
263434,-98.017586,4,1,0,100,0,1
263497,-100,4,1,0,100,0,0
263534,-101.010101010101,4,1,0,70,0,0
263946,-95.2381,4,1,0,100,0,1
263966,-95.23119,4,1,0,100,0,1
263999,-95.21048,4,1,0,100,0,1
264032,-95.17599,4,1,0,100,0,1
264082,-95.097534,4,1,0,100,0,1
264132,-94.98765,4,1,0,100,0,1
264182,-94.84656,4,1,0,100,0,1
264232,-94.67456,4,1,0,100,0,1
264265,-94.544266,4,1,0,100,0,1
264298,-94.40075,4,1,0,100,0,1
264331,-94.24413,4,1,0,100,0,1
264381,-93.982216,4,1,0,100,0,1
264431,-93.69105,4,1,0,100,0,1
264481,-93.37119,4,1,0,100,0,1
264531,-93.02326,4,1,0,100,0,1
264564,-92.77855,4,1,0,100,0,1
264597,-92.522095,4,1,0,100,0,1
264630,-92.25409,4,1,0,100,0,1
264680,-91.8265,4,1,0,100,0,1
264730,-91.37366,4,1,0,100,0,1
264780,-90.896385,4,1,0,100,0,1
264830,-90.395485,4,1,0,100,0,1
264863,-90.05237,4,1,0,100,0,1
264896,-89.69961,4,1,0,100,0,1
264929,-89.33744,4,1,0,100,0,1
264979,-88.77136,4,1,0,100,0,1
265029,-88.18524,4,1,0,100,0,1
265079,-87.57998,4,1,0,100,0,1
265129,-86.95652,4,1,0,100,0,1
265540,-76.92308,4,1,0,100,0,0
265727,-80.00875,4,1,0,100,0,0
265826,-81.58166,4,1,0,100,0,0
265926,-83.20184,4,1,0,100,0,0
266125,-86.52238,4,1,0,100,0,0
266225,-88.24067,4,1,0,100,0,0
266325,-89.9931,4,1,0,100,0,0
266424,-91.76229,4,1,0,100,0,0
266524,-93.58466,4,1,0,100,0,0
266624,-95.44322,4,1,0,100,0,0
266723,-97.31956,4,1,0,100,0,0
266823,-99.25229,4,1,0,100,0,0
266873,-100.23301,4,1,0,100,0,0
266923,-101.22341,4,1,0,100,0,0
267022,-103.21339,4,1,0,100,0,0
267122,-105.26317,4,1,0,100,0,0
267334,-90.9090909090909,4,1,0,100,0,1
267421,-100,4,1,0,100,0,1
267521,-90.9090909090909,4,1,0,100,0,1
267620,-100,4,1,0,100,0,1
267720,-90.9090909090909,4,1,0,100,0,1
267820,-100,4,1,0,100,0,1
267919,-90.9090909090909,4,1,0,100,0,1
268019,-100,4,1,0,100,0,1
268119,-90.9090909090909,4,1,0,100,0,1
268218,-100,4,1,0,100,0,1
268318,-90.9090909090909,4,1,0,100,0,1
268431,-90.9090909090909,4,1,0,100,0,0
268730,-86.95652,4,1,0,100,0,1
268766,-87.46873,4,1,0,100,0,1
268816,-87.9945,4,1,0,100,0,1
268866,-88.52343,4,1,0,100,0,1
268916,-89.05554,4,1,0,100,0,1
268966,-89.59084,4,1,0,100,0,1
269016,-90.12937,4,1,0,100,0,1
269065,-90.66027,4,1,0,100,0,1
269115,-91.20522,4,1,0,100,0,1
269215,-92.30498,4,1,0,100,0,1
269265,-92.85982,4,1,0,100,0,1
269315,-93.417984,4,1,0,100,0,1
269364,-93.968254,4,1,0,100,0,1
269414,-94.533104,4,1,0,100,0,1
269514,-95.67298,4,1,0,100,0,1
269564,-96.248055,4,1,0,100,0,1
269664,-97.40863,4,1,0,100,0,1
269713,-97.98238,4,1,0,100,0,1
269813,-99.16387,4,1,0,100,0,1
269863,-99.75994,4,1,0,100,0,1
269913,-100.35959,4,1,0,100,0,1
269963,-100.96284,4,1,0,100,0,1
270012,-101.55755,4,1,0,100,0,1
270062,-102.168015,4,1,0,100,0,1
270125,-102.782135,4,1,0,100,0,0
270178,-103.59844,4,1,0,100,0,0
270245,-104.43374,4,1,0,100,0,0
270324,-95.2380952380952,4,1,0,100,0,1
270411,-105.26317,4,1,0,100,0,1
270461,-104.5112,4,1,0,100,0,1
270511,-103.76462,4,1,0,100,0,1
270610,-102.30204,4,1,0,100,0,1
270710,-100.84564,4,1,0,100,0,1
270810,-99.40998,4,1,0,100,0,1
270860,-98.699814,4,1,0,100,0,1
270909,-98.0088,4,1,0,100,0,1
271009,-96.61352,4,1,0,100,0,1
271109,-86.95652,4,1,0,100,0,1
271159,-88.00504,4,1,0,100,0,1
271208,-89.04487,4,1,0,100,0,1
271258,-90.118576,4,1,0,100,0,1
271308,-91.20522,4,1,0,100,0,1
271358,-92.30498,4,1,0,100,0,1
271408,-93.417984,4,1,0,100,0,1
271458,-94.54443,4,1,0,100,0,1
271507,-95.661514,4,1,0,100,0,1
271607,-97.98238,4,1,0,100,0,1
271657,-99.16387,4,1,0,100,0,1
271707,-100.35959,4,1,0,100,0,1
271806,-102.76982,4,1,0,100,0,1
271919,-105.26317,4,1,0,100,0,0
272105,-125,4,1,0,80,0,0
272703,-95.2380952380952,4,1,0,90,0,0
273102,-96.76271,4,1,0,90,0,0
273152,-97.53414,4,1,0,90,0,0
273202,-98.31172,4,1,0,90,0,0
273252,-99.095505,4,1,0,90,0,0
273301,-99.869675,4,1,0,90,0,0
273401,-101.46844,4,1,0,90,0,0
273501,-103.09278,4,1,0,90,0,0
273700,-125,4,1,0,80,0,0
274298,-95.2380952380952,4,1,0,80,0,0
275295,-125,8,1,0,90,0,0
275394,-123.233572822001,8,1,0,90,0,0
275494,-121.499272880799,8,1,0,90,0,0
275693,-118.189285388336,8,1,0,90,0,0
275793,-116.593139461601,8,1,0,90,0,0
275893,-95.2380952380952,8,1,0,90,0,0
276092,-112.067846480031,8,1,0,90,0,0
276192,-110.631754303533,8,1,0,90,0,0
276291,-109.245824194365,8,1,0,90,0,0
276491,-106.549284186276,8,1,0,90,0,0
276590,-105.263157894737,8,1,0,90,0,0
276690,-90.90909,8,1,0,90,0,0
276740,-92.06079,8,1,0,90,0,0
276790,-93.227066,8,1,0,90,0,0
276839,-94.38438,8,1,0,90,0,0
276889,-95.58012,8,1,0,90,0,0
276989,-98.0172,8,1,0,90,0,0
277039,-99.25895,8,1,0,90,0,0
277089,-100.51643,8,1,0,90,0,0
277138,-101.76421,8,1,0,90,0,0
277188,-103.05344,8,1,0,90,0,0
277288,-105.68109,8,1,0,90,0,0
277338,-107.019936,8,1,0,90,0,0
277388,-108.37573,8,1,0,90,0,0
277437,-109.721085,8,1,0,90,0,0
277487,-111.111115,8,1,0,90,0,0
277587,-133.333333333333,8,1,0,80,0,0
279082,-132.37851,4,1,0,80,0,0
279182,-130.48933,4,1,0,80,0,0
279281,-128.6456,4,1,0,80,0,0
279381,-126.8097,4,1,0,80,0,0
279481,-125,4,1,0,80,0,0
279547,-121.48806,4,1,0,80,0,0
279614,-118.02382,4,1,0,80,0,0
279680,-114.70787,4,1,0,80,0,0
279747,-111.43696,4,1,0,80,0,0
279813,-108.30608,4,1,0,80,0,0
279892,-95.2380952380952,4,1,0,100,0,1
285461,-90.90909,4,1,0,100,0,1
285610,-94.202995,4,1,0,100,0,1
285760,-97.63958,4,1,0,100,0,1
285873,-100,4,1,0,100,0,0
286271,-95.2380952380952,4,1,0,100,0,1
287467,-95.2381,4,1,0,100,0,0
287554,-96.409836,4,1,0,100,0,0
287604,-97.00109,4,1,0,100,0,0
287654,-97.59597,4,1,0,100,0,0
287753,-98.78463,4,1,0,100,0,0
287866,-95.2380952380952,4,1,0,100,0,1
288650,-90.90909,4,1,0,100,0,1
288683,-91.60957,4,1,0,100,0,1
288717,-92.33693,4,1,0,100,0,1
288750,-93.048416,4,1,0,100,0,1
288800,-94.1369,4,1,0,100,0,1
288850,-95.2381,4,1,0,100,0,1
288949,-90.90909,4,1,0,100,0,1
288982,-91.377045,4,1,0,100,0,1
289016,-91.86171,4,1,0,100,0,1
289049,-92.334564,4,1,0,100,0,1
289099,-93.055664,4,1,0,100,0,1
289149,-93.782394,4,1,0,100,0,1
289261,-95.2380952380952,4,1,0,100,0,0
289461,-100,4,1,0,100,0,1
289497,-100.84414,4,1,0,100,0,1
289547,-101.712845,4,1,0,100,0,1
289597,-102.58904,4,1,0,100,0,1
289647,-103.47278,4,1,0,100,0,1
289747,-105.26317,4,1,0,100,0,1
289946,-105.11551,4,1,0,100,0,1
290046,-104.894875,4,1,0,100,0,1
290145,-104.56447,4,1,0,100,0,1
290245,-104.11124,4,1,0,100,0,1
290345,-103.53405,4,1,0,100,0,1
290394,-103.205376,4,1,0,100,0,1
290444,-102.83881,4,1,0,100,0,1
290494,-102.44083,4,1,0,100,0,1
290544,-102.01159,4,1,0,100,0,1
290644,-101.06047,4,1,0,100,0,1
290693,-100.550125,4,1,0,100,0,1
290756,-100,4,1,0,100,0,0
291055,-86.95652,4,1,0,100,0,1
291075,-88.27161,4,1,0,100,0,1
291109,-89.64737,4,1,0,100,0,1
291142,-91.00315,4,1,0,100,0,1
291192,-93.09655,4,1,0,100,0,1
291242,-95.2381,4,1,0,100,0,1
291341,-86.95652,4,1,0,100,0,1
291374,-88.27161,4,1,0,100,0,1
291408,-89.64737,4,1,0,100,0,1
291441,-91.00315,4,1,0,100,0,1
291491,-93.09655,4,1,0,100,0,1
291541,-95.2381,4,1,0,100,0,1
291640,-90.90909,4,1,0,100,0,1
291673,-91.60957,4,1,0,100,0,1
291740,-93.048416,4,1,0,100,0,1
291773,-93.765396,4,1,0,100,0,1
291840,-95.2381,4,1,0,100,0,1
291939,-97.69985,4,1,0,99,0,1
291989,-98.96724,4,1,0,98,0,1
292039,-100.25106,4,1,0,98,0,1
292139,-102.8689,4,1,0,96,0,1
292238,-105.52789,4,1,0,95,0,1
292338,-108.28352,4,1,0,94,0,1
292438,-111.111115,4,1,0,92,0,1
292650,398.671096345515,4,1,0,90,1,0
292650,-48.780487804878,4,1,0,90,0,0
292936,-66.6666666666667,4,1,0,90,0,0
298616,-65.816795,4,1,0,90,0,0
298683,-65.24779,4,1,0,90,0,0
298749,-64.692085,4,1,0,90,0,0
298816,-64.132805,4,1,0,90,0,0
298882,-63.586594,4,1,0,90,0,0
298949,-63.03687,4,1,0,90,0,0
299015,-62.5,4,1,0,90,0,0
302404,-62.021637,4,1,0,90,0,0
302504,-61.78263,4,1,0,90,0,0
302603,-61.546936,4,1,0,90,0,0
302803,-61.0735,4,1,0,90,0,0
303002,-60.60606,4,1,0,90,0,0
303052,-60.548344,4,1,0,90,0,0
303102,-60.412365,4,1,0,90,0,0
303201,-59.965023,4,1,0,90,0,0
303301,-59.31315,4,1,0,90,0,0
303351,-58.922535,4,1,0,90,0,0
303401,-58.493526,4,1,0,90,0,0
303500,-57.54312,4,1,0,90,0,0
303600,-56.46599,4,1,0,90,0,0
303650,-55.889954,4,1,0,90,0,0
303700,-55.29226,4,1,0,90,0,0
303749,-54.687782,4,1,0,90,0,0
303799,-54.054058,4,1,0,90,0,0
304098,-56.999702,4,1,0,90,0,0
304198,-58.020267,4,1,0,90,0,0
304397,-60.10586,4,1,0,90,0,0
304597,-62.277493,4,1,0,90,0,0
304696,-63.3813,4,1,0,90,0,0
304796,-50,4,1,0,90,0,0
304846,-51.217266,4,1,0,90,0,0
304896,-52.46416,4,1,0,90,0,0
304945,-53.715576,4,1,0,90,0,0
304995,-55.023296,4,1,0,90,0,0
305045,-56.362854,4,1,0,90,0,0
305095,-57.735027,4,1,0,90,0,0
305145,-59.1406,4,1,0,90,0,0
305195,-60.580395,4,1,0,90,0,0
305294,-63.535427,4,1,0,90,0,0
305407,797.34219269103,6,1,0,90,1,0
305407,-25,6,1,0,90,0,0
305593,-10,6,1,0,50,0,0
306391,-25.130468,6,1,0,47,0,0
306590,-31.622782,6,1,0,45,0,0
306789,-39.79233,6,1,0,42,0,0
306989,-50.130306,6,1,0,40,0,0
307188,-63.081173,6,1,0,37,0,0
307387,-79.377815,6,1,0,35,0,0
307587,-100.00003,6,1,0,32,0,0
307786,-70.20876,6,1,0,30,0,0
307985,-83.79069,6,1,0,27,0,0
308184,-10000,6,1,0,25,0,0
308384,-85.44192,6,1,0,30,0,0
308584,-73.00319,6,1,0,34,0,0
308783,-62.424397,6,1,0,39,0,0
308982,-53.378567,6,1,0,43,0,0
309182,-45.607662,6,1,0,48,0,0
309381,-38.998714,6,1,0,52,0,0
309580,-33.347466,6,1,0,57,0,0
309780,-28.492706,6,1,0,61,0,0
309979,-24.363865,6,1,0,66,0,0
310191,199.335548172757,8,1,0,90,1,0
310191,-83.33333,8,1,0,90,0,0
310227,-84.07356,8,1,0,90,0,0
310277,-84.83566,8,1,0,90,0,0
310327,-85.60468,8,1,0,90,0,0
310377,-86.38067,8,1,0,90,0,0
310427,-87.16368,8,1,0,90,0,0
310477,-87.953804,8,1,0,90,0,0
310526,-88.73506,8,1,0,90,0,0
310576,-89.53942,8,1,0,90,0,0
310626,-90.35107,8,1,0,90,0,0
310676,-91.17009,8,1,0,90,0,0
310726,-91.99651,8,1,0,90,0,0
310776,-92.830444,8,1,0,90,0,0
310825,-93.65502,8,1,0,90,0,0
310875,-94.50398,8,1,0,90,0,0
310925,-95.360634,8,1,0,90,0,0
310975,-96.22506,8,1,0,90,0,0
311025,-97.097305,8,1,0,90,0,0
311075,-97.97746,8,1,0,90,0,0
311124,-98.84777,8,1,0,90,0,0
311174,-99.7438,8,1,0,90,0,0
311224,-100.64795,8,1,0,90,0,0
311274,-101.560295,8,1,0,90,0,0
311324,-102.48091,8,1,0,90,0,0
311374,-103.40988,8,1,0,90,0,0
311423,-104.32843,8,1,0,90,0,0
311473,-105.27415,8,1,0,90,0,0
311523,-106.228424,8,1,0,90,0,0
311573,-107.19136,8,1,0,90,0,0
311623,-108.163025,8,1,0,90,0,0
311673,-109.14349,8,1,0,90,0,0
311722,-110.112976,8,1,0,90,0,0
311772,-83.3333333333333,8,1,0,90,0,0

[HitObjects]
256,192,226,5,0,0:0:0:0:
256,192,426,1,0,0:0:0:0:
256,192,625,1,8,0:0:0:0:
256,192,824,1,0,0:0:0:0:
256,192,2020,1,8,0:0:0:0:
256,192,2419,1,0,0:0:0:0:
256,192,3416,1,0,0:0:0:0:
256,192,3615,1,0,0:0:0:0:
256,192,3814,1,8,0:0:0:0:
256,192,4014,1,0,0:0:0:0:
256,192,5210,1,8,0:0:0:0:
256,192,5608,1,0,0:0:0:0:
256,192,6406,1,8,0:0:0:0:
256,192,6705,1,0,0:0:0:0:
256,192,6954,1,0,0:0:0:0:
256,192,7203,1,8,0:0:0:0:
256,192,8798,1,8,0:0:0:0:
256,192,10392,1,0,0:0:0:0:
256,192,11987,1,0,0:0:0:0:
256,192,12386,1,8,0:0:0:0:
256,192,12585,1,0,0:0:0:0:
256,192,12784,1,8,0:0:0:0:
256,192,13183,1,0,0:0:0:0:
256,192,13582,1,8,0:0:0:0:
256,192,13881,1,0,0:0:0:0:
256,192,14180,1,0,0:0:0:0:
256,192,14379,1,8,0:0:0:0:
256,192,14578,1,0,0:0:0:0:
256,192,14778,1,8,0:0:0:0:
256,192,14977,1,8,0:0:0:0:
256,192,15176,1,0,0:0:0:0:
256,192,15575,1,0,0:0:0:0:
256,192,15774,1,0,0:0:0:0:
256,192,15974,1,8,0:0:0:0:
256,192,16372,1,0,0:0:0:0:
256,192,16572,1,8,0:0:0:0:
256,192,16771,1,8,0:0:0:0:
256,192,16970,1,0,0:0:0:0:
256,192,17369,1,0,0:0:0:0:
256,192,17568,1,8,0:0:0:0:
256,192,17768,1,0,0:0:0:0:
256,192,17967,1,0,0:0:0:0:
256,192,18166,1,8,0:0:0:0:
256,192,18366,1,0,0:0:0:0:
256,192,18764,1,8,0:0:0:0:
256,192,18964,1,0,0:0:0:0:
256,192,19163,1,8,0:0:0:0:
256,192,19562,1,0,0:0:0:0:
256,192,19761,1,0,0:0:0:0:
256,192,19960,1,8,0:0:0:0:
256,192,20160,1,0,0:0:0:0:
256,192,20558,1,0,0:0:0:0:
256,192,20758,1,8,0:0:0:0:
256,192,21156,1,0,0:0:0:0:
256,192,21356,1,8,0:0:0:0:
256,192,21555,1,0,0:0:0:0:
256,192,21754,1,8,0:0:0:0:
256,192,22153,1,8,0:0:0:0:
256,192,22352,1,0,0:0:0:0:
256,192,22751,1,8,0:0:0:0:
256,192,22950,1,8,0:0:0:0:
256,192,23150,1,0,0:0:0:0:
256,192,23548,1,8,0:0:0:0:
256,192,23748,1,0,0:0:0:0:
256,192,23947,1,8,0:0:0:0:
256,192,24080,1,0,0:0:0:0:
256,192,24213,1,0,0:0:0:0:
256,192,24346,1,8,0:0:0:0:
256,192,24479,1,8,0:0:0:0:
256,192,24612,1,8,0:0:0:0:
256,192,24744,1,0,0:0:0:0:
256,192,25143,1,0,0:0:0:0:
256,192,25342,1,0,0:0:0:0:
256,192,25542,1,8,0:0:0:0:
256,192,25940,1,0,0:0:0:0:
256,192,26140,1,8,0:0:0:0:
256,192,26339,1,0,0:0:0:0:
256,192,26638,1,8,0:0:0:0:
256,192,26937,1,0,0:0:0:0:
256,192,27136,1,8,0:0:0:0:
256,192,27535,1,8,0:0:0:0:
256,192,27734,1,8,0:0:0:0:
256,192,27934,1,0,0:0:0:0:
256,192,28332,1,0,0:0:0:0:
256,192,28532,1,0,0:0:0:0:
256,192,28731,1,8,0:0:0:0:
256,192,29130,1,0,0:0:0:0:
256,192,29329,1,8,0:0:0:0:
256,192,29529,1,8,0:0:0:0:
256,192,29728,1,0,0:0:0:0:
256,192,30127,1,8,0:0:0:0:
256,192,30326,1,8,0:0:0:0:
256,192,30725,1,0,0:0:0:0:
256,192,30924,1,8,0:0:0:0:
256,192,31123,1,0,0:0:0:0:
256,192,31522,1,0,0:0:0:0:
256,192,31721,1,0,0:0:0:0:
256,192,31921,1,8,0:0:0:0:
256,192,32319,1,0,0:0:0:0:
256,192,32718,1,8,0:0:0:0:
256,192,33017,1,0,0:0:0:0:
256,192,33316,1,0,0:0:0:0:
256,192,33515,1,8,0:0:0:0:
256,192,33914,1,0,0:0:0:0:
256,192,34113,1,8,0:0:0:0:
256,192,34313,1,0,0:0:0:0:
256,192,34612,1,0,0:0:0:0:
256,192,34911,1,0,0:0:0:0:
256,192,35110,1,8,0:0:0:0:
256,192,35509,1,8,0:0:0:0:
256,192,35708,1,8,0:0:0:0:
256,192,35907,1,0,0:0:0:0:
256,192,36306,1,8,0:0:0:0:
256,192,36505,1,0,0:0:0:0:
256,192,36705,1,8,0:0:0:0:
256,192,36804,1,8,0:0:0:0:
256,192,36904,1,0,0:0:0:0:
256,192,37103,1,8,0:0:0:0:
256,192,37203,1,8,0:0:0:0:
256,192,37303,1,8,0:0:0:0:
256,192,37402,1,8,0:0:0:0:
256,192,37502,1,0,0:0:0:0:
256,192,37801,1,8,0:0:0:0:
256,192,37901,1,0,0:0:0:0:
256,192,38100,1,0,0:0:0:0:
256,192,38299,1,8,0:0:0:0:
256,192,38499,1,8,0:0:0:0:
256,192,38698,1,0,0:0:0:0:
256,192,39097,1,0,0:0:0:0:
256,192,39396,1,0,0:0:0:0:
256,192,39495,1,8,0:0:0:0:
256,192,39695,1,8,0:0:0:0:
256,192,39894,1,0,0:0:0:0:
256,192,40093,1,8,0:0:0:0:
256,192,40293,1,0,0:0:0:0:
256,192,40691,1,0,0:0:0:0:
256,192,40891,1,8,0:0:0:0:
256,192,40990,1,8,0:0:0:0:
256,192,41090,1,0,0:0:0:0:
256,192,41289,1,8,0:0:0:0:
256,192,41489,1,0,0:0:0:0:
256,192,41688,1,8,0:0:0:0:
256,192,41887,1,0,0:0:0:0:
256,192,42286,1,0,0:0:0:0:
256,192,42585,1,0,0:0:0:0:
256,192,42685,1,8,0:0:0:0:
256,192,42884,1,8,0:0:0:0:
256,192,43083,1,0,0:0:0:0:
256,192,43482,1,0,0:0:0:0:
256,192,43681,1,8,0:0:0:0:
256,192,43881,1,0,0:0:0:0:
256,192,44180,1,8,0:0:0:0:
256,192,44279,1,0,0:0:0:0:
256,192,44479,1,0,0:0:0:0:
256,192,44678,1,8,0:0:0:0:
256,192,44877,1,8,0:0:0:0:
256,192,45077,1,0,0:0:0:0:
256,192,45475,1,8,0:0:0:0:
256,192,45675,1,0,0:0:0:0:
256,192,45774,1,0,0:0:0:0:
256,192,45874,1,8,0:0:0:0:
256,192,46073,1,8,0:0:0:0:
256,192,46273,1,0,0:0:0:0:
256,192,46572,1,0,0:0:0:0:
256,192,46671,1,0,0:0:0:0:
256,192,46871,1,8,0:0:0:0:
256,192,47070,1,0,0:0:0:0:
256,192,47269,1,0,0:0:0:0:
256,192,47369,1,0,0:0:0:0:
256,192,47469,1,8,0:0:0:0:
256,192,47668,1,8,0:0:0:0:
256,192,47867,1,0,0:0:0:0:
256,192,47967,1,8,0:0:0:0:
256,192,48067,1,8,0:0:0:0:
256,192,48166,1,0,0:0:0:0:
256,192,48266,1,8,0:0:0:0:
256,192,48465,1,0,0:0:0:0:
256,192,48565,1,8,0:0:0:0:
256,192,48665,1,0,0:0:0:0:
256,192,48764,1,0,0:0:0:0:
256,192,48864,1,8,0:0:0:0:
256,192,48914,1,8,0:0:0:0:
256,192,48964,1,0,0:0:0:0:
256,192,49014,1,0,0:0:0:0:
256,192,49063,1,8,0:0:0:0:
256,192,49163,1,0,0:0:0:0:
256,192,49213,1,0,0:0:0:0:
256,192,49263,1,8,0:0:0:0:
256,192,49362,1,8,0:0:0:0:
256,192,49462,1,0,0:0:0:0:
256,192,49661,1,8,0:0:0:0:
256,192,49761,1,0,0:0:0:0:
256,192,49861,1,8,0:0:0:0:
256,192,49927,1,0,0:0:0:0:
256,192,49994,1,0,0:0:0:0:
256,192,50060,1,8,0:0:0:0:
256,192,50160,1,8,0:0:0:0:
256,192,50259,1,0,0:0:0:0:
256,192,50558,1,0,0:0:0:0:
256,192,50658,1,8,0:0:0:0:
256,192,50857,1,0,0:0:0:0:
256,192,51057,1,8,0:0:0:0:
256,192,51156,1,8,0:0:0:0:
256,192,51256,1,0,0:0:0:0:
256,192,51356,1,0,0:0:0:0:
256,192,51455,1,8,0:0:0:0:
256,192,51655,1,0,0:0:0:0:
256,192,51854,1,8,0:0:0:0:
256,192,52153,1,8,0:0:0:0:
256,192,52253,1,0,0:0:0:0:
256,192,52452,1,8,0:0:0:0:
256,192,52651,1,0,0:0:0:0:
256,192,52751,1,8,0:0:0:0:
256,192,52851,1,0,0:0:0:0:
256,192,52950,1,0,0:0:0:0:
256,192,53050,1,8,0:0:0:0:
256,192,53249,1,8,0:0:0:0:
256,192,53449,1,0,0:0:0:0:
256,192,53748,1,0,0:0:0:0:
256,192,53847,1,8,0:0:0:0:
256,192,54047,1,0,0:0:0:0:
256,192,54246,1,8,0:0:0:0:
256,192,54346,1,8,0:0:0:0:
256,192,54445,1,8,0:0:0:0:
256,192,54545,1,0,0:0:0:0:
256,192,54645,1,8,0:0:0:0:
256,192,54844,1,0,0:0:0:0:
256,192,55043,1,8,0:0:0:0:
256,192,55143,1,0,0:0:0:0:
256,192,55342,1,0,0:0:0:0:
256,192,55442,1,8,0:0:0:0:
256,192,55641,1,0,0:0:0:0:
256,192,55841,1,8,0:0:0:0:
256,192,55940,1,0,0:0:0:0:
256,192,56040,1,8,0:0:0:0:
256,192,56140,1,8,0:0:0:0:
256,192,56239,1,0,0:0:0:0:
256,192,56306,1,0,0:0:0:0:
256,192,56372,1,0,0:0:0:0:
256,192,56439,1,0,0:0:0:0:
256,192,56505,1,0,0:0:0:0:
256,192,56572,1,0,0:0:0:0:
256,192,56638,1,8,0:0:0:0:
256,192,56837,1,0,0:0:0:0:
256,192,56937,1,0,0:0:0:0:
256,192,57037,1,8,0:0:0:0:
256,192,57236,1,0,0:0:0:0:
256,192,57435,1,8,0:0:0:0:
256,192,57535,1,0,0:0:0:0:
256,192,57635,1,0,0:0:0:0:
256,192,57734,1,0,0:0:0:0:
256,192,57834,1,8,0:0:0:0:
256,192,58033,1,8,0:0:0:0:
256,192,58133,1,8,0:0:0:0:
256,192,58233,1,0,0:0:0:0:
256,192,58532,1,0,0:0:0:0:
256,192,58631,1,8,0:0:0:0:
256,192,58831,1,0,0:0:0:0:
256,192,59030,1,8,0:0:0:0:
256,192,59130,1,8,0:0:0:0:
256,192,59230,1,0,0:0:0:0:
256,192,59329,1,0,0:0:0:0:
256,192,59429,1,8,0:0:0:0:
256,192,59628,1,8,0:0:0:0:
256,192,59828,1,0,0:0:0:0:
256,192,60027,1,8,0:0:0:0:
256,192,60127,1,0,0:0:0:0:
256,192,60226,1,8,0:0:0:0:
256,192,60426,1,0,0:0:0:0:
256,192,60625,1,8,0:0:0:0:
256,192,60675,1,8,0:0:0:0:
256,192,60725,1,0,0:0:0:0:
256,192,60824,1,0,0:0:0:0:
256,192,60924,1,8,0:0:0:0:
256,192,60974,1,8,0:0:0:0:
256,192,61024,1,8,0:0:0:0:
256,192,61123,1,8,0:0:0:0:
256,192,61223,1,0,0:0:0:0:
256,192,61273,1,0,0:0:0:0:
256,192,61323,1,0,0:0:0:0:
256,192,61372,1,0,0:0:0:0:
256,192,61422,1,8,0:0:0:0:
256,192,61721,1,8,0:0:0:0:
256,192,61821,1,0,0:0:0:0:
256,192,62020,1,8,0:0:0:0:
256,192,62220,1,0,0:0:0:0:
256,192,62319,1,8,0:0:0:0:
256,192,62419,1,0,0:0:0:0:
256,192,62469,1,0,0:0:0:0:
256,192,62519,1,8,0:0:0:0:
256,192,62568,1,8,0:0:0:0:
256,192,62618,1,0,0:0:0:0:
256,192,62668,1,0,0:0:0:0:
256,192,62718,1,8,0:0:0:0:
256,192,62768,1,8,0:0:0:0:
256,192,62818,1,0,0:0:0:0:
256,192,62917,1,0,0:0:0:0:
256,192,63017,1,12,0:0:0:0:
256,192,63814,1,0,0:0:0:0:
256,192,64612,1,8,0:0:0:0:
256,192,65010,1,0,0:0:0:0:
256,192,65409,1,8,0:0:0:0:
256,192,66206,1,0,0:0:0:0:
256,192,67004,1,8,0:0:0:0:
256,192,67402,1,0,0:0:0:0:
256,192,67801,1,8,0:0:0:0:
256,192,68200,1,8,0:0:0:0:
256,192,68598,1,0,0:0:0:0:
256,192,68997,1,0,0:0:0:0:
256,192,69063,1,0,0:0:0:0:
256,192,69130,1,0,0:0:0:0:
256,192,69196,1,0,0:0:0:0:
256,192,69263,1,0,0:0:0:0:
256,192,69329,1,0,0:0:0:0:
256,192,69396,1,8,0:0:0:0:
256,192,69695,1,0,0:0:0:0:
256,192,69794,1,8,0:0:0:0:
256,192,69994,1,0,0:0:0:0:
256,192,70193,1,8,0:0:0:0:
256,192,70293,1,0,0:0:0:0:
256,192,70392,1,8,0:0:0:0:
256,192,70492,1,0,0:0:0:0:
256,192,70592,1,8,0:0:0:0:
256,192,70791,1,8,0:0:0:0:
256,192,70990,1,0,0:0:0:0:
256,192,71190,1,0,0:0:0:0:
256,192,71289,1,0,0:0:0:0:
256,192,71389,1,8,0:0:0:0:
256,192,71588,1,0,0:0:0:0:
256,192,71788,1,8,0:0:0:0:
256,192,71887,1,8,0:0:0:0:
256,192,71987,1,0,0:0:0:0:
256,192,72087,1,0,0:0:0:0:
256,192,72186,1,8,0:0:0:0:
256,192,72386,1,8,0:0:0:0:
256,192,72485,1,8,0:0:0:0:
256,192,72585,1,0,0:0:0:0:
256,192,72784,1,0,0:0:0:0:
256,192,72984,1,8,0:0:0:0:
256,192,73183,1,0,0:0:0:0:
256,192,73382,1,0,0:0:0:0:
256,192,73432,1,0,0:0:0:0:
256,192,73482,1,8,0:0:0:0:
256,192,73582,1,0,0:0:0:0:
256,192,73681,1,8,0:0:0:0:
256,192,73731,1,0,0:0:0:0:
256,192,73781,1,8,0:0:0:0:
256,192,73881,1,0,0:0:0:0:
256,192,73980,1,8,0:0:0:0:
256,192,74030,1,8,0:0:0:0:
256,192,74080,1,0,0:0:0:0:
256,192,74130,1,0,0:0:0:0:
256,192,74180,1,8,0:0:0:0:
256,192,74230,1,0,0:0:0:0:
256,192,74279,1,8,0:0:0:0:
256,192,74329,1,8,0:0:0:0:
256,192,74379,1,0,0:0:0:0:
256,192,74479,1,0,0:0:0:0:
256,192,74578,1,8,0:0:0:0:
256,192,74628,1,0,0:0:0:0:
256,192,74678,1,0,0:0:0:0:
256,192,74728,1,0,0:0:0:0:
256,192,74778,1,8,0:0:0:0:
256,192,74877,1,0,0:0:0:0:
256,192,74977,1,8,0:0:0:0:
256,192,75027,1,8,0:0:0:0:
256,192,75077,1,8,0:0:0:0:
256,192,75127,1,8,0:0:0:0:
256,192,75176,1,0,0:0:0:0:
256,192,75276,1,8,0:0:0:0:
256,192,75326,1,8,0:0:0:0:
256,192,75376,1,0,0:0:0:0:
256,192,75475,1,8,0:0:0:0:
256,192,75575,1,0,0:0:0:0:
256,192,75675,1,0,0:0:0:0:
256,192,75774,1,12,0:0:0:0:
256,192,75874,8,0,76970,0:0:0:0:
256,192,77369,5,8,0:0:0:0:
256,192,77418,1,8,0:0:0:0:
256,192,77468,1,0,0:0:0:0:
256,192,77518,1,0,0:0:0:0:
256,192,77568,1,8,0:0:0:0:
256,192,77618,1,8,0:0:0:0:
256,192,77668,1,8,0:0:0:0:
256,192,77717,1,8,0:0:0:0:
256,192,77767,1,0,0:0:0:0:
256,192,77817,1,8,0:0:0:0:
256,192,77867,1,0,0:0:0:0:
256,192,77917,1,0,0:0:0:0:
256,192,77967,1,8,0:0:0:0:
256,192,78016,1,8,0:0:0:0:
256,192,78066,1,0,0:0:0:0:
256,192,78116,1,0,0:0:0:0:
256,192,78166,1,8,0:0:0:0:
256,192,78266,1,0,0:0:0:0:
256,192,78315,1,0,0:0:0:0:
256,192,78365,1,8,0:0:0:0:
256,192,78415,1,8,0:0:0:0:
256,192,78465,1,0,0:0:0:0:
256,192,78565,1,0,0:0:0:0:
256,192,78764,1,8,0:0:0:0:
256,192,78963,1,4,0:0:0:0:
256,192,79163,1,8,0:0:0:0:
256,192,79262,1,0,0:0:0:0:
256,192,79312,1,0,0:0:0:0:
256,192,79362,1,8,0:0:0:0:
256,192,79462,1,0,0:0:0:0:
256,192,79561,1,8,0:0:0:0:
256,192,79661,1,0,0:0:0:0:
256,192,79711,1,0,0:0:0:0:
256,192,79761,1,0,0:0:0:0:
256,192,79860,1,0,0:0:0:0:
256,192,79960,1,8,0:0:0:0:
256,192,80010,1,8,0:0:0:0:
256,192,80060,1,0,0:0:0:0:
256,192,80159,1,0,0:0:0:0:
256,192,80259,1,8,0:0:0:0:
256,192,80309,1,8,0:0:0:0:
256,192,80359,1,8,0:0:0:0:
256,192,80458,1,0,0:0:0:0:
256,192,80558,1,8,0:0:0:0:
256,192,80658,1,0,0:0:0:0:
256,192,80757,1,8,0:0:0:0:
256,192,80857,1,0,0:0:0:0:
256,192,80907,1,0,0:0:0:0:
256,192,80957,1,8,0:0:0:0:
256,192,81006,1,8,0:0:0:0:
256,192,81056,1,0,0:0:0:0:
256,192,81156,1,8,0:0:0:0:
256,192,81256,1,0,0:0:0:0:
256,192,81305,1,0,0:0:0:0:
256,192,81355,1,8,0:0:0:0:
256,192,81455,1,0,0:0:0:0:
256,192,81555,1,8,0:0:0:0:
256,192,81654,1,0,0:0:0:0:
256,192,81754,1,8,0:0:0:0:
256,192,81804,1,8,0:0:0:0:
256,192,81854,1,8,0:0:0:0:
256,192,81903,1,0,0:0:0:0:
256,192,82153,1,8,0:0:0:0:
256,192,82202,1,8,0:0:0:0:
256,192,82252,1,0,0:0:0:0:
256,192,82302,1,0,0:0:0:0:
256,192,82352,1,8,0:0:0:0:
256,192,82452,1,8,0:0:0:0:
256,192,82551,1,0,0:0:0:0:
256,192,82651,1,0,0:0:0:0:
256,192,82751,1,8,0:0:0:0:
256,192,82850,1,8,0:0:0:0:
256,192,82900,1,8,0:0:0:0:
256,192,82950,1,0,0:0:0:0:
256,192,83050,1,0,0:0:0:0:
256,192,83149,1,8,0:0:0:0:
256,192,83199,1,0,0:0:0:0:
256,192,83249,1,8,0:0:0:0:
256,192,83349,1,0,0:0:0:0:
256,192,83448,1,0,0:0:0:0:
256,192,83498,1,0,0:0:0:0:
256,192,83548,1,8,0:0:0:0:
256,192,83648,1,8,0:0:0:0:
256,192,83697,1,8,0:0:0:0:
256,192,83747,1,4,0:0:0:0:
256,192,83847,1,4,0:0:0:0:
256,192,84046,1,12,0:0:0:0:
256,192,84246,1,4,0:0:0:0:
256,192,84445,1,0,0:0:0:0:
256,192,84495,1,0,0:0:0:0:
256,192,84545,1,12,0:0:0:0:
256,192,84694,1,12,0:0:0:0:
256,192,84844,1,4,0:0:0:0:
256,192,84943,1,12,0:0:0:0:
256,192,85342,1,4,0:0:0:0:
256,192,85442,1,8,0:0:0:0:
256,192,85491,1,8,0:0:0:0:
256,192,85541,1,8,0:0:0:0:
256,192,85641,1,0,0:0:0:0:
256,192,85741,1,0,0:0:0:0:
256,192,85840,1,8,0:0:0:0:
256,192,85940,1,8,0:0:0:0:
256,192,86040,1,0,0:0:0:0:
256,192,86089,1,0,0:0:0:0:
256,192,86139,1,0,0:0:0:0:
256,192,86239,1,0,0:0:0:0:
256,192,86339,1,8,0:0:0:0:
256,192,86388,1,8,0:0:0:0:
256,192,86438,1,0,0:0:0:0:
256,192,86538,1,8,0:0:0:0:
256,192,86638,1,0,0:0:0:0:
256,192,86687,1,0,0:0:0:0:
256,192,86737,1,8,0:0:0:0:
256,192,86837,1,0,0:0:0:0:
256,192,87136,1,8,0:0:0:0:
256,192,87186,1,0,0:0:0:0:
256,192,87236,1,0,0:0:0:0:
256,192,87285,1,0,0:0:0:0:
256,192,87335,1,8,0:0:0:0:
256,192,87385,1,8,0:0:0:0:
256,192,87435,1,0,0:0:0:0:
256,192,87485,1,0,0:0:0:0:
256,192,87535,1,8,0:0:0:0:
256,192,87634,1,0,0:0:0:0:
256,192,87734,1,8,0:0:0:0:
256,192,87834,1,8,0:0:0:0:
256,192,87933,1,0,0:0:0:0:
256,192,88033,1,0,0:0:0:0:
256,192,88133,1,8,0:0:0:0:
256,192,88182,1,0,0:0:0:0:
256,192,88232,1,0,0:0:0:0:
256,192,88282,1,8,0:0:0:0:
256,192,88531,1,8,0:0:0:0:
256,192,88581,1,8,0:0:0:0:
256,192,88631,1,0,0:0:0:0:
256,192,88681,1,0,0:0:0:0:
256,192,88731,1,8,0:0:0:0:
256,192,88830,1,0,0:0:0:0:
256,192,89030,1,0,0:0:0:0:
256,192,89129,1,8,0:0:0:0:
256,192,89229,1,0,0:0:0:0:
256,192,89329,1,8,0:0:0:0:
256,192,89428,1,0,0:0:0:0:
256,192,89478,1,0,0:0:0:0:
256,192,89528,1,8,0:0:0:0:
256,192,89578,1,8,0:0:0:0:
256,192,89628,1,0,0:0:0:0:
256,192,89727,1,8,0:0:0:0:
256,192,89777,1,8,0:0:0:0:
256,192,89827,1,0,0:0:0:0:
256,192,90126,1,8,0:0:0:0:
256,192,90176,1,0,0:0:0:0:
256,192,90226,1,8,0:0:0:0:
256,192,90275,1,0,0:0:0:0:
256,192,90525,1,8,0:0:0:0:
256,192,90574,1,8,0:0:0:0:
256,192,90624,1,8,0:0:0:0:
256,192,90674,1,0,0:0:0:0:
256,192,90923,1,8,0:0:0:0:
256,192,91023,1,0,0:0:0:0:
256,192,91073,1,0,0:0:0:0:
256,192,91123,1,8,0:0:0:0:
256,192,91172,1,8,0:0:0:0:
256,192,91222,1,0,0:0:0:0:
256,192,91322,1,0,0:0:0:0:
256,192,91521,1,8,0:0:0:0:
256,192,91721,1,4,0:0:0:0:
256,192,91920,1,0,0:0:0:0:
256,192,92020,1,8,0:0:0:0:
256,192,92069,1,8,0:0:0:0:
256,192,92119,1,0,0:0:0:0:
256,192,92219,1,0,0:0:0:0:
256,192,92319,1,8,0:0:0:0:
256,192,92418,1,0,0:0:0:0:
256,192,92468,1,0,0:0:0:0:
256,192,92518,1,8,0:0:0:0:
256,192,92618,1,8,0:0:0:0:
256,192,92717,1,0,0:0:0:0:
256,192,92767,1,0,0:0:0:0:
256,192,92817,1,0,0:0:0:0:
256,192,92917,1,8,0:0:0:0:
256,192,93016,1,0,0:0:0:0:
256,192,93066,1,0,0:0:0:0:
256,192,93116,1,8,0:0:0:0:
256,192,93216,1,0,0:0:0:0:
256,192,93315,1,8,0:0:0:0:
256,192,93415,1,8,0:0:0:0:
256,192,93515,1,0,0:0:0:0:
256,192,93614,1,8,0:0:0:0:
256,192,93664,1,8,0:0:0:0:
256,192,93714,1,0,0:0:0:0:
256,192,93764,1,0,0:0:0:0:
256,192,93814,1,8,0:0:0:0:
256,192,93913,1,0,0:0:0:0:
256,192,94013,1,8,0:0:0:0:
256,192,94063,1,8,0:0:0:0:
256,192,94113,1,0,0:0:0:0:
256,192,94212,1,8,0:0:0:0:
256,192,94312,1,0,0:0:0:0:
256,192,94412,1,0,0:0:0:0:
256,192,94511,1,8,0:0:0:0:
256,192,94561,1,8,0:0:0:0:
256,192,94611,1,8,0:0:0:0:
256,192,94661,1,0,0:0:0:0:
256,192,94910,1,8,0:0:0:0:
256,192,95010,1,0,0:0:0:0:
256,192,95109,1,8,0:0:0:0:
256,192,95209,1,0,0:0:0:0:
256,192,95259,1,0,0:0:0:0:
256,192,95309,1,0,0:0:0:0:
256,192,95408,1,0,0:0:0:0:
256,192,95508,1,8,0:0:0:0:
256,192,95608,1,8,0:0:0:0:
256,192,95658,1,8,0:0:0:0:
256,192,95707,1,0,0:0:0:0:
256,192,95807,1,0,0:0:0:0:
256,192,95907,1,8,0:0:0:0:
256,192,96006,1,0,0:0:0:0:
256,192,96056,1,0,0:0:0:0:
256,192,96106,1,0,0:0:0:0:
256,192,96206,1,8,0:0:0:0:
256,192,96256,1,8,0:0:0:0:
256,192,96305,1,8,0:0:0:0:
256,192,96505,1,8,0:0:0:0:
256,192,96604,1,0,0:0:0:0:
256,192,96704,1,8,0:0:0:0:
256,192,96804,1,0,0:0:0:0:
256,192,96854,1,0,0:0:0:0:
256,192,96903,1,8,0:0:0:0:
256,192,97003,1,8,0:0:0:0:
256,192,97103,1,0,0:0:0:0:
256,192,97202,1,8,0:0:0:0:
256,192,97252,1,8,0:0:0:0:
256,192,97302,1,4,0:0:0:0:
256,192,97452,1,4,0:0:0:0:
256,192,97601,1,4,0:0:0:0:
256,192,97701,1,12,0:0:0:0:
256,192,98099,1,4,0:0:0:0:
256,192,98299,1,8,0:0:0:0:
256,192,98398,1,8,0:0:0:0:
256,192,98448,1,8,0:0:0:0:
256,192,98498,1,0,0:0:0:0:
256,192,98598,1,0,0:0:0:0:
256,192,98697,1,8,0:0:0:0:
256,192,98797,1,0,0:0:0:0:
256,192,98847,1,0,0:0:0:0:
256,192,98897,1,8,0:0:0:0:
256,192,98996,1,0,0:0:0:0:
256,192,99096,1,8,0:0:0:0:
256,192,99146,1,8,0:0:0:0:
256,192,99196,1,0,0:0:0:0:
256,192,99295,1,8,0:0:0:0:
256,192,99395,1,0,0:0:0:0:
256,192,99445,1,0,0:0:0:0:
256,192,99694,1,8,0:0:0:0:
256,192,99744,1,8,0:0:0:0:
256,192,99794,1,0,0:0:0:0:
256,192,99893,1,8,0:0:0:0:
256,192,99993,1,0,0:0:0:0:
256,192,100043,1,8,0:0:0:0:
256,192,100093,1,8,0:0:0:0:
256,192,100143,1,8,0:0:0:0:
256,192,100192,1,0,0:0:0:0:
256,192,100242,1,0,0:0:0:0:
256,192,100292,1,8,0:0:0:0:
256,192,100392,1,8,0:0:0:0:
256,192,100491,1,0,0:0:0:0:
256,192,100591,1,8,0:0:0:0:
256,192,100641,1,0,0:0:0:0:
256,192,100691,1,8,0:0:0:0:
256,192,100790,1,0,0:0:0:0:
256,192,100890,1,8,0:0:0:0:
256,192,100940,1,8,0:0:0:0:
256,192,100990,1,8,0:0:0:0:
256,192,101040,1,0,0:0:0:0:
256,192,101289,1,8,0:0:0:0:
256,192,101339,1,8,0:0:0:0:
256,192,101388,1,8,0:0:0:0:
256,192,101438,1,8,0:0:0:0:
256,192,101488,1,0,0:0:0:0:
256,192,101588,1,8,0:0:0:0:
256,192,101887,1,0,0:0:0:0:
256,192,101937,1,0,0:0:0:0:
256,192,101986,1,0,0:0:0:0:
256,192,102036,1,0,0:0:0:0:
256,192,102086,1,8,0:0:0:0:
256,192,102186,1,0,0:0:0:0:
256,192,102285,1,8,0:0:0:0:
256,192,102335,1,8,0:0:0:0:
256,192,102385,1,0,0:0:0:0:
256,192,102485,1,8,0:0:0:0:
256,192,102584,1,8,0:0:0:0:
256,192,102634,1,8,0:0:0:0:
256,192,102684,1,0,0:0:0:0:
256,192,102883,1,0,0:0:0:0:
256,192,102933,1,0,0:0:0:0:
256,192,102983,1,0,0:0:0:0:
256,192,103083,1,8,0:0:0:0:
256,192,103282,1,0,0:0:0:0:
256,192,103382,1,8,0:0:0:0:
256,192,103581,1,0,0:0:0:0:
256,192,103631,1,0,0:0:0:0:
256,192,103681,1,8,0:0:0:0:
256,192,103780,1,0,0:0:0:0:
256,192,103880,1,8,0:0:0:0:
256,192,103980,1,0,0:0:0:0:
256,192,104079,1,8,0:0:0:0:
256,192,104129,1,8,0:0:0:0:
256,192,104179,1,8,0:0:0:0:
256,192,104229,1,8,0:0:0:0:
256,192,104279,1,0,0:0:0:0:
256,192,104378,1,0,0:0:0:0:
256,192,104478,1,12,0:0:0:0:
256,192,104677,1,0,0:0:0:0:
256,192,104777,1,0,0:0:0:0:
256,192,104877,1,8,0:0:0:0:
256,192,105076,1,8,0:0:0:0:
256,192,105176,1,0,0:0:0:0:
256,192,105375,1,8,0:0:0:0:
256,192,105475,1,0,0:0:0:0:
256,192,105574,1,0,0:0:0:0:
256,192,105674,1,8,0:0:0:0:
256,192,105873,1,0,0:0:0:0:
256,192,105973,1,0,0:0:0:0:
256,192,106073,1,8,0:0:0:0:
256,192,106123,1,8,0:0:0:0:
256,192,106172,1,0,0:0:0:0:
256,192,106222,1,0,0:0:0:0:
256,192,106272,1,8,0:0:0:0:
256,192,106372,1,0,0:0:0:0:
256,192,106422,1,0,0:0:0:0:
256,192,106471,1,8,0:0:0:0:
256,192,106521,1,8,0:0:0:0:
256,192,106571,1,0,0:0:0:0:
256,192,106671,1,8,0:0:0:0:
256,192,106721,1,8,0:0:0:0:
256,192,106770,1,8,0:0:0:0:
256,192,106820,1,8,0:0:0:0:
256,192,106870,1,0,0:0:0:0:
256,192,106970,1,8,0:0:0:0:
256,192,107020,1,0,0:0:0:0:
256,192,107069,1,8,0:0:0:0:
256,192,107119,1,8,0:0:0:0:
256,192,107169,1,0,0:0:0:0:
256,192,107269,1,8,0:0:0:0:
256,192,107368,1,0,0:0:0:0:
256,192,107418,1,0,0:0:0:0:
256,192,107468,1,0,0:0:0:0:
256,192,107568,1,0,0:0:0:0:
256,192,107668,1,12,0:0:0:0:
256,192,107867,1,0,0:0:0:0:
256,192,107967,1,0,0:0:0:0:
256,192,108066,1,8,0:0:0:0:
256,192,108266,1,8,0:0:0:0:
256,192,108365,1,0,0:0:0:0:
256,192,108465,1,0,0:0:0:0:
256,192,108565,1,8,0:0:0:0:
256,192,108664,1,0,0:0:0:0:
256,192,108864,1,8,0:0:0:0:
256,192,109063,1,0,0:0:0:0:
256,192,109163,1,0,0:0:0:0:
256,192,109262,1,8,0:0:0:0:
256,192,109312,1,0,0:0:0:0:
256,192,109362,1,8,0:0:0:0:
256,192,109412,1,0,0:0:0:0:
256,192,109462,1,8,0:0:0:0:
256,192,109561,1,0,0:0:0:0:
256,192,109611,1,0,0:0:0:0:
256,192,109661,1,8,0:0:0:0:
256,192,109711,1,8,0:0:0:0:
256,192,109761,1,0,0:0:0:0:
256,192,109860,1,8,0:0:0:0:
256,192,109910,1,0,0:0:0:0:
256,192,109960,1,8,0:0:0:0:
256,192,110010,1,8,0:0:0:0:
256,192,110060,1,0,0:0:0:0:
256,192,110159,1,8,0:0:0:0:
256,192,110209,1,8,0:0:0:0:
256,192,110259,1,8,0:0:0:0:
256,192,110309,1,8,0:0:0:0:
256,192,110359,1,0,0:0:0:0:
256,192,110458,1,8,0:0:0:0:
256,192,110525,1,0,0:0:0:0:
256,192,110591,1,0,0:0:0:0:
256,192,110658,1,8,0:0:0:0:
256,192,110724,1,0,0:0:0:0:
256,192,110790,1,0,0:0:0:0:
256,192,110857,1,12,0:0:0:0:
256,192,111056,1,0,0:0:0:0:
256,192,111156,1,0,0:0:0:0:
256,192,111256,1,8,0:0:0:0:
256,192,111455,1,0,0:0:0:0:
256,192,111555,1,0,0:0:0:0:
256,192,111654,1,8,0:0:0:0:
256,192,111704,1,8,0:0:0:0:
256,192,111754,1,8,0:0:0:0:
256,192,111854,1,0,0:0:0:0:
256,192,111903,1,0,0:0:0:0:
256,192,111953,1,0,0:0:0:0:
256,192,112053,1,8,0:0:0:0:
256,192,112103,1,8,0:0:0:0:
256,192,112153,1,0,0:0:0:0:
256,192,112202,1,0,0:0:0:0:
256,192,112252,1,8,0:0:0:0:
256,192,112352,1,8,0:0:0:0:
256,192,112452,1,4,0:0:0:0:
256,192,112651,1,8,0:0:0:0:
256,192,112751,1,0,0:0:0:0:
256,192,112850,1,8,0:0:0:0:
256,192,113050,1,0,0:0:0:0:
256,192,113149,1,0,0:0:0:0:
256,192,113249,1,8,0:0:0:0:
256,192,113349,1,0,0:0:0:0:
256,192,113398,1,0,0:0:0:0:
256,192,113448,1,8,0:0:0:0:
256,192,113548,1,0,0:0:0:0:
256,192,113648,1,8,0:0:0:0:
256,192,113697,1,8,0:0:0:0:
256,192,113747,1,0,0:0:0:0:
256,192,114046,1,12,0:0:0:0:
256,192,114246,1,0,0:0:0:0:
256,192,114345,1,0,0:0:0:0:
256,192,114445,1,8,0:0:0:0:
256,192,114644,1,8,0:0:0:0:
256,192,114744,1,8,0:0:0:0:
256,192,114844,1,4,0:0:0:0:
256,192,115043,1,8,0:0:0:0:
256,192,115143,1,0,0:0:0:0:
256,192,115242,1,8,0:0:0:0:
256,192,115442,1,0,0:0:0:0:
256,192,115541,1,0,0:0:0:0:
256,192,115641,1,8,0:0:0:0:
256,192,115691,1,8,0:0:0:0:
256,192,115741,1,0,0:0:0:0:
256,192,115790,1,0,0:0:0:0:
256,192,115840,1,8,0:0:0:0:
256,192,115940,1,0,0:0:0:0:
256,192,115990,1,0,0:0:0:0:
256,192,116040,1,8,0:0:0:0:
256,192,116089,1,8,0:0:0:0:
256,192,116139,1,0,0:0:0:0:
256,192,116239,1,8,0:0:0:0:
256,192,116289,1,8,0:0:0:0:
256,192,116339,1,8,0:0:0:0:
256,192,116388,1,8,0:0:0:0:
256,192,116438,1,0,0:0:0:0:
256,192,118033,1,0,0:0:0:0:
256,192,118133,1,8,0:0:0:0:
256,192,118232,1,0,0:0:0:0:
256,192,118332,1,8,0:0:0:0:
256,192,118432,1,0,0:0:0:0:
256,192,118531,1,0,0:0:0:0:
256,192,118631,1,8,0:0:0:0:
256,192,118830,1,12,0:0:0:0:
256,192,118929,1,0,0:0:0:0:
256,192,118979,1,0,0:0:0:0:
256,192,119029,1,8,0:0:0:0:
256,192,119129,1,0,0:0:0:0:
256,192,119228,1,8,0:0:0:0:
256,192,119278,1,8,0:0:0:0:
256,192,119328,1,0,0:0:0:0:
256,192,119378,1,0,0:0:0:0:
256,192,119428,1,8,0:0:0:0:
256,192,119527,1,8,0:0:0:0:
256,192,119627,1,0,0:0:0:0:
256,192,119727,1,8,0:0:0:0:
256,192,119776,1,8,0:0:0:0:
256,192,119826,1,8,0:0:0:0:
256,192,119876,1,0,0:0:0:0:
256,192,119926,1,8,0:0:0:0:
256,192,119976,1,8,0:0:0:0:
256,192,120026,1,0,0:0:0:0:
256,192,120075,1,0,0:0:0:0:
256,192,120125,1,0,0:0:0:0:
256,192,120225,1,8,0:0:0:0:
256,192,120325,1,0,0:0:0:0:
256,192,120374,1,0,0:0:0:0:
256,192,120424,1,8,0:0:0:0:
256,192,120524,1,8,0:0:0:0:
256,192,120574,1,8,0:0:0:0:
256,192,120624,1,0,0:0:0:0:
256,192,120673,1,0,0:0:0:0:
256,192,120723,1,8,0:0:0:0:
256,192,120773,1,0,0:0:0:0:
256,192,120823,1,8,0:0:0:0:
256,192,120923,1,8,0:0:0:0:
256,192,121022,1,0,0:0:0:0:
256,192,121072,1,0,0:0:0:0:
256,192,121122,1,8,0:0:0:0:
256,192,121172,1,8,0:0:0:0:
256,192,121222,1,0,0:0:0:0:
256,192,121321,1,8,0:0:0:0:
256,192,121371,1,0,0:0:0:0:
256,192,121421,1,8,0:0:0:0:
256,192,121471,1,8,0:0:0:0:
256,192,121521,1,0,0:0:0:0:
256,192,121570,1,0,0:0:0:0:
256,192,121620,1,8,0:0:0:0:
256,192,121720,1,0,0:0:0:0:
256,192,121820,1,8,0:0:0:0:
256,192,121919,1,8,0:0:0:0:
256,192,122019,1,4,0:0:0:0:
256,192,122218,1,0,0:0:0:0:
256,192,122318,1,0,0:0:0:0:
256,192,122418,1,8,0:0:0:0:
256,192,122617,1,0,0:0:0:0:
256,192,122717,1,8,0:0:0:0:
256,192,122816,1,8,0:0:0:0:
256,192,122916,1,8,0:0:0:0:
256,192,123016,1,0,0:0:0:0:
256,192,123115,1,0,0:0:0:0:
256,192,123215,1,8,0:0:0:0:
256,192,123414,1,0,0:0:0:0:
256,192,123514,1,8,0:0:0:0:
256,192,123614,1,0,0:0:0:0:
256,192,123713,1,0,0:0:0:0:
256,192,123813,1,8,0:0:0:0:
256,192,123913,1,0,0:0:0:0:
256,192,124012,1,8,0:0:0:0:
256,192,124212,1,0,0:0:0:0:
256,192,124411,1,8,0:0:0:0:
256,192,124511,1,0,0:0:0:0:
256,192,124610,1,8,0:0:0:0:
256,192,124710,1,8,0:0:0:0:
256,192,124909,1,8,0:0:0:0:
256,192,124959,1,8,0:0:0:0:
256,192,125009,1,0,0:0:0:0:
256,192,125109,1,0,0:0:0:0:
256,192,125208,1,12,0:0:0:0:
256,192,125308,1,0,0:0:0:0:
256,192,125358,1,0,0:0:0:0:
256,192,125408,1,8,0:0:0:0:
256,192,125507,1,0,0:0:0:0:
256,192,125607,1,8,0:0:0:0:
256,192,125657,1,0,0:0:0:0:
256,192,125707,1,8,0:0:0:0:
256,192,125756,1,8,0:0:0:0:
256,192,125806,1,0,0:0:0:0:
256,192,125856,1,0,0:0:0:0:
256,192,125906,1,8,0:0:0:0:
256,192,125956,1,0,0:0:0:0:
256,192,126006,1,8,0:0:0:0:
256,192,126105,1,0,0:0:0:0:
256,192,126155,1,0,0:0:0:0:
256,192,126205,1,8,0:0:0:0:
256,192,126305,1,8,0:0:0:0:
256,192,126404,1,0,0:0:0:0:
256,192,126454,1,8,0:0:0:0:
256,192,126504,1,8,0:0:0:0:
256,192,126554,1,0,0:0:0:0:
256,192,126604,1,8,0:0:0:0:
256,192,126703,1,8,0:0:0:0:
256,192,126803,1,0,0:0:0:0:
256,192,126903,1,8,0:0:0:0:
256,192,126952,1,8,0:0:0:0:
256,192,127002,1,0,0:0:0:0:
256,192,127102,1,0,0:0:0:0:
256,192,127202,1,8,0:0:0:0:
256,192,127251,1,0,0:0:0:0:
256,192,127301,1,0,0:0:0:0:
256,192,127351,1,0,0:0:0:0:
256,192,127401,1,8,0:0:0:0:
256,192,127451,1,8,0:0:0:0:
256,192,127501,1,0,0:0:0:0:
256,192,127600,1,0,0:0:0:0:
256,192,127700,1,8,0:0:0:0:
256,192,127750,1,8,0:0:0:0:
256,192,127800,1,0,0:0:0:0:
256,192,127849,1,8,0:0:0:0:
256,192,127899,1,0,0:0:0:0:
256,192,127949,1,0,0:0:0:0:
256,192,127999,1,8,0:0:0:0:
256,192,128198,1,0,0:0:0:0:
256,192,128298,1,0,0:0:0:0:
256,192,128398,1,8,0:0:0:0:
256,192,128447,1,0,0:0:0:0:
256,192,128497,1,8,0:0:0:0:
256,192,128547,1,8,0:0:0:0:
256,192,128597,1,0,0:0:0:0:
256,192,128647,1,0,0:0:0:0:
256,192,128697,1,8,0:0:0:0:
256,192,128746,1,8,0:0:0:0:
256,192,128796,1,0,0:0:0:0:
256,192,128896,1,8,0:0:0:0:
256,192,128946,1,0,0:0:0:0:
256,192,128996,1,8,0:0:0:0:
256,192,129045,1,8,0:0:0:0:
256,192,129095,1,0,0:0:0:0:
256,192,129195,1,8,0:0:0:0:
256,192,129245,1,0,0:0:0:0:
256,192,129344,1,0,0:0:0:0:
256,192,129394,1,8,0:0:0:0:
256,192,129494,1,0,0:0:0:0:
256,192,129544,1,0,0:0:0:0:
256,192,129594,1,8,0:0:0:0:
256,192,129643,1,8,0:0:0:0:
256,192,129693,1,0,0:0:0:0:
256,192,129793,1,8,0:0:0:0:
256,192,129843,1,8,0:0:0:0:
256,192,129893,1,0,0:0:0:0:
256,192,130092,1,0,0:0:0:0:
256,192,130125,1,0,0:0:0:0:
256,192,130158,1,0,0:0:0:0:
256,192,130192,1,8,0:0:0:0:
256,192,130241,1,8,0:0:0:0:
256,192,130291,1,0,0:0:0:0:
256,192,130391,1,8,0:0:0:0:
256,192,130424,1,0,0:0:0:0:
256,192,130457,1,0,0:0:0:0:
256,192,130491,1,8,0:0:0:0:
256,192,130540,1,8,0:0:0:0:
256,192,130590,1,0,0:0:0:0:
256,192,130640,1,0,0:0:0:0:
256,192,130690,1,8,0:0:0:0:
256,192,130723,1,8,0:0:0:0:
256,192,130756,1,8,0:0:0:0:
256,192,130790,1,0,0:0:0:0:
256,192,130839,1,0,0:0:0:0:
256,192,130889,1,8,0:0:0:0:
256,192,130989,1,0,0:0:0:0:
256,192,131039,1,0,0:0:0:0:
256,192,131089,1,8,0:0:0:0:
256,192,131188,1,0,0:0:0:0:
256,192,131288,1,8,0:0:0:0:
256,192,131388,1,0,0:0:0:0:
256,192,131437,1,0,0:0:0:0:
256,192,131487,1,0,0:0:0:0:
256,192,131537,1,0,0:0:0:0:
256,192,131587,1,12,0:0:0:0:
256,192,131687,1,0,0:0:0:0:
256,192,131736,1,0,0:0:0:0:
256,192,131786,1,8,0:0:0:0:
256,192,131886,1,0,0:0:0:0:
256,192,131986,1,8,0:0:0:0:
256,192,132035,1,8,0:0:0:0:
256,192,132085,1,0,0:0:0:0:
256,192,132135,1,8,0:0:0:0:
256,192,132185,1,0,0:0:0:0:
256,192,132235,1,0,0:0:0:0:
256,192,132285,1,8,0:0:0:0:
256,192,132384,1,0,0:0:0:0:
256,192,132484,1,8,0:0:0:0:
256,192,132534,1,8,0:0:0:0:
256,192,132584,1,8,0:0:0:0:
256,192,132683,1,0,0:0:0:0:
256,192,132783,1,8,0:0:0:0:
256,192,132833,1,0,0:0:0:0:
256,192,132883,1,0,0:0:0:0:
256,192,132932,1,0,0:0:0:0:
256,192,132982,1,8,0:0:0:0:
256,192,133032,1,0,0:0:0:0:
256,192,133082,1,8,0:0:0:0:
256,192,133132,1,8,0:0:0:0:
256,192,133182,1,0,0:0:0:0:
256,192,133281,1,8,0:0:0:0:
256,192,133331,1,8,0:0:0:0:
256,192,133381,1,0,0:0:0:0:
256,192,133481,1,8,0:0:0:0:
256,192,133580,1,0,0:0:0:0:
256,192,133630,1,8,0:0:0:0:
256,192,133680,1,0,0:0:0:0:
256,192,133730,1,0,0:0:0:0:
256,192,133780,1,8,0:0:0:0:
256,192,133829,1,8,0:0:0:0:
256,192,133879,1,0,0:0:0:0:
256,192,133979,1,8,0:0:0:0:
256,192,134029,1,8,0:0:0:0:
256,192,134079,1,0,0:0:0:0:
256,192,134178,1,8,0:0:0:0:
256,192,134278,1,0,0:0:0:0:
256,192,134378,1,8,0:0:0:0:
256,192,134428,1,0,0:0:0:0:
256,192,134477,1,8,0:0:0:0:
256,192,134527,1,8,0:0:0:0:
256,192,134577,1,0,0:0:0:0:
256,192,134677,1,0,0:0:0:0:
256,192,134776,1,8,0:0:0:0:
256,192,134843,1,8,0:0:0:0:
256,192,134909,1,8,0:0:0:0:
256,192,134976,1,0,0:0:0:0:
256,192,135042,1,0,0:0:0:0:
256,192,135109,1,0,0:0:0:0:
256,192,135175,1,8,0:0:0:0:
256,192,135374,1,8,0:0:0:0:
256,192,135474,1,8,0:0:0:0:
256,192,135574,1,0,0:0:0:0:
256,192,135640,1,8,0:0:0:0:
256,192,135707,1,0,0:0:0:0:
256,192,135773,1,8,0:0:0:0:
256,192,135839,1,0,0:0:0:0:
256,192,135906,1,0,0:0:0:0:
256,192,135972,1,8,0:0:0:0:
256,192,136072,1,0,0:0:0:0:
256,192,136172,1,8,0:0:0:0:
256,192,136271,1,8,0:0:0:0:
256,192,136371,1,0,0:0:0:0:
256,192,136471,1,8,0:0:0:0:
256,192,136521,1,8,0:0:0:0:
256,192,136570,1,8,0:0:0:0:
256,192,136670,1,0,0:0:0:0:
256,192,136770,1,8,0:0:0:0:
256,192,136820,1,8,0:0:0:0:
256,192,136869,1,8,0:0:0:0:
256,192,136969,1,0,0:0:0:0:
256,192,137069,1,8,0:0:0:0:
256,192,137119,1,8,0:0:0:0:
256,192,137168,1,0,0:0:0:0:
256,192,137368,1,8,0:0:0:0:
256,192,137467,1,0,0:0:0:0:
256,192,137667,1,8,0:0:0:0:
256,192,137766,1,4,0:0:0:0:
256,192,137966,1,12,0:0:0:0:
256,192,138165,1,0,0:0:0:0:
256,192,138265,1,0,0:0:0:0:
256,192,138364,1,8,0:0:0:0:
256,192,138564,1,8,0:0:0:0:
256,192,138663,1,0,0:0:0:0:
256,192,138863,1,8,0:0:0:0:
256,192,139062,1,0,0:0:0:0:
256,192,139162,1,8,0:0:0:0:
256,192,139261,1,8,0:0:0:0:
256,192,139361,1,0,0:0:0:0:
256,192,139560,1,8,0:0:0:0:
256,192,139660,1,8,0:0:0:0:
256,192,139760,1,0,0:0:0:0:
256,192,139859,1,0,0:0:0:0:
256,192,139959,1,8,0:0:0:0:
256,192,140158,1,8,0:0:0:0:
256,192,140258,1,4,0:0:0:0:
256,192,140457,1,4,0:0:0:0:
256,192,140657,1,4,0:0:0:0:
256,192,140856,1,4,0:0:0:0:
256,192,140956,1,12,0:0:0:0:
256,192,141155,1,0,0:0:0:0:
256,192,141205,1,0,0:0:0:0:
256,192,141255,1,0,0:0:0:0:
256,192,141305,1,0,0:0:0:0:
256,192,141354,1,8,0:0:0:0:
256,192,141454,1,0,0:0:0:0:
256,192,141753,1,8,0:0:0:0:
256,192,141803,1,8,0:0:0:0:
256,192,141853,1,8,0:0:0:0:
256,192,141903,1,8,0:0:0:0:
256,192,141952,1,0,0:0:0:0:
256,192,142052,1,8,0:0:0:0:
256,192,142351,1,0,0:0:0:0:
256,192,142401,1,0,0:0:0:0:
256,192,142451,1,8,0:0:0:0:
256,192,142501,1,8,0:0:0:0:
256,192,142550,1,0,0:0:0:0:
256,192,142750,1,8,0:0:0:0:
256,192,142849,1,0,0:0:0:0:
256,192,142899,1,0,0:0:0:0:
256,192,142949,1,0,0:0:0:0:
256,192,143049,1,8,0:0:0:0:
256,192,143082,1,8,0:0:0:0:
256,192,143115,1,8,0:0:0:0:
256,192,143148,1,0,0:0:0:0:
256,192,143248,1,0,0:0:0:0:
256,192,143348,1,8,0:0:0:0:
256,192,143381,1,8,0:0:0:0:
256,192,143414,1,8,0:0:0:0:
256,192,143447,1,0,0:0:0:0:
256,192,143497,1,0,0:0:0:0:
256,192,143547,1,8,0:0:0:0:
256,192,143647,1,0,0:0:0:0:
256,192,143697,1,0,0:0:0:0:
256,192,143746,1,8,0:0:0:0:
256,192,143846,1,0,0:0:0:0:
256,192,143946,1,8,0:0:0:0:
256,192,144045,1,0,0:0:0:0:
256,192,144145,1,0,0:0:0:0:
256,192,144245,1,0,0:0:0:0:
256,192,144344,1,12,0:0:0:0:
256,192,144643,1,12,0:0:0:0:
256,192,145141,1,0,0:0:0:0:
256,192,145938,1,8,0:0:0:0:
256,192,146736,1,0,0:0:0:0:
256,192,147533,1,0,0:0:0:0:
256,192,148330,1,8,0:0:0:0:
256,192,149128,1,0,0:0:0:0:
256,192,149327,1,8,0:0:0:0:
256,192,149427,1,8,0:0:0:0:
256,192,149526,1,0,0:0:0:0:
256,192,149626,1,8,0:0:0:0:
256,192,149676,1,8,0:0:0:0:
256,192,149726,1,0,0:0:0:0:
256,192,149825,1,8,0:0:0:0:
256,192,149925,1,0,0:0:0:0:
256,192,150025,1,0,0:0:0:0:
256,192,150124,1,8,0:0:0:0:
256,192,150174,1,8,0:0:0:0:
256,192,150224,1,8,0:0:0:0:
256,192,150274,1,8,0:0:0:0:
256,192,150324,1,0,0:0:0:0:
256,192,150423,1,0,0:0:0:0:
256,192,150523,1,8,0:0:0:0:
256,192,150623,1,8,0:0:0:0:
256,192,150722,1,0,0:0:0:0:
256,192,151021,1,0,0:0:0:0:
256,192,151121,1,8,0:0:0:0:
256,192,151320,1,0,0:0:0:0:
256,192,151520,1,8,0:0:0:0:
256,192,151619,1,8,0:0:0:0:
256,192,151719,1,0,0:0:0:0:
256,192,151819,1,0,0:0:0:0:
256,192,151918,1,8,0:0:0:0:
256,192,152118,1,0,0:0:0:0:
256,192,152317,1,8,0:0:0:0:
256,192,152616,1,8,0:0:0:0:
256,192,152716,1,0,0:0:0:0:
256,192,152915,1,0,0:0:0:0:
256,192,153114,1,8,0:0:0:0:
256,192,153214,1,0,0:0:0:0:
256,192,153314,1,0,0:0:0:0:
256,192,153413,1,0,0:0:0:0:
256,192,153513,1,8,0:0:0:0:
256,192,153712,1,0,0:0:0:0:
256,192,153912,1,0,0:0:0:0:
256,192,154111,1,8,0:0:0:0:
256,192,154211,1,0,0:0:0:0:
256,192,154310,1,8,0:0:0:0:
256,192,154510,1,0,0:0:0:0:
256,192,154709,1,8,0:0:0:0:
256,192,154759,1,8,0:0:0:0:
256,192,154809,1,8,0:0:0:0:
256,192,154908,1,0,0:0:0:0:
256,192,155008,1,8,0:0:0:0:
256,192,155058,1,0,0:0:0:0:
256,192,155108,1,8,0:0:0:0:
256,192,155207,1,8,0:0:0:0:
256,192,155307,1,0,0:0:0:0:
256,192,155357,1,0,0:0:0:0:
256,192,155407,1,0,0:0:0:0:
256,192,155456,1,0,0:0:0:0:
256,192,155506,1,8,0:0:0:0:
256,192,155805,1,8,0:0:0:0:
256,192,155905,1,0,0:0:0:0:
256,192,156104,1,8,0:0:0:0:
256,192,156304,1,0,0:0:0:0:
256,192,156403,1,8,0:0:0:0:
256,192,156503,1,0,0:0:0:0:
256,192,156553,1,0,0:0:0:0:
256,192,156603,1,8,0:0:0:0:
256,192,156652,1,8,0:0:0:0:
256,192,156702,1,0,0:0:0:0:
256,192,156752,1,0,0:0:0:0:
256,192,156802,1,8,0:0:0:0:
256,192,156852,1,8,0:0:0:0:
256,192,156902,1,0,0:0:0:0:
256,192,157001,1,8,0:0:0:0:
256,192,157101,1,4,0:0:0:0:
256,192,157201,8,0,157898,0:0:0:0:
256,192,158696,5,8,0:0:0:0:
256,192,158745,1,8,0:0:0:0:
256,192,158795,1,0,0:0:0:0:
256,192,158845,1,0,0:0:0:0:
256,192,158895,1,8,0:0:0:0:
256,192,158945,1,8,0:0:0:0:
256,192,158995,1,8,0:0:0:0:
256,192,159044,1,8,0:0:0:0:
256,192,159094,1,0,0:0:0:0:
256,192,159144,1,8,0:0:0:0:
256,192,159194,1,0,0:0:0:0:
256,192,159244,1,0,0:0:0:0:
256,192,159294,1,8,0:0:0:0:
256,192,159343,1,8,0:0:0:0:
256,192,159393,1,0,0:0:0:0:
256,192,159443,1,0,0:0:0:0:
256,192,159493,1,8,0:0:0:0:
256,192,159593,1,0,0:0:0:0:
256,192,159642,1,0,0:0:0:0:
256,192,159692,1,8,0:0:0:0:
256,192,159742,1,8,0:0:0:0:
256,192,159792,1,0,0:0:0:0:
256,192,159892,1,0,0:0:0:0:
256,192,160091,1,8,0:0:0:0:
256,192,160292,1,12,0:0:0:0:
256,192,160391,1,0,0:0:0:0:
256,192,160441,1,0,0:0:0:0:
256,192,160491,1,8,0:0:0:0:
256,192,160591,1,8,0:0:0:0:
256,192,160690,1,0,0:0:0:0:
256,192,160740,1,8,0:0:0:0:
256,192,160790,1,0,0:0:0:0:
256,192,160840,1,0,0:0:0:0:
256,192,160890,1,8,0:0:0:0:
256,192,160989,1,0,0:0:0:0:
256,192,161039,1,8,0:0:0:0:
256,192,161089,1,8,0:0:0:0:
256,192,161139,1,8,0:0:0:0:
256,192,161189,1,0,0:0:0:0:
256,192,161238,1,0,0:0:0:0:
256,192,161288,1,8,0:0:0:0:
256,192,161388,1,0,0:0:0:0:
256,192,161488,1,8,0:0:0:0:
256,192,161537,1,8,0:0:0:0:
256,192,161587,1,0,0:0:0:0:
256,192,161637,1,0,0:0:0:0:
256,192,161687,1,8,0:0:0:0:
256,192,161737,1,0,0:0:0:0:
256,192,161787,1,8,0:0:0:0:
256,192,161836,1,8,0:0:0:0:
256,192,161886,1,0,0:0:0:0:
256,192,161986,1,8,0:0:0:0:
256,192,162036,1,0,0:0:0:0:
256,192,162086,1,8,0:0:0:0:
256,192,162185,1,8,0:0:0:0:
256,192,162285,1,0,0:0:0:0:
256,192,162335,1,8,0:0:0:0:
256,192,162385,1,0,0:0:0:0:
256,192,162434,1,0,0:0:0:0:
256,192,162484,1,8,0:0:0:0:
256,192,162534,1,8,0:0:0:0:
256,192,162584,1,8,0:0:0:0:
256,192,162634,1,8,0:0:0:0:
256,192,162684,1,0,0:0:0:0:
256,192,162783,1,0,0:0:0:0:
256,192,162883,1,8,0:0:0:0:
256,192,162933,1,8,0:0:0:0:
256,192,162983,1,0,0:0:0:0:
256,192,163032,1,0,0:0:0:0:
256,192,163082,1,8,0:0:0:0:
256,192,163132,1,0,0:0:0:0:
256,192,163182,1,8,0:0:0:0:
256,192,163282,1,0,0:0:0:0:
256,192,163381,1,0,0:0:0:0:
256,192,163481,1,8,0:0:0:0:
256,192,163531,1,8,0:0:0:0:
256,192,163581,1,0,0:0:0:0:
256,192,163630,1,0,0:0:0:0:
256,192,163680,1,8,0:0:0:0:
256,192,163780,1,8,0:0:0:0:
256,192,163880,1,0,0:0:0:0:
256,192,163979,1,8,0:0:0:0:
256,192,164029,1,8,0:0:0:0:
256,192,164079,1,8,0:0:0:0:
256,192,164129,1,0,0:0:0:0:
256,192,164179,1,8,0:0:0:0:
256,192,164228,1,8,0:0:0:0:
256,192,164278,1,0,0:0:0:0:
256,192,164378,1,0,0:0:0:0:
256,192,164478,1,8,0:0:0:0:
256,192,164577,1,0,0:0:0:0:
256,192,164677,1,8,0:0:0:0:
256,192,164727,1,8,0:0:0:0:
256,192,164777,1,0,0:0:0:0:
256,192,164826,1,0,0:0:0:0:
256,192,164876,1,8,0:0:0:0:
256,192,164926,1,0,0:0:0:0:
256,192,164976,1,8,0:0:0:0:
256,192,165026,1,8,0:0:0:0:
256,192,165076,1,0,0:0:0:0:
256,192,165175,1,8,0:0:0:0:
256,192,165225,1,0,0:0:0:0:
256,192,165275,1,8,0:0:0:0:
256,192,165375,1,0,0:0:0:0:
256,192,165474,1,8,0:0:0:0:
256,192,165574,1,0,0:0:0:0:
256,192,165624,1,0,0:0:0:0:
256,192,165674,1,8,0:0:0:0:
256,192,165723,1,0,0:0:0:0:
256,192,165773,1,0,0:0:0:0:
256,192,165823,1,0,0:0:0:0:
256,192,165873,1,8,0:0:0:0:
256,192,165973,1,0,0:0:0:0:
256,192,166022,1,0,0:0:0:0:
256,192,166072,1,8,0:0:0:0:
256,192,166172,1,8,0:0:0:0:
256,192,166272,1,0,0:0:0:0:
256,192,166371,1,8,0:0:0:0:
256,192,166571,1,8,0:0:0:0:
256,192,166670,1,4,0:0:0:0:
256,192,166770,1,8,0:0:0:0:
256,192,166820,1,8,0:0:0:0:
256,192,166870,1,0,0:0:0:0:
256,192,166919,1,0,0:0:0:0:
256,192,166969,1,8,0:0:0:0:
256,192,167069,1,0,0:0:0:0:
256,192,167169,1,8,0:0:0:0:
256,192,167218,1,0,0:0:0:0:
256,192,167268,1,8,0:0:0:0:
256,192,167318,1,8,0:0:0:0:
256,192,167368,1,0,0:0:0:0:
256,192,167418,1,0,0:0:0:0:
256,192,167468,1,8,0:0:0:0:
256,192,167517,1,0,0:0:0:0:
256,192,167567,1,0,0:0:0:0:
256,192,167667,1,8,0:0:0:0:
256,192,167767,1,0,0:0:0:0:
256,192,167866,1,8,0:0:0:0:
256,192,167916,1,8,0:0:0:0:
256,192,167966,1,0,0:0:0:0:
256,192,168016,1,0,0:0:0:0:
256,192,168066,1,8,0:0:0:0:
256,192,168115,1,0,0:0:0:0:
256,192,168165,1,8,0:0:0:0:
256,192,168215,1,8,0:0:0:0:
256,192,168265,1,0,0:0:0:0:
256,192,168365,1,8,0:0:0:0:
256,192,168414,1,8,0:0:0:0:
256,192,168464,1,8,0:0:0:0:
256,192,168564,1,0,0:0:0:0:
256,192,168664,1,8,0:0:0:0:
256,192,168713,1,8,0:0:0:0:
256,192,168763,1,0,0:0:0:0:
256,192,168813,1,0,0:0:0:0:
256,192,168863,1,8,0:0:0:0:
256,192,168913,1,0,0:0:0:0:
256,192,168963,1,0,0:0:0:0:
256,192,169012,1,0,0:0:0:0:
256,192,169062,1,8,0:0:0:0:
256,192,169162,1,0,0:0:0:0:
256,192,169212,1,8,0:0:0:0:
256,192,169311,1,0,0:0:0:0:
256,192,169361,1,0,0:0:0:0:
256,192,169461,1,8,0:0:0:0:
256,192,169561,1,8,0:0:0:0:
256,192,169760,1,0,0:0:0:0:
256,192,169860,1,8,0:0:0:0:
256,192,169909,1,8,0:0:0:0:
256,192,169959,1,8,0:0:0:0:
256,192,170009,1,8,0:0:0:0:
256,192,170059,1,0,0:0:0:0:
256,192,170159,1,8,0:0:0:0:
256,192,170657,1,0,0:0:0:0:
256,192,170707,1,0,0:0:0:0:
256,192,170757,1,0,0:0:0:0:
256,192,170806,1,0,0:0:0:0:
256,192,170856,1,8,0:0:0:0:
256,192,170956,1,0,0:0:0:0:
256,192,171454,1,8,0:0:0:0:
256,192,171504,1,8,0:0:0:0:
256,192,171554,1,0,0:0:0:0:
256,192,171654,1,0,0:0:0:0:
256,192,171753,1,8,0:0:0:0:
256,192,171803,1,8,0:0:0:0:
256,192,171853,1,0,0:0:0:0:
256,192,171953,1,0,0:0:0:0:
256,192,172052,1,8,0:0:0:0:
256,192,172102,1,8,0:0:0:0:
256,192,172152,1,0,0:0:0:0:
256,192,172202,1,0,0:0:0:0:
256,192,172252,1,8,0:0:0:0:
256,192,172949,1,8,0:0:0:0:
256,192,173050,1,4,0:0:0:0:
256,192,173249,1,8,0:0:0:0:
256,192,173349,1,8,0:0:0:0:
256,192,173448,1,0,0:0:0:0:
256,192,173548,1,0,0:0:0:0:
256,192,173747,1,0,0:0:0:0:
256,192,173847,1,8,0:0:0:0:
256,192,173897,1,8,0:0:0:0:
256,192,173947,1,0,0:0:0:0:
256,192,174046,1,8,0:0:0:0:
256,192,174146,1,8,0:0:0:0:
256,192,174246,1,0,0:0:0:0:
256,192,174295,1,0,0:0:0:0:
256,192,174345,1,8,0:0:0:0:
256,192,174445,1,0,0:0:0:0:
256,192,174545,1,0,0:0:0:0:
256,192,174644,1,8,0:0:0:0:
256,192,174694,1,8,0:0:0:0:
256,192,174744,1,8,0:0:0:0:
256,192,174794,1,8,0:0:0:0:
256,192,174844,1,0,0:0:0:0:
256,192,174943,1,8,0:0:0:0:
256,192,174993,1,8,0:0:0:0:
256,192,175043,1,0,0:0:0:0:
256,192,175143,1,8,0:0:0:0:
256,192,175192,1,0,0:0:0:0:
256,192,175242,1,8,0:0:0:0:
256,192,175292,1,8,0:0:0:0:
256,192,175342,1,0,0:0:0:0:
256,192,175392,1,0,0:0:0:0:
256,192,175442,1,8,0:0:0:0:
256,192,175541,1,0,0:0:0:0:
256,192,175591,1,0,0:0:0:0:
256,192,175641,1,8,0:0:0:0:
256,192,175691,1,8,0:0:0:0:
256,192,175741,1,0,0:0:0:0:
256,192,176239,1,12,0:0:0:0:
256,192,176338,1,0,0:0:0:0:
256,192,176388,1,0,0:0:0:0:
256,192,176438,1,8,0:0:0:0:
256,192,176538,1,8,0:0:0:0:
256,192,176587,1,8,0:0:0:0:
256,192,176637,1,0,0:0:0:0:
256,192,176687,1,8,0:0:0:0:
256,192,176737,1,0,0:0:0:0:
256,192,176787,1,0,0:0:0:0:
256,192,176837,1,8,0:0:0:0:
256,192,176936,1,0,0:0:0:0:
256,192,176986,1,0,0:0:0:0:
256,192,177036,1,8,0:0:0:0:
256,192,177136,1,0,0:0:0:0:
256,192,177235,1,8,0:0:0:0:
256,192,177335,1,0,0:0:0:0:
256,192,177435,1,8,0:0:0:0:
256,192,177484,1,8,0:0:0:0:
256,192,177534,1,0,0:0:0:0:
256,192,177584,1,0,0:0:0:0:
256,192,177634,1,8,0:0:0:0:
256,192,177684,1,0,0:0:0:0:
256,192,177734,1,8,0:0:0:0:
256,192,177783,1,8,0:0:0:0:
256,192,177833,1,0,0:0:0:0:
256,192,177933,1,8,0:0:0:0:
256,192,177983,1,0,0:0:0:0:
256,192,178033,1,8,0:0:0:0:
256,192,178132,1,8,0:0:0:0:
256,192,178232,1,0,0:0:0:0:
256,192,178282,1,8,0:0:0:0:
256,192,178332,1,0,0:0:0:0:
256,192,178381,1,0,0:0:0:0:
256,192,178431,1,8,0:0:0:0:
256,192,178481,1,8,0:0:0:0:
256,192,178531,1,0,0:0:0:0:
256,192,178581,1,0,0:0:0:0:
256,192,178631,1,8,0:0:0:0:
256,192,178780,1,0,0:0:0:0:
256,192,178930,1,0,0:0:0:0:
256,192,179029,1,8,0:0:0:0:
256,192,179129,1,0,0:0:0:0:
256,192,179328,1,8,0:0:0:0:
256,192,179428,1,0,0:0:0:0:
256,192,179478,1,0,0:0:0:0:
256,192,179528,1,8,0:0:0:0:
256,192,179577,1,0,0:0:0:0:
256,192,179627,1,8,0:0:0:0:
256,192,179677,1,0,0:0:0:0:
256,192,179727,1,8,0:0:0:0:
256,192,179777,1,8,0:0:0:0:
256,192,179827,1,0,0:0:0:0:
256,192,179926,1,8,0:0:0:0:
256,192,179976,1,8,0:0:0:0:
256,192,180026,1,0,0:0:0:0:
256,192,180076,1,0,0:0:0:0:
256,192,180126,1,8,0:0:0:0:
256,192,180225,1,0,0:0:0:0:
256,192,180325,1,8,0:0:0:0:
256,192,180358,1,8,0:0:0:0:
256,192,180391,1,8,0:0:0:0:
256,192,180425,1,0,0:0:0:0:
256,192,180474,1,0,0:0:0:0:
256,192,180524,1,8,0:0:0:0:
256,192,180574,1,0,0:0:0:0:
256,192,180624,1,8,0:0:0:0:
256,192,180674,1,8,0:0:0:0:
256,192,180724,1,0,0:0:0:0:
256,192,180773,1,0,0:0:0:0:
256,192,180823,1,8,0:0:0:0:
256,192,180923,1,0,0:0:0:0:
256,192,180973,1,0,0:0:0:0:
256,192,181023,1,8,0:0:0:0:
256,192,181122,1,0,0:0:0:0:
256,192,181222,1,8,0:0:0:0:
256,192,181272,1,0,0:0:0:0:
256,192,181322,1,8,0:0:0:0:
256,192,181371,1,8,0:0:0:0:
256,192,181421,1,0,0:0:0:0:
256,192,181521,1,8,0:0:0:0:
256,192,181571,1,8,0:0:0:0:
256,192,181621,1,0,0:0:0:0:
256,192,181670,1,8,0:0:0:0:
256,192,181720,1,0,0:0:0:0:
256,192,181770,1,0,0:0:0:0:
256,192,181820,1,8,0:0:0:0:
256,192,181870,1,0,0:0:0:0:
256,192,181969,1,8,0:0:0:0:
256,192,182019,1,8,0:0:0:0:
256,192,182119,1,0,0:0:0:0:
256,192,182169,1,8,0:0:0:0:
256,192,182219,1,8,0:0:0:0:
256,192,182268,1,0,0:0:0:0:
256,192,182318,1,8,0:0:0:0:
256,192,182617,1,0,0:0:0:0:
256,192,182667,1,0,0:0:0:0:
256,192,182717,1,0,0:0:0:0:
256,192,182767,1,0,0:0:0:0:
256,192,182817,1,8,0:0:0:0:
256,192,182916,1,0,0:0:0:0:
256,192,183016,1,8,0:0:0:0:
256,192,183116,1,8,0:0:0:0:
256,192,183165,1,8,0:0:0:0:
256,192,183215,1,0,0:0:0:0:
256,192,183315,1,0,0:0:0:0:
256,192,183415,1,8,0:0:0:0:
256,192,183464,1,0,0:0:0:0:
256,192,183514,1,8,0:0:0:0:
256,192,183564,1,8,0:0:0:0:
256,192,183614,1,0,0:0:0:0:
256,192,183714,1,0,0:0:0:0:
256,192,183813,1,8,0:0:0:0:
256,192,183863,1,8,0:0:0:0:
256,192,183913,1,8,0:0:0:0:
256,192,183963,1,8,0:0:0:0:
256,192,184013,1,0,0:0:0:0:
256,192,184112,1,0,0:0:0:0:
256,192,184212,1,8,0:0:0:0:
256,192,184262,1,8,0:0:0:0:
256,192,184312,1,0,0:0:0:0:
256,192,184411,1,8,0:0:0:0:
256,192,184511,1,0,0:0:0:0:
256,192,184561,1,0,0:0:0:0:
256,192,184611,1,8,0:0:0:0:
256,192,184710,1,8,0:0:0:0:
256,192,184810,1,0,0:0:0:0:
256,192,184860,1,0,0:0:0:0:
256,192,184910,1,8,0:0:0:0:
256,192,184943,1,8,0:0:0:0:
256,192,184976,1,8,0:0:0:0:
256,192,185009,1,0,0:0:0:0:
256,192,185607,1,8,0:0:0:0:
256,192,185807,1,4,0:0:0:0:
256,192,185906,8,0,187002,0:0:0:0:
256,192,187402,5,12,0:0:0:0:
256,192,188598,1,8,0:0:0:0:
256,192,188996,1,0,0:0:0:0:
256,192,189993,1,0,0:0:0:0:
256,192,190192,1,0,0:0:0:0:
256,192,190392,1,8,0:0:0:0:
256,192,190591,1,0,0:0:0:0:
256,192,191787,1,8,0:0:0:0:
256,192,192186,1,0,0:0:0:0:
256,192,192983,1,8,0:0:0:0:
256,192,193282,1,0,0:0:0:0:
256,192,193531,1,0,0:0:0:0:
256,192,193780,1,8,0:0:0:0:
256,192,195375,1,8,0:0:0:0:
256,192,196970,1,0,0:0:0:0:
256,192,198564,1,0,0:0:0:0:
256,192,199162,1,8,0:0:0:0:
256,192,199760,1,0,0:0:0:0:
256,192,200159,1,8,0:0:0:0:
256,192,200458,1,0,0:0:0:0:
256,192,200757,1,0,0:0:0:0:
256,192,201156,1,0,0:0:0:0:
256,192,201355,1,8,0:0:0:0:
256,192,201554,1,8,0:0:0:0:
256,192,201754,1,0,0:0:0:0:
256,192,202352,1,0,0:0:0:0:
256,192,202950,1,8,0:0:0:0:
256,192,203348,1,0,0:0:0:0:
256,192,204345,1,0,0:0:0:0:
256,192,204544,1,0,0:0:0:0:
256,192,204744,1,8,0:0:0:0:
256,192,204943,1,0,0:0:0:0:
256,192,205541,1,8,0:0:0:0:
256,192,206139,1,0,0:0:0:0:
256,192,206538,1,8,0:0:0:0:
256,192,206837,1,8,0:0:0:0:
256,192,207136,1,0,0:0:0:0:
256,192,207734,1,0,0:0:0:0:
256,192,208132,1,8,0:0:0:0:
256,192,208431,1,0,0:0:0:0:
256,192,208730,1,8,0:0:0:0:
256,192,208930,1,0,0:0:0:0:
256,192,209328,1,8,0:0:0:0:
256,192,209727,1,0,0:0:0:0:
256,192,211322,1,12,0:0:0:0:
256,192,217701,12,0,222485,0:0:0:0:
256,192,223282,5,8,0:0:0:0:
256,192,223382,1,0,0:0:0:0:
256,192,223431,1,0,0:0:0:0:
256,192,223481,1,8,0:0:0:0:
256,192,223531,1,8,0:0:0:0:
256,192,223581,1,0,0:0:0:0:
256,192,223681,1,8,0:0:0:0:
256,192,223780,1,0,0:0:0:0:
256,192,223830,1,0,0:0:0:0:
256,192,223880,1,8,0:0:0:0:
256,192,223980,1,8,0:0:0:0:
256,192,224079,1,0,0:0:0:0:
256,192,224378,1,0,0:0:0:0:
256,192,224478,1,8,0:0:0:0:
256,192,224677,1,0,0:0:0:0:
256,192,224877,1,8,0:0:0:0:
256,192,224976,1,8,0:0:0:0:
256,192,225076,1,0,0:0:0:0:
256,192,225176,1,0,0:0:0:0:
256,192,225275,1,8,0:0:0:0:
256,192,225475,1,0,0:0:0:0:
256,192,225674,1,8,0:0:0:0:
256,192,225973,1,8,0:0:0:0:
256,192,226073,1,0,0:0:0:0:
256,192,226272,1,8,0:0:0:0:
256,192,226471,1,0,0:0:0:0:
256,192,226571,1,8,0:0:0:0:
256,192,226671,1,0,0:0:0:0:
256,192,226770,1,0,0:0:0:0:
256,192,226870,1,8,0:0:0:0:
256,192,227069,1,8,0:0:0:0:
256,192,227269,1,0,0:0:0:0:
256,192,227568,1,0,0:0:0:0:
256,192,227667,1,8,0:0:0:0:
256,192,227867,1,0,0:0:0:0:
256,192,228066,1,8,0:0:0:0:
256,192,228166,1,8,0:0:0:0:
256,192,228265,1,8,0:0:0:0:
256,192,228365,1,0,0:0:0:0:
256,192,228465,1,8,0:0:0:0:
256,192,228664,1,0,0:0:0:0:
256,192,228863,1,8,0:0:0:0:
256,192,228963,1,0,0:0:0:0:
256,192,229162,1,0,0:0:0:0:
256,192,229262,1,8,0:0:0:0:
256,192,229461,1,0,0:0:0:0:
256,192,229661,1,8,0:0:0:0:
256,192,229760,1,0,0:0:0:0:
256,192,229860,1,8,0:0:0:0:
256,192,229960,1,8,0:0:0:0:
256,192,230059,1,0,0:0:0:0:
256,192,230126,1,0,0:0:0:0:
256,192,230192,1,0,0:0:0:0:
256,192,230259,1,0,0:0:0:0:
256,192,230325,1,0,0:0:0:0:
256,192,230392,1,0,0:0:0:0:
256,192,230458,1,8,0:0:0:0:
256,192,230657,1,0,0:0:0:0:
256,192,230757,1,0,0:0:0:0:
256,192,230857,1,8,0:0:0:0:
256,192,231056,1,0,0:0:0:0:
256,192,231255,1,8,0:0:0:0:
256,192,231355,1,0,0:0:0:0:
256,192,231455,1,0,0:0:0:0:
256,192,231554,1,0,0:0:0:0:
256,192,231654,1,8,0:0:0:0:
256,192,231853,1,8,0:0:0:0:
256,192,231953,1,8,0:0:0:0:
256,192,232053,1,0,0:0:0:0:
256,192,232352,1,0,0:0:0:0:
256,192,232451,1,8,0:0:0:0:
256,192,232651,1,0,0:0:0:0:
256,192,232850,1,8,0:0:0:0:
256,192,232950,1,8,0:0:0:0:
256,192,233049,1,0,0:0:0:0:
256,192,233149,1,0,0:0:0:0:
256,192,233249,1,8,0:0:0:0:
256,192,233448,1,8,0:0:0:0:
256,192,233647,1,0,0:0:0:0:
256,192,233847,1,8,0:0:0:0:
256,192,233946,1,0,0:0:0:0:
256,192,234046,1,8,0:0:0:0:
256,192,234245,1,0,0:0:0:0:
256,192,234445,1,8,0:0:0:0:
256,192,234495,1,8,0:0:0:0:
256,192,234544,1,0,0:0:0:0:
256,192,234644,1,0,0:0:0:0:
256,192,234744,1,8,0:0:0:0:
256,192,234794,1,8,0:0:0:0:
256,192,234843,1,8,0:0:0:0:
256,192,234943,1,8,0:0:0:0:
256,192,235043,1,0,0:0:0:0:
256,192,235093,1,0,0:0:0:0:
256,192,235142,1,0,0:0:0:0:
256,192,235192,1,0,0:0:0:0:
256,192,235242,1,8,0:0:0:0:
256,192,235541,1,8,0:0:0:0:
256,192,235641,1,0,0:0:0:0:
256,192,235840,1,8,0:0:0:0:
256,192,236039,1,0,0:0:0:0:
256,192,236139,1,8,0:0:0:0:
256,192,236239,1,0,0:0:0:0:
256,192,236289,1,0,0:0:0:0:
256,192,236338,1,8,0:0:0:0:
256,192,236388,1,8,0:0:0:0:
256,192,236438,1,0,0:0:0:0:
256,192,236488,1,0,0:0:0:0:
256,192,236538,1,8,0:0:0:0:
256,192,236588,1,8,0:0:0:0:
256,192,236637,1,0,0:0:0:0:
256,192,236737,1,0,0:0:0:0:
256,192,236837,1,12,0:0:0:0:
256,192,237634,1,0,0:0:0:0:
256,192,238431,1,8,0:0:0:0:
256,192,238830,1,0,0:0:0:0:
256,192,239229,1,8,0:0:0:0:
256,192,240026,1,0,0:0:0:0:
256,192,240823,1,8,0:0:0:0:
256,192,241222,1,0,0:0:0:0:
256,192,241621,1,8,0:0:0:0:
256,192,242019,1,8,0:0:0:0:
256,192,242418,1,0,0:0:0:0:
256,192,242817,1,0,0:0:0:0:
256,192,242883,1,0,0:0:0:0:
256,192,242950,1,0,0:0:0:0:
256,192,243016,1,0,0:0:0:0:
256,192,243083,1,0,0:0:0:0:
256,192,243149,1,0,0:0:0:0:
256,192,243215,1,8,0:0:0:0:
256,192,243514,1,0,0:0:0:0:
256,192,243614,1,8,0:0:0:0:
256,192,243813,1,0,0:0:0:0:
256,192,244013,1,8,0:0:0:0:
256,192,244112,1,0,0:0:0:0:
256,192,244212,1,8,0:0:0:0:
256,192,244312,1,0,0:0:0:0:
256,192,244411,1,8,0:0:0:0:
256,192,244611,1,8,0:0:0:0:
256,192,244810,1,0,0:0:0:0:
256,192,245009,1,0,0:0:0:0:
256,192,245109,1,0,0:0:0:0:
256,192,245209,1,8,0:0:0:0:
256,192,245408,1,0,0:0:0:0:
256,192,245607,1,8,0:0:0:0:
256,192,245707,1,8,0:0:0:0:
256,192,245807,1,0,0:0:0:0:
256,192,245906,1,0,0:0:0:0:
256,192,246006,1,8,0:0:0:0:
256,192,246205,1,8,0:0:0:0:
256,192,246305,1,8,0:0:0:0:
256,192,246405,1,0,0:0:0:0:
256,192,246604,1,0,0:0:0:0:
256,192,246803,1,8,0:0:0:0:
256,192,247003,1,0,0:0:0:0:
256,192,247202,1,0,0:0:0:0:
256,192,247252,1,0,0:0:0:0:
256,192,247302,1,8,0:0:0:0:
256,192,247402,1,0,0:0:0:0:
256,192,247501,1,8,0:0:0:0:
256,192,247551,1,0,0:0:0:0:
256,192,247601,1,8,0:0:0:0:
256,192,247701,1,0,0:0:0:0:
256,192,247800,1,8,0:0:0:0:
256,192,247850,1,8,0:0:0:0:
256,192,247900,1,0,0:0:0:0:
256,192,247950,1,0,0:0:0:0:
256,192,248000,1,8,0:0:0:0:
256,192,248049,1,0,0:0:0:0:
256,192,248099,1,8,0:0:0:0:
256,192,248149,1,8,0:0:0:0:
256,192,248199,1,0,0:0:0:0:
256,192,248299,1,0,0:0:0:0:
256,192,248398,1,8,0:0:0:0:
256,192,248448,1,0,0:0:0:0:
256,192,248498,1,0,0:0:0:0:
256,192,248548,1,0,0:0:0:0:
256,192,248598,1,8,0:0:0:0:
256,192,248697,1,0,0:0:0:0:
256,192,248797,1,8,0:0:0:0:
256,192,248847,1,8,0:0:0:0:
256,192,248897,1,8,0:0:0:0:
256,192,248946,1,8,0:0:0:0:
256,192,248996,1,0,0:0:0:0:
256,192,249096,1,8,0:0:0:0:
256,192,249146,1,8,0:0:0:0:
256,192,249196,1,0,0:0:0:0:
256,192,249295,1,8,0:0:0:0:
256,192,249395,1,0,0:0:0:0:
256,192,249495,1,0,0:0:0:0:
256,192,249594,1,12,0:0:0:0:
256,192,249694,8,0,250790,0:0:0:0:
256,192,251189,5,8,0:0:0:0:
256,192,251238,1,8,0:0:0:0:
256,192,251288,1,0,0:0:0:0:
256,192,251338,1,0,0:0:0:0:
256,192,251388,1,8,0:0:0:0:
256,192,251438,1,8,0:0:0:0:
256,192,251488,1,8,0:0:0:0:
256,192,251537,1,8,0:0:0:0:
256,192,251587,1,0,0:0:0:0:
256,192,251637,1,8,0:0:0:0:
256,192,251687,1,0,0:0:0:0:
256,192,251737,1,0,0:0:0:0:
256,192,251787,1,8,0:0:0:0:
256,192,251836,1,8,0:0:0:0:
256,192,251886,1,0,0:0:0:0:
256,192,251936,1,0,0:0:0:0:
256,192,251986,1,8,0:0:0:0:
256,192,252086,1,0,0:0:0:0:
256,192,252135,1,0,0:0:0:0:
256,192,252185,1,8,0:0:0:0:
256,192,252235,1,8,0:0:0:0:
256,192,252285,1,0,0:0:0:0:
256,192,252385,1,0,0:0:0:0:
256,192,252584,1,8,0:0:0:0:
256,192,252783,1,4,0:0:0:0:
256,192,252882,8,0,253979,0:0:0:0:
256,192,254377,5,8,0:0:0:0:
256,192,254427,1,8,0:0:0:0:
256,192,254477,1,8,0:0:0:0:
256,192,254527,1,8,0:0:0:0:
256,192,254577,1,0,0:0:0:0:
256,192,254677,1,8,0:0:0:0:
256,192,254726,1,8,0:0:0:0:
256,192,254776,1,0,0:0:0:0:
256,192,254826,1,0,0:0:0:0:
256,192,254876,1,8,0:0:0:0:
256,192,254976,1,0,0:0:0:0:
256,192,255025,1,8,0:0:0:0:
256,192,255075,1,8,0:0:0:0:
256,192,255125,1,0,0:0:0:0:
256,192,255175,1,8,0:0:0:0:
256,192,255275,1,0,0:0:0:0:
256,192,255324,1,0,0:0:0:0:
256,192,255374,1,8,0:0:0:0:
256,192,255424,1,8,0:0:0:0:
256,192,255474,1,0,0:0:0:0:
256,192,255574,1,0,0:0:0:0:
256,192,255773,1,8,0:0:0:0:
256,192,255972,1,12,0:0:0:0:
256,192,256072,1,0,0:0:0:0:
256,192,256122,1,0,0:0:0:0:
256,192,256172,1,8,0:0:0:0:
256,192,256271,1,8,0:0:0:0:
256,192,256371,1,0,0:0:0:0:
256,192,256471,1,8,0:0:0:0:
256,192,256520,1,0,0:0:0:0:
256,192,256570,1,0,0:0:0:0:
256,192,256620,1,0,0:0:0:0:
256,192,256670,1,8,0:0:0:0:
256,192,256720,1,8,0:0:0:0:
256,192,256770,1,0,0:0:0:0:
256,192,256869,1,0,0:0:0:0:
256,192,256969,1,8,0:0:0:0:
256,192,257019,1,8,0:0:0:0:
256,192,257069,1,0,0:0:0:0:
256,192,257168,1,8,0:0:0:0:
256,192,257218,1,0,0:0:0:0:
256,192,257268,1,8,0:0:0:0:
256,192,257318,1,8,0:0:0:0:
256,192,257368,1,0,0:0:0:0:
256,192,257417,1,0,0:0:0:0:
256,192,257467,1,8,0:0:0:0:
256,192,257517,1,8,0:0:0:0:
256,192,257567,1,0,0:0:0:0:
256,192,257667,1,0,0:0:0:0:
256,192,257766,1,8,0:0:0:0:
256,192,257816,1,8,0:0:0:0:
256,192,257866,1,0,0:0:0:0:
256,192,257966,1,8,0:0:0:0:
256,192,258065,1,0,0:0:0:0:
256,192,258115,1,0,0:0:0:0:
256,192,258165,1,8,0:0:0:0:
256,192,258215,1,8,0:0:0:0:
256,192,258265,1,0,0:0:0:0:
256,192,258364,1,8,0:0:0:0:
256,192,258464,1,0,0:0:0:0:
256,192,258514,1,8,0:0:0:0:
256,192,258564,1,0,0:0:0:0:
256,192,258613,1,0,0:0:0:0:
256,192,258663,1,8,0:0:0:0:
256,192,259162,1,8,0:0:0:0:
256,192,259211,1,0,0:0:0:0:
256,192,259261,1,0,0:0:0:0:
256,192,259311,1,0,0:0:0:0:
256,192,259361,1,8,0:0:0:0:
256,192,259411,1,8,0:0:0:0:
256,192,259461,1,0,0:0:0:0:
256,192,259510,1,0,0:0:0:0:
256,192,259560,1,8,0:0:0:0:
256,192,259610,1,0,0:0:0:0:
256,192,259660,1,8,0:0:0:0:
256,192,259710,1,8,0:0:0:0:
256,192,259760,1,0,0:0:0:0:
256,192,259809,1,0,0:0:0:0:
256,192,259859,1,8,0:0:0:0:
256,192,259892,1,8,0:0:0:0:
256,192,259926,1,8,0:0:0:0:
256,192,259959,1,0,0:0:0:0:
256,192,260009,1,0,0:0:0:0:
256,192,260059,1,8,0:0:0:0:
256,192,260108,1,8,0:0:0:0:
256,192,260158,1,8,0:0:0:0:
256,192,260208,1,8,0:0:0:0:
256,192,260258,1,0,0:0:0:0:
256,192,260308,1,0,0:0:0:0:
256,192,260358,1,8,0:0:0:0:
256,192,260391,1,0,0:0:0:0:
256,192,260424,1,0,0:0:0:0:
256,192,260457,1,8,0:0:0:0:
256,192,260507,1,8,0:0:0:0:
256,192,260557,1,0,0:0:0:0:
256,192,260607,1,0,0:0:0:0:
256,192,260657,1,8,0:0:0:0:
256,192,260690,1,8,0:0:0:0:
256,192,260723,1,8,0:0:0:0:
256,192,260756,1,0,0:0:0:0:
256,192,260956,1,8,0:0:0:0:
256,192,260989,1,8,0:0:0:0:
256,192,261022,1,8,0:0:0:0:
256,192,261055,1,0,0:0:0:0:
256,192,261105,1,0,0:0:0:0:
256,192,261155,1,8,0:0:0:0:
256,192,261205,1,8,0:0:0:0:
256,192,261255,1,0,0:0:0:0:
256,192,261288,1,0,0:0:0:0:
256,192,261321,1,0,0:0:0:0:
256,192,261354,1,8,0:0:0:0:
256,192,261404,1,8,0:0:0:0:
256,192,261454,1,0,0:0:0:0:
256,192,261504,1,0,0:0:0:0:
256,192,261554,1,8,0:0:0:0:
256,192,261587,1,8,0:0:0:0:
256,192,261620,1,8,0:0:0:0:
256,192,261653,1,0,0:0:0:0:
256,192,261703,1,0,0:0:0:0:
256,192,261753,1,8,0:0:0:0:
256,192,261803,1,8,0:0:0:0:
256,192,261853,1,0,0:0:0:0:
256,192,261886,1,0,0:0:0:0:
256,192,261919,1,0,0:0:0:0:
256,192,261952,1,8,0:0:0:0:
256,192,262351,1,8,0:0:0:0:
256,192,262401,1,0,0:0:0:0:
256,192,262451,1,8,0:0:0:0:
256,192,262500,1,8,0:0:0:0:
256,192,262550,1,0,0:0:0:0:
256,192,262600,1,0,0:0:0:0:
256,192,262650,1,8,0:0:0:0:
256,192,262700,1,0,0:0:0:0:
256,192,263148,1,8,0:0:0:0:
256,192,263198,1,0,0:0:0:0:
256,192,263248,1,0,0:0:0:0:
256,192,263298,1,0,0:0:0:0:
256,192,263348,1,8,0:0:0:0:
256,192,263397,1,8,0:0:0:0:
256,192,263447,1,0,0:0:0:0:
256,192,263497,1,8,0:0:0:0:
256,192,263946,1,8,0:0:0:0:
256,192,263979,1,0,0:0:0:0:
256,192,264012,1,0,0:0:0:0:
256,192,264045,1,8,0:0:0:0:
256,192,264095,1,8,0:0:0:0:
256,192,264145,1,0,0:0:0:0:
256,192,264195,1,0,0:0:0:0:
256,192,264245,1,8,0:0:0:0:
256,192,264278,1,8,0:0:0:0:
256,192,264311,1,8,0:0:0:0:
256,192,264344,1,0,0:0:0:0:
256,192,264394,1,0,0:0:0:0:
256,192,264444,1,8,0:0:0:0:
256,192,264494,1,8,0:0:0:0:
256,192,264544,1,0,0:0:0:0:
256,192,264577,1,0,0:0:0:0:
256,192,264610,1,0,0:0:0:0:
256,192,264643,1,8,0:0:0:0:
256,192,264693,1,8,0:0:0:0:
256,192,264743,1,0,0:0:0:0:
256,192,264793,1,0,0:0:0:0:
256,192,264843,1,8,0:0:0:0:
256,192,264876,1,0,0:0:0:0:
256,192,264909,1,0,0:0:0:0:
256,192,264942,1,8,0:0:0:0:
256,192,264992,1,8,0:0:0:0:
256,192,265042,1,0,0:0:0:0:
256,192,265092,1,0,0:0:0:0:
256,192,265142,1,8,0:0:0:0:
256,192,265540,1,4,0:0:0:0:
256,192,265740,1,8,0:0:0:0:
256,192,265839,1,0,0:0:0:0:
256,192,265939,1,8,0:0:0:0:
256,192,266138,1,0,0:0:0:0:
256,192,266238,1,8,0:0:0:0:
256,192,266338,1,8,0:0:0:0:
256,192,266437,1,8,0:0:0:0:
256,192,266537,1,0,0:0:0:0:
256,192,266637,1,0,0:0:0:0:
256,192,266736,1,8,0:0:0:0:
256,192,266836,1,0,0:0:0:0:
256,192,266886,1,0,0:0:0:0:
256,192,266936,1,0,0:0:0:0:
256,192,267035,1,0,0:0:0:0:
256,192,267135,1,8,0:0:0:0:
256,192,267334,1,12,0:0:0:0:
256,192,267434,1,0,0:0:0:0:
256,192,267534,1,12,0:0:0:0:
256,192,267633,1,0,0:0:0:0:
256,192,267733,1,12,0:0:0:0:
256,192,267833,1,0,0:0:0:0:
256,192,267932,1,12,0:0:0:0:
256,192,268032,1,0,0:0:0:0:
256,192,268132,1,12,0:0:0:0:
256,192,268231,1,0,0:0:0:0:
256,192,268331,1,12,0:0:0:0:
256,192,268431,1,12,0:0:0:0:
256,192,268730,1,8,0:0:0:0:
256,192,268779,1,0,0:0:0:0:
256,192,268829,1,8,0:0:0:0:
256,192,268879,1,8,0:0:0:0:
256,192,268929,1,0,0:0:0:0:
256,192,268979,1,0,0:0:0:0:
256,192,269029,1,8,0:0:0:0:
256,192,269078,1,8,0:0:0:0:
256,192,269128,1,0,0:0:0:0:
256,192,269228,1,8,0:0:0:0:
256,192,269278,1,8,0:0:0:0:
256,192,269328,1,0,0:0:0:0:
256,192,269377,1,0,0:0:0:0:
256,192,269427,1,0,0:0:0:0:
256,192,269527,1,8,0:0:0:0:
256,192,269577,1,0,0:0:0:0:
256,192,269677,1,8,0:0:0:0:
256,192,269726,1,8,0:0:0:0:
256,192,269826,1,0,0:0:0:0:
256,192,269876,1,0,0:0:0:0:
256,192,269926,1,8,0:0:0:0:
256,192,269976,1,0,0:0:0:0:
256,192,270025,1,8,0:0:0:0:
256,192,270075,1,8,0:0:0:0:
256,192,270125,1,0,0:0:0:0:
256,192,270191,1,0,0:0:0:0:
256,192,270258,1,0,0:0:0:0:
256,192,270324,1,12,0:0:0:0:
256,192,270424,1,0,0:0:0:0:
256,192,270474,1,0,0:0:0:0:
256,192,270524,1,8,0:0:0:0:
256,192,270623,1,8,0:0:0:0:
256,192,270723,1,0,0:0:0:0:
256,192,270823,1,8,0:0:0:0:
256,192,270873,1,0,0:0:0:0:
256,192,270922,1,8,0:0:0:0:
256,192,271022,1,8,0:0:0:0:
256,192,271122,1,0,0:0:0:0:
256,192,271172,1,8,0:0:0:0:
256,192,271221,1,8,0:0:0:0:
256,192,271271,1,8,0:0:0:0:
256,192,271321,1,0,0:0:0:0:
256,192,271371,1,8,0:0:0:0:
256,192,271421,1,0,0:0:0:0:
256,192,271471,1,0,0:0:0:0:
256,192,271520,1,8,0:0:0:0:
256,192,271620,1,0,0:0:0:0:
256,192,271670,1,0,0:0:0:0:
256,192,271720,1,0,0:0:0:0:
256,192,271819,1,0,0:0:0:0:
256,192,271919,1,12,0:0:0:0:
256,192,272118,1,0,0:0:0:0:
256,192,272218,1,0,0:0:0:0:
256,192,272318,1,8,0:0:0:0:
256,192,272517,1,0,0:0:0:0:
256,192,272617,1,0,0:0:0:0:
256,192,272716,1,8,0:0:0:0:
256,192,272766,1,8,0:0:0:0:
256,192,272816,1,8,0:0:0:0:
256,192,272916,1,0,0:0:0:0:
256,192,272966,1,0,0:0:0:0:
256,192,273015,1,8,0:0:0:0:
256,192,273115,1,0,0:0:0:0:
256,192,273165,1,8,0:0:0:0:
256,192,273215,1,8,0:0:0:0:
256,192,273265,1,0,0:0:0:0:
256,192,273314,1,8,0:0:0:0:
256,192,273414,1,8,0:0:0:0:
256,192,273514,1,4,0:0:0:0:
256,192,273713,1,8,0:0:0:0:
256,192,273813,1,0,0:0:0:0:
256,192,273912,1,8,0:0:0:0:
256,192,274112,1,0,0:0:0:0:
256,192,274211,1,0,0:0:0:0:
256,192,274311,1,8,0:0:0:0:
256,192,274411,1,0,0:0:0:0:
256,192,274461,1,0,0:0:0:0:
256,192,274510,1,8,0:0:0:0:
256,192,274610,1,0,0:0:0:0:
256,192,274710,1,8,0:0:0:0:
256,192,274760,1,8,0:0:0:0:
256,192,274809,1,0,0:0:0:0:
256,192,275108,1,12,0:0:0:0:
256,192,275308,1,0,0:0:0:0:
256,192,275407,1,0,0:0:0:0:
256,192,275507,1,8,0:0:0:0:
256,192,275706,1,8,0:0:0:0:
256,192,275806,1,8,0:0:0:0:
256,192,275906,1,4,0:0:0:0:
256,192,276105,1,8,0:0:0:0:
256,192,276205,1,0,0:0:0:0:
256,192,276304,1,8,0:0:0:0:
256,192,276504,1,0,0:0:0:0:
256,192,276603,1,0,0:0:0:0:
256,192,276703,1,8,0:0:0:0:
256,192,276753,1,8,0:0:0:0:
256,192,276803,1,0,0:0:0:0:
256,192,276853,1,0,0:0:0:0:
256,192,276902,1,8,0:0:0:0:
256,192,277002,1,0,0:0:0:0:
256,192,277052,1,0,0:0:0:0:
256,192,277102,1,8,0:0:0:0:
256,192,277152,1,8,0:0:0:0:
256,192,277201,1,0,0:0:0:0:
256,192,277301,1,8,0:0:0:0:
256,192,277351,1,8,0:0:0:0:
256,192,277401,1,8,0:0:0:0:
256,192,277451,1,8,0:0:0:0:
256,192,277500,1,0,0:0:0:0:
256,192,279095,1,8,0:0:0:0:
256,192,279195,1,0,0:0:0:0:
256,192,279294,1,8,0:0:0:0:
256,192,279394,1,8,0:0:0:0:
256,192,279494,1,0,0:0:0:0:
256,192,279560,1,0,0:0:0:0:
256,192,279627,1,0,0:0:0:0:
256,192,279693,1,0,0:0:0:0:
256,192,279760,1,0,0:0:0:0:
256,192,279826,1,0,0:0:0:0:
256,192,279892,1,12,0:0:0:0:
256,192,279992,1,0,0:0:0:0:
256,192,280042,1,0,0:0:0:0:
256,192,280092,1,8,0:0:0:0:
256,192,280191,1,0,0:0:0:0:
256,192,280291,1,8,0:0:0:0:
256,192,280341,1,8,0:0:0:0:
256,192,280391,1,0,0:0:0:0:
256,192,280490,1,0,0:0:0:0:
256,192,280590,1,8,0:0:0:0:
256,192,280640,1,8,0:0:0:0:
256,192,280690,1,8,0:0:0:0:
256,192,280789,1,0,0:0:0:0:
256,192,280839,1,8,0:0:0:0:
256,192,280889,1,0,0:0:0:0:
256,192,280939,1,0,0:0:0:0:
256,192,280989,1,8,0:0:0:0:
256,192,281039,1,8,0:0:0:0:
256,192,281088,1,0,0:0:0:0:
256,192,281138,1,0,0:0:0:0:
256,192,281188,1,8,0:0:0:0:
256,192,281238,1,0,0:0:0:0:
256,192,281288,1,8,0:0:0:0:
256,192,281387,1,0,0:0:0:0:
256,192,281487,1,8,0:0:0:0:
256,192,281587,1,0,0:0:0:0:
256,192,281637,1,0,0:0:0:0:
256,192,281686,1,8,0:0:0:0:
256,192,281786,1,0,0:0:0:0:
256,192,281836,1,8,0:0:0:0:
256,192,281886,1,8,0:0:0:0:
256,192,281936,1,0,0:0:0:0:
256,192,281985,1,8,0:0:0:0:
256,192,282085,1,8,0:0:0:0:
256,192,282185,1,0,0:0:0:0:
256,192,282384,1,8,0:0:0:0:
256,192,282484,1,0,0:0:0:0:
256,192,282583,1,0,0:0:0:0:
256,192,282683,1,8,0:0:0:0:
256,192,282733,1,8,0:0:0:0:
256,192,282783,1,8,0:0:0:0:
256,192,282833,1,0,0:0:0:0:
256,192,283082,1,8,0:0:0:0:
256,192,283132,1,8,0:0:0:0:
256,192,283181,1,0,0:0:0:0:
256,192,283231,1,0,0:0:0:0:
256,192,283281,1,8,0:0:0:0:
256,192,283381,1,8,0:0:0:0:
256,192,283480,1,0,0:0:0:0:
256,192,283530,1,0,0:0:0:0:
256,192,283580,1,8,0:0:0:0:
256,192,283630,1,8,0:0:0:0:
256,192,283680,1,0,0:0:0:0:
256,192,283779,1,8,0:0:0:0:
256,192,283829,1,8,0:0:0:0:
256,192,283879,1,0,0:0:0:0:
256,192,283979,1,8,0:0:0:0:
256,192,284029,1,0,0:0:0:0:
256,192,284078,1,8,0:0:0:0:
256,192,284128,1,8,0:0:0:0:
256,192,284178,1,0,0:0:0:0:
256,192,284278,1,0,0:0:0:0:
256,192,284377,1,8,0:0:0:0:
256,192,284427,1,8,0:0:0:0:
256,192,284477,1,8,0:0:0:0:
256,192,284577,1,0,0:0:0:0:
256,192,284627,1,0,0:0:0:0:
256,192,284677,1,8,0:0:0:0:
256,192,284776,1,8,0:0:0:0:
256,192,284876,1,0,0:0:0:0:
256,192,284976,1,8,0:0:0:0:
256,192,285075,1,0,0:0:0:0:
256,192,285175,1,8,0:0:0:0:
256,192,285275,1,0,0:0:0:0:
256,192,285374,1,8,0:0:0:0:
256,192,285424,1,8,0:0:0:0:
256,192,285474,1,4,0:0:0:0:
256,192,285623,1,4,0:0:0:0:
256,192,285773,1,4,0:0:0:0:
256,192,285873,1,12,0:0:0:0:
256,192,286271,1,0,0:0:0:0:
256,192,286321,1,0,0:0:0:0:
256,192,286371,1,8,0:0:0:0:
256,192,286421,1,8,0:0:0:0:
256,192,286471,1,0,0:0:0:0:
256,192,286520,1,8,0:0:0:0:
256,192,286570,1,0,0:0:0:0:
256,192,286620,1,0,0:0:0:0:
256,192,286670,1,8,0:0:0:0:
256,192,286720,1,8,0:0:0:0:
256,192,286770,1,8,0:0:0:0:
256,192,286819,1,8,0:0:0:0:
256,192,286869,1,0,0:0:0:0:
256,192,286919,1,0,0:0:0:0:
256,192,286969,1,8,0:0:0:0:
256,192,287019,1,8,0:0:0:0:
256,192,287069,1,0,0:0:0:0:
256,192,287118,1,0,0:0:0:0:
256,192,287168,1,8,0:0:0:0:
256,192,287218,1,0,0:0:0:0:
256,192,287268,1,8,0:0:0:0:
256,192,287318,1,8,0:0:0:0:
256,192,287368,1,0,0:0:0:0:
256,192,287417,1,0,0:0:0:0:
256,192,287467,1,8,0:0:0:0:
256,192,287567,1,0,0:0:0:0:
256,192,287617,1,0,0:0:0:0:
256,192,287667,1,0,0:0:0:0:
256,192,287766,1,0,0:0:0:0:
256,192,287866,1,8,0:0:0:0:
256,192,287916,1,8,0:0:0:0:
256,192,287966,1,0,0:0:0:0:
256,192,288015,1,0,0:0:0:0:
256,192,288065,1,8,0:0:0:0:
256,192,288115,1,0,0:0:0:0:
256,192,288165,1,8,0:0:0:0:
256,192,288215,1,8,0:0:0:0:
256,192,288265,1,0,0:0:0:0:
256,192,288314,1,0,0:0:0:0:
256,192,288364,1,8,0:0:0:0:
256,192,288414,1,8,0:0:0:0:
256,192,288464,1,0,0:0:0:0:
256,192,288564,1,0,0:0:0:0:
256,192,288663,1,8,0:0:0:0:
256,192,288696,1,0,0:0:0:0:
256,192,288730,1,0,0:0:0:0:
256,192,288763,1,8,0:0:0:0:
256,192,288813,1,8,0:0:0:0:
256,192,288863,1,0,0:0:0:0:
256,192,288962,1,8,0:0:0:0:
256,192,288995,1,0,0:0:0:0:
256,192,289029,1,0,0:0:0:0:
256,192,289062,1,8,0:0:0:0:
256,192,289112,1,8,0:0:0:0:
256,192,289162,1,0,0:0:0:0:
256,192,289261,1,8,0:0:0:0:
256,192,289461,1,0,0:0:0:0:
256,192,289510,1,0,0:0:0:0:
256,192,289560,1,8,0:0:0:0:
256,192,289610,1,8,0:0:0:0:
256,192,289660,1,0,0:0:0:0:
256,192,289760,1,8,0:0:0:0:
256,192,289959,1,0,0:0:0:0:
256,192,290059,1,8,0:0:0:0:
256,192,290158,1,8,0:0:0:0:
256,192,290258,1,0,0:0:0:0:
256,192,290358,1,8,0:0:0:0:
256,192,290407,1,0,0:0:0:0:
256,192,290457,1,8,0:0:0:0:
256,192,290507,1,8,0:0:0:0:
256,192,290557,1,0,0:0:0:0:
256,192,290657,1,8,0:0:0:0:
256,192,290706,1,8,0:0:0:0:
256,192,290756,1,0,0:0:0:0:
256,192,291055,1,8,0:0:0:0:
256,192,291088,1,8,0:0:0:0:
256,192,291122,1,8,0:0:0:0:
256,192,291155,1,0,0:0:0:0:
256,192,291205,1,0,0:0:0:0:
256,192,291255,1,0,0:0:0:0:
256,192,291354,1,8,0:0:0:0:
256,192,291387,1,8,0:0:0:0:
256,192,291421,1,8,0:0:0:0:
256,192,291454,1,0,0:0:0:0:
256,192,291504,1,0,0:0:0:0:
256,192,291554,1,0,0:0:0:0:
256,192,291653,1,8,0:0:0:0:
256,192,291686,1,8,0:0:0:0:
256,192,291753,1,8,0:0:0:0:
256,192,291786,1,8,0:0:0:0:
256,192,291853,1,0,0:0:0:0:
256,192,291952,1,8,0:0:0:0:
256,192,292002,1,8,0:0:0:0:
256,192,292052,1,0,0:0:0:0:
256,192,292152,1,8,0:0:0:0:
256,192,292251,1,0,0:0:0:0:
256,192,292351,1,0,0:0:0:0:
256,192,292451,1,8,0:0:0:0:
256,192,292650,1,4,0:0:0:0:
256,192,292949,1,0,0:0:0:0:
256,192,293048,1,8,0:0:0:0:
256,192,293248,1,0,0:0:0:0:
256,192,293447,1,8,0:0:0:0:
256,192,293547,1,8,0:0:0:0:
256,192,293646,1,0,0:0:0:0:
256,192,293746,1,0,0:0:0:0:
256,192,293846,1,8,0:0:0:0:
256,192,294045,1,0,0:0:0:0:
256,192,294244,1,8,0:0:0:0:
256,192,294543,1,8,0:0:0:0:
256,192,294643,1,0,0:0:0:0:
256,192,294842,1,8,0:0:0:0:
256,192,295042,1,0,0:0:0:0:
256,192,295141,1,8,0:0:0:0:
256,192,295241,1,0,0:0:0:0:
256,192,295341,1,0,0:0:0:0:
256,192,295440,1,8,0:0:0:0:
256,192,295640,1,8,0:0:0:0:
256,192,295839,1,0,0:0:0:0:
256,192,296138,1,0,0:0:0:0:
256,192,296238,1,8,0:0:0:0:
256,192,296437,1,0,0:0:0:0:
256,192,296636,1,8,0:0:0:0:
256,192,296736,1,8,0:0:0:0:
256,192,296836,1,8,0:0:0:0:
256,192,296935,1,0,0:0:0:0:
256,192,297035,1,8,0:0:0:0:
256,192,297234,1,0,0:0:0:0:
256,192,297434,1,8,0:0:0:0:
256,192,297533,1,0,0:0:0:0:
256,192,297733,1,0,0:0:0:0:
256,192,297832,1,8,0:0:0:0:
256,192,298032,1,0,0:0:0:0:
256,192,298231,1,8,0:0:0:0:
256,192,298331,1,0,0:0:0:0:
256,192,298430,1,8,0:0:0:0:
256,192,298530,1,8,0:0:0:0:
256,192,298630,1,0,0:0:0:0:
256,192,298696,1,0,0:0:0:0:
256,192,298762,1,0,0:0:0:0:
256,192,298829,1,0,0:0:0:0:
256,192,298895,1,0,0:0:0:0:
256,192,298962,1,0,0:0:0:0:
256,192,299028,1,8,0:0:0:0:
256,192,299228,1,0,0:0:0:0:
256,192,299327,1,0,0:0:0:0:
256,192,299427,1,8,0:0:0:0:
256,192,299626,1,0,0:0:0:0:
256,192,299826,1,8,0:0:0:0:
256,192,299925,1,0,0:0:0:0:
256,192,300025,1,0,0:0:0:0:
256,192,300125,1,0,0:0:0:0:
256,192,300224,1,8,0:0:0:0:
256,192,300424,1,8,0:0:0:0:
256,192,300523,1,8,0:0:0:0:
256,192,300623,1,0,0:0:0:0:
256,192,300922,1,0,0:0:0:0:
256,192,301022,1,8,0:0:0:0:
256,192,301221,1,0,0:0:0:0:
256,192,301420,1,8,0:0:0:0:
256,192,301520,1,8,0:0:0:0:
256,192,301620,1,0,0:0:0:0:
256,192,301719,1,0,0:0:0:0:
256,192,301819,1,8,0:0:0:0:
256,192,302018,1,8,0:0:0:0:
256,192,302218,1,0,0:0:0:0:
256,192,302417,1,8,0:0:0:0:
256,192,302517,1,0,0:0:0:0:
256,192,302616,1,8,0:0:0:0:
256,192,302816,1,0,0:0:0:0:
256,192,303015,1,8,0:0:0:0:
256,192,303065,1,8,0:0:0:0:
256,192,303115,1,0,0:0:0:0:
256,192,303214,1,0,0:0:0:0:
256,192,303314,1,8,0:0:0:0:
256,192,303364,1,8,0:0:0:0:
256,192,303414,1,8,0:0:0:0:
256,192,303513,1,8,0:0:0:0:
256,192,303613,1,0,0:0:0:0:
256,192,303663,1,0,0:0:0:0:
256,192,303713,1,0,0:0:0:0:
256,192,303762,1,0,0:0:0:0:
256,192,303812,1,8,0:0:0:0:
256,192,304111,1,8,0:0:0:0:
256,192,304211,1,0,0:0:0:0:
256,192,304410,1,8,0:0:0:0:
256,192,304610,1,0,0:0:0:0:
256,192,304709,1,8,0:0:0:0:
256,192,304809,1,0,0:0:0:0:
256,192,304859,1,0,0:0:0:0:
256,192,304909,1,8,0:0:0:0:
256,192,304958,1,8,0:0:0:0:
256,192,305008,1,0,0:0:0:0:
256,192,305058,1,0,0:0:0:0:
256,192,305108,1,8,0:0:0:0:
256,192,305158,1,8,0:0:0:0:
256,192,305208,1,0,0:0:0:0:
256,192,305307,1,0,0:0:0:0:
256,192,305407,1,12,0:0:0:0:
256,192,308197,8,0,309792,0:0:0:0:
256,192,310191,5,8,0:0:0:0:
256,192,310240,1,8,0:0:0:0:
256,192,310290,1,0,0:0:0:0:
256,192,310340,1,0,0:0:0:0:
256,192,310390,1,8,0:0:0:0:
256,192,310440,1,8,0:0:0:0:
256,192,310490,1,8,0:0:0:0:
256,192,310539,1,8,0:0:0:0:
256,192,310589,1,0,0:0:0:0:
256,192,310639,1,8,0:0:0:0:
256,192,310689,1,0,0:0:0:0:
256,192,310739,1,0,0:0:0:0:
256,192,310789,1,8,0:0:0:0:
256,192,310838,1,8,0:0:0:0:
256,192,310888,1,0,0:0:0:0:
256,192,310938,1,0,0:0:0:0:
256,192,310988,1,8,0:0:0:0:
256,192,311038,1,8,0:0:0:0:
256,192,311088,1,0,0:0:0:0:
256,192,311137,1,0,0:0:0:0:
256,192,311187,1,8,0:0:0:0:
256,192,311237,1,8,0:0:0:0:
256,192,311287,1,8,0:0:0:0:
256,192,311337,1,8,0:0:0:0:
256,192,311387,1,0,0:0:0:0:
256,192,311436,1,8,0:0:0:0:
256,192,311486,1,0,0:0:0:0:
256,192,311536,1,0,0:0:0:0:
256,192,311586,1,8,0:0:0:0:
256,192,311636,1,8,0:0:0:0:
256,192,311686,1,0,0:0:0:0:
256,192,311735,1,0,0:0:0:0:
256,192,311785,1,12,0:0:0:0:
