osu file format v14

[General]
AudioFilename: audio.mp3
AudioLeadIn: 0
PreviewTime: 161040
Countdown: 0
SampleSet: Soft
StackLeniency: 0.7
Mode: 3
LetterboxInBreaks: 0
SpecialStyle: 0
WidescreenStoryboard: 1

[Editor]
Bookmarks: 55908,72672,127908,137790,184378
DistanceSpacing: 1.5
BeatDivisor: 16
GridSize: 4
TimelineZoom: 2.1

[Metadata]
Title:Cafe + M!lk + Chocolate
TitleUnicode:Café + M!lk + Chocolate
Artist:DJ Raisei
ArtistUnicode:DJ Raisei
Creator:Vincus
Version:Maxim's Hot M!lk {Extra}
Source:
Tags:FA Featured artist Vocals Vocal Hybrid LN milk GBC 5 Maxim-Miau Futurecore German Beatmapping Contest 限界音楽村 GenkaiMusicVillage Genkai Music Village Marble らいせい Japanese Electronic
BeatmapID:4018735
BeatmapSetID:1884877

[Difficulty]
HPDrainRate:8.5
CircleSize:4
OverallDifficulty:7.3
ApproachRate:5
SliderMultiplier:1.4
SliderTickRate:1

[Events]
//Background and Video events
0,0,"cmc.jpg",0,0
//Break Periods
//Storyboard Layer 0 (Background)
//Storyboard Layer 1 (Fail)
//Storyboard Layer 2 (Pass)
//Storyboard Layer 3 (Foreground)
//Storyboard Layer 4 (Overlay)
//Storyboard Sound Samples

[TimingPoints]
3673,352.941176470588,4,2,1,80,1,0
37555,-100,4,2,1,80,0,1
48143,-100,4,2,1,80,0,0
48849,-100,4,2,1,80,0,1
59437,-100,4,2,1,80,0,0
60143,-100,4,2,1,80,0,1
70731,-100,4,2,1,80,0,0
71437,-100,4,2,1,80,0,1
82731,-100,4,2,1,80,0,0
94025,-100,4,2,1,80,0,1
104967,-100,4,2,1,80,0,0
105320,-100,4,2,1,80,0,1
116614,-100,4,2,1,80,0,0
161790,-100,4,2,1,80,0,1
173084,-100,4,2,1,80,0,0

[HitObjects]
320,192,3673,128,0,5084:0:0:0:0:
192,192,3673,128,0,3761:0:0:0:0:
64,192,3673,128,0,3731:0:0:0:0:
64,192,4025,128,0,4378:0:0:0:0:
448,192,4378,128,0,4731:0:0:0:0:
64,192,4731,128,0,5437:0:0:0:0:
192,192,5084,128,0,6496:0:0:0:0:
448,192,5084,128,0,5172:0:0:0:0:
448,192,5437,128,0,5790:0:0:0:0:
64,192,5790,128,0,5967:0:0:0:0:
320,192,5967,128,0,6143:0:0:0:0:
448,192,6143,128,0,6320:0:0:0:0:
320,192,6320,128,0,6496:0:0:0:0:
448,192,6496,128,0,7908:0:0:0:0:
64,192,6496,128,0,6584:0:0:0:0:
64,192,6849,128,0,7202:0:0:0:0:
320,192,7202,128,0,7555:0:0:0:0:
192,192,7555,128,0,8261:0:0:0:0:
320,192,7908,128,0,9320:0:0:0:0:
64,192,7908,128,0,7996:0:0:0:0:
64,192,8261,128,0,8614:0:0:0:0:
448,192,8614,128,0,8790:0:0:0:0:
192,192,8790,128,0,8967:0:0:0:0:
448,192,8967,128,0,9143:0:0:0:0:
64,192,9143,128,0,9320:0:0:0:0:
192,192,9320,128,0,10731:0:0:0:0:
448,192,9320,128,0,9408:0:0:0:0:
64,192,9672,128,0,10025:0:0:0:0:
320,192,10025,128,0,10378:0:0:0:0:
64,192,10378,128,0,10555:0:0:0:0:
448,192,10555,128,0,11084:0:0:0:0:
64,192,10731,128,0,11437:0:0:0:0:
320,192,10731,128,0,10820:0:0:0:0:
192,192,11084,128,0,11437:0:0:0:0:
320,192,11437,128,0,12143:0:0:0:0:
448,192,11437,128,0,11525:0:0:0:0:
448,192,11614,128,0,11790:0:0:0:0:
64,192,11790,128,0,11967:0:0:0:0:
192,192,11967,128,0,12055:0:0:0:0:
192,192,12143,128,0,12849:0:0:0:0:
448,192,12143,128,0,12231:0:0:0:0:
320,192,12496,128,0,12672:0:0:0:0:
448,192,12672,128,0,13202:0:0:0:0:
64,192,12849,128,0,13555:0:0:0:0:
320,192,12849,128,0,12937:0:0:0:0:
320,192,13202,128,0,13555:0:0:0:0:
192,192,13555,128,0,13820:0:0:0:0:
448,192,13555,128,0,13643:0:0:0:0:
320,192,13731,128,0,13908:0:0:0:0:
64,192,13908,128,0,13996:0:0:0:0:
192,192,13996,128,0,14084:0:0:0:0:
64,192,14084,128,0,14172:0:0:0:0:
320,192,14172,128,0,14261:0:0:0:0:
448,192,14261,128,0,14349:0:0:0:0:
64,192,14261,128,0,14320:0:0:0:0:
320,192,14349,128,0,14437:0:0:0:0:
448,192,14437,128,0,14525:0:0:0:0:
192,192,14525,128,0,14614:0:0:0:0:
320,192,14614,128,0,14702:0:0:0:0:
64,192,14702,128,0,14790:0:0:0:0:
192,192,14790,128,0,14878:0:0:0:0:
64,192,14878,128,0,14967:0:0:0:0:
192,192,14967,1,0,0:0:0:0:
320,192,14967,128,0,15025:0:0:0:0:
448,192,14967,128,0,15055:0:0:0:0:
64,192,15143,1,0,0:0:0:0:
448,192,15320,1,0,0:0:0:0:
320,192,15364,1,0,0:0:0:0:
192,192,15408,1,0,0:0:0:0:
64,192,15452,1,0,0:0:0:0:
320,192,15496,1,0,0:0:0:0:
448,192,15496,1,0,0:0:0:0:
192,192,15584,1,0,0:0:0:0:
64,192,15672,1,0,0:0:0:0:
448,192,15695,1,0,0:0:0:0:
320,192,15761,1,0,0:0:0:0:
64,192,15849,1,0,0:0:0:0:
320,192,15937,1,0,0:0:0:0:
192,192,16025,1,0,0:0:0:0:
448,192,16114,1,0,0:0:0:0:
64,192,16202,1,0,0:0:0:0:
320,192,16202,1,0,0:0:0:0:
192,192,16290,1,0,0:0:0:0:
320,192,16378,128,0,16437:0:0:0:0:
448,192,16378,128,0,16467:0:0:0:0:
64,192,16467,1,0,0:0:0:0:
192,192,16555,1,0,0:0:0:0:
320,192,16643,1,0,0:0:0:0:
64,192,16731,1,0,0:0:0:0:
448,192,16820,1,0,0:0:0:0:
192,192,16908,1,0,0:0:0:0:
64,192,16908,1,0,0:0:0:0:
320,192,16996,1,0,0:0:0:0:
192,192,17084,128,0,17143:0:0:0:0:
448,192,17106,128,0,17195:0:0:0:0:
64,192,17172,1,0,0:0:0:0:
320,192,17261,1,0,0:0:0:0:
192,192,17349,1,0,0:0:0:0:
64,192,17437,1,0,0:0:0:0:
448,192,17525,1,0,0:0:0:0:
320,192,17614,1,0,0:0:0:0:
448,192,17702,1,0,0:0:0:0:
64,192,17790,128,0,17878:0:0:0:0:
192,192,17790,128,0,17849:0:0:0:0:
192,192,17967,1,0,0:0:0:0:
64,192,18143,1,0,0:0:0:0:
448,192,18231,1,0,0:0:0:0:
192,192,18320,1,0,0:0:0:0:
64,192,18320,1,0,0:0:0:0:
320,192,18408,1,0,0:0:0:0:
192,192,18496,1,0,0:0:0:0:
448,192,18518,1,0,0:0:0:0:
64,192,18584,1,0,0:0:0:0:
320,192,18672,1,0,0:0:0:0:
64,192,18761,1,0,0:0:0:0:
448,192,18849,1,0,0:0:0:0:
192,192,18937,1,0,0:0:0:0:
448,192,19025,1,0,0:0:0:0:
320,192,19025,1,0,0:0:0:0:
64,192,19114,1,0,0:0:0:0:
192,192,19202,128,0,19290:0:0:0:0:
320,192,19202,128,0,19261:0:0:0:0:
448,192,19290,1,0,0:0:0:0:
64,192,19378,1,0,0:0:0:0:
320,192,19467,1,0,0:0:0:0:
192,192,19555,1,0,0:0:0:0:
448,192,19643,1,0,0:0:0:0:
320,192,19731,1,0,0:0:0:0:
64,192,19731,1,0,0:0:0:0:
192,192,19820,1,0,0:0:0:0:
448,192,19908,128,0,19967:0:0:0:0:
320,192,19930,128,0,20018:0:0:0:0:
64,192,19996,1,0,0:0:0:0:
192,192,20084,1,0,0:0:0:0:
448,192,20172,1,0,0:0:0:0:
64,192,20261,1,0,0:0:0:0:
320,192,20349,1,0,0:0:0:0:
192,192,20437,1,0,0:0:0:0:
320,192,20525,1,0,0:0:0:0:
448,192,20614,128,0,20672:0:0:0:0:
64,192,20614,128,0,20702:0:0:0:0:
448,192,20790,1,0,0:0:0:0:
64,192,20967,1,0,0:0:0:0:
320,192,21011,1,0,0:0:0:0:
192,192,21055,1,0,0:0:0:0:
448,192,21099,1,0,0:0:0:0:
64,192,21143,1,0,0:0:0:0:
192,192,21143,1,0,0:0:0:0:
320,192,21231,1,0,0:0:0:0:
448,192,21320,1,0,0:0:0:0:
64,192,21342,1,0,0:0:0:0:
320,192,21408,1,0,0:0:0:0:
192,192,21496,1,0,0:0:0:0:
448,192,21584,1,0,0:0:0:0:
192,192,21672,1,0,0:0:0:0:
320,192,21761,1,0,0:0:0:0:
448,192,21849,1,0,0:0:0:0:
64,192,21849,1,0,0:0:0:0:
192,192,21937,1,0,0:0:0:0:
320,192,22025,128,0,22084:0:0:0:0:
448,192,22025,128,0,22114:0:0:0:0:
64,192,22114,1,0,0:0:0:0:
192,192,22202,1,0,0:0:0:0:
64,192,22290,1,0,0:0:0:0:
320,192,22378,1,0,0:0:0:0:
192,192,22467,1,0,0:0:0:0:
320,192,22555,1,0,0:0:0:0:
448,192,22555,1,0,0:0:0:0:
64,192,22643,1,0,0:0:0:0:
192,192,22731,1,0,0:0:0:0:
448,192,22753,1,0,0:0:0:0:
320,192,22820,1,0,0:0:0:0:
64,192,22908,1,0,0:0:0:0:
448,192,22996,1,0,0:0:0:0:
192,192,23084,1,0,0:0:0:0:
320,192,23172,1,0,0:0:0:0:
448,192,23261,1,0,0:0:0:0:
320,192,23349,1,0,0:0:0:0:
192,192,23437,128,0,23496:0:0:0:0:
64,192,23437,128,0,23525:0:0:0:0:
448,192,23496,128,0,23555:0:0:0:0:
320,192,23555,128,0,23614:0:0:0:0:
192,192,23614,128,0,23967:0:0:0:0:
320,192,23790,1,0,0:0:0:0:
64,192,23878,1,0,0:0:0:0:
448,192,23967,1,0,0:0:0:0:
320,192,23967,1,0,0:0:0:0:
192,192,24055,1,0,0:0:0:0:
448,192,24143,128,0,24202:0:0:0:0:
64,192,24165,128,0,24253:0:0:0:0:
320,192,24202,128,0,24261:0:0:0:0:
192,192,24261,128,0,24320:0:0:0:0:
448,192,24320,128,0,24672:0:0:0:0:
64,192,24408,1,0,0:0:0:0:
320,192,24496,1,0,0:0:0:0:
192,192,24584,1,0,0:0:0:0:
64,192,24672,1,0,0:0:0:0:
320,192,24672,1,0,0:0:0:0:
192,192,24761,1,0,0:0:0:0:
448,192,24849,128,0,24908:0:0:0:0:
320,192,24849,128,0,24937:0:0:0:0:
64,192,24908,128,0,24967:0:0:0:0:
192,192,24967,128,0,25025:0:0:0:0:
320,192,25025,128,0,25114:0:0:0:0:
448,192,25114,128,0,25202:0:0:0:0:
64,192,25202,128,0,25290:0:0:0:0:
192,192,25290,128,0,25378:0:0:0:0:
448,192,25378,1,0,0:0:0:0:
320,192,25378,128,0,25467:0:0:0:0:
192,192,25467,128,0,25555:0:0:0:0:
64,192,25555,1,0,0:0:0:0:
448,192,25577,1,0,0:0:0:0:
192,192,25643,1,0,0:0:0:0:
448,192,25731,1,0,0:0:0:0:
320,192,25731,1,0,0:0:0:0:
320,192,25820,1,0,0:0:0:0:
448,192,25820,1,0,0:0:0:0:
192,192,25908,1,0,0:0:0:0:
64,192,25908,1,0,0:0:0:0:
320,192,25996,1,0,0:0:0:0:
448,192,25996,1,0,0:0:0:0:
320,192,26084,1,0,0:0:0:0:
448,192,26084,1,0,0:0:0:0:
64,192,26172,1,0,0:0:0:0:
192,192,26261,1,0,0:0:0:0:
448,192,26261,1,0,0:0:0:0:
320,192,26261,1,0,0:0:0:0:
192,192,26437,1,0,0:0:0:0:
64,192,26614,1,0,0:0:0:0:
448,192,26614,1,0,0:0:0:0:
320,192,26702,1,0,0:0:0:0:
192,192,26746,1,0,0:0:0:0:
64,192,26790,1,0,0:0:0:0:
448,192,26878,1,0,0:0:0:0:
64,192,26967,1,0,0:0:0:0:
192,192,26967,1,0,0:0:0:0:
320,192,26967,1,0,0:0:0:0:
448,192,27143,1,0,0:0:0:0:
192,192,27231,1,0,0:0:0:0:
320,192,27231,1,0,0:0:0:0:
64,192,27320,1,0,0:0:0:0:
320,192,27320,1,0,0:0:0:0:
448,192,27320,1,0,0:0:0:0:
192,192,27496,1,0,0:0:0:0:
64,192,27496,1,0,0:0:0:0:
320,192,27584,1,0,0:0:0:0:
64,192,27672,1,0,0:0:0:0:
448,192,27672,1,0,0:0:0:0:
192,192,27672,1,0,0:0:0:0:
448,192,27849,1,0,0:0:0:0:
64,192,28025,1,0,0:0:0:0:
192,192,28025,1,0,0:0:0:0:
320,192,28025,1,0,0:0:0:0:
192,192,28202,1,0,0:0:0:0:
320,192,28290,1,0,0:0:0:0:
448,192,28378,1,0,0:0:0:0:
192,192,28378,1,0,0:0:0:0:
64,192,28378,1,0,0:0:0:0:
448,192,28555,1,0,0:0:0:0:
192,192,28643,1,0,0:0:0:0:
320,192,28643,1,0,0:0:0:0:
320,192,28731,1,0,0:0:0:0:
448,192,28731,1,0,0:0:0:0:
64,192,28731,1,0,0:0:0:0:
192,192,28908,1,0,0:0:0:0:
320,192,28908,1,0,0:0:0:0:
64,192,29084,1,0,0:0:0:0:
192,192,29084,1,0,0:0:0:0:
320,192,29084,1,0,0:0:0:0:
64,192,29261,1,0,0:0:0:0:
192,192,29437,1,0,0:0:0:0:
320,192,29437,1,0,0:0:0:0:
448,192,29437,1,0,0:0:0:0:
448,192,29614,1,0,0:0:0:0:
192,192,29702,1,0,0:0:0:0:
64,192,29790,1,0,0:0:0:0:
320,192,29790,1,0,0:0:0:0:
448,192,29790,1,0,0:0:0:0:
192,192,29967,1,0,0:0:0:0:
448,192,30055,1,0,0:0:0:0:
320,192,30055,1,0,0:0:0:0:
64,192,30143,1,0,0:0:0:0:
192,192,30143,1,0,0:0:0:0:
320,192,30143,1,0,0:0:0:0:
64,192,30320,1,0,0:0:0:0:
448,192,30320,1,0,0:0:0:0:
320,192,30408,1,0,0:0:0:0:
64,192,30496,1,0,0:0:0:0:
192,192,30496,1,0,0:0:0:0:
448,192,30496,1,0,0:0:0:0:
192,192,30672,1,0,0:0:0:0:
64,192,30849,1,0,0:0:0:0:
320,192,30849,1,0,0:0:0:0:
448,192,30849,1,0,0:0:0:0:
320,192,31025,1,0,0:0:0:0:
192,192,31202,1,0,0:0:0:0:
64,192,31202,1,0,0:0:0:0:
448,192,31202,1,0,0:0:0:0:
64,192,31378,1,0,0:0:0:0:
192,192,31467,1,0,0:0:0:0:
448,192,31467,1,0,0:0:0:0:
64,192,31555,1,0,0:0:0:0:
320,192,31555,1,0,0:0:0:0:
192,192,31555,1,0,0:0:0:0:
320,192,31731,1,0,0:0:0:0:
448,192,31731,1,0,0:0:0:0:
64,192,31908,1,0,0:0:0:0:
192,192,31908,1,0,0:0:0:0:
448,192,31908,1,0,0:0:0:0:
64,192,32084,1,0,0:0:0:0:
192,192,32084,1,0,0:0:0:0:
64,192,32261,1,0,0:0:0:0:
192,192,32261,1,0,0:0:0:0:
64,192,32437,1,0,0:0:0:0:
192,192,32437,1,0,0:0:0:0:
64,192,32614,1,0,0:0:0:0:
320,192,32614,1,0,0:0:0:0:
192,192,32614,1,0,0:0:0:0:
64,192,32790,1,0,0:0:0:0:
192,192,32790,1,0,0:0:0:0:
64,192,32967,1,0,0:0:0:0:
192,192,32967,1,0,0:0:0:0:
64,192,33143,1,0,0:0:0:0:
192,192,33143,1,0,0:0:0:0:
64,192,33320,1,0,0:0:0:0:
320,192,33320,1,0,0:0:0:0:
448,192,33320,1,0,0:0:0:0:
320,192,33496,1,0,0:0:0:0:
448,192,33496,1,0,0:0:0:0:
320,192,33672,1,0,0:0:0:0:
448,192,33672,1,0,0:0:0:0:
320,192,33849,1,0,0:0:0:0:
448,192,33849,1,0,0:0:0:0:
192,192,34025,1,0,0:0:0:0:
320,192,34025,1,0,0:0:0:0:
448,192,34025,1,0,0:0:0:0:
320,192,34202,1,0,0:0:0:0:
448,192,34202,1,0,0:0:0:0:
320,192,34378,1,0,0:0:0:0:
448,192,34378,1,0,0:0:0:0:
320,192,34555,1,0,0:0:0:0:
448,192,34555,1,0,0:0:0:0:
64,192,34731,128,0,34790:0:0:0:0:
192,192,34731,128,0,34820:0:0:0:0:
320,192,34790,128,0,34849:0:0:0:0:
448,192,34849,128,0,34908:0:0:0:0:
64,192,34908,1,0,0:0:0:0:
192,192,34908,1,0,0:0:0:0:
320,192,34996,1,0,0:0:0:0:
64,192,35084,128,0,35172:0:0:0:0:
448,192,35084,128,0,35143:0:0:0:0:
192,192,35143,128,0,35202:0:0:0:0:
320,192,35202,128,0,35261:0:0:0:0:
64,192,35261,1,0,0:0:0:0:
448,192,35261,1,0,0:0:0:0:
192,192,35349,1,0,0:0:0:0:
448,192,35437,128,0,35496:0:0:0:0:
320,192,35437,128,0,35525:0:0:0:0:
192,192,35496,128,0,35555:0:0:0:0:
64,192,35555,128,0,35614:0:0:0:0:
320,192,35614,1,0,0:0:0:0:
448,192,35614,1,0,0:0:0:0:
192,192,35702,1,0,0:0:0:0:
448,192,35790,128,0,35878:0:0:0:0:
64,192,35790,128,0,35849:0:0:0:0:
320,192,35849,128,0,35908:0:0:0:0:
192,192,35908,128,0,35967:0:0:0:0:
64,192,35967,1,0,0:0:0:0:
448,192,35967,1,0,0:0:0:0:
192,192,36055,1,0,0:0:0:0:
320,192,36055,1,0,0:0:0:0:
64,192,36143,128,0,36672:0:0:0:0:
448,192,36143,128,0,36584:0:0:0:0:
448,192,36672,1,0,0:0:0:0:
320,192,36717,1,0,0:0:0:0:
192,192,36761,1,0,0:0:0:0:
448,192,36805,1,0,0:0:0:0:
320,192,36849,1,0,0:0:0:0:
64,192,36893,1,0,0:0:0:0:
192,192,36937,1,0,0:0:0:0:
320,192,36981,1,0,0:0:0:0:
64,192,37025,1,0,0:0:0:0:
448,192,37025,1,0,0:0:0:0:
64,192,37202,1,0,0:0:0:0:
320,192,37202,1,0,0:0:0:0:
448,192,37202,1,0,0:0:0:0:
64,192,37555,128,0,37820:0:0:0:0:
448,192,37555,128,0,37820:0:0:0:0:
192,192,37555,1,0,0:0:0:0:
64,192,37908,128,0,37952:0:0:0:0:
448,192,37908,128,0,37952:0:0:0:0:
64,192,37996,128,0,38040:0:0:0:0:
448,192,37996,128,0,38040:0:0:0:0:
192,192,38084,128,0,38128:0:0:0:0:
320,192,38084,128,0,38128:0:0:0:0:
192,192,38172,128,0,38217:0:0:0:0:
320,192,38172,128,0,38217:0:0:0:0:
448,192,38261,1,0,0:0:0:0:
64,192,38283,1,0,0:0:0:0:
320,192,38437,128,0,38614:0:0:0:0:
192,192,38614,128,0,38702:0:0:0:0:
320,192,38790,128,0,38834:0:0:0:0:
448,192,38790,128,0,38834:0:0:0:0:
64,192,38790,1,0,0:0:0:0:
320,192,38878,128,0,38922:0:0:0:0:
448,192,38878,128,0,38922:0:0:0:0:
64,192,38967,128,0,39011:0:0:0:0:
192,192,38967,128,0,39011:0:0:0:0:
64,192,39055,128,0,39099:0:0:0:0:
192,192,39055,128,0,39099:0:0:0:0:
320,192,39143,128,0,39187:0:0:0:0:
448,192,39143,128,0,39187:0:0:0:0:
320,192,39231,128,0,39275:0:0:0:0:
448,192,39231,128,0,39275:0:0:0:0:
64,192,39320,1,0,0:0:0:0:
192,192,39320,128,0,39672:0:0:0:0:
448,192,39320,1,0,0:0:0:0:
320,192,39496,128,0,39672:0:0:0:0:
64,192,39672,1,0,0:0:0:0:
448,192,39672,128,0,39849:0:0:0:0:
192,192,39849,128,0,39937:0:0:0:0:
448,192,39937,128,0,40114:0:0:0:0:
64,192,39937,1,0,0:0:0:0:
320,192,40025,1,0,0:0:0:0:
64,192,40025,1,0,0:0:0:0:
192,192,40114,128,0,40202:0:0:0:0:
448,192,40202,128,0,40378:0:0:0:0:
64,192,40202,1,0,0:0:0:0:
320,192,40290,1,0,0:0:0:0:
64,192,40378,1,0,0:0:0:0:
320,192,40378,128,0,40643:0:0:0:0:
192,192,40378,128,0,40643:0:0:0:0:
448,192,40731,1,0,0:0:0:0:
192,192,40731,128,0,40775:0:0:0:0:
320,192,40731,128,0,40775:0:0:0:0:
192,192,40820,128,0,40864:0:0:0:0:
320,192,40820,128,0,40864:0:0:0:0:
64,192,40908,128,0,40952:0:0:0:0:
448,192,40908,128,0,40952:0:0:0:0:
64,192,40996,128,0,41040:0:0:0:0:
448,192,40996,128,0,41040:0:0:0:0:
320,192,41084,128,0,41128:0:0:0:0:
64,192,41084,1,0,0:0:0:0:
192,192,41172,128,0,41217:0:0:0:0:
320,192,41261,128,0,41437:0:0:0:0:
448,192,41437,1,0,0:0:0:0:
64,192,41437,1,0,0:0:0:0:
192,192,41437,128,0,41614:0:0:0:0:
448,192,41614,128,0,41790:0:0:0:0:
64,192,41790,1,0,0:0:0:0:
192,192,41790,1,0,0:0:0:0:
320,192,41878,128,0,41922:0:0:0:0:
448,192,41878,128,0,41922:0:0:0:0:
320,192,41967,128,0,42011:0:0:0:0:
448,192,41967,128,0,42011:0:0:0:0:
64,192,42055,128,0,42099:0:0:0:0:
192,192,42055,128,0,42099:0:0:0:0:
64,192,42143,1,0,0:0:0:0:
448,192,42143,1,0,0:0:0:0:
192,192,42143,128,0,42187:0:0:0:0:
320,192,42231,128,0,42275:0:0:0:0:
192,192,42320,128,0,42496:0:0:0:0:
64,192,42496,1,0,0:0:0:0:
448,192,42496,1,0,0:0:0:0:
320,192,42584,1,0,0:0:0:0:
192,192,42672,128,0,42761:0:0:0:0:
64,192,42761,1,0,0:0:0:0:
448,192,42761,1,0,0:0:0:0:
192,192,42849,1,0,0:0:0:0:
320,192,42849,1,0,0:0:0:0:
448,192,42849,1,0,0:0:0:0:
64,192,42937,1,0,0:0:0:0:
192,192,43025,1,0,0:0:0:0:
320,192,43025,1,0,0:0:0:0:
320,192,43202,128,0,43261:0:0:0:0:
448,192,43202,128,0,43320:0:0:0:0:
64,192,43202,1,0,0:0:0:0:
192,192,43320,128,0,43437:0:0:0:0:
320,192,43378,128,0,43555:0:0:0:0:
448,192,43437,128,0,43555:0:0:0:0:
192,192,43555,128,0,43599:0:0:0:0:
64,192,43555,1,0,0:0:0:0:
192,192,43643,128,0,43687:0:0:0:0:
64,192,43731,128,0,43775:0:0:0:0:
64,192,43820,128,0,43864:0:0:0:0:
320,192,43908,128,0,43952:0:0:0:0:
448,192,43930,1,0,0:0:0:0:
320,192,43996,128,0,44040:0:0:0:0:
192,192,44084,128,0,44128:0:0:0:0:
192,192,44172,128,0,44217:0:0:0:0:
64,192,44261,128,0,44437:0:0:0:0:
448,192,44261,128,0,44378:0:0:0:0:
448,192,44437,128,0,44496:0:0:0:0:
64,192,44496,128,0,44555:0:0:0:0:
320,192,44555,128,0,44614:0:0:0:0:
192,192,44614,128,0,44672:0:0:0:0:
64,192,44672,128,0,44967:0:0:0:0:
448,192,44731,128,0,44967:0:0:0:0:
192,192,44967,128,0,45011:0:0:0:0:
320,192,45011,128,0,45055:0:0:0:0:
192,192,45143,1,0,0:0:0:0:
64,192,45143,1,0,0:0:0:0:
320,192,45231,128,0,45275:0:0:0:0:
192,192,45275,128,0,45320:0:0:0:0:
64,192,45320,1,0,0:0:0:0:
448,192,45342,1,0,0:0:0:0:
448,192,45408,128,0,45672:0:0:0:0:
64,192,45408,128,0,45584:0:0:0:0:
64,192,45672,128,0,45731:0:0:0:0:
448,192,45731,128,0,45790:0:0:0:0:
192,192,45790,128,0,45849:0:0:0:0:
320,192,45849,128,0,45908:0:0:0:0:
448,192,45908,128,0,46025:0:0:0:0:
192,192,46025,1,0,0:0:0:0:
320,192,46025,1,0,0:0:0:0:
64,192,46025,1,0,0:0:0:0:
448,192,46114,128,0,46467:0:0:0:0:
64,192,46114,128,0,46467:0:0:0:0:
192,192,46172,128,0,46320:0:0:0:0:
320,192,46231,128,0,46408:0:0:0:0:
64,192,46555,128,0,46731:0:0:0:0:
320,192,46555,128,0,46731:0:0:0:0:
448,192,46731,1,0,0:0:0:0:
192,192,46753,1,0,0:0:0:0:
64,192,46820,128,0,46996:0:0:0:0:
320,192,46820,128,0,47084:0:0:0:0:
448,192,47084,1,0,0:0:0:0:
64,192,47084,128,0,48055:0:0:0:0:
192,192,47172,128,0,47790:0:0:0:0:
320,192,47231,128,0,47731:0:0:0:0:
320,192,47967,1,0,0:0:0:0:
448,192,47967,1,0,0:0:0:0:
320,192,48055,1,0,0:0:0:0:
448,192,48055,1,0,0:0:0:0:
192,192,48143,128,0,48187:0:0:0:0:
64,192,48165,1,0,0:0:0:0:
320,192,48187,128,0,48231:0:0:0:0:
448,192,48231,128,0,48275:0:0:0:0:
64,192,48275,128,0,48320:0:0:0:0:
192,192,48320,128,0,48364:0:0:0:0:
320,192,48364,128,0,48408:0:0:0:0:
64,192,48408,128,0,48452:0:0:0:0:
192,192,48452,128,0,48496:0:0:0:0:
448,192,48496,128,0,48540:0:0:0:0:
320,192,48540,128,0,48584:0:0:0:0:
192,192,48584,128,0,48628:0:0:0:0:
448,192,48628,128,0,48672:0:0:0:0:
64,192,48672,128,0,48717:0:0:0:0:
192,192,48717,128,0,48761:0:0:0:0:
320,192,48761,128,0,48805:0:0:0:0:
192,192,48849,1,0,0:0:0:0:
448,192,48849,128,0,49114:0:0:0:0:
64,192,48849,128,0,49114:0:0:0:0:
64,192,49202,128,0,49246:0:0:0:0:
448,192,49202,128,0,49246:0:0:0:0:
320,192,49202,1,0,0:0:0:0:
64,192,49290,128,0,49334:0:0:0:0:
448,192,49290,128,0,49334:0:0:0:0:
192,192,49378,128,0,49422:0:0:0:0:
320,192,49378,128,0,49422:0:0:0:0:
192,192,49467,128,0,49511:0:0:0:0:
320,192,49467,128,0,49511:0:0:0:0:
64,192,49555,1,0,0:0:0:0:
448,192,49555,128,0,49731:0:0:0:0:
320,192,49599,128,0,49731:0:0:0:0:
192,192,49731,128,0,49820:0:0:0:0:
320,192,49908,128,0,50084:0:0:0:0:
448,192,49908,1,0,0:0:0:0:
64,192,49908,1,0,0:0:0:0:
192,192,49952,128,0,50084:0:0:0:0:
64,192,50084,128,0,50172:0:0:0:0:
448,192,50261,128,0,50305:0:0:0:0:
320,192,50261,128,0,50305:0:0:0:0:
320,192,50349,128,0,50393:0:0:0:0:
448,192,50349,128,0,50393:0:0:0:0:
64,192,50437,128,0,50481:0:0:0:0:
192,192,50437,128,0,50481:0:0:0:0:
192,192,50525,128,0,50570:0:0:0:0:
64,192,50525,128,0,50570:0:0:0:0:
64,192,50614,1,0,0:0:0:0:
320,192,50614,128,0,50967:0:0:0:0:
448,192,50614,1,0,0:0:0:0:
192,192,50790,128,0,50967:0:0:0:0:
64,192,50967,128,0,51143:0:0:0:0:
448,192,50967,1,0,0:0:0:0:
320,192,51143,128,0,51231:0:0:0:0:
448,192,51231,1,0,0:0:0:0:
64,192,51231,128,0,51408:0:0:0:0:
448,192,51320,1,0,0:0:0:0:
192,192,51320,128,0,51408:0:0:0:0:
320,192,51408,128,0,51496:0:0:0:0:
448,192,51496,1,0,0:0:0:0:
64,192,51496,128,0,51672:0:0:0:0:
192,192,51584,1,0,0:0:0:0:
320,192,51672,128,0,51937:0:0:0:0:
192,192,51672,128,0,51937:0:0:0:0:
448,192,51672,1,0,0:0:0:0:
192,192,52025,128,0,52070:0:0:0:0:
320,192,52025,128,0,52070:0:0:0:0:
64,192,52025,1,0,0:0:0:0:
192,192,52114,128,0,52158:0:0:0:0:
320,192,52114,128,0,52158:0:0:0:0:
64,192,52202,128,0,52246:0:0:0:0:
448,192,52202,128,0,52246:0:0:0:0:
64,192,52290,128,0,52334:0:0:0:0:
448,192,52290,128,0,52334:0:0:0:0:
192,192,52378,128,0,52422:0:0:0:0:
448,192,52378,1,0,0:0:0:0:
320,192,52467,128,0,52511:0:0:0:0:
192,192,52555,128,0,52731:0:0:0:0:
320,192,52731,128,0,52908:0:0:0:0:
448,192,52731,1,0,0:0:0:0:
64,192,52731,1,0,0:0:0:0:
64,192,52908,128,0,53084:0:0:0:0:
192,192,52952,128,0,53084:0:0:0:0:
320,192,53084,1,0,0:0:0:0:
448,192,53084,1,0,0:0:0:0:
64,192,53172,128,0,53217:0:0:0:0:
192,192,53172,128,0,53217:0:0:0:0:
64,192,53261,128,0,53305:0:0:0:0:
192,192,53261,128,0,53305:0:0:0:0:
320,192,53349,128,0,53393:0:0:0:0:
448,192,53349,128,0,53393:0:0:0:0:
320,192,53437,128,0,53481:0:0:0:0:
64,192,53437,1,0,0:0:0:0:
448,192,53437,1,0,0:0:0:0:
192,192,53525,128,0,53570:0:0:0:0:
320,192,53614,128,0,53790:0:0:0:0:
64,192,53790,1,0,0:0:0:0:
448,192,53790,1,0,0:0:0:0:
192,192,53878,1,0,0:0:0:0:
320,192,53967,128,0,54055:0:0:0:0:
64,192,54055,1,0,0:0:0:0:
448,192,54055,1,0,0:0:0:0:
64,192,54143,1,0,0:0:0:0:
192,192,54143,1,0,0:0:0:0:
320,192,54143,1,0,0:0:0:0:
448,192,54231,1,0,0:0:0:0:
192,192,54320,1,0,0:0:0:0:
320,192,54320,1,0,0:0:0:0:
64,192,54496,128,0,54614:0:0:0:0:
192,192,54496,128,0,54555:0:0:0:0:
448,192,54555,1,0,0:0:0:0:
320,192,54614,128,0,54731:0:0:0:0:
192,192,54672,128,0,54761:0:0:0:0:
64,192,54717,128,0,54761:0:0:0:0:
448,192,54761,128,0,54849:0:0:0:0:
320,192,54805,128,0,54849:0:0:0:0:
64,192,54849,128,0,54967:0:0:0:0:
192,192,54849,128,0,54908:0:0:0:0:
448,192,54908,128,0,55025:0:0:0:0:
320,192,54967,128,0,55025:0:0:0:0:
192,192,55025,128,0,55143:0:0:0:0:
64,192,55084,128,0,55143:0:0:0:0:
320,192,55143,128,0,55202:0:0:0:0:
64,192,55202,1,0,0:0:0:0:
448,192,55224,1,0,0:0:0:0:
64,192,55290,128,0,55467:0:0:0:0:
448,192,55290,128,0,55467:0:0:0:0:
192,192,55467,1,0,0:0:0:0:
320,192,55467,1,0,0:0:0:0:
192,192,55555,128,0,55731:0:0:0:0:
448,192,55555,128,0,55643:0:0:0:0:
320,192,55731,1,0,0:0:0:0:
448,192,55731,1,0,0:0:0:0:
64,192,55820,128,0,55967:0:0:0:0:
192,192,55849,128,0,56025:0:0:0:0:
448,192,55908,128,0,56349:0:0:0:0:
320,192,55967,1,0,0:0:0:0:
64,192,56084,128,0,56437:0:0:0:0:
320,192,56437,1,0,0:0:0:0:
448,192,56437,1,0,0:0:0:0:
320,192,56525,1,0,0:0:0:0:
448,192,56525,1,0,0:0:0:0:
64,192,56614,1,0,0:0:0:0:
192,192,56636,128,0,57231:0:0:0:0:
320,192,56731,128,0,56878:0:0:0:0:
448,192,56790,1,0,0:0:0:0:
64,192,56967,128,0,57143:0:0:0:0:
320,192,57143,128,0,57320:0:0:0:0:
64,192,57320,1,0,0:0:0:0:
448,192,57320,1,0,0:0:0:0:
64,192,57408,128,0,57761:0:0:0:0:
448,192,57408,128,0,57761:0:0:0:0:
320,192,57496,128,0,57614:0:0:0:0:
192,192,57525,128,0,57702:0:0:0:0:
192,192,57849,1,0,0:0:0:0:
448,192,57849,1,0,0:0:0:0:
192,192,57937,128,0,58290:0:0:0:0:
448,192,57937,128,0,58290:0:0:0:0:
320,192,58025,128,0,58143:0:0:0:0:
64,192,58055,128,0,58231:0:0:0:0:
320,192,58378,1,0,0:0:0:0:
448,192,58378,1,0,0:0:0:0:
320,192,58467,128,0,59084:0:0:0:0:
448,192,58467,128,0,58584:0:0:0:0:
64,192,58555,128,0,58672:0:0:0:0:
192,192,58584,128,0,59084:0:0:0:0:
64,192,59084,128,0,59172:0:0:0:0:
192,192,59172,128,0,59261:0:0:0:0:
320,192,59261,128,0,59349:0:0:0:0:
64,192,59349,128,0,59437:0:0:0:0:
192,192,59437,128,0,59614:0:0:0:0:
448,192,59525,128,0,59614:0:0:0:0:
320,192,59614,128,0,59790:0:0:0:0:
192,192,59702,128,0,59790:0:0:0:0:
448,192,59790,128,0,59967:0:0:0:0:
320,192,59878,128,0,59967:0:0:0:0:
64,192,59967,128,0,60055:0:0:0:0:
192,192,60055,128,0,60143:0:0:0:0:
64,192,60143,1,0,0:0:0:0:
320,192,60143,128,0,60408:0:0:0:0:
448,192,60143,128,0,60408:0:0:0:0:
192,192,60320,128,0,60408:0:0:0:0:
320,192,60496,128,0,60540:0:0:0:0:
448,192,60496,1,0,0:0:0:0:
320,192,60584,128,0,60628:0:0:0:0:
448,192,60584,1,0,0:0:0:0:
64,192,60672,128,0,60717:0:0:0:0:
192,192,60672,1,0,0:0:0:0:
64,192,60761,128,0,60805:0:0:0:0:
192,192,60761,1,0,0:0:0:0:
448,192,60849,1,0,0:0:0:0:
320,192,60871,1,0,0:0:0:0:
320,192,61025,128,0,61114:0:0:0:0:
448,192,61055,128,0,61114:0:0:0:0:
192,192,61202,128,0,61290:0:0:0:0:
64,192,61231,128,0,61290:0:0:0:0:
64,192,61378,1,0,0:0:0:0:
448,192,61378,128,0,61996:0:0:0:0:
320,192,61378,1,0,0:0:0:0:
192,192,61467,128,0,61643:0:0:0:0:
320,192,61525,128,0,61996:0:0:0:0:
192,192,61731,128,0,61820:0:0:0:0:
64,192,61908,128,0,61996:0:0:0:0:
192,192,62084,128,0,62172:0:0:0:0:
64,192,62084,1,0,0:0:0:0:
320,192,62172,128,0,62261:0:0:0:0:
64,192,62261,1,0,0:0:0:0:
448,192,62283,1,0,0:0:0:0:
64,192,62349,128,0,62525:0:0:0:0:
448,192,62349,128,0,62525:0:0:0:0:
320,192,62525,1,0,0:0:0:0:
192,192,62525,1,0,0:0:0:0:
320,192,62614,128,0,62702:0:0:0:0:
64,192,62790,1,0,0:0:0:0:
192,192,62790,128,0,62834:0:0:0:0:
192,192,62878,128,0,62922:0:0:0:0:
64,192,62878,1,0,0:0:0:0:
448,192,62967,128,0,63011:0:0:0:0:
320,192,62967,1,0,0:0:0:0:
448,192,63055,128,0,63099:0:0:0:0:
320,192,63055,1,0,0:0:0:0:
192,192,63143,128,0,63187:0:0:0:0:
64,192,63143,1,0,0:0:0:0:
192,192,63231,128,0,63275:0:0:0:0:
64,192,63231,1,0,0:0:0:0:
320,192,63320,1,0,0:0:0:0:
64,192,63320,128,0,63584:0:0:0:0:
448,192,63320,128,0,63584:0:0:0:0:
192,192,63437,128,0,63525:0:0:0:0:
320,192,63467,128,0,63584:0:0:0:0:
448,192,63672,1,0,0:0:0:0:
64,192,63695,1,0,0:0:0:0:
192,192,63849,128,0,64025:0:0:0:0:
320,192,63849,128,0,64025:0:0:0:0:
448,192,63908,128,0,64025:0:0:0:0:
64,192,63937,128,0,64025:0:0:0:0:
64,192,64202,1,0,0:0:0:0:
192,192,64202,128,0,64555:0:0:0:0:
320,192,64231,128,0,64349:0:0:0:0:
64,192,64320,128,0,64467:0:0:0:0:
448,192,64467,128,0,64511:0:0:0:0:
448,192,64555,128,0,64731:0:0:0:0:
64,192,64731,1,0,0:0:0:0:
320,192,64731,1,0,0:0:0:0:
64,192,64820,128,0,65084:0:0:0:0:
320,192,64820,128,0,65084:0:0:0:0:
448,192,64878,128,0,64996:0:0:0:0:
192,192,64908,128,0,65025:0:0:0:0:
448,192,65084,1,0,0:0:0:0:
192,192,65106,1,0,0:0:0:0:
192,192,65261,128,0,65437:0:0:0:0:
320,192,65437,128,0,65525:0:0:0:0:
448,192,65614,128,0,65702:0:0:0:0:
320,192,65702,128,0,65790:0:0:0:0:
64,192,65790,128,0,66055:0:0:0:0:
192,192,65790,128,0,66055:0:0:0:0:
448,192,65790,1,0,0:0:0:0:
320,192,65878,128,0,65922:0:0:0:0:
320,192,65967,128,0,66055:0:0:0:0:
64,192,66143,1,0,0:0:0:0:
192,192,66143,128,0,66187:0:0:0:0:
64,192,66231,1,0,0:0:0:0:
192,192,66231,128,0,66275:0:0:0:0:
320,192,66320,1,0,0:0:0:0:
448,192,66320,128,0,66364:0:0:0:0:
320,192,66408,1,0,0:0:0:0:
448,192,66408,128,0,66452:0:0:0:0:
64,192,66496,1,0,0:0:0:0:
192,192,66518,1,0,0:0:0:0:
192,192,66672,128,0,66761:0:0:0:0:
64,192,66761,1,0,0:0:0:0:
448,192,66761,1,0,0:0:0:0:
320,192,66849,128,0,66937:0:0:0:0:
64,192,67025,128,0,67555:0:0:0:0:
448,192,67025,1,0,0:0:0:0:
192,192,67055,128,0,67261:0:0:0:0:
320,192,67114,128,0,67378:0:0:0:0:
448,192,67261,1,0,0:0:0:0:
192,192,67378,128,0,67467:0:0:0:0:
448,192,67555,128,0,67643:0:0:0:0:
192,192,67731,1,0,0:0:0:0:
320,192,67731,128,0,67820:0:0:0:0:
448,192,67908,1,0,0:0:0:0:
64,192,67930,1,0,0:0:0:0:
64,192,67996,128,0,68261:0:0:0:0:
448,192,67996,128,0,68261:0:0:0:0:
320,192,68084,128,0,68172:0:0:0:0:
192,192,68261,128,0,68349:0:0:0:0:
320,192,68437,128,0,68525:0:0:0:0:
64,192,68614,128,0,69231:0:0:0:0:
192,192,68614,1,0,0:0:0:0:
448,192,68643,128,0,68820:0:0:0:0:
320,192,68672,128,0,68967:0:0:0:0:
192,192,68790,128,0,68878:0:0:0:0:
448,192,68967,128,0,69055:0:0:0:0:
192,192,69143,1,0,0:0:0:0:
320,192,69143,1,0,0:0:0:0:
192,192,69231,1,0,0:0:0:0:
320,192,69231,1,0,0:0:0:0:
64,192,69320,1,0,0:0:0:0:
448,192,69342,1,0,0:0:0:0:
64,192,69408,128,0,69584:0:0:0:0:
448,192,69408,128,0,69584:0:0:0:0:
320,192,69437,128,0,69555:0:0:0:0:
192,192,69496,128,0,69584:0:0:0:0:
192,192,69672,1,0,0:0:0:0:
448,192,69672,1,0,0:0:0:0:
192,192,69761,128,0,70202:0:0:0:0:
448,192,69761,128,0,70202:0:0:0:0:
320,192,69820,128,0,69967:0:0:0:0:
64,192,69878,128,0,70084:0:0:0:0:
64,192,70202,1,0,0:0:0:0:
320,192,70202,1,0,0:0:0:0:
192,192,70378,128,0,70731:0:0:0:0:
448,192,70437,128,0,70643:0:0:0:0:
320,192,70467,128,0,70672:0:0:0:0:
64,192,70731,128,0,70775:0:0:0:0:
320,192,70753,1,0,0:0:0:0:
448,192,70775,128,0,70820:0:0:0:0:
192,192,70820,128,0,70864:0:0:0:0:
320,192,70864,128,0,70908:0:0:0:0:
64,192,70908,128,0,70952:0:0:0:0:
448,192,70952,128,0,70996:0:0:0:0:
192,192,70996,128,0,71040:0:0:0:0:
320,192,71040,128,0,71084:0:0:0:0:
448,192,71084,128,0,71128:0:0:0:0:
64,192,71128,128,0,71172:0:0:0:0:
192,192,71172,128,0,71217:0:0:0:0:
320,192,71217,128,0,71261:0:0:0:0:
448,192,71261,128,0,71305:0:0:0:0:
64,192,71305,128,0,71349:0:0:0:0:
192,192,71349,128,0,71393:0:0:0:0:
320,192,71393,128,0,71437:0:0:0:0:
64,192,71437,128,0,71702:0:0:0:0:
448,192,71437,128,0,71702:0:0:0:0:
192,192,71614,128,0,71702:0:0:0:0:
448,192,71790,128,0,72055:0:0:0:0:
64,192,71790,1,0,0:0:0:0:
320,192,71834,128,0,72055:0:0:0:0:
64,192,71967,128,0,72055:0:0:0:0:
448,192,72143,128,0,72231:0:0:0:0:
320,192,72165,1,0,0:0:0:0:
192,192,72320,128,0,72584:0:0:0:0:
64,192,72408,128,0,72672:0:0:0:0:
320,192,72496,128,0,72584:0:0:0:0:
448,192,72672,128,0,73290:0:0:0:0:
192,192,72672,1,0,0:0:0:0:
320,192,72761,128,0,72937:0:0:0:0:
64,192,72820,128,0,73114:0:0:0:0:
320,192,73025,128,0,73114:0:0:0:0:
64,192,73202,128,0,73290:0:0:0:0:
192,192,73378,128,0,73467:0:0:0:0:
320,192,73378,1,0,0:0:0:0:
64,192,73555,1,0,0:0:0:0:
448,192,73577,1,0,0:0:0:0:
64,192,73643,128,0,73820:0:0:0:0:
448,192,73643,128,0,73820:0:0:0:0:
320,192,73731,128,0,73820:0:0:0:0:
192,192,73820,1,0,0:0:0:0:
320,192,73908,128,0,73996:0:0:0:0:
64,192,74084,128,0,74172:0:0:0:0:
192,192,74172,128,0,74261:0:0:0:0:
448,192,74261,128,0,74525:0:0:0:0:
320,192,74261,128,0,74525:0:0:0:0:
64,192,74261,1,0,0:0:0:0:
192,192,74437,128,0,74525:0:0:0:0:
320,192,74614,1,0,0:0:0:0:
448,192,74614,128,0,74878:0:0:0:0:
64,192,74614,128,0,74878:0:0:0:0:
192,192,74731,128,0,74820:0:0:0:0:
320,192,74761,128,0,74878:0:0:0:0:
448,192,74967,1,0,0:0:0:0:
64,192,74989,1,0,0:0:0:0:
192,192,75143,128,0,75320:0:0:0:0:
320,192,75143,128,0,75320:0:0:0:0:
64,192,75202,128,0,75320:0:0:0:0:
448,192,75231,128,0,75320:0:0:0:0:
64,192,75496,1,0,0:0:0:0:
320,192,75496,128,0,75672:0:0:0:0:
192,192,75555,128,0,75790:0:0:0:0:
64,192,75614,128,0,75849:0:0:0:0:
448,192,75672,1,0,0:0:0:0:
448,192,75849,128,0,76025:0:0:0:0:
64,192,76025,1,0,0:0:0:0:
320,192,76025,1,0,0:0:0:0:
64,192,76114,128,0,76378:0:0:0:0:
320,192,76114,128,0,76378:0:0:0:0:
448,192,76172,128,0,76290:0:0:0:0:
192,192,76231,128,0,76320:0:0:0:0:
192,192,76378,1,0,0:0:0:0:
448,192,76400,1,0,0:0:0:0:
64,192,76467,128,0,76511:0:0:0:0:
192,192,76467,128,0,76555:0:0:0:0:
448,192,76555,128,0,76643:0:0:0:0:
320,192,76555,128,0,76643:0:0:0:0:
320,192,76731,128,0,76820:0:0:0:0:
64,192,76908,128,0,77349:0:0:0:0:
448,192,76908,1,0,0:0:0:0:
192,192,76967,128,0,77143:0:0:0:0:
448,192,77025,128,0,77261:0:0:0:0:
320,192,77261,128,0,77349:0:0:0:0:
192,192,77437,128,0,77702:0:0:0:0:
448,192,77437,128,0,77790:0:0:0:0:
64,192,77496,128,0,77614:0:0:0:0:
320,192,77555,128,0,77672:0:0:0:0:
64,192,77790,128,0,77878:0:0:0:0:
192,192,77812,1,0,0:0:0:0:
192,192,77967,128,0,78055:0:0:0:0:
64,192,78055,1,0,0:0:0:0:
448,192,78055,1,0,0:0:0:0:
320,192,78143,128,0,78231:0:0:0:0:
192,192,78320,128,0,78937:0:0:0:0:
448,192,78320,1,0,0:0:0:0:
64,192,78378,128,0,78672:0:0:0:0:
320,192,78437,128,0,78937:0:0:0:0:
448,192,78672,128,0,78761:0:0:0:0:
448,192,78849,128,0,78937:0:0:0:0:
192,192,79025,1,0,0:0:0:0:
320,192,79025,128,0,79114:0:0:0:0:
448,192,79202,1,0,0:0:0:0:
64,192,79224,1,0,0:0:0:0:
448,192,79290,128,0,79334:0:0:0:0:
64,192,79378,128,0,79422:0:0:0:0:
64,192,79467,128,0,79511:0:0:0:0:
320,192,79555,128,0,79599:0:0:0:0:
448,192,79555,128,0,79599:0:0:0:0:
320,192,79643,128,0,79687:0:0:0:0:
448,192,79643,128,0,79687:0:0:0:0:
192,192,79731,128,0,79775:0:0:0:0:
64,192,79731,128,0,79775:0:0:0:0:
192,192,79820,128,0,79864:0:0:0:0:
64,192,79820,128,0,79864:0:0:0:0:
448,192,79908,128,0,80349:0:0:0:0:
320,192,79908,1,0,0:0:0:0:
64,192,79937,128,0,80114:0:0:0:0:
192,192,79967,128,0,80261:0:0:0:0:
320,192,80084,128,0,80172:0:0:0:0:
64,192,80261,128,0,80349:0:0:0:0:
192,192,80437,1,0,0:0:0:0:
448,192,80437,1,0,0:0:0:0:
192,192,80525,128,0,80878:0:0:0:0:
448,192,80525,128,0,80878:0:0:0:0:
320,192,80584,128,0,80731:0:0:0:0:
64,192,80643,128,0,80849:0:0:0:0:
320,192,80967,1,0,0:0:0:0:
448,192,80967,1,0,0:0:0:0:
448,192,81055,128,0,81672:0:0:0:0:
320,192,81055,128,0,81496:0:0:0:0:
64,192,81114,128,0,81320:0:0:0:0:
192,192,81320,1,0,0:0:0:0:
64,192,81672,128,0,81761:0:0:0:0:
192,192,81761,128,0,81849:0:0:0:0:
64,192,81849,128,0,81937:0:0:0:0:
320,192,81937,128,0,82025:0:0:0:0:
192,192,82025,128,0,82202:0:0:0:0:
448,192,82025,128,0,82643:0:0:0:0:
64,192,82114,128,0,82202:0:0:0:0:
320,192,82202,128,0,82378:0:0:0:0:
192,192,82290,128,0,82378:0:0:0:0:
64,192,82378,128,0,82555:0:0:0:0:
192,192,82467,128,0,82643:0:0:0:0:
320,192,82555,128,0,82643:0:0:0:0:
64,192,82643,128,0,82731:0:0:0:0:
448,192,82731,1,0,0:0:0:0:
320,192,82731,1,0,0:0:0:0:
192,192,82731,1,0,0:0:0:0:
192,192,82908,1,0,0:0:0:0:
64,192,83084,1,0,0:0:0:0:
448,192,83084,1,0,0:0:0:0:
320,192,83084,1,0,0:0:0:0:
192,192,83261,1,0,0:0:0:0:
448,192,83349,1,0,0:0:0:0:
320,192,83437,1,0,0:0:0:0:
192,192,83437,1,0,0:0:0:0:
64,192,83437,1,0,0:0:0:0:
192,192,83614,1,0,0:0:0:0:
448,192,83790,1,0,0:0:0:0:
320,192,83790,1,0,0:0:0:0:
64,192,83790,1,0,0:0:0:0:
192,192,83967,1,0,0:0:0:0:
320,192,84055,1,0,0:0:0:0:
192,192,84143,1,0,0:0:0:0:
448,192,84143,1,0,0:0:0:0:
64,192,84143,1,0,0:0:0:0:
448,192,84320,1,0,0:0:0:0:
320,192,84496,1,0,0:0:0:0:
192,192,84496,1,0,0:0:0:0:
64,192,84496,1,0,0:0:0:0:
192,192,84672,1,0,0:0:0:0:
320,192,84761,1,0,0:0:0:0:
64,192,84849,1,0,0:0:0:0:
192,192,84849,1,0,0:0:0:0:
448,192,84849,1,0,0:0:0:0:
320,192,85025,1,0,0:0:0:0:
64,192,85202,1,0,0:0:0:0:
448,192,85202,1,0,0:0:0:0:
320,192,85202,1,0,0:0:0:0:
192,192,85378,1,0,0:0:0:0:
448,192,85467,1,0,0:0:0:0:
320,192,85555,1,0,0:0:0:0:
192,192,85555,1,0,0:0:0:0:
64,192,85555,1,0,0:0:0:0:
64,192,85731,1,0,0:0:0:0:
448,192,85908,1,0,0:0:0:0:
320,192,85908,1,0,0:0:0:0:
192,192,85908,1,0,0:0:0:0:
448,192,86084,1,0,0:0:0:0:
192,192,86172,1,0,0:0:0:0:
448,192,86261,1,0,0:0:0:0:
320,192,86261,1,0,0:0:0:0:
64,192,86261,1,0,0:0:0:0:
192,192,86437,1,0,0:0:0:0:
320,192,86614,1,0,0:0:0:0:
192,192,86614,1,0,0:0:0:0:
64,192,86614,1,0,0:0:0:0:
448,192,86790,1,0,0:0:0:0:
320,192,86878,1,0,0:0:0:0:
448,192,86967,1,0,0:0:0:0:
192,192,86967,1,0,0:0:0:0:
64,192,86967,1,0,0:0:0:0:
192,192,87143,1,0,0:0:0:0:
448,192,87320,1,0,0:0:0:0:
320,192,87320,1,0,0:0:0:0:
64,192,87320,1,0,0:0:0:0:
320,192,87496,1,0,0:0:0:0:
448,192,87672,1,0,0:0:0:0:
64,192,87672,1,0,0:0:0:0:
192,192,87761,1,0,0:0:0:0:
320,192,87849,1,0,0:0:0:0:
448,192,87849,1,0,0:0:0:0:
64,192,87937,1,0,0:0:0:0:
192,192,88025,1,0,0:0:0:0:
448,192,88025,1,0,0:0:0:0:
320,192,88025,1,0,0:0:0:0:
64,192,88378,1,0,0:0:0:0:
192,192,88378,1,0,0:0:0:0:
320,192,88378,1,0,0:0:0:0:
64,192,88555,1,0,0:0:0:0:
192,192,88555,1,0,0:0:0:0:
64,192,88731,1,0,0:0:0:0:
192,192,88731,1,0,0:0:0:0:
64,192,88908,1,0,0:0:0:0:
192,192,88908,1,0,0:0:0:0:
192,192,89084,1,0,0:0:0:0:
320,192,89084,1,0,0:0:0:0:
448,192,89084,1,0,0:0:0:0:
320,192,89261,1,0,0:0:0:0:
448,192,89261,1,0,0:0:0:0:
320,192,89437,1,0,0:0:0:0:
448,192,89437,1,0,0:0:0:0:
320,192,89614,1,0,0:0:0:0:
448,192,89614,1,0,0:0:0:0:
64,192,89790,1,0,0:0:0:0:
192,192,89790,1,0,0:0:0:0:
448,192,89790,1,0,0:0:0:0:
64,192,89967,1,0,0:0:0:0:
192,192,89967,1,0,0:0:0:0:
64,192,90143,1,0,0:0:0:0:
192,192,90143,1,0,0:0:0:0:
64,192,90320,1,0,0:0:0:0:
192,192,90320,1,0,0:0:0:0:
64,192,90496,1,0,0:0:0:0:
320,192,90496,1,0,0:0:0:0:
448,192,90496,1,0,0:0:0:0:
320,192,90672,1,0,0:0:0:0:
448,192,90672,1,0,0:0:0:0:
320,192,90849,1,0,0:0:0:0:
448,192,90849,1,0,0:0:0:0:
320,192,91025,1,0,0:0:0:0:
448,192,91025,1,0,0:0:0:0:
192,192,91202,1,0,0:0:0:0:
64,192,91202,128,0,91290:0:0:0:0:
448,192,91202,1,0,0:0:0:0:
320,192,91290,128,0,91378:0:0:0:0:
64,192,91378,1,0,0:0:0:0:
192,192,91378,128,0,91467:0:0:0:0:
320,192,91467,128,0,91555:0:0:0:0:
192,192,91555,1,0,0:0:0:0:
64,192,91555,1,0,0:0:0:0:
448,192,91555,128,0,91643:0:0:0:0:
320,192,91643,128,0,91731:0:0:0:0:
192,192,91731,1,0,0:0:0:0:
64,192,91731,128,0,91820:0:0:0:0:
320,192,91820,128,0,91908:0:0:0:0:
64,192,91908,1,0,0:0:0:0:
448,192,91908,1,0,0:0:0:0:
192,192,91908,128,0,91996:0:0:0:0:
320,192,91996,128,0,92084:0:0:0:0:
192,192,92084,1,0,0:0:0:0:
64,192,92084,128,0,92172:0:0:0:0:
320,192,92172,128,0,92261:0:0:0:0:
192,192,92261,1,0,0:0:0:0:
64,192,92261,1,0,0:0:0:0:
448,192,92261,128,0,92349:0:0:0:0:
320,192,92349,128,0,92437:0:0:0:0:
64,192,92437,1,0,0:0:0:0:
192,192,92437,128,0,92525:0:0:0:0:
448,192,92525,1,0,0:0:0:0:
320,192,92525,128,0,92614:0:0:0:0:
192,192,92614,1,0,0:0:0:0:
64,192,92614,1,0,0:0:0:0:
64,192,92790,1,0,0:0:0:0:
192,192,92790,1,0,0:0:0:0:
64,192,92967,1,0,0:0:0:0:
192,192,92967,1,0,0:0:0:0:
320,192,92967,1,0,0:0:0:0:
448,192,92967,1,0,0:0:0:0:
320,192,93143,1,0,0:0:0:0:
448,192,93143,1,0,0:0:0:0:
320,192,93231,1,0,0:0:0:0:
448,192,93231,1,0,0:0:0:0:
64,192,93320,1,0,0:0:0:0:
192,192,93320,1,0,0:0:0:0:
320,192,93320,1,0,0:0:0:0:
448,192,93320,1,0,0:0:0:0:
64,192,93408,1,0,0:0:0:0:
192,192,93408,1,0,0:0:0:0:
320,192,93496,1,0,0:0:0:0:
448,192,93496,1,0,0:0:0:0:
320,192,93584,1,0,0:0:0:0:
448,192,93584,1,0,0:0:0:0:
448,192,93672,1,0,0:0:0:0:
192,192,93672,1,0,0:0:0:0:
64,192,93672,1,0,0:0:0:0:
64,192,94025,1,0,0:0:0:0:
448,192,94025,1,0,0:0:0:0:
192,192,94084,1,0,0:0:0:0:
320,192,94143,1,0,0:0:0:0:
64,192,94202,1,0,0:0:0:0:
192,192,94261,1,0,0:0:0:0:
448,192,94320,1,0,0:0:0:0:
64,192,94378,1,0,0:0:0:0:
320,192,94437,1,0,0:0:0:0:
448,192,94496,1,0,0:0:0:0:
192,192,94555,1,0,0:0:0:0:
320,192,94614,1,0,0:0:0:0:
64,192,94672,1,0,0:0:0:0:
448,192,94731,1,0,0:0:0:0:
320,192,94753,1,0,0:0:0:0:
192,192,94908,128,0,94996:0:0:0:0:
64,192,94937,128,0,94996:0:0:0:0:
320,192,95084,128,0,95172:0:0:0:0:
448,192,95114,128,0,95172:0:0:0:0:
64,192,95261,1,0,0:0:0:0:
192,192,95261,1,0,0:0:0:0:
320,192,95437,1,0,0:0:0:0:
448,192,95437,1,0,0:0:0:0:
192,192,95525,1,0,0:0:0:0:
320,192,95614,1,0,0:0:0:0:
192,192,95702,1,0,0:0:0:0:
320,192,95790,1,0,0:0:0:0:
64,192,95790,1,0,0:0:0:0:
192,192,95878,1,0,0:0:0:0:
320,192,95967,1,0,0:0:0:0:
192,192,96055,1,0,0:0:0:0:
320,192,96143,1,0,0:0:0:0:
448,192,96143,1,0,0:0:0:0:
64,192,96231,1,0,0:0:0:0:
192,192,96320,1,0,0:0:0:0:
320,192,96408,1,0,0:0:0:0:
448,192,96408,1,0,0:0:0:0:
192,192,96496,1,0,0:0:0:0:
320,192,96584,1,0,0:0:0:0:
192,192,96672,1,0,0:0:0:0:
64,192,96672,1,0,0:0:0:0:
448,192,96761,1,0,0:0:0:0:
320,192,96849,1,0,0:0:0:0:
192,192,96849,1,0,0:0:0:0:
64,192,96937,1,0,0:0:0:0:
448,192,97025,1,0,0:0:0:0:
64,192,97114,1,0,0:0:0:0:
448,192,97202,1,0,0:0:0:0:
192,192,97202,1,0,0:0:0:0:
64,192,97290,1,0,0:0:0:0:
448,192,97378,1,0,0:0:0:0:
64,192,97467,1,0,0:0:0:0:
448,192,97555,1,0,0:0:0:0:
320,192,97555,1,0,0:0:0:0:
192,192,97643,1,0,0:0:0:0:
64,192,97731,1,0,0:0:0:0:
320,192,97820,1,0,0:0:0:0:
192,192,97820,1,0,0:0:0:0:
448,192,97908,1,0,0:0:0:0:
320,192,97996,1,0,0:0:0:0:
192,192,98084,1,0,0:0:0:0:
64,192,98084,1,0,0:0:0:0:
320,192,98172,1,0,0:0:0:0:
448,192,98261,1,0,0:0:0:0:
64,192,98261,1,0,0:0:0:0:
192,192,98349,1,0,0:0:0:0:
320,192,98437,1,0,0:0:0:0:
192,192,98525,1,0,0:0:0:0:
64,192,98525,1,0,0:0:0:0:
320,192,98614,1,0,0:0:0:0:
192,192,98702,1,0,0:0:0:0:
320,192,98790,1,0,0:0:0:0:
448,192,98790,1,0,0:0:0:0:
192,192,98878,1,0,0:0:0:0:
320,192,98967,1,0,0:0:0:0:
64,192,98967,1,0,0:0:0:0:
192,192,99055,1,0,0:0:0:0:
448,192,99055,1,0,0:0:0:0:
320,192,99143,1,0,0:0:0:0:
64,192,99143,1,0,0:0:0:0:
192,192,99231,1,0,0:0:0:0:
448,192,99231,1,0,0:0:0:0:
320,192,99320,128,0,99408:0:0:0:0:
192,192,99342,1,0,0:0:0:0:
64,192,99349,128,0,99408:0:0:0:0:
192,192,99496,128,0,99584:0:0:0:0:
448,192,99525,128,0,99584:0:0:0:0:
64,192,99672,1,0,0:0:0:0:
192,192,99672,1,0,0:0:0:0:
320,192,99761,1,0,0:0:0:0:
192,192,99849,1,0,0:0:0:0:
320,192,99937,1,0,0:0:0:0:
448,192,100025,1,0,0:0:0:0:
192,192,100025,1,0,0:0:0:0:
320,192,100114,1,0,0:0:0:0:
192,192,100202,1,0,0:0:0:0:
320,192,100290,1,0,0:0:0:0:
64,192,100378,1,0,0:0:0:0:
192,192,100378,1,0,0:0:0:0:
448,192,100467,1,0,0:0:0:0:
320,192,100555,1,0,0:0:0:0:
64,192,100643,1,0,0:0:0:0:
192,192,100643,1,0,0:0:0:0:
320,192,100731,1,0,0:0:0:0:
192,192,100820,1,0,0:0:0:0:
448,192,100908,1,0,0:0:0:0:
320,192,100908,1,0,0:0:0:0:
64,192,100996,1,0,0:0:0:0:
320,192,101084,1,0,0:0:0:0:
192,192,101084,1,0,0:0:0:0:
448,192,101172,1,0,0:0:0:0:
64,192,101261,1,0,0:0:0:0:
448,192,101349,1,0,0:0:0:0:
320,192,101437,1,0,0:0:0:0:
64,192,101437,1,0,0:0:0:0:
448,192,101525,1,0,0:0:0:0:
64,192,101614,1,0,0:0:0:0:
448,192,101702,1,0,0:0:0:0:
192,192,101790,1,0,0:0:0:0:
64,192,101790,1,0,0:0:0:0:
320,192,101878,1,0,0:0:0:0:
448,192,101967,1,0,0:0:0:0:
320,192,102055,1,0,0:0:0:0:
192,192,102055,1,0,0:0:0:0:
64,192,102143,1,0,0:0:0:0:
192,192,102231,1,0,0:0:0:0:
448,192,102320,1,0,0:0:0:0:
320,192,102320,1,0,0:0:0:0:
192,192,102408,1,0,0:0:0:0:
448,192,102496,1,0,0:0:0:0:
64,192,102496,1,0,0:0:0:0:
320,192,102584,1,0,0:0:0:0:
192,192,102672,1,0,0:0:0:0:
448,192,102761,1,0,0:0:0:0:
320,192,102761,1,0,0:0:0:0:
192,192,102849,1,0,0:0:0:0:
320,192,102937,1,0,0:0:0:0:
64,192,103025,1,0,0:0:0:0:
192,192,103025,1,0,0:0:0:0:
320,192,103114,1,0,0:0:0:0:
192,192,103202,1,0,0:0:0:0:
320,192,103290,1,0,0:0:0:0:
448,192,103290,1,0,0:0:0:0:
192,192,103378,1,0,0:0:0:0:
320,192,103467,1,0,0:0:0:0:
64,192,103555,1,0,0:0:0:0:
192,192,103555,1,0,0:0:0:0:
64,192,103643,1,0,0:0:0:0:
192,192,103643,1,0,0:0:0:0:
320,192,103731,1,0,0:0:0:0:
448,192,103731,1,0,0:0:0:0:
320,192,103820,1,0,0:0:0:0:
448,192,103820,1,0,0:0:0:0:
192,192,103908,1,0,0:0:0:0:
64,192,103908,1,0,0:0:0:0:
448,192,103908,1,0,0:0:0:0:
192,192,104084,1,0,0:0:0:0:
64,192,104261,1,0,0:0:0:0:
320,192,104261,1,0,0:0:0:0:
448,192,104261,1,0,0:0:0:0:
192,192,104437,1,0,0:0:0:0:
320,192,104525,1,0,0:0:0:0:
448,192,104614,1,0,0:0:0:0:
64,192,104614,1,0,0:0:0:0:
192,192,104702,1,0,0:0:0:0:
320,192,104702,1,0,0:0:0:0:
64,192,104790,1,0,0:0:0:0:
448,192,104790,1,0,0:0:0:0:
320,192,104878,1,0,0:0:0:0:
192,192,104967,1,0,0:0:0:0:
64,192,104967,1,0,0:0:0:0:
448,192,104967,1,0,0:0:0:0:
320,192,105320,1,0,0:0:0:0:
448,192,105320,1,0,0:0:0:0:
64,192,105378,1,0,0:0:0:0:
192,192,105437,1,0,0:0:0:0:
448,192,105496,1,0,0:0:0:0:
320,192,105555,1,0,0:0:0:0:
192,192,105614,1,0,0:0:0:0:
448,192,105672,1,0,0:0:0:0:
320,192,105731,1,0,0:0:0:0:
64,192,105790,1,0,0:0:0:0:
192,192,105849,1,0,0:0:0:0:
448,192,105908,1,0,0:0:0:0:
320,192,105967,1,0,0:0:0:0:
64,192,106025,1,0,0:0:0:0:
192,192,106047,1,0,0:0:0:0:
64,192,106114,1,0,0:0:0:0:
448,192,106202,1,0,0:0:0:0:
320,192,106246,1,0,0:0:0:0:
192,192,106290,1,0,0:0:0:0:
64,192,106378,1,0,0:0:0:0:
448,192,106378,1,0,0:0:0:0:
64,192,106467,1,0,0:0:0:0:
320,192,106555,1,0,0:0:0:0:
192,192,106599,1,0,0:0:0:0:
320,192,106731,1,0,0:0:0:0:
192,192,106775,1,0,0:0:0:0:
448,192,106908,1,0,0:0:0:0:
320,192,106952,1,0,0:0:0:0:
64,192,106996,1,0,0:0:0:0:
192,192,107040,1,0,0:0:0:0:
320,192,107084,1,0,0:0:0:0:
448,192,107084,128,0,107128:0:0:0:0:
448,192,107172,128,0,107217:0:0:0:0:
64,192,107261,128,0,107305:0:0:0:0:
64,192,107349,128,0,107393:0:0:0:0:
448,192,107437,128,0,107481:0:0:0:0:
320,192,107459,1,0,0:0:0:0:
448,192,107525,1,0,0:0:0:0:
192,192,107614,128,0,107658:0:0:0:0:
320,192,107658,1,0,0:0:0:0:
448,192,107790,1,0,0:0:0:0:
64,192,107834,1,0,0:0:0:0:
192,192,107878,1,0,0:0:0:0:
320,192,107967,1,0,0:0:0:0:
448,192,108011,1,0,0:0:0:0:
192,192,108055,1,0,0:0:0:0:
64,192,108099,1,0,0:0:0:0:
320,192,108143,1,0,0:0:0:0:
448,192,108143,1,0,0:0:0:0:
320,192,108320,1,0,0:0:0:0:
192,192,108364,1,0,0:0:0:0:
64,192,108408,1,0,0:0:0:0:
320,192,108496,1,0,0:0:0:0:
192,192,108540,1,0,0:0:0:0:
448,192,108584,1,0,0:0:0:0:
64,192,108672,1,0,0:0:0:0:
320,192,108761,1,0,0:0:0:0:
64,192,108849,1,0,0:0:0:0:
192,192,108871,1,0,0:0:0:0:
448,192,108937,1,0,0:0:0:0:
320,192,109025,1,0,0:0:0:0:
192,192,109070,1,0,0:0:0:0:
448,192,109202,1,0,0:0:0:0:
64,192,109202,1,0,0:0:0:0:
64,192,109290,1,0,0:0:0:0:
320,192,109378,1,0,0:0:0:0:
192,192,109422,1,0,0:0:0:0:
64,192,109555,1,0,0:0:0:0:
448,192,109599,1,0,0:0:0:0:
64,192,109643,1,0,0:0:0:0:
192,192,109731,128,0,109775:0:0:0:0:
320,192,109775,1,0,0:0:0:0:
448,192,109908,1,0,0:0:0:0:
192,192,109908,1,0,0:0:0:0:
448,192,109996,1,0,0:0:0:0:
64,192,110084,128,0,110128:0:0:0:0:
192,192,110128,1,0,0:0:0:0:
320,192,110172,1,0,0:0:0:0:
64,192,110261,1,0,0:0:0:0:
448,192,110283,1,0,0:0:0:0:
192,192,110305,1,0,0:0:0:0:
320,192,110349,1,0,0:0:0:0:
64,192,110393,1,0,0:0:0:0:
448,192,110437,1,0,0:0:0:0:
192,192,110437,1,0,0:0:0:0:
320,192,110525,1,0,0:0:0:0:
64,192,110614,1,0,0:0:0:0:
192,192,110658,1,0,0:0:0:0:
320,192,110702,1,0,0:0:0:0:
448,192,110746,1,0,0:0:0:0:
64,192,110790,1,0,0:0:0:0:
192,192,110878,1,0,0:0:0:0:
448,192,110967,1,0,0:0:0:0:
320,192,110967,1,0,0:0:0:0:
192,192,111025,1,0,0:0:0:0:
64,192,111084,1,0,0:0:0:0:
320,192,111143,1,0,0:0:0:0:
448,192,111231,1,0,0:0:0:0:
192,192,111320,1,0,0:0:0:0:
64,192,111320,1,0,0:0:0:0:
320,192,111408,1,0,0:0:0:0:
448,192,111496,1,0,0:0:0:0:
192,192,111584,1,0,0:0:0:0:
448,192,111672,1,0,0:0:0:0:
64,192,111695,1,0,0:0:0:0:
320,192,111761,1,0,0:0:0:0:
192,192,111849,1,0,0:0:0:0:
64,192,111849,1,0,0:0:0:0:
448,192,111937,1,0,0:0:0:0:
320,192,112025,1,0,0:0:0:0:
192,192,112025,1,0,0:0:0:0:
64,192,112084,1,0,0:0:0:0:
448,192,112143,1,0,0:0:0:0:
192,192,112202,1,0,0:0:0:0:
320,192,112261,1,0,0:0:0:0:
448,192,112320,1,0,0:0:0:0:
64,192,112378,1,0,0:0:0:0:
192,192,112437,1,0,0:0:0:0:
320,192,112496,1,0,0:0:0:0:
192,192,112555,1,0,0:0:0:0:
448,192,112614,1,0,0:0:0:0:
320,192,112672,1,0,0:0:0:0:
192,192,112731,1,0,0:0:0:0:
64,192,112731,1,0,0:0:0:0:
448,192,112790,1,0,0:0:0:0:
320,192,112849,1,0,0:0:0:0:
192,192,112908,1,0,0:0:0:0:
64,192,112952,1,0,0:0:0:0:
448,192,112996,1,0,0:0:0:0:
320,192,113040,1,0,0:0:0:0:
192,192,113084,1,0,0:0:0:0:
448,192,113106,1,0,0:0:0:0:
192,192,113172,1,0,0:0:0:0:
64,192,113261,1,0,0:0:0:0:
64,192,113349,1,0,0:0:0:0:
448,192,113437,1,0,0:0:0:0:
320,192,113481,1,0,0:0:0:0:
192,192,113525,1,0,0:0:0:0:
448,192,113570,1,0,0:0:0:0:
320,192,113614,1,0,0:0:0:0:
64,192,113658,1,0,0:0:0:0:
192,192,113702,1,0,0:0:0:0:
320,192,113746,1,0,0:0:0:0:
448,192,113790,1,0,0:0:0:0:
64,192,113790,1,0,0:0:0:0:
64,192,113967,1,0,0:0:0:0:
448,192,113967,1,0,0:0:0:0:
320,192,114055,1,0,0:0:0:0:
64,192,114143,1,0,0:0:0:0:
192,192,114143,1,0,0:0:0:0:
448,192,114143,1,0,0:0:0:0:
192,192,114320,1,0,0:0:0:0:
320,192,114320,1,0,0:0:0:0:
448,192,114408,1,0,0:0:0:0:
64,192,114496,1,0,0:0:0:0:
320,192,114496,1,0,0:0:0:0:
192,192,114496,1,0,0:0:0:0:
320,192,114672,1,0,0:0:0:0:
448,192,114672,1,0,0:0:0:0:
64,192,114761,1,0,0:0:0:0:
192,192,114849,1,0,0:0:0:0:
320,192,114849,1,0,0:0:0:0:
448,192,114849,1,0,0:0:0:0:
192,192,115025,1,0,0:0:0:0:
64,192,115025,1,0,0:0:0:0:
448,192,115114,1,0,0:0:0:0:
192,192,115202,1,0,0:0:0:0:
64,192,115202,1,0,0:0:0:0:
320,192,115290,1,0,0:0:0:0:
448,192,115378,1,0,0:0:0:0:
64,192,115378,1,0,0:0:0:0:
192,192,115467,1,0,0:0:0:0:
320,192,115555,1,0,0:0:0:0:
448,192,115555,1,0,0:0:0:0:
64,192,115555,1,0,0:0:0:0:
192,192,115643,1,0,0:0:0:0:
64,192,115731,1,0,0:0:0:0:
448,192,115731,1,0,0:0:0:0:
320,192,115820,1,0,0:0:0:0:
192,192,115908,1,0,0:0:0:0:
64,192,115908,1,0,0:0:0:0:
448,192,115908,1,0,0:0:0:0:
320,192,115996,1,0,0:0:0:0:
448,192,116084,1,0,0:0:0:0:
64,192,116084,1,0,0:0:0:0:
192,192,116172,1,0,0:0:0:0:
448,192,116261,1,0,0:0:0:0:
320,192,116261,1,0,0:0:0:0:
64,192,116261,1,0,0:0:0:0:
64,192,116614,128,0,116702:0:0:0:0:
448,192,116614,128,0,116702:0:0:0:0:
192,192,116614,128,0,116702:0:0:0:0:
320,192,116967,128,0,117320:0:0:0:0:
192,192,117143,128,0,117320:0:0:0:0:
64,192,117320,128,0,117672:0:0:0:0:
448,192,117672,128,0,118731:0:0:0:0:
192,192,118025,128,0,118202:0:0:0:0:
320,192,118378,128,0,118467:0:0:0:0:
64,192,118555,128,0,118731:0:0:0:0:
192,192,118731,128,0,118820:0:0:0:0:
64,192,119084,128,0,119261:0:0:0:0:
448,192,119437,128,0,119614:0:0:0:0:
192,192,119790,128,0,119878:0:0:0:0:
448,192,119967,128,0,120143:0:0:0:0:
320,192,120143,128,0,120231:0:0:0:0:
64,192,120496,128,0,120584:0:0:0:0:
448,192,120849,128,0,121025:0:0:0:0:
192,192,121202,128,0,121290:0:0:0:0:
64,192,121378,128,0,121555:0:0:0:0:
320,192,121555,128,0,121643:0:0:0:0:
64,192,121908,128,0,122084:0:0:0:0:
448,192,122261,128,0,122437:0:0:0:0:
192,192,122614,128,0,122967:0:0:0:0:
64,192,122790,128,0,122967:0:0:0:0:
448,192,122967,128,0,123320:0:0:0:0:
320,192,123320,128,0,124378:0:0:0:0:
448,192,123672,128,0,123849:0:0:0:0:
64,192,124025,128,0,124114:0:0:0:0:
192,192,124202,128,0,124378:0:0:0:0:
448,192,124378,128,0,124467:0:0:0:0:
64,192,124731,128,0,124908:0:0:0:0:
448,192,125084,128,0,125261:0:0:0:0:
320,192,125437,128,0,125525:0:0:0:0:
448,192,125614,128,0,125790:0:0:0:0:
192,192,125790,128,0,125878:0:0:0:0:
64,192,126143,128,0,126231:0:0:0:0:
320,192,126496,128,0,126672:0:0:0:0:
192,192,126849,128,0,126937:0:0:0:0:
320,192,126937,128,0,127025:0:0:0:0:
64,192,127025,128,0,127114:0:0:0:0:
192,192,127114,128,0,127202:0:0:0:0:
448,192,127202,128,0,127290:0:0:0:0:
320,192,127290,128,0,127378:0:0:0:0:
192,192,127378,128,0,127467:0:0:0:0:
320,192,127467,128,0,127555:0:0:0:0:
64,192,127555,128,0,127643:0:0:0:0:
448,192,127643,128,0,127731:0:0:0:0:
192,192,127731,128,0,127820:0:0:0:0:
320,192,127820,128,0,127908:0:0:0:0:
64,192,127908,128,0,127996:0:0:0:0:
64,192,128084,1,0,0:0:0:0:
192,192,128261,128,0,128614:0:0:0:0:
320,192,128437,128,0,128525:0:0:0:0:
448,192,128614,128,0,128967:0:0:0:0:
64,192,128790,1,0,0:0:0:0:
320,192,128967,128,0,129672:0:0:0:0:
192,192,129143,1,0,0:0:0:0:
64,192,129320,128,0,129408:0:0:0:0:
448,192,129496,1,0,0:0:0:0:
192,192,129672,128,0,130025:0:0:0:0:
320,192,129849,1,0,0:0:0:0:
448,192,130025,128,0,130202:0:0:0:0:
64,192,130025,128,0,130114:0:0:0:0:
320,192,130202,128,0,130378:0:0:0:0:
192,192,130378,128,0,130555:0:0:0:0:
64,192,130555,128,0,130731:0:0:0:0:
448,192,130731,128,0,130820:0:0:0:0:
448,192,130908,1,0,0:0:0:0:
64,192,131084,128,0,131437:0:0:0:0:
320,192,131261,1,0,0:0:0:0:
448,192,131437,128,0,131790:0:0:0:0:
64,192,131614,1,0,0:0:0:0:
192,192,131790,128,0,132496:0:0:0:0:
320,192,131967,1,0,0:0:0:0:
448,192,132143,128,0,132231:0:0:0:0:
64,192,132320,1,0,0:0:0:0:
320,192,132496,128,0,132849:0:0:0:0:
448,192,132672,1,0,0:0:0:0:
64,192,132849,128,0,133025:0:0:0:0:
192,192,132849,128,0,132937:0:0:0:0:
320,192,133025,128,0,133202:0:0:0:0:
192,192,133202,128,0,133378:0:0:0:0:
448,192,133378,128,0,133731:0:0:0:0:
64,192,133555,128,0,133643:0:0:0:0:
192,192,133731,128,0,134084:0:0:0:0:
320,192,133908,1,0,0:0:0:0:
64,192,134084,128,0,134261:0:0:0:0:
320,192,134261,128,0,134437:0:0:0:0:
192,192,134437,128,0,134614:0:0:0:0:
448,192,134614,128,0,134790:0:0:0:0:
320,192,134790,128,0,135143:0:0:0:0:
192,192,134967,128,0,135055:0:0:0:0:
64,192,135143,128,0,135496:0:0:0:0:
448,192,135320,1,0,0:0:0:0:
192,192,135496,128,0,135672:0:0:0:0:
448,192,135672,128,0,135849:0:0:0:0:
64,192,135672,128,0,135761:0:0:0:0:
320,192,135849,128,0,136025:0:0:0:0:
192,192,136025,128,0,136202:0:0:0:0:
64,192,136202,128,0,136555:0:0:0:0:
448,192,136378,128,0,136467:0:0:0:0:
320,192,136555,128,0,137437:0:0:0:0:
64,192,136731,1,0,0:0:0:0:
448,192,136908,1,0,0:0:0:0:
192,192,137084,128,0,137172:0:0:0:0:
64,192,137261,128,0,137790:0:0:0:0:
448,192,137437,1,0,0:0:0:0:
192,192,137614,1,0,0:0:0:0:
448,192,137790,128,0,137878:0:0:0:0:
320,192,137967,1,0,0:0:0:0:
192,192,138055,128,0,138143:0:0:0:0:
448,192,138143,128,0,138231:0:0:0:0:
64,192,138231,128,0,138320:0:0:0:0:
448,192,138320,128,0,138408:0:0:0:0:
192,192,138408,128,0,138496:0:0:0:0:
448,192,138496,128,0,138584:0:0:0:0:
320,192,138584,128,0,138672:0:0:0:0:
448,192,138672,128,0,138761:0:0:0:0:
64,192,138761,128,0,138849:0:0:0:0:
448,192,138849,128,0,138937:0:0:0:0:
192,192,138937,128,0,139025:0:0:0:0:
448,192,139025,128,0,139114:0:0:0:0:
64,192,139114,128,0,139202:0:0:0:0:
448,192,139202,1,0,0:0:0:0:
192,192,139202,1,0,0:0:0:0:
320,192,139378,128,0,139467:0:0:0:0:
64,192,139555,128,0,139643:0:0:0:0:
448,192,139731,128,0,139820:0:0:0:0:
192,192,139908,1,0,0:0:0:0:
320,192,140084,128,0,140172:0:0:0:0:
64,192,140261,128,0,140349:0:0:0:0:
448,192,140437,128,0,140496:0:0:0:0:
320,192,140496,128,0,140790:0:0:0:0:
64,192,140614,1,0,0:0:0:0:
192,192,140790,128,0,140878:0:0:0:0:
448,192,140967,128,0,141055:0:0:0:0:
64,192,141143,128,0,141231:0:0:0:0:
64,192,141320,128,0,141408:0:0:0:0:
320,192,141496,128,0,141584:0:0:0:0:
192,192,141672,128,0,141761:0:0:0:0:
64,192,141849,128,0,141908:0:0:0:0:
448,192,141908,128,0,142202:0:0:0:0:
320,192,142025,1,0,0:0:0:0:
192,192,142202,128,0,142290:0:0:0:0:
192,192,142378,128,0,142731:0:0:0:0:
448,192,142555,1,0,0:0:0:0:
64,192,142731,1,0,0:0:0:0:
320,192,142908,128,0,142996:0:0:0:0:
192,192,143084,1,0,0:0:0:0:
64,192,143261,128,0,143320:0:0:0:0:
192,192,143320,128,0,143614:0:0:0:0:
320,192,143437,1,0,0:0:0:0:
448,192,143614,128,0,143702:0:0:0:0:
448,192,143790,128,0,144143:0:0:0:0:
64,192,143967,1,0,0:0:0:0:
320,192,144143,1,0,0:0:0:0:
192,192,144320,128,0,144408:0:0:0:0:
320,192,144496,128,0,144584:0:0:0:0:
64,192,144672,128,0,144761:0:0:0:0:
192,192,144761,128,0,144849:0:0:0:0:
64,192,144849,128,0,144937:0:0:0:0:
448,192,145025,128,0,145114:0:0:0:0:
448,192,145202,128,0,145555:0:0:0:0:
192,192,145378,1,0,0:0:0:0:
64,192,145555,1,0,0:0:0:0:
192,192,145731,128,0,145820:0:0:0:0:
320,192,145908,128,0,145996:0:0:0:0:
64,192,146084,128,0,146143:0:0:0:0:
192,192,146143,128,0,146437:0:0:0:0:
320,192,146261,1,0,0:0:0:0:
448,192,146437,128,0,146525:0:0:0:0:
64,192,146614,128,0,146702:0:0:0:0:
320,192,146790,128,0,147143:0:0:0:0:
448,192,146967,1,0,0:0:0:0:
192,192,147143,128,0,147231:0:0:0:0:
192,192,147320,128,0,147408:0:0:0:0:
320,192,147496,128,0,147584:0:0:0:0:
448,192,147672,128,0,147761:0:0:0:0:
192,192,147849,128,0,147937:0:0:0:0:
64,192,148025,128,0,148114:0:0:0:0:
448,192,148202,128,0,148555:0:0:0:0:
64,192,148378,1,0,0:0:0:0:
192,192,148555,128,0,148643:0:0:0:0:
320,192,148731,128,0,148820:0:0:0:0:
192,192,148908,128,0,148996:0:0:0:0:
64,192,148996,128,0,149084:0:0:0:0:
192,192,149084,128,0,149172:0:0:0:0:
448,192,149261,128,0,149349:0:0:0:0:
448,192,149437,128,0,149790:0:0:0:0:
64,192,149525,128,0,149614:0:0:0:0:
320,192,149614,128,0,149702:0:0:0:0:
192,192,149702,128,0,149790:0:0:0:0:
64,192,149790,128,0,149878:0:0:0:0:
320,192,149878,128,0,149967:0:0:0:0:
192,192,149967,128,0,150055:0:0:0:0:
448,192,150055,128,0,150143:0:0:0:0:
320,192,150143,128,0,150231:0:0:0:0:
64,192,150231,128,0,150320:0:0:0:0:
192,192,150320,128,0,150408:0:0:0:0:
320,192,150408,128,0,150496:0:0:0:0:
448,192,150496,1,0,0:0:0:0:
64,192,150496,1,0,0:0:0:0:
192,192,150496,1,0,0:0:0:0:
320,192,150672,1,0,0:0:0:0:
448,192,150849,1,0,0:0:0:0:
64,192,150849,1,0,0:0:0:0:
192,192,150849,1,0,0:0:0:0:
320,192,151025,1,0,0:0:0:0:
64,192,151114,1,0,0:0:0:0:
192,192,151202,1,0,0:0:0:0:
320,192,151202,1,0,0:0:0:0:
448,192,151202,1,0,0:0:0:0:
64,192,151290,1,0,0:0:0:0:
320,192,151378,1,0,0:0:0:0:
64,192,151555,1,0,0:0:0:0:
192,192,151555,1,0,0:0:0:0:
448,192,151555,1,0,0:0:0:0:
320,192,151731,1,0,0:0:0:0:
192,192,151820,1,0,0:0:0:0:
320,192,151908,1,0,0:0:0:0:
64,192,151908,1,0,0:0:0:0:
448,192,151908,1,0,0:0:0:0:
64,192,152084,1,0,0:0:0:0:
192,192,152261,1,0,0:0:0:0:
320,192,152261,1,0,0:0:0:0:
448,192,152261,1,0,0:0:0:0:
320,192,152437,1,0,0:0:0:0:
192,192,152525,1,0,0:0:0:0:
448,192,152614,1,0,0:0:0:0:
320,192,152614,1,0,0:0:0:0:
64,192,152614,1,0,0:0:0:0:
192,192,152790,1,0,0:0:0:0:
448,192,152967,1,0,0:0:0:0:
64,192,152967,1,0,0:0:0:0:
192,192,152967,1,0,0:0:0:0:
320,192,153143,1,0,0:0:0:0:
64,192,153231,1,0,0:0:0:0:
192,192,153320,1,0,0:0:0:0:
320,192,153320,1,0,0:0:0:0:
448,192,153320,1,0,0:0:0:0:
448,192,153496,1,0,0:0:0:0:
64,192,153672,1,0,0:0:0:0:
192,192,153672,1,0,0:0:0:0:
320,192,153672,1,0,0:0:0:0:
64,192,153849,1,0,0:0:0:0:
320,192,153937,1,0,0:0:0:0:
64,192,154025,1,0,0:0:0:0:
192,192,154025,1,0,0:0:0:0:
448,192,154025,1,0,0:0:0:0:
320,192,154202,1,0,0:0:0:0:
192,192,154378,1,0,0:0:0:0:
320,192,154378,1,0,0:0:0:0:
448,192,154378,1,0,0:0:0:0:
64,192,154555,1,0,0:0:0:0:
192,192,154643,1,0,0:0:0:0:
64,192,154731,1,0,0:0:0:0:
320,192,154731,1,0,0:0:0:0:
448,192,154731,1,0,0:0:0:0:
320,192,154908,1,0,0:0:0:0:
64,192,155084,1,0,0:0:0:0:
192,192,155084,1,0,0:0:0:0:
448,192,155084,1,0,0:0:0:0:
320,192,155261,1,0,0:0:0:0:
192,192,155349,1,0,0:0:0:0:
64,192,155437,1,0,0:0:0:0:
448,192,155437,1,0,0:0:0:0:
448,192,155614,1,0,0:0:0:0:
320,192,155790,1,0,0:0:0:0:
64,192,155790,1,0,0:0:0:0:
192,192,155790,1,0,0:0:0:0:
64,192,155967,1,0,0:0:0:0:
448,192,156143,1,0,0:0:0:0:
320,192,156143,1,0,0:0:0:0:
192,192,156143,1,0,0:0:0:0:
448,192,156320,1,0,0:0:0:0:
320,192,156320,1,0,0:0:0:0:
448,192,156496,1,0,0:0:0:0:
320,192,156496,1,0,0:0:0:0:
448,192,156672,1,0,0:0:0:0:
320,192,156672,1,0,0:0:0:0:
320,192,156849,1,0,0:0:0:0:
192,192,156849,1,0,0:0:0:0:
64,192,156849,1,0,0:0:0:0:
192,192,157025,1,0,0:0:0:0:
64,192,157025,1,0,0:0:0:0:
192,192,157202,1,0,0:0:0:0:
64,192,157202,1,0,0:0:0:0:
448,192,157202,1,0,0:0:0:0:
192,192,157378,1,0,0:0:0:0:
64,192,157378,1,0,0:0:0:0:
448,192,157555,1,0,0:0:0:0:
320,192,157555,1,0,0:0:0:0:
64,192,157555,1,0,0:0:0:0:
448,192,157731,1,0,0:0:0:0:
320,192,157731,1,0,0:0:0:0:
448,192,157908,1,0,0:0:0:0:
320,192,157908,1,0,0:0:0:0:
448,192,158084,1,0,0:0:0:0:
320,192,158084,1,0,0:0:0:0:
448,192,158261,1,0,0:0:0:0:
192,192,158261,1,0,0:0:0:0:
64,192,158261,1,0,0:0:0:0:
192,192,158437,1,0,0:0:0:0:
64,192,158437,1,0,0:0:0:0:
192,192,158614,1,0,0:0:0:0:
64,192,158614,1,0,0:0:0:0:
320,192,158614,1,0,0:0:0:0:
192,192,158790,1,0,0:0:0:0:
64,192,158790,1,0,0:0:0:0:
320,192,158967,1,0,0:0:0:0:
448,192,158967,128,0,159055:0:0:0:0:
64,192,159055,1,0,0:0:0:0:
192,192,159055,128,0,159143:0:0:0:0:
448,192,159143,1,0,0:0:0:0:
320,192,159143,128,0,159231:0:0:0:0:
192,192,159231,128,0,159320:0:0:0:0:
320,192,159320,1,0,0:0:0:0:
448,192,159320,1,0,0:0:0:0:
64,192,159320,128,0,159408:0:0:0:0:
192,192,159408,128,0,159496:0:0:0:0:
320,192,159496,1,0,0:0:0:0:
448,192,159496,128,0,159584:0:0:0:0:
192,192,159584,128,0,159672:0:0:0:0:
448,192,159672,1,0,0:0:0:0:
64,192,159672,1,0,0:0:0:0:
320,192,159672,128,0,159761:0:0:0:0:
192,192,159761,128,0,159849:0:0:0:0:
320,192,159849,1,0,0:0:0:0:
448,192,159849,128,0,159937:0:0:0:0:
192,192,159937,128,0,160025:0:0:0:0:
320,192,160025,1,0,0:0:0:0:
448,192,160025,1,0,0:0:0:0:
64,192,160025,128,0,160114:0:0:0:0:
192,192,160114,128,0,160202:0:0:0:0:
448,192,160202,1,0,0:0:0:0:
320,192,160202,128,0,160290:0:0:0:0:
64,192,160290,1,0,0:0:0:0:
192,192,160290,128,0,160378:0:0:0:0:
320,192,160378,1,0,0:0:0:0:
448,192,160378,1,0,0:0:0:0:
448,192,160555,1,0,0:0:0:0:
320,192,160555,1,0,0:0:0:0:
448,192,160731,1,0,0:0:0:0:
320,192,160731,1,0,0:0:0:0:
192,192,160731,1,0,0:0:0:0:
64,192,160731,1,0,0:0:0:0:
192,192,160908,1,0,0:0:0:0:
64,192,160908,1,0,0:0:0:0:
192,192,160996,1,0,0:0:0:0:
64,192,160996,1,0,0:0:0:0:
448,192,161084,1,0,0:0:0:0:
320,192,161084,1,0,0:0:0:0:
192,192,161084,1,0,0:0:0:0:
64,192,161084,1,0,0:0:0:0:
448,192,161172,1,0,0:0:0:0:
320,192,161172,1,0,0:0:0:0:
192,192,161261,1,0,0:0:0:0:
64,192,161261,1,0,0:0:0:0:
192,192,161349,1,0,0:0:0:0:
64,192,161349,1,0,0:0:0:0:
64,192,161437,1,0,0:0:0:0:
320,192,161437,1,0,0:0:0:0:
448,192,161437,1,0,0:0:0:0:
64,192,161790,128,0,161967:0:0:0:0:
192,192,161790,128,0,161922:0:0:0:0:
320,192,161790,128,0,161878:0:0:0:0:
448,192,161967,128,0,162055:0:0:0:0:
64,192,162143,128,0,162231:0:0:0:0:
320,192,162143,1,0,0:0:0:0:
192,192,162187,128,0,162320:0:0:0:0:
320,192,162320,128,0,162496:0:0:0:0:
448,192,162320,1,0,0:0:0:0:
64,192,162496,1,0,0:0:0:0:
192,192,162496,1,0,0:0:0:0:
192,192,162672,128,0,162849:0:0:0:0:
320,192,162672,1,0,0:0:0:0:
448,192,162849,1,0,0:0:0:0:
64,192,162849,1,0,0:0:0:0:
64,192,163025,128,0,163114:0:0:0:0:
320,192,163070,128,0,163114:0:0:0:0:
192,192,163114,128,0,163202:0:0:0:0:
448,192,163158,128,0,163202:0:0:0:0:
64,192,163202,1,0,0:0:0:0:
320,192,163202,1,0,0:0:0:0:
192,192,163290,128,0,163378:0:0:0:0:
64,192,163378,128,0,163555:0:0:0:0:
448,192,163378,1,0,0:0:0:0:
320,192,163555,1,0,0:0:0:0:
448,192,163555,1,0,0:0:0:0:
448,192,163731,128,0,163908:0:0:0:0:
192,192,163820,128,0,163908:0:0:0:0:
64,192,163908,1,0,0:0:0:0:
320,192,163908,1,0,0:0:0:0:
192,192,163996,128,0,164084:0:0:0:0:
448,192,164084,128,0,164261:0:0:0:0:
320,192,164084,1,0,0:0:0:0:
192,192,164261,1,0,0:0:0:0:
64,192,164261,1,0,0:0:0:0:
320,192,164437,128,0,164525:0:0:0:0:
448,192,164481,128,0,164525:0:0:0:0:
192,192,164525,128,0,164614:0:0:0:0:
320,192,164570,128,0,164614:0:0:0:0:
64,192,164614,1,0,0:0:0:0:
448,192,164614,1,0,0:0:0:0:
320,192,164702,128,0,164790:0:0:0:0:
192,192,164790,128,0,164967:0:0:0:0:
448,192,164790,1,0,0:0:0:0:
448,192,164967,128,0,165231:0:0:0:0:
320,192,164967,1,0,0:0:0:0:
64,192,165011,128,0,165320:0:0:0:0:
320,192,165320,1,0,0:0:0:0:
448,192,165320,1,0,0:0:0:0:
64,192,165496,128,0,165672:0:0:0:0:
320,192,165496,1,0,0:0:0:0:
192,192,165672,1,0,0:0:0:0:
448,192,165672,1,0,0:0:0:0:
192,192,165849,128,0,165937:0:0:0:0:
320,192,165893,128,0,166025:0:0:0:0:
448,192,166025,1,0,0:0:0:0:
64,192,166025,1,0,0:0:0:0:
320,192,166114,128,0,166202:0:0:0:0:
64,192,166202,128,0,166290:0:0:0:0:
192,192,166202,1,0,0:0:0:0:
64,192,166378,128,0,166643:0:0:0:0:
448,192,166378,1,0,0:0:0:0:
192,192,166422,128,0,166731:0:0:0:0:
320,192,166731,1,0,0:0:0:0:
64,192,166731,1,0,0:0:0:0:
192,192,166908,128,0,167084:0:0:0:0:
64,192,166908,1,0,0:0:0:0:
320,192,167084,1,0,0:0:0:0:
448,192,167084,1,0,0:0:0:0:
320,192,167261,128,0,167349:0:0:0:0:
448,192,167305,128,0,167349:0:0:0:0:
192,192,167349,128,0,167437:0:0:0:0:
64,192,167393,128,0,167437:0:0:0:0:
320,192,167437,1,0,0:0:0:0:
448,192,167437,1,0,0:0:0:0:
192,192,167525,128,0,167614:0:0:0:0:
448,192,167614,128,0,167790:0:0:0:0:
64,192,167614,1,0,0:0:0:0:
64,192,167790,1,0,0:0:0:0:
192,192,167790,128,0,168055:0:0:0:0:
320,192,167834,128,0,168143:0:0:0:0:
64,192,168143,1,0,0:0:0:0:
192,192,168143,1,0,0:0:0:0:
192,192,168320,128,0,168496:0:0:0:0:
448,192,168320,1,0,0:0:0:0:
64,192,168496,1,0,0:0:0:0:
320,192,168496,1,0,0:0:0:0:
448,192,168672,128,0,168761:0:0:0:0:
192,192,168717,128,0,168761:0:0:0:0:
320,192,168761,128,0,168849:0:0:0:0:
64,192,168805,128,0,168849:0:0:0:0:
192,192,168849,1,0,0:0:0:0:
448,192,168849,1,0,0:0:0:0:
320,192,168937,128,0,169025:0:0:0:0:
64,192,169025,128,0,169202:0:0:0:0:
448,192,169025,1,0,0:0:0:0:
320,192,169202,1,0,0:0:0:0:
448,192,169202,1,0,0:0:0:0:
192,192,169378,128,0,169555:0:0:0:0:
320,192,169467,128,0,169555:0:0:0:0:
448,192,169555,1,0,0:0:0:0:
64,192,169555,1,0,0:0:0:0:
192,192,169643,128,0,169731:0:0:0:0:
320,192,169731,128,0,169908:0:0:0:0:
448,192,169731,1,0,0:0:0:0:
64,192,169908,1,0,0:0:0:0:
192,192,169908,1,0,0:0:0:0:
320,192,169996,128,0,170084:0:0:0:0:
64,192,170084,128,0,170261:0:0:0:0:
448,192,170084,1,0,0:0:0:0:
192,192,170261,1,0,0:0:0:0:
320,192,170261,128,0,170349:0:0:0:0:
192,192,170437,128,0,170525:0:0:0:0:
448,192,170437,1,0,0:0:0:0:
320,192,170614,1,0,0:0:0:0:
64,192,170614,128,0,170702:0:0:0:0:
448,192,170790,128,0,170967:0:0:0:0:
192,192,170790,1,0,0:0:0:0:
64,192,170967,1,0,0:0:0:0:
320,192,170967,128,0,171055:0:0:0:0:
192,192,171143,128,0,171231:0:0:0:0:
448,192,171143,1,0,0:0:0:0:
64,192,171320,1,0,0:0:0:0:
448,192,171320,128,0,171408:0:0:0:0:
320,192,171496,128,0,171584:0:0:0:0:
64,192,171540,128,0,171584:0:0:0:0:
448,192,171584,128,0,171672:0:0:0:0:
192,192,171628,128,0,171672:0:0:0:0:
320,192,171672,1,0,0:0:0:0:
64,192,171672,1,0,0:0:0:0:
448,192,171761,128,0,171849:0:0:0:0:
192,192,171849,128,0,171937:0:0:0:0:
64,192,171849,1,0,0:0:0:0:
448,192,172025,128,0,172290:0:0:0:0:
320,192,172025,1,0,0:0:0:0:
192,192,172070,128,0,172378:0:0:0:0:
64,192,172378,1,0,0:0:0:0:
448,192,172378,128,0,172467:0:0:0:0:
320,192,172467,128,0,172555:0:0:0:0:
192,192,172555,128,0,172643:0:0:0:0:
64,192,172643,128,0,172731:0:0:0:0:
320,192,172731,1,0,0:0:0:0:
448,192,172731,1,0,0:0:0:0:
64,192,172820,128,0,172908:0:0:0:0:
192,192,172908,1,0,0:0:0:0:
320,192,172996,1,0,0:0:0:0:
448,192,173084,1,0,0:0:0:0:
64,192,173084,1,0,0:0:0:0:
192,192,173172,1,0,0:0:0:0:
320,192,173261,1,0,0:0:0:0:
64,192,173349,1,0,0:0:0:0:
192,192,173437,1,0,0:0:0:0:
448,192,173437,1,0,0:0:0:0:
320,192,173525,1,0,0:0:0:0:
64,192,173614,1,0,0:0:0:0:
448,192,173702,1,0,0:0:0:0:
320,192,173790,1,0,0:0:0:0:
192,192,173790,1,0,0:0:0:0:
64,192,173878,1,0,0:0:0:0:
448,192,173967,1,0,0:0:0:0:
192,192,174055,1,0,0:0:0:0:
320,192,174143,1,0,0:0:0:0:
64,192,174143,1,0,0:0:0:0:
448,192,174231,1,0,0:0:0:0:
192,192,174320,1,0,0:0:0:0:
448,192,174408,1,0,0:0:0:0:
64,192,174496,1,0,0:0:0:0:
192,192,174496,1,0,0:0:0:0:
320,192,174584,1,0,0:0:0:0:
448,192,174672,1,0,0:0:0:0:
192,192,174761,1,0,0:0:0:0:
448,192,174849,1,0,0:0:0:0:
320,192,174849,1,0,0:0:0:0:
64,192,174937,1,0,0:0:0:0:
192,192,175025,1,0,0:0:0:0:
320,192,175114,1,0,0:0:0:0:
64,192,175202,1,0,0:0:0:0:
448,192,175202,1,0,0:0:0:0:
192,192,175290,1,0,0:0:0:0:
320,192,175378,1,0,0:0:0:0:
64,192,175378,1,0,0:0:0:0:
192,192,175467,1,0,0:0:0:0:
448,192,175555,1,0,0:0:0:0:
320,192,175555,1,0,0:0:0:0:
64,192,175643,1,0,0:0:0:0:
192,192,175731,1,0,0:0:0:0:
320,192,175731,1,0,0:0:0:0:
448,192,175820,1,0,0:0:0:0:
64,192,175908,1,0,0:0:0:0:
192,192,175908,1,0,0:0:0:0:
320,192,175996,1,0,0:0:0:0:
448,192,176084,1,0,0:0:0:0:
64,192,176172,1,0,0:0:0:0:
192,192,176261,1,0,0:0:0:0:
320,192,176261,1,0,0:0:0:0:
448,192,176349,1,0,0:0:0:0:
64,192,176437,1,0,0:0:0:0:
320,192,176525,1,0,0:0:0:0:
192,192,176614,1,0,0:0:0:0:
64,192,176614,1,0,0:0:0:0:
448,192,176702,1,0,0:0:0:0:
320,192,176790,1,0,0:0:0:0:
192,192,176878,1,0,0:0:0:0:
448,192,176967,1,0,0:0:0:0:
320,192,176967,1,0,0:0:0:0:
64,192,177055,1,0,0:0:0:0:
448,192,177143,1,0,0:0:0:0:
192,192,177231,1,0,0:0:0:0:
64,192,177320,1,0,0:0:0:0:
320,192,177320,1,0,0:0:0:0:
192,192,177408,1,0,0:0:0:0:
320,192,177496,1,0,0:0:0:0:
448,192,177584,1,0,0:0:0:0:
192,192,177672,1,0,0:0:0:0:
64,192,177672,1,0,0:0:0:0:
320,192,177761,1,0,0:0:0:0:
448,192,177849,1,0,0:0:0:0:
192,192,177937,1,0,0:0:0:0:
448,192,178025,1,0,0:0:0:0:
320,192,178025,1,0,0:0:0:0:
64,192,178114,1,0,0:0:0:0:
320,192,178202,1,0,0:0:0:0:
448,192,178202,1,0,0:0:0:0:
192,192,178290,1,0,0:0:0:0:
64,192,178378,1,0,0:0:0:0:
448,192,178378,1,0,0:0:0:0:
320,192,178467,1,0,0:0:0:0:
64,192,178555,1,0,0:0:0:0:
192,192,178555,1,0,0:0:0:0:
448,192,178643,1,0,0:0:0:0:
64,192,178731,1,0,0:0:0:0:
192,192,178731,1,0,0:0:0:0:
320,192,178820,1,0,0:0:0:0:
448,192,178908,1,0,0:0:0:0:
192,192,178996,1,0,0:0:0:0:
64,192,179084,1,0,0:0:0:0:
320,192,179084,1,0,0:0:0:0:
448,192,179172,1,0,0:0:0:0:
192,192,179261,1,0,0:0:0:0:
320,192,179349,1,0,0:0:0:0:
448,192,179437,1,0,0:0:0:0:
64,192,179437,1,0,0:0:0:0:
192,192,179525,1,0,0:0:0:0:
320,192,179614,1,0,0:0:0:0:
448,192,179702,1,0,0:0:0:0:
64,192,179790,1,0,0:0:0:0:
192,192,179790,1,0,0:0:0:0:
320,192,179878,1,0,0:0:0:0:
448,192,179967,1,0,0:0:0:0:
192,192,179967,1,0,0:0:0:0:
320,192,180055,1,0,0:0:0:0:
64,192,180143,1,0,0:0:0:0:
448,192,180143,1,0,0:0:0:0:
192,192,180231,1,0,0:0:0:0:
320,192,180320,1,0,0:0:0:0:
448,192,180408,1,0,0:0:0:0:
192,192,180496,1,0,0:0:0:0:
64,192,180496,1,0,0:0:0:0:
320,192,180584,1,0,0:0:0:0:
64,192,180672,1,0,0:0:0:0:
448,192,180761,1,0,0:0:0:0:
192,192,180849,1,0,0:0:0:0:
320,192,180849,1,0,0:0:0:0:
64,192,180937,1,0,0:0:0:0:
448,192,181025,1,0,0:0:0:0:
320,192,181025,1,0,0:0:0:0:
192,192,181114,1,0,0:0:0:0:
64,192,181202,1,0,0:0:0:0:
448,192,181202,1,0,0:0:0:0:
320,192,181290,1,0,0:0:0:0:
192,192,181378,1,0,0:0:0:0:
64,192,181378,1,0,0:0:0:0:
448,192,181467,1,0,0:0:0:0:
320,192,181555,1,0,0:0:0:0:
192,192,181555,1,0,0:0:0:0:
64,192,181643,1,0,0:0:0:0:
448,192,181731,1,0,0:0:0:0:
192,192,181820,1,0,0:0:0:0:
448,192,181908,1,0,0:0:0:0:
320,192,181908,1,0,0:0:0:0:
64,192,181996,1,0,0:0:0:0:
192,192,182084,1,0,0:0:0:0:
448,192,182084,1,0,0:0:0:0:
320,192,182172,1,0,0:0:0:0:
192,192,182261,1,0,0:0:0:0:
64,192,182261,1,0,0:0:0:0:
448,192,182349,1,0,0:0:0:0:
64,192,182437,1,0,0:0:0:0:
192,192,182525,1,0,0:0:0:0:
448,192,182614,1,0,0:0:0:0:
320,192,182614,1,0,0:0:0:0:
192,192,182702,1,0,0:0:0:0:
320,192,182790,1,0,0:0:0:0:
448,192,182878,1,0,0:0:0:0:
192,192,182967,1,0,0:0:0:0:
64,192,182967,1,0,0:0:0:0:
320,192,183055,1,0,0:0:0:0:
64,192,183143,1,0,0:0:0:0:
192,192,183143,1,0,0:0:0:0:
448,192,183231,1,0,0:0:0:0:
192,192,183320,1,0,0:0:0:0:
320,192,183320,1,0,0:0:0:0:
64,192,183408,1,0,0:0:0:0:
448,192,183496,1,0,0:0:0:0:
192,192,183584,1,0,0:0:0:0:
320,192,183672,1,0,0:0:0:0:
448,192,183672,1,0,0:0:0:0:
64,192,183761,1,0,0:0:0:0:
192,192,183849,1,0,0:0:0:0:
320,192,183849,1,0,0:0:0:0:
448,192,183937,1,0,0:0:0:0:
192,192,184025,1,0,0:0:0:0:
64,192,184025,1,0,0:0:0:0:
320,192,184114,1,0,0:0:0:0:
448,192,184202,1,0,0:0:0:0:
192,192,184290,1,0,0:0:0:0:
448,192,184378,1,0,0:0:0:0:
64,192,184378,1,0,0:0:0:0:
320,192,184467,1,0,0:0:0:0:
192,192,184555,1,0,0:0:0:0:
448,192,184643,1,0,0:0:0:0:
320,192,184731,1,0,0:0:0:0:
64,192,184731,1,0,0:0:0:0:
192,192,184820,1,0,0:0:0:0:
448,192,184908,1,0,0:0:0:0:
64,192,184996,1,0,0:0:0:0:
192,192,185084,1,0,0:0:0:0:
320,192,185084,1,0,0:0:0:0:
448,192,185172,1,0,0:0:0:0:
64,192,185261,1,0,0:0:0:0:
320,192,185349,1,0,0:0:0:0:
192,192,185437,1,0,0:0:0:0:
448,192,185437,1,0,0:0:0:0:
64,192,185525,1,0,0:0:0:0:
320,192,185614,1,0,0:0:0:0:
64,192,185702,1,0,0:0:0:0:
448,192,185790,1,0,0:0:0:0:
320,192,185790,1,0,0:0:0:0:
192,192,185878,1,0,0:0:0:0:
64,192,185967,1,0,0:0:0:0:
320,192,186055,1,0,0:0:0:0:
64,192,186143,1,0,0:0:0:0:
192,192,186143,1,0,0:0:0:0:
448,192,186231,1,0,0:0:0:0:
320,192,186320,1,0,0:0:0:0:
192,192,186408,1,0,0:0:0:0:
448,192,186496,1,0,0:0:0:0:
64,192,186496,1,0,0:0:0:0:
320,192,186584,1,0,0:0:0:0:
192,192,186672,1,0,0:0:0:0:
448,192,186672,1,0,0:0:0:0:
320,192,186761,1,0,0:0:0:0:
64,192,186849,1,0,0:0:0:0:
192,192,186849,1,0,0:0:0:0:
448,192,186937,1,0,0:0:0:0:
320,192,187025,1,0,0:0:0:0:
192,192,187025,1,0,0:0:0:0:
64,192,187114,1,0,0:0:0:0:
448,192,187202,1,0,0:0:0:0:
320,192,187202,1,0,0:0:0:0:
192,192,187290,1,0,0:0:0:0:
64,192,187378,1,0,0:0:0:0:
448,192,187467,1,0,0:0:0:0:
320,192,187555,1,0,0:0:0:0:
192,192,187555,1,0,0:0:0:0:
64,192,187643,1,0,0:0:0:0:
448,192,187731,1,0,0:0:0:0:
192,192,187820,1,0,0:0:0:0:
320,192,187908,1,0,0:0:0:0:
448,192,187908,1,0,0:0:0:0:
64,192,187996,1,0,0:0:0:0:
192,192,188084,1,0,0:0:0:0:
320,192,188172,1,0,0:0:0:0:
64,192,188261,1,0,0:0:0:0:
192,192,188261,1,0,0:0:0:0:
448,192,188349,1,0,0:0:0:0:
64,192,188437,1,0,0:0:0:0:
320,192,188525,1,0,0:0:0:0:
448,192,188614,1,0,0:0:0:0:
192,192,188614,1,0,0:0:0:0:
320,192,188702,1,0,0:0:0:0:
192,192,188790,1,0,0:0:0:0:
64,192,188878,5,0,0:0:0:0:
320,192,188967,1,0,0:0:0:0:
448,192,188967,1,0,0:0:0:0:
192,192,189055,1,0,0:0:0:0:
64,192,189143,1,0,0:0:0:0:
448,192,189231,1,0,0:0:0:0:
320,192,189320,1,0,0:0:0:0:
192,192,189320,1,0,0:0:0:0:
64,192,189408,1,0,0:0:0:0:
448,192,189496,1,0,0:0:0:0:
320,192,189496,1,0,0:0:0:0:
192,192,189584,1,0,0:0:0:0:
448,192,189672,1,0,0:0:0:0:
64,192,189672,1,0,0:0:0:0:
320,192,189761,1,0,0:0:0:0:
192,192,189849,1,0,0:0:0:0:
64,192,189849,1,0,0:0:0:0:
320,192,189937,1,0,0:0:0:0:
192,192,190025,5,0,0:0:0:0:
64,192,190025,1,0,0:0:0:0:
448,192,190025,1,0,0:0:0:0:
64,192,190202,1,0,0:0:0:0:
320,192,190202,1,0,0:0:0:0:
448,192,190202,1,0,0:0:0:0:
64,192,190378,1,0,0:0:0:0:
192,192,190378,1,0,0:0:0:0:
448,192,190378,1,0,0:0:0:0:
64,192,190555,1,0,0:0:0:0:
320,192,190555,1,0,0:0:0:0:
448,192,190555,1,0,0:0:0:0:
64,192,190731,1,0,0:0:0:0:
320,192,190731,1,0,0:0:0:0:
192,192,190731,1,0,0:0:0:0:
192,192,190908,1,0,0:0:0:0:
448,192,190908,1,0,0:0:0:0:
320,192,190908,1,0,0:0:0:0:
64,192,191084,1,0,0:0:0:0:
320,192,191084,1,0,0:0:0:0:
192,192,191084,1,0,0:0:0:0:
192,192,191261,1,0,0:0:0:0:
448,192,191261,1,0,0:0:0:0:
320,192,191261,1,0,0:0:0:0:
64,192,191437,1,0,0:0:0:0:
192,192,191437,1,0,0:0:0:0:
448,192,191437,1,0,0:0:0:0:
192,192,191525,1,0,0:0:0:0:
320,192,191614,1,0,0:0:0:0:
64,192,191614,1,0,0:0:0:0:
192,192,191702,1,0,0:0:0:0:
64,192,191790,1,0,0:0:0:0:
320,192,191790,1,0,0:0:0:0:
448,192,191790,1,0,0:0:0:0:
448,192,191878,1,0,0:0:0:0:
192,192,191967,1,0,0:0:0:0:
320,192,191967,1,0,0:0:0:0:
448,192,192055,1,0,0:0:0:0:
320,192,192143,1,0,0:0:0:0:
192,192,192143,1,0,0:0:0:0:
64,192,192143,1,0,0:0:0:0:
192,192,192231,1,0,0:0:0:0:
320,192,192320,1,0,0:0:0:0:
448,192,192320,1,0,0:0:0:0:
64,192,192408,1,0,0:0:0:0:
192,192,192496,1,0,0:0:0:0:
320,192,192496,1,0,0:0:0:0:
448,192,192496,1,0,0:0:0:0:
192,192,192584,1,0,0:0:0:0:
64,192,192672,1,0,0:0:0:0:
448,192,192672,1,0,0:0:0:0:
192,192,192761,1,0,0:0:0:0:
320,192,192849,128,0,192937:0:0:0:0:
448,192,192849,128,0,192908:0:0:0:0:
192,192,192908,128,0,192967:0:0:0:0:
64,192,192967,128,0,193025:0:0:0:0:
320,192,193025,1,0,0:0:0:0:
448,192,193025,1,0,0:0:0:0:
192,192,193114,1,0,0:0:0:0:
64,192,193202,128,0,193261:0:0:0:0:
448,192,193202,128,0,193290:0:0:0:0:
320,192,193261,128,0,193320:0:0:0:0:
192,192,193320,128,0,193378:0:0:0:0:
64,192,193378,1,0,0:0:0:0:
448,192,193378,1,0,0:0:0:0:
320,192,193467,1,0,0:0:0:0:
192,192,193555,128,0,193643:0:0:0:0:
64,192,193555,128,0,193614:0:0:0:0:
320,192,193614,128,0,193672:0:0:0:0:
448,192,193672,128,0,193731:0:0:0:0:
64,192,193731,1,0,0:0:0:0:
192,192,193731,1,0,0:0:0:0:
320,192,193820,1,0,0:0:0:0:
448,192,193908,128,0,193967:0:0:0:0:
64,192,193908,128,0,193996:0:0:0:0:
192,192,193967,128,0,194025:0:0:0:0:
320,192,194025,128,0,194084:0:0:0:0:
64,192,194084,1,0,0:0:0:0:
448,192,194084,1,0,0:0:0:0:
192,192,194172,1,0,0:0:0:0:
320,192,194172,1,0,0:0:0:0:
64,192,194261,1,0,0:0:0:0:
448,192,194261,1,0,0:0:0:0:
320,192,194349,1,0,0:0:0:0:
192,192,194437,128,0,194525:0:0:0:0:
320,192,194467,128,0,194614:0:0:0:0:
64,192,194614,1,0,0:0:0:0:
192,192,194614,1,0,0:0:0:0:
448,192,194614,1,0,0:0:0:0:
448,192,194702,1,0,0:0:0:0:
64,192,194790,128,0,194878:0:0:0:0:
192,192,194820,128,0,194967:0:0:0:0:
64,192,194967,1,0,0:0:0:0:
448,192,194967,1,0,0:0:0:0:
320,192,194967,1,0,0:0:0:0:
320,192,195055,1,0,0:0:0:0:
448,192,195055,1,0,0:0:0:0:
192,192,195143,128,0,195231:0:0:0:0:
64,192,195172,128,0,195231:0:0:0:0:
320,192,195231,1,0,0:0:0:0:
64,192,195320,1,0,0:0:0:0:
192,192,195320,1,0,0:0:0:0:
448,192,195320,1,0,0:0:0:0:
448,192,195496,1,0,0:0:0:0:
320,192,195540,1,0,0:0:0:0:
64,192,195584,1,0,0:0:0:0:
192,192,195628,1,0,0:0:0:0:
64,192,195672,128,0,199202:0:0:0:0:
448,192,195672,128,0,198231:0:0:0:0:
320,192,195672,1,0,0:0:0:0:
192,192,196025,128,0,196114:0:0:0:0:
320,192,196378,128,0,196449:0:0:0:0:
192,192,196731,128,0,196790:0:0:0:0:
192,192,197437,128,0,197488:0:0:0:0:
320,192,197790,128,0,197834:0:0:0:0:
192,192,198143,128,0,198182:0:0:0:0:
320,192,198761,128,0,198790:0:0:0:0:
