osu file format v14

[General]
AudioFilename: audio.mp3
AudioLeadIn: 0
PreviewTime: 161040
Countdown: 0
SampleSet: Soft
StackLeniency: 0.7
Mode: 3
LetterboxInBreaks: 0
SpecialStyle: 0
WidescreenStoryboard: 0

[Editor]
DistanceSpacing: 1.5
BeatDivisor: 8
GridSize: 4
TimelineZoom: 2.3

[Metadata]
Title:Cafe + M!lk + Chocolate
TitleUnicode:Café + M!lk + Chocolate
Artist:DJ Raisei
ArtistUnicode:DJ Raisei
Creator:Vincus
Version:Hot Chocolate {Insane}
Source:
Tags:FA Featured artist Vocals Vocal Hybrid LN milk GBC 5 Maxim-Miau Futurecore German Beatmapping Contest 限界音楽村 GenkaiMusicVillage Genkai Music Village Marble らいせい Japanese Electronic
BeatmapID:3880856
BeatmapSetID:1884877

[Difficulty]
HPDrainRate:8
CircleSize:4
OverallDifficulty:7
ApproachRate:5
SliderMultiplier:1.4
SliderTickRate:1

[Events]
//Background and Video events
0,0,"Above+the+Heavens.jpg",0,0
//Break Periods
//Storyboard Layer 0 (Background)
//Storyboard Layer 1 (Fail)
//Storyboard Layer 2 (Pass)
//Storyboard Layer 3 (Foreground)
//Storyboard Layer 4 (Overlay)
//Storyboard Sound Samples

[TimingPoints]
3673,352.941176470588,4,2,1,80,1,0
37555,-100,4,2,1,80,0,1
48143,-100,4,2,1,80,0,0
48849,-100,4,2,1,80,0,1
59437,-100,4,2,1,80,0,0
60143,-100,4,2,1,80,0,1
70731,-100,4,2,1,80,0,0
71437,-100,4,2,1,80,0,1
82731,-100,4,2,1,80,0,0
94025,-100,4,2,1,80,0,1
104967,-100,4,2,1,80,0,0
105320,-100,4,2,1,80,0,1
116614,-100,4,2,1,80,0,0
161790,-100,4,2,1,80,0,1
173084,-100,4,2,1,80,0,0

[HitObjects]
320,192,3673,5,0,0:0:0:0:
192,192,3673,1,0,0:0:0:0:
64,192,4025,128,0,4378:0:0:0:0:
448,192,4378,128,0,4731:0:0:0:0:
320,192,4731,128,0,5437:0:0:0:0:
192,192,5084,1,0,0:0:0:0:
64,192,5437,128,0,5790:0:0:0:0:
448,192,5790,128,0,5967:0:0:0:0:
320,192,5967,128,0,6143:0:0:0:0:
64,192,6143,128,0,6320:0:0:0:0:
448,192,6320,128,0,6496:0:0:0:0:
192,192,6496,1,0,0:0:0:0:
64,192,6849,128,0,7202:0:0:0:0:
448,192,7202,128,0,7555:0:0:0:0:
192,192,7555,128,0,8261:0:0:0:0:
448,192,7731,128,0,8614:0:0:0:0:
64,192,7908,1,0,0:0:0:0:
320,192,8261,128,0,8614:0:0:0:0:
64,192,8614,128,0,8790:0:0:0:0:
192,192,8790,128,0,8967:0:0:0:0:
320,192,8967,128,0,9143:0:0:0:0:
192,192,9143,128,0,9320:0:0:0:0:
64,192,9320,1,0,0:0:0:0:
64,192,9672,128,0,10025:0:0:0:0:
192,192,10025,128,0,10378:0:0:0:0:
448,192,10378,128,0,10555:0:0:0:0:
320,192,10555,128,0,11084:0:0:0:0:
192,192,10731,1,0,0:0:0:0:
64,192,11084,128,0,11437:0:0:0:0:
192,192,11437,1,0,0:0:0:0:
320,192,11437,128,0,11614:0:0:0:0:
448,192,11614,128,0,11790:0:0:0:0:
64,192,11790,128,0,11967:0:0:0:0:
192,192,11967,128,0,12055:0:0:0:0:
192,192,12143,128,0,12496:0:0:0:0:
320,192,12143,1,0,0:0:0:0:
448,192,12496,128,0,12672:0:0:0:0:
64,192,12672,128,0,13202:0:0:0:0:
192,192,12849,1,0,0:0:0:0:
192,192,13202,128,0,13555:0:0:0:0:
320,192,13555,1,0,0:0:0:0:
448,192,13555,128,0,13731:0:0:0:0:
64,192,13731,128,0,14261:0:0:0:0:
192,192,13820,128,0,13908:0:0:0:0:
320,192,13908,128,0,13996:0:0:0:0:
448,192,13996,128,0,14084:0:0:0:0:
192,192,14084,128,0,14172:0:0:0:0:
320,192,14172,128,0,14261:0:0:0:0:
192,192,14261,128,0,14349:0:0:0:0:
448,192,14261,128,0,14349:0:0:0:0:
64,192,14349,128,0,14437:0:0:0:0:
448,192,14437,128,0,14878:0:0:0:0:
320,192,14525,128,0,14614:0:0:0:0:
192,192,14614,128,0,14702:0:0:0:0:
64,192,14702,128,0,14790:0:0:0:0:
320,192,14790,128,0,14878:0:0:0:0:
192,192,14878,128,0,14967:0:0:0:0:
64,192,14967,128,0,15320:0:0:0:0:
320,192,14967,1,0,0:0:0:0:
448,192,14967,128,0,15011:0:0:0:0:
192,192,15143,1,0,0:0:0:0:
448,192,15320,1,0,0:0:0:0:
320,192,15364,1,0,0:0:0:0:
192,192,15408,1,0,0:0:0:0:
64,192,15452,1,0,0:0:0:0:
320,192,15496,1,0,0:0:0:0:
448,192,15496,1,0,0:0:0:0:
192,192,15584,1,0,0:0:0:0:
448,192,15672,1,0,0:0:0:0:
64,192,15672,1,0,0:0:0:0:
320,192,15761,1,0,0:0:0:0:
448,192,15849,1,0,0:0:0:0:
64,192,15937,1,0,0:0:0:0:
320,192,16025,1,0,0:0:0:0:
64,192,16114,1,0,0:0:0:0:
320,192,16202,1,0,0:0:0:0:
448,192,16202,1,0,0:0:0:0:
192,192,16290,1,0,0:0:0:0:
448,192,16378,128,0,16555:0:0:0:0:
320,192,16378,1,0,0:0:0:0:
64,192,16422,128,0,16731:0:0:0:0:
192,192,16467,1,0,0:0:0:0:
320,192,16555,1,0,0:0:0:0:
448,192,16643,1,0,0:0:0:0:
192,192,16731,1,0,0:0:0:0:
448,192,16820,1,0,0:0:0:0:
192,192,16908,1,0,0:0:0:0:
64,192,16908,1,0,0:0:0:0:
320,192,16996,1,0,0:0:0:0:
64,192,17084,1,0,0:0:0:0:
448,192,17084,128,0,17437:0:0:0:0:
192,192,17084,1,0,0:0:0:0:
320,192,17172,1,0,0:0:0:0:
192,192,17261,1,0,0:0:0:0:
64,192,17349,1,0,0:0:0:0:
320,192,17437,1,0,0:0:0:0:
64,192,17525,1,0,0:0:0:0:
448,192,17614,1,0,0:0:0:0:
192,192,17702,1,0,0:0:0:0:
64,192,17790,128,0,17967:0:0:0:0:
448,192,17790,1,0,0:0:0:0:
320,192,17834,128,0,18143:0:0:0:0:
448,192,17967,1,0,0:0:0:0:
64,192,18143,1,0,0:0:0:0:
448,192,18231,1,0,0:0:0:0:
320,192,18320,1,0,0:0:0:0:
192,192,18320,1,0,0:0:0:0:
448,192,18408,1,0,0:0:0:0:
64,192,18496,1,0,0:0:0:0:
192,192,18496,1,0,0:0:0:0:
320,192,18584,1,0,0:0:0:0:
64,192,18672,1,0,0:0:0:0:
320,192,18761,1,0,0:0:0:0:
448,192,18849,1,0,0:0:0:0:
64,192,18937,1,0,0:0:0:0:
320,192,19025,1,0,0:0:0:0:
448,192,19025,1,0,0:0:0:0:
64,192,19114,1,0,0:0:0:0:
448,192,19202,128,0,19334:0:0:0:0:
320,192,19202,1,0,0:0:0:0:
192,192,19246,128,0,19555:0:0:0:0:
64,192,19290,1,0,0:0:0:0:
320,192,19378,1,0,0:0:0:0:
448,192,19467,1,0,0:0:0:0:
64,192,19555,1,0,0:0:0:0:
192,192,19643,1,0,0:0:0:0:
448,192,19731,1,0,0:0:0:0:
320,192,19731,1,0,0:0:0:0:
192,192,19820,1,0,0:0:0:0:
320,192,19908,1,0,0:0:0:0:
64,192,19908,128,0,20261:0:0:0:0:
448,192,19908,1,0,0:0:0:0:
192,192,19996,1,0,0:0:0:0:
448,192,20084,1,0,0:0:0:0:
320,192,20172,1,0,0:0:0:0:
448,192,20261,1,0,0:0:0:0:
192,192,20349,1,0,0:0:0:0:
320,192,20437,1,0,0:0:0:0:
192,192,20525,1,0,0:0:0:0:
448,192,20614,128,0,20790:0:0:0:0:
64,192,20614,1,0,0:0:0:0:
320,192,20658,128,0,20967:0:0:0:0:
192,192,20790,1,0,0:0:0:0:
64,192,20967,1,0,0:0:0:0:
192,192,21011,1,0,0:0:0:0:
320,192,21055,1,0,0:0:0:0:
448,192,21099,1,0,0:0:0:0:
192,192,21143,1,0,0:0:0:0:
64,192,21143,1,0,0:0:0:0:
320,192,21231,1,0,0:0:0:0:
448,192,21320,1,0,0:0:0:0:
64,192,21320,1,0,0:0:0:0:
192,192,21408,1,0,0:0:0:0:
64,192,21496,1,0,0:0:0:0:
448,192,21584,1,0,0:0:0:0:
192,192,21672,1,0,0:0:0:0:
448,192,21761,1,0,0:0:0:0:
192,192,21849,1,0,0:0:0:0:
64,192,21849,1,0,0:0:0:0:
320,192,21937,1,0,0:0:0:0:
64,192,22025,128,0,22202:0:0:0:0:
192,192,22025,1,0,0:0:0:0:
448,192,22070,128,0,22378:0:0:0:0:
320,192,22114,1,0,0:0:0:0:
192,192,22202,1,0,0:0:0:0:
64,192,22290,1,0,0:0:0:0:
320,192,22378,1,0,0:0:0:0:
64,192,22467,1,0,0:0:0:0:
320,192,22555,1,0,0:0:0:0:
448,192,22555,1,0,0:0:0:0:
192,192,22643,1,0,0:0:0:0:
448,192,22731,1,0,0:0:0:0:
64,192,22731,128,0,23084:0:0:0:0:
320,192,22731,1,0,0:0:0:0:
192,192,22820,1,0,0:0:0:0:
320,192,22908,1,0,0:0:0:0:
448,192,22996,1,0,0:0:0:0:
192,192,23084,1,0,0:0:0:0:
448,192,23172,1,0,0:0:0:0:
64,192,23261,1,0,0:0:0:0:
320,192,23349,1,0,0:0:0:0:
448,192,23437,128,0,24055:0:0:0:0:
192,192,23437,1,0,0:0:0:0:
64,192,23614,1,0,0:0:0:0:
320,192,23790,1,0,0:0:0:0:
192,192,23878,1,0,0:0:0:0:
320,192,23967,1,0,0:0:0:0:
64,192,23967,1,0,0:0:0:0:
192,192,24055,1,0,0:0:0:0:
320,192,24143,128,0,24761:0:0:0:0:
448,192,24143,1,0,0:0:0:0:
64,192,24143,1,0,0:0:0:0:
192,192,24231,1,0,0:0:0:0:
448,192,24320,1,0,0:0:0:0:
64,192,24408,1,0,0:0:0:0:
192,192,24496,1,0,0:0:0:0:
448,192,24584,1,0,0:0:0:0:
192,192,24672,1,0,0:0:0:0:
64,192,24672,1,0,0:0:0:0:
448,192,24761,1,0,0:0:0:0:
320,192,24849,1,0,0:0:0:0:
192,192,24849,128,0,25114:0:0:0:0:
448,192,24937,1,0,0:0:0:0:
64,192,25025,1,0,0:0:0:0:
448,192,25114,128,0,25202:0:0:0:0:
192,192,25202,128,0,25290:0:0:0:0:
64,192,25290,128,0,25378:0:0:0:0:
448,192,25378,1,0,0:0:0:0:
192,192,25378,128,0,25467:0:0:0:0:
64,192,25467,128,0,25555:0:0:0:0:
320,192,25555,1,0,0:0:0:0:
448,192,25555,128,0,25643:0:0:0:0:
192,192,25643,1,0,0:0:0:0:
64,192,25643,128,0,25731:0:0:0:0:
448,192,25731,128,0,25820:0:0:0:0:
320,192,25731,1,0,0:0:0:0:
64,192,25820,128,0,25908:0:0:0:0:
448,192,25908,1,0,0:0:0:0:
320,192,25908,128,0,25996:0:0:0:0:
64,192,25996,1,0,0:0:0:0:
192,192,25996,128,0,26084:0:0:0:0:
320,192,26084,128,0,26172:0:0:0:0:
448,192,26084,1,0,0:0:0:0:
192,192,26172,128,0,26261:0:0:0:0:
448,192,26261,1,0,0:0:0:0:
320,192,26261,1,0,0:0:0:0:
320,192,26437,1,0,0:0:0:0:
448,192,26614,128,0,26967:0:0:0:0:
64,192,26614,1,0,0:0:0:0:
192,192,26614,1,0,0:0:0:0:
320,192,26790,1,0,0:0:0:0:
192,192,26967,128,0,27231:0:0:0:0:
320,192,26967,1,0,0:0:0:0:
64,192,26967,1,0,0:0:0:0:
448,192,27143,1,0,0:0:0:0:
64,192,27231,1,0,0:0:0:0:
320,192,27320,128,0,28025:0:0:0:0:
448,192,27320,1,0,0:0:0:0:
192,192,27320,1,0,0:0:0:0:
64,192,27496,1,0,0:0:0:0:
448,192,27672,1,0,0:0:0:0:
64,192,27672,1,0,0:0:0:0:
192,192,27849,1,0,0:0:0:0:
192,192,28025,128,0,28202:0:0:0:0:
64,192,28025,1,0,0:0:0:0:
448,192,28025,1,0,0:0:0:0:
448,192,28202,1,0,0:0:0:0:
320,192,28378,1,0,0:0:0:0:
192,192,28378,1,0,0:0:0:0:
64,192,28378,128,0,28555:0:0:0:0:
448,192,28555,1,0,0:0:0:0:
192,192,28555,128,0,28643:0:0:0:0:
320,192,28643,1,0,0:0:0:0:
448,192,28731,128,0,28908:0:0:0:0:
192,192,28731,1,0,0:0:0:0:
64,192,28731,1,0,0:0:0:0:
320,192,28908,128,0,29084:0:0:0:0:
192,192,28908,1,0,0:0:0:0:
64,192,29084,1,0,0:0:0:0:
448,192,29084,1,0,0:0:0:0:
192,192,29261,1,0,0:0:0:0:
320,192,29437,1,0,0:0:0:0:
192,192,29437,1,0,0:0:0:0:
64,192,29437,128,0,29790:0:0:0:0:
448,192,29614,1,0,0:0:0:0:
192,192,29790,1,0,0:0:0:0:
320,192,29790,1,0,0:0:0:0:
448,192,29790,128,0,30055:0:0:0:0:
64,192,29967,1,0,0:0:0:0:
192,192,30055,1,0,0:0:0:0:
320,192,30143,128,0,30849:0:0:0:0:
64,192,30143,1,0,0:0:0:0:
448,192,30143,1,0,0:0:0:0:
192,192,30320,1,0,0:0:0:0:
192,192,30496,1,0,0:0:0:0:
448,192,30496,1,0,0:0:0:0:
64,192,30672,1,0,0:0:0:0:
192,192,30849,128,0,31202:0:0:0:0:
448,192,30849,1,0,0:0:0:0:
64,192,30849,1,0,0:0:0:0:
448,192,31025,1,0,0:0:0:0:
320,192,31202,1,0,0:0:0:0:
64,192,31202,1,0,0:0:0:0:
448,192,31202,128,0,31378:0:0:0:0:
320,192,31378,128,0,31467:0:0:0:0:
64,192,31378,1,0,0:0:0:0:
192,192,31467,1,0,0:0:0:0:
320,192,31555,1,0,0:0:0:0:
64,192,31555,1,0,0:0:0:0:
448,192,31555,128,0,31731:0:0:0:0:
64,192,31731,128,0,32084:0:0:0:0:
192,192,31731,1,0,0:0:0:0:
320,192,31908,1,0,0:0:0:0:
448,192,31908,1,0,0:0:0:0:
448,192,32084,1,0,0:0:0:0:
192,192,32084,128,0,32437:0:0:0:0:
448,192,32261,1,0,0:0:0:0:
448,192,32437,1,0,0:0:0:0:
64,192,32437,128,0,32614:0:0:0:0:
448,192,32614,128,0,32790:0:0:0:0:
192,192,32614,1,0,0:0:0:0:
320,192,32614,1,0,0:0:0:0:
192,192,32790,1,0,0:0:0:0:
320,192,32790,128,0,32967:0:0:0:0:
192,192,32967,1,0,0:0:0:0:
64,192,32967,128,0,33143:0:0:0:0:
192,192,33143,1,0,0:0:0:0:
320,192,33143,128,0,33496:0:0:0:0:
192,192,33320,1,0,0:0:0:0:
64,192,33320,1,0,0:0:0:0:
64,192,33496,1,0,0:0:0:0:
448,192,33496,128,0,34025:0:0:0:0:
64,192,33672,1,0,0:0:0:0:
64,192,33849,1,0,0:0:0:0:
192,192,34025,1,0,0:0:0:0:
320,192,34025,1,0,0:0:0:0:
64,192,34025,128,0,34202:0:0:0:0:
320,192,34202,1,0,0:0:0:0:
192,192,34202,128,0,34378:0:0:0:0:
320,192,34378,1,0,0:0:0:0:
64,192,34378,128,0,34555:0:0:0:0:
192,192,34555,1,0,0:0:0:0:
448,192,34555,128,0,34731:0:0:0:0:
64,192,34731,128,0,35084:0:0:0:0:
192,192,34731,1,0,0:0:0:0:
320,192,34731,1,0,0:0:0:0:
448,192,34820,1,0,0:0:0:0:
320,192,34908,1,0,0:0:0:0:
448,192,34996,1,0,0:0:0:0:
192,192,35084,128,0,35437:0:0:0:0:
320,192,35084,1,0,0:0:0:0:
64,192,35172,1,0,0:0:0:0:
448,192,35261,1,0,0:0:0:0:
64,192,35349,1,0,0:0:0:0:
320,192,35437,128,0,35790:0:0:0:0:
448,192,35437,1,0,0:0:0:0:
192,192,35525,1,0,0:0:0:0:
64,192,35614,1,0,0:0:0:0:
192,192,35702,1,0,0:0:0:0:
448,192,35790,128,0,36143:0:0:0:0:
64,192,35790,1,0,0:0:0:0:
320,192,35878,1,0,0:0:0:0:
192,192,35967,1,0,0:0:0:0:
320,192,36055,1,0,0:0:0:0:
192,192,36143,1,0,0:0:0:0:
64,192,36143,128,0,37202:0:0:0:0:
192,192,36672,1,0,0:0:0:0:
448,192,36761,128,0,37114:0:0:0:0:
320,192,36761,1,0,0:0:0:0:
192,192,36849,1,0,0:0:0:0:
320,192,36937,1,0,0:0:0:0:
192,192,37025,1,0,0:0:0:0:
320,192,37114,1,0,0:0:0:0:
192,192,37202,1,0,0:0:0:0:
448,192,37202,128,0,37467:0:0:0:0:
64,192,37555,128,0,37820:0:0:0:0:
448,192,37555,128,0,37908:0:0:0:0:
320,192,37555,1,0,0:0:0:0:
192,192,37555,128,0,37820:0:0:0:0:
64,192,37908,128,0,37952:0:0:0:0:
448,192,37996,128,0,38040:0:0:0:0:
64,192,38084,128,0,38128:0:0:0:0:
448,192,38172,128,0,38217:0:0:0:0:
320,192,38261,1,0,0:0:0:0:
64,192,38261,1,0,0:0:0:0:
192,192,38437,128,0,38525:0:0:0:0:
448,192,38614,128,0,38702:0:0:0:0:
64,192,38790,128,0,38834:0:0:0:0:
192,192,38790,1,0,0:0:0:0:
320,192,38790,128,0,38834:0:0:0:0:
448,192,38878,128,0,38922:0:0:0:0:
64,192,38967,128,0,39011:0:0:0:0:
448,192,39055,128,0,39099:0:0:0:0:
64,192,39143,128,0,39187:0:0:0:0:
448,192,39231,128,0,39275:0:0:0:0:
64,192,39320,128,0,39496:0:0:0:0:
192,192,39320,128,0,39672:0:0:0:0:
320,192,39320,1,0,0:0:0:0:
448,192,39496,128,0,39584:0:0:0:0:
448,192,39672,1,0,0:0:0:0:
320,192,39672,128,0,39849:0:0:0:0:
64,192,39672,128,0,39937:0:0:0:0:
448,192,39849,128,0,39937:0:0:0:0:
192,192,39937,128,0,40202:0:0:0:0:
320,192,39937,1,0,0:0:0:0:
448,192,40025,128,0,40290:0:0:0:0:
64,192,40025,1,0,0:0:0:0:
64,192,40202,128,0,40290:0:0:0:0:
320,192,40202,1,0,0:0:0:0:
192,192,40378,128,0,40731:0:0:0:0:
64,192,40378,1,0,0:0:0:0:
320,192,40378,128,0,40643:0:0:0:0:
448,192,40378,128,0,40643:0:0:0:0:
64,192,40731,1,0,0:0:0:0:
320,192,40731,128,0,40790:0:0:0:0:
192,192,40820,128,0,40864:0:0:0:0:
320,192,40908,128,0,40952:0:0:0:0:
192,192,40996,128,0,41040:0:0:0:0:
320,192,41084,1,0,0:0:0:0:
64,192,41084,128,0,41261:0:0:0:0:
448,192,41172,128,0,41261:0:0:0:0:
192,192,41261,128,0,41437:0:0:0:0:
320,192,41349,128,0,41437:0:0:0:0:
448,192,41437,1,0,0:0:0:0:
64,192,41437,1,0,0:0:0:0:
192,192,41614,128,0,41790:0:0:0:0:
448,192,41614,128,0,41878:0:0:0:0:
64,192,41790,1,0,0:0:0:0:
320,192,41790,1,0,0:0:0:0:
192,192,41878,128,0,41922:0:0:0:0:
448,192,41967,128,0,42011:0:0:0:0:
192,192,42055,128,0,42099:0:0:0:0:
320,192,42143,1,0,0:0:0:0:
448,192,42143,1,0,0:0:0:0:
192,192,42231,1,0,0:0:0:0:
64,192,42231,128,0,42275:0:0:0:0:
448,192,42320,128,0,42408:0:0:0:0:
320,192,42320,128,0,42408:0:0:0:0:
64,192,42496,128,0,42584:0:0:0:0:
192,192,42496,1,0,0:0:0:0:
320,192,42584,1,0,0:0:0:0:
64,192,42672,1,0,0:0:0:0:
448,192,42672,128,0,42761:0:0:0:0:
192,192,42761,1,0,0:0:0:0:
448,192,42849,128,0,42937:0:0:0:0:
64,192,42849,1,0,0:0:0:0:
320,192,42937,1,0,0:0:0:0:
64,192,43025,128,0,43114:0:0:0:0:
192,192,43025,1,0,0:0:0:0:
64,192,43202,128,0,43467:0:0:0:0:
192,192,43202,128,0,43378:0:0:0:0:
320,192,43202,128,0,43290:0:0:0:0:
448,192,43202,1,0,0:0:0:0:
448,192,43555,128,0,43599:0:0:0:0:
192,192,43555,1,0,0:0:0:0:
320,192,43643,128,0,43687:0:0:0:0:
192,192,43731,128,0,43775:0:0:0:0:
64,192,43820,128,0,43864:0:0:0:0:
192,192,43908,128,0,43952:0:0:0:0:
448,192,43908,128,0,44261:0:0:0:0:
320,192,43952,1,0,0:0:0:0:
64,192,43996,128,0,44040:0:0:0:0:
192,192,44084,128,0,44128:0:0:0:0:
320,192,44172,128,0,44217:0:0:0:0:
192,192,44261,128,0,44437:0:0:0:0:
64,192,44261,128,0,44967:0:0:0:0:
320,192,44349,128,0,44967:0:0:0:0:
448,192,44437,128,0,44967:0:0:0:0:
192,192,44967,128,0,45055:0:0:0:0:
448,192,45055,128,0,45143:0:0:0:0:
320,192,45143,1,0,0:0:0:0:
192,192,45143,128,0,45231:0:0:0:0:
64,192,45231,128,0,45320:0:0:0:0:
448,192,45320,128,0,45937:0:0:0:0:
192,192,45320,1,0,0:0:0:0:
320,192,45320,128,0,45408:0:0:0:0:
320,192,45496,128,0,45937:0:0:0:0:
192,192,45496,128,0,45584:0:0:0:0:
192,192,45672,128,0,45937:0:0:0:0:
64,192,45672,128,0,45761:0:0:0:0:
64,192,45849,128,0,45937:0:0:0:0:
320,192,46025,1,0,0:0:0:0:
64,192,46025,128,0,46290:0:0:0:0:
192,192,46025,128,0,46467:0:0:0:0:
448,192,46025,128,0,46467:0:0:0:0:
64,192,46378,128,0,46467:0:0:0:0:
320,192,46555,128,0,46643:0:0:0:0:
448,192,46555,128,0,46687:0:0:0:0:
192,192,46555,1,0,0:0:0:0:
64,192,46555,128,0,46996:0:0:0:0:
320,192,46731,128,0,46996:0:0:0:0:
448,192,46775,128,0,46996:0:0:0:0:
192,192,47084,128,0,47349:0:0:0:0:
320,192,47084,128,0,47967:0:0:0:0:
448,192,47084,128,0,47525:0:0:0:0:
64,192,47084,1,0,0:0:0:0:
192,192,47437,128,0,47878:0:0:0:0:
448,192,47614,128,0,48055:0:0:0:0:
64,192,47967,1,0,0:0:0:0:
320,192,48055,1,0,0:0:0:0:
192,192,48143,1,0,0:0:0:0:
448,192,48143,128,0,48187:0:0:0:0:
64,192,48187,1,0,0:0:0:0:
320,192,48231,128,0,48275:0:0:0:0:
192,192,48320,128,0,48364:0:0:0:0:
64,192,48408,128,0,48452:0:0:0:0:
448,192,48408,128,0,48761:0:0:0:0:
320,192,48496,128,0,48761:0:0:0:0:
192,192,48584,128,0,48761:0:0:0:0:
64,192,48672,128,0,48761:0:0:0:0:
448,192,48849,128,0,49114:0:0:0:0:
320,192,48849,128,0,49114:0:0:0:0:
64,192,48849,128,0,49202:0:0:0:0:
192,192,48849,1,0,0:0:0:0:
448,192,49202,128,0,49246:0:0:0:0:
192,192,49202,1,0,0:0:0:0:
64,192,49290,128,0,49334:0:0:0:0:
448,192,49378,128,0,49422:0:0:0:0:
64,192,49467,128,0,49511:0:0:0:0:
192,192,49555,1,0,0:0:0:0:
448,192,49555,128,0,49731:0:0:0:0:
320,192,49643,128,0,49731:0:0:0:0:
64,192,49731,128,0,49908:0:0:0:0:
448,192,49820,128,0,49908:0:0:0:0:
320,192,49908,128,0,50084:0:0:0:0:
192,192,49908,1,0,0:0:0:0:
448,192,49996,128,0,50084:0:0:0:0:
192,192,50084,128,0,50261:0:0:0:0:
64,192,50084,128,0,50349:0:0:0:0:
320,192,50261,1,0,0:0:0:0:
448,192,50261,128,0,50305:0:0:0:0:
192,192,50349,128,0,50393:0:0:0:0:
448,192,50437,128,0,50481:0:0:0:0:
192,192,50525,128,0,50570:0:0:0:0:
320,192,50614,128,0,50702:0:0:0:0:
448,192,50614,128,0,50790:0:0:0:0:
64,192,50614,1,0,0:0:0:0:
64,192,50790,128,0,50967:0:0:0:0:
192,192,50790,128,0,50878:0:0:0:0:
320,192,50967,1,0,0:0:0:0:
448,192,50967,128,0,51231:0:0:0:0:
320,192,51143,128,0,51231:0:0:0:0:
64,192,51231,128,0,51496:0:0:0:0:
192,192,51231,1,0,0:0:0:0:
448,192,51320,128,0,51408:0:0:0:0:
320,192,51320,1,0,0:0:0:0:
320,192,51496,128,0,51584:0:0:0:0:
448,192,51496,1,0,0:0:0:0:
192,192,51496,128,0,51584:0:0:0:0:
448,192,51672,128,0,52025:0:0:0:0:
320,192,51672,128,0,51937:0:0:0:0:
192,192,51672,1,0,0:0:0:0:
64,192,51672,128,0,51937:0:0:0:0:
192,192,52025,1,0,0:0:0:0:
320,192,52025,128,0,52070:0:0:0:0:
448,192,52114,128,0,52158:0:0:0:0:
320,192,52202,128,0,52246:0:0:0:0:
448,192,52290,128,0,52334:0:0:0:0:
192,192,52378,1,0,0:0:0:0:
320,192,52378,128,0,52555:0:0:0:0:
64,192,52467,128,0,52555:0:0:0:0:
448,192,52555,128,0,52731:0:0:0:0:
192,192,52643,128,0,52731:0:0:0:0:
320,192,52731,1,0,0:0:0:0:
64,192,52731,128,0,52908:0:0:0:0:
192,192,52820,128,0,52908:0:0:0:0:
320,192,52908,128,0,53084:0:0:0:0:
448,192,52908,128,0,53172:0:0:0:0:
64,192,53084,1,0,0:0:0:0:
192,192,53084,128,0,53128:0:0:0:0:
320,192,53172,128,0,53217:0:0:0:0:
192,192,53261,128,0,53305:0:0:0:0:
320,192,53349,128,0,53393:0:0:0:0:
64,192,53437,128,0,53525:0:0:0:0:
448,192,53437,128,0,53525:0:0:0:0:
192,192,53437,1,0,0:0:0:0:
192,192,53614,128,0,53702:0:0:0:0:
320,192,53614,128,0,53702:0:0:0:0:
64,192,53790,128,0,53967:0:0:0:0:
448,192,53790,128,0,53967:0:0:0:0:
320,192,53790,1,0,0:0:0:0:
192,192,53967,128,0,54143:0:0:0:0:
64,192,54055,128,0,54231:0:0:0:0:
448,192,54055,1,0,0:0:0:0:
320,192,54143,128,0,54320:0:0:0:0:
448,192,54320,128,0,54761:0:0:0:0:
192,192,54320,128,0,54408:0:0:0:0:
64,192,54320,1,0,0:0:0:0:
320,192,54496,128,0,54761:0:0:0:0:
192,192,54584,128,0,54761:0:0:0:0:
64,192,54672,128,0,55114:0:0:0:0:
192,192,54849,1,0,0:0:0:0:
320,192,54849,128,0,55114:0:0:0:0:
448,192,54849,128,0,55114:0:0:0:0:
192,192,55202,1,0,0:0:0:0:
320,192,55202,128,0,55378:0:0:0:0:
64,192,55202,128,0,55378:0:0:0:0:
448,192,55246,1,0,0:0:0:0:
192,192,55378,128,0,55555:0:0:0:0:
448,192,55467,128,0,55643:0:0:0:0:
64,192,55467,1,0,0:0:0:0:
320,192,55555,128,0,55643:0:0:0:0:
320,192,55731,128,0,56525:0:0:0:0:
64,192,55731,128,0,56525:0:0:0:0:
448,192,55731,1,0,0:0:0:0:
192,192,55731,128,0,55996:0:0:0:0:
192,192,56084,128,0,56525:0:0:0:0:
448,192,56437,1,0,0:0:0:0:
64,192,56614,1,0,0:0:0:0:
448,192,56614,128,0,56790:0:0:0:0:
192,192,56614,128,0,57231:0:0:0:0:
320,192,56658,1,0,0:0:0:0:
64,192,56790,128,0,56967:0:0:0:0:
320,192,56967,128,0,57143:0:0:0:0:
448,192,57143,128,0,57231:0:0:0:0:
64,192,57320,128,0,57408:0:0:0:0:
192,192,57320,128,0,57761:0:0:0:0:
448,192,57320,128,0,57761:0:0:0:0:
320,192,57320,1,0,0:0:0:0:
64,192,57496,128,0,57761:0:0:0:0:
64,192,57849,128,0,58290:0:0:0:0:
320,192,57849,128,0,58290:0:0:0:0:
448,192,57849,128,0,58290:0:0:0:0:
192,192,57849,1,0,0:0:0:0:
64,192,58378,128,0,59261:0:0:0:0:
192,192,58378,128,0,59172:0:0:0:0:
320,192,58378,128,0,59084:0:0:0:0:
448,192,58378,1,0,0:0:0:0:
448,192,59084,128,0,59172:0:0:0:0:
320,192,59172,128,0,59261:0:0:0:0:
192,192,59261,128,0,59349:0:0:0:0:
64,192,59349,128,0,59437:0:0:0:0:
320,192,59437,128,0,59525:0:0:0:0:
448,192,59525,128,0,60055:0:0:0:0:
192,192,59525,128,0,59614:0:0:0:0:
64,192,59614,128,0,59702:0:0:0:0:
320,192,59702,128,0,60055:0:0:0:0:
192,192,59702,128,0,59790:0:0:0:0:
64,192,59790,128,0,59878:0:0:0:0:
192,192,59878,128,0,60055:0:0:0:0:
320,192,60143,1,0,0:0:0:0:
64,192,60143,128,0,60496:0:0:0:0:
448,192,60143,128,0,60320:0:0:0:0:
192,192,60143,128,0,60408:0:0:0:0:
320,192,60320,128,0,60408:0:0:0:0:
448,192,60496,128,0,60584:0:0:0:0:
192,192,60496,128,0,60540:0:0:0:0:
320,192,60584,128,0,60628:0:0:0:0:
192,192,60672,128,0,60717:0:0:0:0:
64,192,60672,128,0,60761:0:0:0:0:
320,192,60761,128,0,60805:0:0:0:0:
192,192,60849,1,0,0:0:0:0:
448,192,60893,1,0,0:0:0:0:
64,192,61025,128,0,61084:0:0:0:0:
192,192,61055,128,0,61114:0:0:0:0:
448,192,61202,128,0,61261:0:0:0:0:
320,192,61231,128,0,61290:0:0:0:0:
320,192,61378,1,0,0:0:0:0:
64,192,61378,128,0,61996:0:0:0:0:
448,192,61378,128,0,61996:0:0:0:0:
192,192,61378,128,0,61643:0:0:0:0:
192,192,61731,128,0,61820:0:0:0:0:
320,192,61908,128,0,61996:0:0:0:0:
448,192,62084,128,0,62172:0:0:0:0:
192,192,62084,1,0,0:0:0:0:
64,192,62084,128,0,62172:0:0:0:0:
448,192,62261,128,0,62437:0:0:0:0:
64,192,62261,1,0,0:0:0:0:
320,192,62305,1,0,0:0:0:0:
192,192,62349,128,0,62437:0:0:0:0:
64,192,62437,128,0,62525:0:0:0:0:
320,192,62525,128,0,62702:0:0:0:0:
192,192,62525,1,0,0:0:0:0:
448,192,62614,128,0,62702:0:0:0:0:
64,192,62614,128,0,62790:0:0:0:0:
448,192,62790,1,0,0:0:0:0:
192,192,62790,128,0,63143:0:0:0:0:
320,192,62790,128,0,62878:0:0:0:0:
64,192,62878,128,0,62922:0:0:0:0:
448,192,62967,128,0,63011:0:0:0:0:
64,192,63055,128,0,63099:0:0:0:0:
448,192,63143,128,0,63187:0:0:0:0:
320,192,63143,128,0,63231:0:0:0:0:
448,192,63320,128,0,63584:0:0:0:0:
320,192,63320,1,0,0:0:0:0:
192,192,63320,128,0,63584:0:0:0:0:
64,192,63320,128,0,63584:0:0:0:0:
192,192,63672,1,0,0:0:0:0:
64,192,63717,1,0,0:0:0:0:
448,192,63849,1,0,0:0:0:0:
192,192,63849,128,0,64025:0:0:0:0:
320,192,63849,128,0,64025:0:0:0:0:
64,192,63849,128,0,64025:0:0:0:0:
448,192,64202,128,0,64643:0:0:0:0:
64,192,64202,128,0,64643:0:0:0:0:
192,192,64202,1,0,0:0:0:0:
320,192,64202,128,0,64467:0:0:0:0:
320,192,64555,128,0,64643:0:0:0:0:
320,192,64731,128,0,64996:0:0:0:0:
64,192,64731,128,0,65084:0:0:0:0:
192,192,64731,128,0,65084:0:0:0:0:
320,192,65084,1,0,0:0:0:0:
448,192,65128,1,0,0:0:0:0:
64,192,65261,128,0,65702:0:0:0:0:
192,192,65261,128,0,65349:0:0:0:0:
320,192,65437,128,0,65525:0:0:0:0:
192,192,65437,128,0,65702:0:0:0:0:
448,192,65614,128,0,65702:0:0:0:0:
320,192,65614,128,0,65702:0:0:0:0:
192,192,65790,128,0,65967:0:0:0:0:
320,192,65790,128,0,66143:0:0:0:0:
64,192,65790,1,0,0:0:0:0:
448,192,65790,128,0,66143:0:0:0:0:
64,192,65967,128,0,66055:0:0:0:0:
64,192,66143,128,0,66408:0:0:0:0:
192,192,66143,128,0,66187:0:0:0:0:
448,192,66231,128,0,66275:0:0:0:0:
192,192,66320,128,0,66364:0:0:0:0:
448,192,66408,128,0,66452:0:0:0:0:
64,192,66496,1,0,0:0:0:0:
192,192,66496,128,0,66672:0:0:0:0:
320,192,66540,1,0,0:0:0:0:
448,192,66672,128,0,66761:0:0:0:0:
192,192,66761,1,0,0:0:0:0:
320,192,66849,128,0,66937:0:0:0:0:
64,192,67025,128,0,67731:0:0:0:0:
192,192,67025,128,0,67731:0:0:0:0:
320,192,67025,1,0,0:0:0:0:
448,192,67025,128,0,67290:0:0:0:0:
448,192,67378,128,0,67467:0:0:0:0:
320,192,67555,128,0,67643:0:0:0:0:
448,192,67731,128,0,67820:0:0:0:0:
320,192,67731,1,0,0:0:0:0:
192,192,67908,128,0,68084:0:0:0:0:
320,192,67908,1,0,0:0:0:0:
64,192,67952,1,0,0:0:0:0:
320,192,68084,128,0,68172:0:0:0:0:
64,192,68261,128,0,68525:0:0:0:0:
448,192,68261,128,0,68437:0:0:0:0:
192,192,68349,128,0,68525:0:0:0:0:
320,192,68437,128,0,68525:0:0:0:0:
192,192,68614,1,0,0:0:0:0:
64,192,68614,128,0,68878:0:0:0:0:
448,192,68614,128,0,68702:0:0:0:0:
320,192,68614,128,0,69055:0:0:0:0:
448,192,68790,128,0,68878:0:0:0:0:
64,192,68967,128,0,69055:0:0:0:0:
192,192,69143,1,0,0:0:0:0:
448,192,69143,128,0,69231:0:0:0:0:
64,192,69231,1,0,0:0:0:0:
192,192,69320,128,0,69584:0:0:0:0:
320,192,69320,1,0,0:0:0:0:
448,192,69364,128,0,69584:0:0:0:0:
64,192,69496,128,0,69584:0:0:0:0:
192,192,69672,1,0,0:0:0:0:
64,192,69672,128,0,70114:0:0:0:0:
320,192,69672,128,0,69761:0:0:0:0:
448,192,69672,128,0,70114:0:0:0:0:
320,192,69849,128,0,70114:0:0:0:0:
192,192,70202,128,0,70290:0:0:0:0:
320,192,70202,128,0,70643:0:0:0:0:
448,192,70202,128,0,70643:0:0:0:0:
64,192,70202,1,0,0:0:0:0:
192,192,70378,128,0,70643:0:0:0:0:
192,192,70731,1,0,0:0:0:0:
448,192,70731,128,0,70820:0:0:0:0:
64,192,70775,1,0,0:0:0:0:
320,192,70820,128,0,70908:0:0:0:0:
192,192,70908,128,0,70996:0:0:0:0:
448,192,70996,128,0,71349:0:0:0:0:
64,192,70996,128,0,71084:0:0:0:0:
320,192,71084,128,0,71349:0:0:0:0:
192,192,71172,128,0,71349:0:0:0:0:
64,192,71261,128,0,71349:0:0:0:0:
192,192,71437,1,0,0:0:0:0:
320,192,71437,128,0,71525:0:0:0:0:
448,192,71437,128,0,71702:0:0:0:0:
64,192,71437,128,0,71702:0:0:0:0:
320,192,71614,128,0,71702:0:0:0:0:
448,192,71790,128,0,72055:0:0:0:0:
320,192,71790,128,0,72055:0:0:0:0:
192,192,71790,128,0,71878:0:0:0:0:
64,192,71790,1,0,0:0:0:0:
192,192,71967,128,0,72055:0:0:0:0:
64,192,72143,1,0,0:0:0:0:
192,192,72187,1,0,0:0:0:0:
448,192,72231,128,0,72320:0:0:0:0:
64,192,72320,128,0,72408:0:0:0:0:
320,192,72408,128,0,72584:0:0:0:0:
192,192,72496,128,0,72584:0:0:0:0:
448,192,72672,1,0,0:0:0:0:
64,192,72672,128,0,73290:0:0:0:0:
192,192,72672,128,0,72937:0:0:0:0:
320,192,72672,128,0,73290:0:0:0:0:
192,192,73025,128,0,73114:0:0:0:0:
448,192,73202,128,0,73290:0:0:0:0:
320,192,73378,128,0,73467:0:0:0:0:
64,192,73378,1,0,0:0:0:0:
64,192,73555,128,0,73731:0:0:0:0:
448,192,73555,1,0,0:0:0:0:
192,192,73599,1,0,0:0:0:0:
320,192,73643,128,0,73731:0:0:0:0:
192,192,73731,128,0,73820:0:0:0:0:
448,192,73820,128,0,73996:0:0:0:0:
320,192,73908,128,0,73996:0:0:0:0:
64,192,74084,128,0,74172:0:0:0:0:
448,192,74084,128,0,74172:0:0:0:0:
320,192,74261,1,0,0:0:0:0:
192,192,74261,128,0,74349:0:0:0:0:
64,192,74261,128,0,74525:0:0:0:0:
448,192,74261,128,0,74525:0:0:0:0:
192,192,74437,128,0,74525:0:0:0:0:
64,192,74614,128,0,74878:0:0:0:0:
192,192,74614,128,0,74878:0:0:0:0:
320,192,74614,128,0,74878:0:0:0:0:
448,192,74614,1,0,0:0:0:0:
192,192,74967,1,0,0:0:0:0:
448,192,75011,1,0,0:0:0:0:
320,192,75143,128,0,75320:0:0:0:0:
64,192,75143,128,0,75320:0:0:0:0:
64,192,75496,1,0,0:0:0:0:
192,192,75496,128,0,75937:0:0:0:0:
320,192,75496,128,0,75937:0:0:0:0:
448,192,75496,128,0,75937:0:0:0:0:
320,192,76025,1,0,0:0:0:0:
64,192,76025,128,0,76290:0:0:0:0:
192,192,76025,128,0,76290:0:0:0:0:
448,192,76025,128,0,76290:0:0:0:0:
320,192,76378,1,0,0:0:0:0:
448,192,76422,1,0,0:0:0:0:
64,192,76467,128,0,76555:0:0:0:0:
192,192,76467,128,0,76555:0:0:0:0:
448,192,76555,128,0,76643:0:0:0:0:
320,192,76555,128,0,76643:0:0:0:0:
192,192,76731,128,0,76820:0:0:0:0:
192,192,76908,1,0,0:0:0:0:
64,192,76908,128,0,77349:0:0:0:0:
320,192,76908,128,0,77172:0:0:0:0:
448,192,76908,128,0,77349:0:0:0:0:
320,192,77261,128,0,77349:0:0:0:0:
64,192,77437,1,0,0:0:0:0:
192,192,77437,128,0,77702:0:0:0:0:
320,192,77437,128,0,77702:0:0:0:0:
448,192,77437,128,0,77702:0:0:0:0:
320,192,77790,1,0,0:0:0:0:
64,192,77790,128,0,77967:0:0:0:0:
448,192,77834,1,0,0:0:0:0:
192,192,77967,128,0,78055:0:0:0:0:
320,192,78055,1,0,0:0:0:0:
64,192,78143,128,0,78231:0:0:0:0:
448,192,78143,128,0,78231:0:0:0:0:
448,192,78320,1,0,0:0:0:0:
192,192,78320,128,0,79114:0:0:0:0:
320,192,78320,128,0,79114:0:0:0:0:
64,192,78320,128,0,78584:0:0:0:0:
64,192,78672,128,0,78761:0:0:0:0:
64,192,78849,128,0,79114:0:0:0:0:
448,192,79025,1,0,0:0:0:0:
448,192,79202,128,0,79290:0:0:0:0:
64,192,79202,1,0,0:0:0:0:
192,192,79246,1,0,0:0:0:0:
320,192,79290,1,0,0:0:0:0:
448,192,79378,128,0,79467:0:0:0:0:
192,192,79467,1,0,0:0:0:0:
64,192,79555,128,0,79643:0:0:0:0:
320,192,79643,1,0,0:0:0:0:
192,192,79731,128,0,79996:0:0:0:0:
448,192,79731,1,0,0:0:0:0:
448,192,79908,1,0,0:0:0:0:
320,192,79908,128,0,80349:0:0:0:0:
64,192,79908,128,0,80349:0:0:0:0:
192,192,80084,128,0,80172:0:0:0:0:
448,192,80261,128,0,81672:0:0:0:0:
320,192,80437,1,0,0:0:0:0:
192,192,80437,128,0,80878:0:0:0:0:
64,192,80437,128,0,80878:0:0:0:0:
64,192,80967,128,0,81496:0:0:0:0:
192,192,80967,1,0,0:0:0:0:
320,192,80967,128,0,81584:0:0:0:0:
192,192,81672,128,0,81761:0:0:0:0:
64,192,81761,128,0,81849:0:0:0:0:
192,192,81849,128,0,81937:0:0:0:0:
320,192,81937,128,0,82025:0:0:0:0:
448,192,82025,128,0,82114:0:0:0:0:
192,192,82114,128,0,82202:0:0:0:0:
320,192,82202,128,0,82290:0:0:0:0:
64,192,82290,128,0,82378:0:0:0:0:
448,192,82378,128,0,82467:0:0:0:0:
320,192,82467,128,0,82555:0:0:0:0:
192,192,82555,128,0,82643:0:0:0:0:
64,192,82643,128,0,82731:0:0:0:0:
448,192,82731,1,0,0:0:0:0:
320,192,82731,1,0,0:0:0:0:
320,192,82908,1,0,0:0:0:0:
64,192,83084,1,0,0:0:0:0:
192,192,83084,128,0,83437:0:0:0:0:
448,192,83084,1,0,0:0:0:0:
320,192,83261,1,0,0:0:0:0:
448,192,83437,128,0,83790:0:0:0:0:
64,192,83437,1,0,0:0:0:0:
320,192,83437,1,0,0:0:0:0:
192,192,83614,1,0,0:0:0:0:
320,192,83790,128,0,84496:0:0:0:0:
192,192,83790,1,0,0:0:0:0:
64,192,83790,1,0,0:0:0:0:
448,192,83967,1,0,0:0:0:0:
192,192,84143,1,0,0:0:0:0:
64,192,84143,1,0,0:0:0:0:
448,192,84320,1,0,0:0:0:0:
192,192,84496,1,0,0:0:0:0:
448,192,84496,1,0,0:0:0:0:
64,192,84496,128,0,84672:0:0:0:0:
320,192,84672,1,0,0:0:0:0:
192,192,84849,128,0,85025:0:0:0:0:
64,192,84849,1,0,0:0:0:0:
320,192,84849,1,0,0:0:0:0:
64,192,85025,128,0,85202:0:0:0:0:
448,192,85025,1,0,0:0:0:0:
320,192,85202,128,0,85378:0:0:0:0:
192,192,85202,1,0,0:0:0:0:
448,192,85202,1,0,0:0:0:0:
64,192,85378,128,0,85555:0:0:0:0:
192,192,85378,1,0,0:0:0:0:
320,192,85555,1,0,0:0:0:0:
448,192,85555,1,0,0:0:0:0:
192,192,85731,1,0,0:0:0:0:
448,192,85908,128,0,86261:0:0:0:0:
320,192,85908,1,0,0:0:0:0:
64,192,85908,1,0,0:0:0:0:
192,192,86084,1,0,0:0:0:0:
64,192,86261,128,0,86614:0:0:0:0:
192,192,86261,1,0,0:0:0:0:
320,192,86261,1,0,0:0:0:0:
448,192,86437,1,0,0:0:0:0:
320,192,86614,128,0,87320:0:0:0:0:
192,192,86614,1,0,0:0:0:0:
448,192,86614,1,0,0:0:0:0:
64,192,86790,1,0,0:0:0:0:
192,192,86967,1,0,0:0:0:0:
448,192,86967,1,0,0:0:0:0:
64,192,87143,1,0,0:0:0:0:
192,192,87320,128,0,87672:0:0:0:0:
64,192,87320,1,0,0:0:0:0:
448,192,87320,1,0,0:0:0:0:
448,192,87496,1,0,0:0:0:0:
320,192,87672,1,0,0:0:0:0:
64,192,87672,1,0,0:0:0:0:
448,192,87672,128,0,87849:0:0:0:0:
192,192,87761,1,0,0:0:0:0:
64,192,87849,128,0,88025:0:0:0:0:
320,192,87849,1,0,0:0:0:0:
192,192,87937,1,0,0:0:0:0:
320,192,88025,1,0,0:0:0:0:
448,192,88025,128,0,88378:0:0:0:0:
320,192,88378,1,0,0:0:0:0:
192,192,88378,1,0,0:0:0:0:
64,192,88378,128,0,88555:0:0:0:0:
448,192,88555,128,0,88908:0:0:0:0:
320,192,88555,1,0,0:0:0:0:
192,192,88731,1,0,0:0:0:0:
64,192,88731,1,0,0:0:0:0:
320,192,88908,128,0,89084:0:0:0:0:
64,192,88908,1,0,0:0:0:0:
192,192,89084,128,0,89261:0:0:0:0:
64,192,89084,1,0,0:0:0:0:
448,192,89084,1,0,0:0:0:0:
64,192,89261,128,0,89614:0:0:0:0:
448,192,89261,1,0,0:0:0:0:
320,192,89437,1,0,0:0:0:0:
192,192,89437,1,0,0:0:0:0:
320,192,89614,128,0,89790:0:0:0:0:
192,192,89614,1,0,0:0:0:0:
192,192,89790,128,0,89967:0:0:0:0:
64,192,89790,1,0,0:0:0:0:
448,192,89790,1,0,0:0:0:0:
448,192,89967,128,0,90320:0:0:0:0:
64,192,89967,1,0,0:0:0:0:
320,192,90143,1,0,0:0:0:0:
192,192,90143,1,0,0:0:0:0:
192,192,90320,128,0,90496:0:0:0:0:
320,192,90320,1,0,0:0:0:0:
64,192,90496,128,0,90672:0:0:0:0:
320,192,90496,1,0,0:0:0:0:
448,192,90496,1,0,0:0:0:0:
192,192,90672,128,0,91025:0:0:0:0:
448,192,90672,1,0,0:0:0:0:
320,192,90849,1,0,0:0:0:0:
64,192,90849,1,0,0:0:0:0:
448,192,91025,128,0,91202:0:0:0:0:
64,192,91025,1,0,0:0:0:0:
64,192,91202,128,0,91555:0:0:0:0:
192,192,91202,1,0,0:0:0:0:
320,192,91202,1,0,0:0:0:0:
448,192,91290,1,0,0:0:0:0:
320,192,91378,1,0,0:0:0:0:
448,192,91467,1,0,0:0:0:0:
192,192,91555,128,0,91908:0:0:0:0:
320,192,91555,1,0,0:0:0:0:
64,192,91643,1,0,0:0:0:0:
448,192,91731,1,0,0:0:0:0:
64,192,91820,1,0,0:0:0:0:
320,192,91908,128,0,92261:0:0:0:0:
448,192,91908,1,0,0:0:0:0:
192,192,91996,1,0,0:0:0:0:
64,192,92084,1,0,0:0:0:0:
192,192,92172,1,0,0:0:0:0:
448,192,92261,128,0,92525:0:0:0:0:
64,192,92261,1,0,0:0:0:0:
320,192,92349,1,0,0:0:0:0:
192,192,92437,1,0,0:0:0:0:
320,192,92525,1,0,0:0:0:0:
192,192,92614,1,0,0:0:0:0:
64,192,92614,128,0,93672:0:0:0:0:
448,192,92614,1,0,0:0:0:0:
448,192,92790,1,0,0:0:0:0:
320,192,92967,1,0,0:0:0:0:
192,192,92967,1,0,0:0:0:0:
448,192,93143,1,0,0:0:0:0:
320,192,93231,1,0,0:0:0:0:
192,192,93320,1,0,0:0:0:0:
448,192,93320,1,0,0:0:0:0:
320,192,93408,1,0,0:0:0:0:
192,192,93496,1,0,0:0:0:0:
320,192,93584,1,0,0:0:0:0:
192,192,93672,1,0,0:0:0:0:
448,192,93672,128,0,93937:0:0:0:0:
448,192,94025,128,0,94731:0:0:0:0:
192,192,94025,1,0,0:0:0:0:
64,192,94025,128,0,94731:0:0:0:0:
320,192,94025,128,0,94731:0:0:0:0:
192,192,94731,1,0,0:0:0:0:
448,192,94908,128,0,94967:0:0:0:0:
320,192,94937,128,0,94996:0:0:0:0:
64,192,95084,128,0,95143:0:0:0:0:
320,192,95084,1,0,0:0:0:0:
192,192,95114,128,0,95172:0:0:0:0:
448,192,95128,1,0,0:0:0:0:
64,192,95261,1,0,0:0:0:0:
448,192,95437,128,0,96143:0:0:0:0:
64,192,95437,1,0,0:0:0:0:
192,192,95437,128,0,95481:0:0:0:0:
320,192,95525,128,0,95570:0:0:0:0:
192,192,95614,128,0,95658:0:0:0:0:
320,192,95702,128,0,95746:0:0:0:0:
64,192,95790,1,0,0:0:0:0:
192,192,95878,128,0,95922:0:0:0:0:
64,192,95967,128,0,96011:0:0:0:0:
192,192,96055,128,0,96099:0:0:0:0:
320,192,96143,1,0,0:0:0:0:
448,192,96231,1,0,0:0:0:0:
64,192,96320,128,0,96408:0:0:0:0:
320,192,96408,1,0,0:0:0:0:
448,192,96496,128,0,96584:0:0:0:0:
320,192,96584,1,0,0:0:0:0:
192,192,96672,1,0,0:0:0:0:
64,192,96672,128,0,96761:0:0:0:0:
320,192,96849,1,0,0:0:0:0:
448,192,96937,128,0,96981:0:0:0:0:
64,192,97025,128,0,97070:0:0:0:0:
448,192,97114,128,0,97158:0:0:0:0:
192,192,97202,1,0,0:0:0:0:
320,192,97290,128,0,97334:0:0:0:0:
192,192,97378,128,0,97422:0:0:0:0:
320,192,97467,128,0,97511:0:0:0:0:
448,192,97555,1,0,0:0:0:0:
64,192,97643,1,0,0:0:0:0:
448,192,97731,128,0,97820:0:0:0:0:
192,192,97820,1,0,0:0:0:0:
64,192,97908,128,0,97996:0:0:0:0:
192,192,97996,1,0,0:0:0:0:
320,192,98084,1,0,0:0:0:0:
448,192,98084,128,0,98172:0:0:0:0:
64,192,98261,1,0,0:0:0:0:
320,192,98349,128,0,98393:0:0:0:0:
192,192,98437,128,0,98481:0:0:0:0:
448,192,98525,1,0,0:0:0:0:
192,192,98614,128,0,98658:0:0:0:0:
320,192,98702,128,0,98746:0:0:0:0:
64,192,98790,1,0,0:0:0:0:
448,192,98878,128,0,98922:0:0:0:0:
320,192,98967,1,0,0:0:0:0:
64,192,98967,128,0,99055:0:0:0:0:
192,192,99055,1,0,0:0:0:0:
448,192,99143,1,0,0:0:0:0:
320,192,99143,128,0,99231:0:0:0:0:
64,192,99231,1,0,0:0:0:0:
192,192,99320,1,0,0:0:0:0:
320,192,99320,128,0,99378:0:0:0:0:
448,192,99349,128,0,99408:0:0:0:0:
64,192,99364,1,0,0:0:0:0:
192,192,99496,128,0,99555:0:0:0:0:
64,192,99525,128,0,99584:0:0:0:0:
192,192,99672,1,0,0:0:0:0:
448,192,99761,128,0,99805:0:0:0:0:
320,192,99849,128,0,99893:0:0:0:0:
448,192,99937,128,0,99981:0:0:0:0:
320,192,100025,1,0,0:0:0:0:
64,192,100114,128,0,100158:0:0:0:0:
192,192,100202,128,0,100246:0:0:0:0:
64,192,100290,128,0,100334:0:0:0:0:
448,192,100378,1,0,0:0:0:0:
320,192,100467,1,0,0:0:0:0:
64,192,100555,128,0,100643:0:0:0:0:
192,192,100643,1,0,0:0:0:0:
320,192,100731,128,0,100820:0:0:0:0:
64,192,100820,1,0,0:0:0:0:
448,192,100908,1,0,0:0:0:0:
192,192,100908,128,0,100996:0:0:0:0:
320,192,101084,1,0,0:0:0:0:
448,192,101172,128,0,101217:0:0:0:0:
320,192,101261,128,0,101305:0:0:0:0:
448,192,101349,128,0,101393:0:0:0:0:
192,192,101437,1,0,0:0:0:0:
64,192,101525,128,0,101570:0:0:0:0:
192,192,101614,128,0,101658:0:0:0:0:
64,192,101702,128,0,101746:0:0:0:0:
192,192,101790,1,0,0:0:0:0:
320,192,101878,1,0,0:0:0:0:
448,192,101967,128,0,102055:0:0:0:0:
64,192,102055,1,0,0:0:0:0:
320,192,102143,128,0,102231:0:0:0:0:
192,192,102231,1,0,0:0:0:0:
64,192,102320,128,0,102408:0:0:0:0:
448,192,102320,1,0,0:0:0:0:
192,192,102496,1,0,0:0:0:0:
320,192,102584,128,0,102628:0:0:0:0:
192,192,102672,128,0,102717:0:0:0:0:
448,192,102761,1,0,0:0:0:0:
192,192,102849,128,0,102893:0:0:0:0:
320,192,102937,128,0,102981:0:0:0:0:
64,192,103025,1,0,0:0:0:0:
320,192,103114,128,0,103158:0:0:0:0:
64,192,103202,1,0,0:0:0:0:
192,192,103202,128,0,103246:0:0:0:0:
448,192,103290,1,0,0:0:0:0:
320,192,103378,128,0,103422:0:0:0:0:
192,192,103378,128,0,103775:0:0:0:0:
448,192,103467,128,0,103511:0:0:0:0:
64,192,103555,1,0,0:0:0:0:
448,192,103643,128,0,103687:0:0:0:0:
320,192,103643,1,0,0:0:0:0:
64,192,103731,128,0,103775:0:0:0:0:
320,192,103820,128,0,103864:0:0:0:0:
448,192,103908,128,0,104878:0:0:0:0:
192,192,103908,1,0,0:0:0:0:
64,192,103908,128,0,104084:0:0:0:0:
320,192,104084,1,0,0:0:0:0:
192,192,104084,128,0,104261:0:0:0:0:
320,192,104261,128,0,104437:0:0:0:0:
64,192,104261,1,0,0:0:0:0:
64,192,104437,128,0,104702:0:0:0:0:
192,192,104437,1,0,0:0:0:0:
320,192,104525,1,0,0:0:0:0:
192,192,104614,1,0,0:0:0:0:
320,192,104702,1,0,0:0:0:0:
64,192,104790,128,0,105231:0:0:0:0:
192,192,104790,1,0,0:0:0:0:
320,192,104878,1,0,0:0:0:0:
192,192,104967,1,0,0:0:0:0:
448,192,104967,128,0,105231:0:0:0:0:
64,192,105320,128,0,106731:0:0:0:0:
448,192,105320,1,0,0:0:0:0:
320,192,105320,128,0,105672:0:0:0:0:
192,192,105320,128,0,105672:0:0:0:0:
448,192,105672,1,0,0:0:0:0:
192,192,105849,1,0,0:0:0:0:
320,192,106025,1,0,0:0:0:0:
448,192,106070,1,0,0:0:0:0:
192,192,106202,128,0,106378:0:0:0:0:
448,192,106378,1,0,0:0:0:0:
320,192,106378,128,0,106467:0:0:0:0:
192,192,106467,1,0,0:0:0:0:
320,192,106555,128,0,106731:0:0:0:0:
448,192,106555,1,0,0:0:0:0:
448,192,106731,128,0,106908:0:0:0:0:
192,192,106731,1,0,0:0:0:0:
64,192,106908,128,0,106996:0:0:0:0:
320,192,106908,1,0,0:0:0:0:
192,192,106908,128,0,106996:0:0:0:0:
320,192,107084,128,0,107261:0:0:0:0:
192,192,107084,128,0,107172:0:0:0:0:
448,192,107084,1,0,0:0:0:0:
64,192,107172,1,0,0:0:0:0:
192,192,107261,128,0,107437:0:0:0:0:
448,192,107261,128,0,107349:0:0:0:0:
320,192,107349,1,0,0:0:0:0:
448,192,107437,128,0,107614:0:0:0:0:
64,192,107437,1,0,0:0:0:0:
320,192,107481,1,0,0:0:0:0:
64,192,107614,128,0,107790:0:0:0:0:
192,192,107614,128,0,107702:0:0:0:0:
320,192,107614,1,0,0:0:0:0:
320,192,107790,128,0,107967:0:0:0:0:
448,192,107790,128,0,108143:0:0:0:0:
192,192,107967,128,0,108143:0:0:0:0:
320,192,108143,1,0,0:0:0:0:
64,192,108143,1,0,0:0:0:0:
320,192,108320,1,0,0:0:0:0:
192,192,108496,128,0,108584:0:0:0:0:
448,192,108496,1,0,0:0:0:0:
64,192,108672,128,0,108849:0:0:0:0:
448,192,108849,1,0,0:0:0:0:
320,192,108893,1,0,0:0:0:0:
192,192,109025,128,0,109202:0:0:0:0:
64,192,109202,1,0,0:0:0:0:
320,192,109202,128,0,109378:0:0:0:0:
448,192,109290,128,0,109378:0:0:0:0:
192,192,109378,128,0,109555:0:0:0:0:
64,192,109378,1,0,0:0:0:0:
448,192,109555,128,0,109687:0:0:0:0:
192,192,109731,128,0,109820:0:0:0:0:
320,192,109731,128,0,109908:0:0:0:0:
192,192,109908,128,0,110084:0:0:0:0:
64,192,109908,1,0,0:0:0:0:
448,192,109996,1,0,0:0:0:0:
320,192,110084,128,0,110261:0:0:0:0:
64,192,110084,128,0,110172:0:0:0:0:
192,192,110261,128,0,110437:0:0:0:0:
64,192,110261,1,0,0:0:0:0:
448,192,110305,1,0,0:0:0:0:
64,192,110437,128,0,110570:0:0:0:0:
448,192,110437,1,0,0:0:0:0:
192,192,110525,128,0,110570:0:0:0:0:
320,192,110525,1,0,0:0:0:0:
448,192,110614,128,0,110790:0:0:0:0:
320,192,110658,1,0,0:0:0:0:
192,192,110702,1,0,0:0:0:0:
64,192,110746,1,0,0:0:0:0:
320,192,110790,1,0,0:0:0:0:
64,192,110967,128,0,111320:0:0:0:0:
192,192,110967,1,0,0:0:0:0:
448,192,111143,1,0,0:0:0:0:
320,192,111231,1,0,0:0:0:0:
192,192,111320,1,0,0:0:0:0:
448,192,111320,1,0,0:0:0:0:
320,192,111496,1,0,0:0:0:0:
64,192,111496,1,0,0:0:0:0:
192,192,111672,1,0,0:0:0:0:
448,192,111672,128,0,111761:0:0:0:0:
320,192,111717,1,0,0:0:0:0:
64,192,111849,1,0,0:0:0:0:
192,192,111849,128,0,111937:0:0:0:0:
448,192,112025,1,0,0:0:0:0:
320,192,112025,128,0,112202:0:0:0:0:
64,192,112025,128,0,112114:0:0:0:0:
192,192,112114,1,0,0:0:0:0:
448,192,112202,128,0,112378:0:0:0:0:
64,192,112202,1,0,0:0:0:0:
192,192,112378,128,0,112555:0:0:0:0:
320,192,112378,1,0,0:0:0:0:
448,192,112555,128,0,112731:0:0:0:0:
320,192,112555,128,0,112643:0:0:0:0:
64,192,112555,1,0,0:0:0:0:
64,192,112731,1,0,0:0:0:0:
320,192,112731,1,0,0:0:0:0:
192,192,112820,128,0,112908:0:0:0:0:
320,192,112908,128,0,113084:0:0:0:0:
64,192,112908,1,0,0:0:0:0:
448,192,112908,128,0,112996:0:0:0:0:
64,192,113084,128,0,113261:0:0:0:0:
192,192,113084,1,0,0:0:0:0:
448,192,113128,1,0,0:0:0:0:
320,192,113261,128,0,113437:0:0:0:0:
192,192,113261,128,0,113349:0:0:0:0:
448,192,113261,1,0,0:0:0:0:
448,192,113437,128,0,113614:0:0:0:0:
64,192,113437,1,0,0:0:0:0:
192,192,113614,128,0,113790:0:0:0:0:
320,192,113614,1,0,0:0:0:0:
64,192,113790,128,0,114055:0:0:0:0:
320,192,113790,1,0,0:0:0:0:
448,192,113790,1,0,0:0:0:0:
192,192,113967,1,0,0:0:0:0:
320,192,114055,1,0,0:0:0:0:
192,192,114143,128,0,114408:0:0:0:0:
448,192,114143,1,0,0:0:0:0:
64,192,114143,1,0,0:0:0:0:
320,192,114320,1,0,0:0:0:0:
64,192,114408,1,0,0:0:0:0:
192,192,114496,128,0,114672:0:0:0:0:
320,192,114496,128,0,114761:0:0:0:0:
448,192,114496,1,0,0:0:0:0:
448,192,114672,1,0,0:0:0:0:
64,192,114672,128,0,114761:0:0:0:0:
192,192,114761,1,0,0:0:0:0:
448,192,114849,128,0,116261:0:0:0:0:
320,192,114849,128,0,114937:0:0:0:0:
64,192,114849,1,0,0:0:0:0:
320,192,115025,1,0,0:0:0:0:
64,192,115025,128,0,115378:0:0:0:0:
192,192,115202,1,0,0:0:0:0:
320,192,115202,1,0,0:0:0:0:
192,192,115378,128,0,116261:0:0:0:0:
320,192,115378,1,0,0:0:0:0:
320,192,115555,1,0,0:0:0:0:
64,192,115555,1,0,0:0:0:0:
64,192,115731,1,0,0:0:0:0:
64,192,115908,1,0,0:0:0:0:
320,192,115908,1,0,0:0:0:0:
320,192,116084,1,0,0:0:0:0:
320,192,116261,1,0,0:0:0:0:
64,192,116261,128,0,116614:0:0:0:0:
192,192,116614,1,0,0:0:0:0:
448,192,116614,1,0,0:0:0:0:
192,192,116967,128,0,117320:0:0:0:0:
320,192,117143,1,0,0:0:0:0:
448,192,117320,128,0,117672:0:0:0:0:
320,192,117672,128,0,119084:0:0:0:0:
64,192,118025,1,0,0:0:0:0:
448,192,118555,1,0,0:0:0:0:
64,192,118731,128,0,119084:0:0:0:0:
192,192,119084,128,0,120496:0:0:0:0:
448,192,119084,1,0,0:0:0:0:
320,192,119437,1,0,0:0:0:0:
448,192,119790,128,0,120143:0:0:0:0:
320,192,119967,1,0,0:0:0:0:
64,192,120143,128,0,120496:0:0:0:0:
320,192,120496,128,0,121202:0:0:0:0:
64,192,120849,1,0,0:0:0:0:
192,192,121378,1,0,0:0:0:0:
64,192,121555,128,0,121908:0:0:0:0:
448,192,121908,128,0,122261:0:0:0:0:
192,192,121908,1,0,0:0:0:0:
64,192,122261,1,0,0:0:0:0:
192,192,122614,128,0,122967:0:0:0:0:
448,192,122790,1,0,0:0:0:0:
320,192,122967,128,0,123320:0:0:0:0:
64,192,123320,128,0,124731:0:0:0:0:
448,192,123672,1,0,0:0:0:0:
192,192,124202,1,0,0:0:0:0:
448,192,124378,128,0,124731:0:0:0:0:
192,192,124731,128,0,125790:0:0:0:0:
320,192,124731,1,0,0:0:0:0:
448,192,125084,1,0,0:0:0:0:
64,192,125614,1,0,0:0:0:0:
448,192,125790,128,0,126143:0:0:0:0:
320,192,126143,128,0,126849:0:0:0:0:
64,192,126496,1,0,0:0:0:0:
448,192,126849,1,0,0:0:0:0:
192,192,127025,1,0,0:0:0:0:
448,192,127025,1,0,0:0:0:0:
320,192,127114,1,0,0:0:0:0:
64,192,127202,1,0,0:0:0:0:
448,192,127290,1,0,0:0:0:0:
192,192,127378,1,0,0:0:0:0:
320,192,127467,1,0,0:0:0:0:
192,192,127555,1,0,0:0:0:0:
448,192,127643,1,0,0:0:0:0:
320,192,127731,1,0,0:0:0:0:
192,192,127820,1,0,0:0:0:0:
64,192,127908,1,0,0:0:0:0:
448,192,127908,1,0,0:0:0:0:
320,192,127996,1,0,0:0:0:0:
448,192,128084,1,0,0:0:0:0:
192,192,128172,1,0,0:0:0:0:
64,192,128261,128,0,128614:0:0:0:0:
192,192,128437,1,0,0:0:0:0:
320,192,128614,128,0,128967:0:0:0:0:
64,192,128790,1,0,0:0:0:0:
192,192,128967,128,0,129672:0:0:0:0:
448,192,129143,1,0,0:0:0:0:
64,192,129320,1,0,0:0:0:0:
320,192,129320,1,0,0:0:0:0:
448,192,129496,1,0,0:0:0:0:
320,192,129672,128,0,129849:0:0:0:0:
64,192,129849,1,0,0:0:0:0:
448,192,130025,128,0,130202:0:0:0:0:
192,192,130025,1,0,0:0:0:0:
192,192,130202,128,0,130378:0:0:0:0:
320,192,130378,128,0,130555:0:0:0:0:
64,192,130555,128,0,130731:0:0:0:0:
320,192,130731,1,0,0:0:0:0:
448,192,130731,1,0,0:0:0:0:
64,192,130908,1,0,0:0:0:0:
192,192,131084,128,0,131437:0:0:0:0:
64,192,131261,1,0,0:0:0:0:
448,192,131437,128,0,131790:0:0:0:0:
192,192,131614,1,0,0:0:0:0:
320,192,131790,128,0,132496:0:0:0:0:
192,192,131967,1,0,0:0:0:0:
64,192,132143,1,0,0:0:0:0:
448,192,132143,1,0,0:0:0:0:
448,192,132320,1,0,0:0:0:0:
192,192,132496,128,0,132849:0:0:0:0:
320,192,132672,1,0,0:0:0:0:
448,192,132849,128,0,133025:0:0:0:0:
64,192,132849,1,0,0:0:0:0:
320,192,133025,128,0,133202:0:0:0:0:
64,192,133202,128,0,133378:0:0:0:0:
192,192,133378,128,0,133731:0:0:0:0:
64,192,133555,1,0,0:0:0:0:
448,192,133555,1,0,0:0:0:0:
448,192,133731,128,0,134084:0:0:0:0:
64,192,133908,1,0,0:0:0:0:
320,192,134084,128,0,134261:0:0:0:0:
64,192,134261,128,0,134437:0:0:0:0:
192,192,134437,128,0,134614:0:0:0:0:
448,192,134614,128,0,134790:0:0:0:0:
64,192,134614,1,0,0:0:0:0:
320,192,134790,128,0,135143:0:0:0:0:
64,192,134967,1,0,0:0:0:0:
448,192,134967,1,0,0:0:0:0:
192,192,135143,128,0,135672:0:0:0:0:
320,192,135320,1,0,0:0:0:0:
448,192,135496,1,0,0:0:0:0:
448,192,135672,1,0,0:0:0:0:
64,192,135672,128,0,135849:0:0:0:0:
320,192,135849,128,0,136025:0:0:0:0:
448,192,136025,128,0,136202:0:0:0:0:
192,192,136202,128,0,136555:0:0:0:0:
320,192,136378,1,0,0:0:0:0:
448,192,136378,1,0,0:0:0:0:
64,192,136555,128,0,137790:0:0:0:0:
192,192,136731,1,0,0:0:0:0:
448,192,136908,1,0,0:0:0:0:
192,192,137084,1,0,0:0:0:0:
320,192,137084,1,0,0:0:0:0:
448,192,137261,1,0,0:0:0:0:
192,192,137437,1,0,0:0:0:0:
320,192,137614,1,0,0:0:0:0:
192,192,137790,1,0,0:0:0:0:
448,192,137790,1,0,0:0:0:0:
320,192,137967,1,0,0:0:0:0:
448,192,138143,128,0,138231:0:0:0:0:
320,192,138231,128,0,138320:0:0:0:0:
192,192,138320,128,0,138408:0:0:0:0:
64,192,138408,128,0,138496:0:0:0:0:
320,192,138496,128,0,138584:0:0:0:0:
448,192,138584,128,0,138672:0:0:0:0:
64,192,138672,128,0,138761:0:0:0:0:
192,192,138761,128,0,138849:0:0:0:0:
448,192,138849,128,0,138937:0:0:0:0:
320,192,138937,128,0,139025:0:0:0:0:
192,192,139025,128,0,139114:0:0:0:0:
64,192,139114,128,0,139202:0:0:0:0:
448,192,139202,1,0,0:0:0:0:
320,192,139202,128,0,139290:0:0:0:0:
192,192,139378,128,0,139467:0:0:0:0:
448,192,139555,128,0,139643:0:0:0:0:
320,192,139731,128,0,139820:0:0:0:0:
192,192,139908,1,0,0:0:0:0:
64,192,140084,128,0,140172:0:0:0:0:
320,192,140261,128,0,140349:0:0:0:0:
448,192,140437,1,0,0:0:0:0:
64,192,140467,128,0,140790:0:0:0:0:
192,192,140614,1,0,0:0:0:0:
320,192,140790,1,0,0:0:0:0:
448,192,140790,128,0,140878:0:0:0:0:
320,192,140967,128,0,141055:0:0:0:0:
64,192,140967,1,0,0:0:0:0:
64,192,141143,128,0,141320:0:0:0:0:
448,192,141320,128,0,141496:0:0:0:0:
64,192,141496,128,0,141584:0:0:0:0:
320,192,141672,128,0,141761:0:0:0:0:
64,192,141849,1,0,0:0:0:0:
448,192,141878,128,0,142202:0:0:0:0:
320,192,142025,1,0,0:0:0:0:
192,192,142202,128,0,142290:0:0:0:0:
192,192,142378,128,0,142731:0:0:0:0:
64,192,142555,1,0,0:0:0:0:
320,192,142731,1,0,0:0:0:0:
320,192,142908,128,0,143084:0:0:0:0:
448,192,143084,1,0,0:0:0:0:
64,192,143084,1,0,0:0:0:0:
320,192,143261,1,0,0:0:0:0:
192,192,143283,128,0,143614:0:0:0:0:
64,192,143437,1,0,0:0:0:0:
448,192,143614,128,0,143702:0:0:0:0:
448,192,143790,128,0,144143:0:0:0:0:
64,192,143967,1,0,0:0:0:0:
192,192,144143,1,0,0:0:0:0:
192,192,144320,128,0,144496:0:0:0:0:
448,192,144496,128,0,144584:0:0:0:0:
192,192,144672,1,0,0:0:0:0:
320,192,144702,128,0,145025:0:0:0:0:
64,192,144849,1,0,0:0:0:0:
448,192,145025,128,0,145114:0:0:0:0:
448,192,145202,128,0,145555:0:0:0:0:
320,192,145378,1,0,0:0:0:0:
64,192,145555,1,0,0:0:0:0:
192,192,145731,128,0,145820:0:0:0:0:
448,192,145908,128,0,145996:0:0:0:0:
320,192,146084,1,0,0:0:0:0:
64,192,146114,128,0,146437:0:0:0:0:
192,192,146261,1,0,0:0:0:0:
448,192,146437,128,0,146525:0:0:0:0:
192,192,146614,128,0,146702:0:0:0:0:
320,192,146790,128,0,147143:0:0:0:0:
448,192,146967,1,0,0:0:0:0:
64,192,147143,128,0,147231:0:0:0:0:
64,192,147320,128,0,147496:0:0:0:0:
192,192,147496,128,0,147584:0:0:0:0:
320,192,147672,128,0,147761:0:0:0:0:
64,192,147849,128,0,147937:0:0:0:0:
448,192,148025,128,0,148114:0:0:0:0:
192,192,148202,128,0,148555:0:0:0:0:
64,192,148378,1,0,0:0:0:0:
320,192,148555,128,0,148643:0:0:0:0:
448,192,148731,128,0,148820:0:0:0:0:
320,192,148908,1,0,0:0:0:0:
64,192,148930,128,0,149261:0:0:0:0:
448,192,149084,1,0,0:0:0:0:
448,192,149261,128,0,149349:0:0:0:0:
448,192,149437,128,0,149790:0:0:0:0:
192,192,149437,128,0,149525:0:0:0:0:
320,192,149525,128,0,149614:0:0:0:0:
64,192,149614,128,0,149702:0:0:0:0:
192,192,149702,128,0,149790:0:0:0:0:
320,192,149790,128,0,149878:0:0:0:0:
192,192,149878,128,0,149967:0:0:0:0:
448,192,149967,128,0,150055:0:0:0:0:
320,192,150055,128,0,150143:0:0:0:0:
64,192,150143,128,0,150231:0:0:0:0:
192,192,150231,128,0,150320:0:0:0:0:
320,192,150320,128,0,150408:0:0:0:0:
448,192,150408,128,0,150496:0:0:0:0:
192,192,150496,1,0,0:0:0:0:
64,192,150496,1,0,0:0:0:0:
192,192,150672,1,0,0:0:0:0:
64,192,150849,128,0,151202:0:0:0:0:
320,192,150849,1,0,0:0:0:0:
448,192,150849,1,0,0:0:0:0:
192,192,151025,1,0,0:0:0:0:
448,192,151202,128,0,151555:0:0:0:0:
320,192,151202,1,0,0:0:0:0:
192,192,151202,1,0,0:0:0:0:
64,192,151290,1,0,0:0:0:0:
320,192,151378,1,0,0:0:0:0:
320,192,151555,128,0,152261:0:0:0:0:
192,192,151555,1,0,0:0:0:0:
64,192,151555,1,0,0:0:0:0:
64,192,151731,1,0,0:0:0:0:
192,192,151908,1,0,0:0:0:0:
448,192,151908,1,0,0:0:0:0:
192,192,152084,1,0,0:0:0:0:
448,192,152261,1,0,0:0:0:0:
64,192,152261,1,0,0:0:0:0:
192,192,152261,128,0,152525:0:0:0:0:
320,192,152437,1,0,0:0:0:0:
448,192,152525,1,0,0:0:0:0:
64,192,152614,128,0,152790:0:0:0:0:
320,192,152614,1,0,0:0:0:0:
192,192,152614,1,0,0:0:0:0:
320,192,152790,128,0,152967:0:0:0:0:
192,192,152967,128,0,153143:0:0:0:0:
448,192,152967,1,0,0:0:0:0:
64,192,152967,1,0,0:0:0:0:
64,192,153143,128,0,153320:0:0:0:0:
320,192,153143,1,0,0:0:0:0:
320,192,153320,1,0,0:0:0:0:
192,192,153320,1,0,0:0:0:0:
192,192,153496,1,0,0:0:0:0:
320,192,153672,1,0,0:0:0:0:
64,192,153672,1,0,0:0:0:0:
448,192,153672,128,0,153937:0:0:0:0:
192,192,153849,1,0,0:0:0:0:
320,192,153937,1,0,0:0:0:0:
64,192,154025,128,0,154378:0:0:0:0:
448,192,154025,1,0,0:0:0:0:
192,192,154025,1,0,0:0:0:0:
320,192,154202,1,0,0:0:0:0:
192,192,154378,128,0,155084:0:0:0:0:
320,192,154378,1,0,0:0:0:0:
448,192,154378,1,0,0:0:0:0:
448,192,154555,1,0,0:0:0:0:
320,192,154731,1,0,0:0:0:0:
64,192,154731,1,0,0:0:0:0:
64,192,154908,1,0,0:0:0:0:
448,192,155084,128,0,155437:0:0:0:0:
320,192,155084,1,0,0:0:0:0:
64,192,155084,1,0,0:0:0:0:
320,192,155261,1,0,0:0:0:0:
64,192,155437,128,0,155614:0:0:0:0:
192,192,155437,1,0,0:0:0:0:
320,192,155437,1,0,0:0:0:0:
192,192,155614,128,0,155790:0:0:0:0:
320,192,155790,128,0,155967:0:0:0:0:
448,192,155790,1,0,0:0:0:0:
64,192,155790,1,0,0:0:0:0:
448,192,155967,128,0,156320:0:0:0:0:
320,192,156143,1,0,0:0:0:0:
192,192,156143,1,0,0:0:0:0:
320,192,156320,1,0,0:0:0:0:
192,192,156320,128,0,156672:0:0:0:0:
64,192,156496,1,0,0:0:0:0:
448,192,156496,1,0,0:0:0:0:
320,192,156672,128,0,156849:0:0:0:0:
448,192,156672,1,0,0:0:0:0:
448,192,156849,128,0,157025:0:0:0:0:
192,192,156849,1,0,0:0:0:0:
64,192,156849,1,0,0:0:0:0:
64,192,157025,128,0,157202:0:0:0:0:
192,192,157025,1,0,0:0:0:0:
320,192,157202,128,0,157378:0:0:0:0:
192,192,157202,1,0,0:0:0:0:
448,192,157202,1,0,0:0:0:0:
192,192,157378,128,0,157731:0:0:0:0:
64,192,157378,1,0,0:0:0:0:
448,192,157555,1,0,0:0:0:0:
64,192,157555,1,0,0:0:0:0:
64,192,157731,128,0,158261:0:0:0:0:
448,192,157731,1,0,0:0:0:0:
192,192,157908,1,0,0:0:0:0:
320,192,157908,1,0,0:0:0:0:
320,192,158084,1,0,0:0:0:0:
448,192,158261,128,0,158437:0:0:0:0:
320,192,158261,1,0,0:0:0:0:
192,192,158261,1,0,0:0:0:0:
320,192,158437,128,0,158614:0:0:0:0:
192,192,158437,1,0,0:0:0:0:
192,192,158614,128,0,158790:0:0:0:0:
64,192,158614,1,0,0:0:0:0:
448,192,158614,1,0,0:0:0:0:
448,192,158790,128,0,158967:0:0:0:0:
64,192,158790,1,0,0:0:0:0:
64,192,158967,128,0,159320:0:0:0:0:
192,192,158967,1,0,0:0:0:0:
320,192,158967,1,0,0:0:0:0:
448,192,159055,1,0,0:0:0:0:
320,192,159143,1,0,0:0:0:0:
448,192,159231,1,0,0:0:0:0:
192,192,159320,128,0,159672:0:0:0:0:
320,192,159320,1,0,0:0:0:0:
64,192,159408,1,0,0:0:0:0:
448,192,159496,1,0,0:0:0:0:
64,192,159584,1,0,0:0:0:0:
448,192,159672,1,0,0:0:0:0:
320,192,159672,128,0,160025:0:0:0:0:
192,192,159761,1,0,0:0:0:0:
64,192,159849,1,0,0:0:0:0:
192,192,159937,1,0,0:0:0:0:
448,192,160025,128,0,160290:0:0:0:0:
64,192,160025,1,0,0:0:0:0:
320,192,160114,1,0,0:0:0:0:
192,192,160202,1,0,0:0:0:0:
320,192,160290,1,0,0:0:0:0:
192,192,160378,1,0,0:0:0:0:
64,192,160378,128,0,161702:0:0:0:0:
448,192,160378,1,0,0:0:0:0:
320,192,160555,1,0,0:0:0:0:
448,192,160731,1,0,0:0:0:0:
192,192,160731,1,0,0:0:0:0:
448,192,160908,1,0,0:0:0:0:
320,192,160996,1,0,0:0:0:0:
192,192,161084,1,0,0:0:0:0:
448,192,161084,1,0,0:0:0:0:
320,192,161172,1,0,0:0:0:0:
192,192,161261,1,0,0:0:0:0:
320,192,161349,1,0,0:0:0:0:
192,192,161437,1,0,0:0:0:0:
448,192,161437,128,0,161702:0:0:0:0:
448,192,161790,1,0,0:0:0:0:
64,192,161790,128,0,161967:0:0:0:0:
320,192,161790,128,0,161878:0:0:0:0:
192,192,161967,128,0,162143:0:0:0:0:
448,192,161967,128,0,162055:0:0:0:0:
64,192,162143,1,0,0:0:0:0:
320,192,162143,128,0,162320:0:0:0:0:
448,192,162143,128,0,162231:0:0:0:0:
192,192,162320,128,0,162496:0:0:0:0:
64,192,162320,128,0,162408:0:0:0:0:
320,192,162496,1,0,0:0:0:0:
448,192,162496,1,0,0:0:0:0:
320,192,162672,128,0,162849:0:0:0:0:
448,192,162672,128,0,162761:0:0:0:0:
64,192,162849,1,0,0:0:0:0:
192,192,162849,128,0,163025:0:0:0:0:
448,192,163025,128,0,163378:0:0:0:0:
320,192,163025,128,0,163202:0:0:0:0:
192,192,163202,1,0,0:0:0:0:
64,192,163202,128,0,163378:0:0:0:0:
320,192,163378,128,0,163555:0:0:0:0:
192,192,163378,128,0,163467:0:0:0:0:
448,192,163555,128,0,163643:0:0:0:0:
192,192,163555,1,0,0:0:0:0:
64,192,163555,128,0,163643:0:0:0:0:
64,192,163731,128,0,164084:0:0:0:0:
192,192,163731,128,0,163908:0:0:0:0:
320,192,163908,128,0,164084:0:0:0:0:
448,192,163908,1,0,0:0:0:0:
192,192,164084,128,0,164172:0:0:0:0:
448,192,164084,128,0,164261:0:0:0:0:
320,192,164261,128,0,164349:0:0:0:0:
64,192,164261,128,0,164437:0:0:0:0:
192,192,164261,1,0,0:0:0:0:
448,192,164437,128,0,164614:0:0:0:0:
192,192,164437,128,0,164790:0:0:0:0:
320,192,164614,128,0,164790:0:0:0:0:
64,192,164614,1,0,0:0:0:0:
448,192,164790,128,0,164878:0:0:0:0:
64,192,164790,128,0,164967:0:0:0:0:
192,192,164967,128,0,165143:0:0:0:0:
448,192,164967,128,0,165320:0:0:0:0:
320,192,164967,1,0,0:0:0:0:
64,192,165143,128,0,165320:0:0:0:0:
192,192,165320,1,0,0:0:0:0:
320,192,165320,1,0,0:0:0:0:
320,192,165496,128,0,165672:0:0:0:0:
64,192,165496,128,0,165672:0:0:0:0:
448,192,165672,1,0,0:0:0:0:
192,192,165672,1,0,0:0:0:0:
64,192,165849,128,0,166025:0:0:0:0:
192,192,165849,128,0,166202:0:0:0:0:
448,192,166025,128,0,166202:0:0:0:0:
320,192,166025,1,0,0:0:0:0:
320,192,166202,128,0,166290:0:0:0:0:
64,192,166202,128,0,166378:0:0:0:0:
192,192,166378,128,0,166555:0:0:0:0:
448,192,166378,128,0,166731:0:0:0:0:
320,192,166378,1,0,0:0:0:0:
64,192,166555,128,0,166731:0:0:0:0:
192,192,166731,1,0,0:0:0:0:
320,192,166731,1,0,0:0:0:0:
448,192,166908,128,0,167084:0:0:0:0:
192,192,166908,128,0,166996:0:0:0:0:
320,192,167084,128,0,167172:0:0:0:0:
64,192,167084,1,0,0:0:0:0:
192,192,167261,128,0,167437:0:0:0:0:
320,192,167261,128,0,167614:0:0:0:0:
64,192,167437,1,0,0:0:0:0:
448,192,167437,128,0,167614:0:0:0:0:
64,192,167614,128,0,167702:0:0:0:0:
192,192,167614,128,0,167790:0:0:0:0:
448,192,167790,1,0,0:0:0:0:
320,192,167790,128,0,168143:0:0:0:0:
64,192,167790,128,0,167967:0:0:0:0:
448,192,167967,128,0,168143:0:0:0:0:
192,192,168143,1,0,0:0:0:0:
320,192,168320,128,0,168408:0:0:0:0:
192,192,168320,128,0,168496:0:0:0:0:
320,192,168496,1,0,0:0:0:0:
448,192,168496,128,0,168672:0:0:0:0:
64,192,168496,128,0,168584:0:0:0:0:
320,192,168672,128,0,169025:0:0:0:0:
64,192,168672,128,0,168849:0:0:0:0:
448,192,168849,1,0,0:0:0:0:
192,192,168849,128,0,169025:0:0:0:0:
448,192,169025,128,0,169114:0:0:0:0:
64,192,169025,128,0,169202:0:0:0:0:
448,192,169202,1,0,0:0:0:0:
320,192,169202,128,0,169290:0:0:0:0:
192,192,169202,128,0,169290:0:0:0:0:
64,192,169378,128,0,169555:0:0:0:0:
448,192,169378,128,0,169731:0:0:0:0:
192,192,169555,128,0,169731:0:0:0:0:
320,192,169555,1,0,0:0:0:0:
320,192,169731,128,0,169908:0:0:0:0:
64,192,169731,128,0,169820:0:0:0:0:
192,192,169908,128,0,170084:0:0:0:0:
448,192,169908,1,0,0:0:0:0:
64,192,169908,128,0,170084:0:0:0:0:
320,192,170084,128,0,170261:0:0:0:0:
448,192,170084,128,0,170172:0:0:0:0:
64,192,170261,128,0,170437:0:0:0:0:
192,192,170261,1,0,0:0:0:0:
448,192,170261,128,0,170349:0:0:0:0:
320,192,170437,128,0,170525:0:0:0:0:
192,192,170437,128,0,170614:0:0:0:0:
320,192,170614,1,0,0:0:0:0:
64,192,170614,128,0,170702:0:0:0:0:
448,192,170614,128,0,170702:0:0:0:0:
192,192,170790,128,0,171055:0:0:0:0:
320,192,170790,128,0,170967:0:0:0:0:
448,192,170967,1,0,0:0:0:0:
64,192,170967,128,0,171055:0:0:0:0:
320,192,171143,128,0,171320:0:0:0:0:
448,192,171143,128,0,171231:0:0:0:0:
448,192,171320,1,0,0:0:0:0:
192,192,171320,128,0,171408:0:0:0:0:
64,192,171320,128,0,171408:0:0:0:0:
448,192,171496,128,0,171672:0:0:0:0:
64,192,171496,128,0,171849:0:0:0:0:
320,192,171672,1,0,0:0:0:0:
192,192,171672,128,0,171849:0:0:0:0:
448,192,171849,128,0,171937:0:0:0:0:
320,192,171849,128,0,172025:0:0:0:0:
64,192,172025,1,0,0:0:0:0:
192,192,172025,128,0,172378:0:0:0:0:
448,192,172025,128,0,172202:0:0:0:0:
320,192,172202,128,0,172378:0:0:0:0:
448,192,172378,1,0,0:0:0:0:
64,192,172378,128,0,172467:0:0:0:0:
192,192,172467,128,0,172555:0:0:0:0:
448,192,172555,128,0,172731:0:0:0:0:
64,192,172555,128,0,172643:0:0:0:0:
192,192,172643,128,0,172731:0:0:0:0:
64,192,172731,1,0,0:0:0:0:
320,192,172731,128,0,172820:0:0:0:0:
448,192,172820,128,0,172908:0:0:0:0:
64,192,172908,128,0,173084:0:0:0:0:
320,192,172908,128,0,172996:0:0:0:0:
448,192,172996,128,0,173084:0:0:0:0:
320,192,173084,1,0,0:0:0:0:
192,192,173084,128,0,173349:0:0:0:0:
448,192,173261,128,0,173437:0:0:0:0:
320,192,173437,128,0,173614:0:0:0:0:
192,192,173437,1,0,0:0:0:0:
64,192,173437,128,0,173702:0:0:0:0:
192,192,173614,128,0,173790:0:0:0:0:
64,192,173790,1,0,0:0:0:0:
448,192,173790,128,0,173967:0:0:0:0:
320,192,173790,128,0,174055:0:0:0:0:
64,192,173967,128,0,174143:0:0:0:0:
192,192,174143,128,0,174761:0:0:0:0:
320,192,174143,1,0,0:0:0:0:
448,192,174143,128,0,174320:0:0:0:0:
64,192,174320,128,0,174496:0:0:0:0:
320,192,174496,128,0,174672:0:0:0:0:
448,192,174496,1,0,0:0:0:0:
448,192,174672,128,0,174849:0:0:0:0:
192,192,174849,1,0,0:0:0:0:
64,192,174849,128,0,175025:0:0:0:0:
320,192,174849,128,0,175114:0:0:0:0:
192,192,175025,128,0,175202:0:0:0:0:
64,192,175202,1,0,0:0:0:0:
448,192,175202,128,0,175378:0:0:0:0:
320,192,175202,128,0,175290:0:0:0:0:
64,192,175378,128,0,175467:0:0:0:0:
192,192,175378,128,0,175555:0:0:0:0:
320,192,175555,1,0,0:0:0:0:
448,192,175555,128,0,175643:0:0:0:0:
64,192,175555,128,0,175820:0:0:0:0:
192,192,175731,128,0,175820:0:0:0:0:
320,192,175731,128,0,175908:0:0:0:0:
64,192,175908,1,0,0:0:0:0:
448,192,175908,1,0,0:0:0:0:
192,192,176084,128,0,176261:0:0:0:0:
448,192,176261,1,0,0:0:0:0:
64,192,176261,128,0,176437:0:0:0:0:
320,192,176261,128,0,176525:0:0:0:0:
448,192,176437,128,0,176614:0:0:0:0:
64,192,176614,1,0,0:0:0:0:
192,192,176614,128,0,176878:0:0:0:0:
320,192,176614,128,0,176790:0:0:0:0:
64,192,176790,128,0,176967:0:0:0:0:
192,192,176967,1,0,0:0:0:0:
448,192,176967,128,0,177584:0:0:0:0:
320,192,176967,128,0,177143:0:0:0:0:
192,192,177143,128,0,177320:0:0:0:0:
320,192,177320,1,0,0:0:0:0:
64,192,177320,128,0,177496:0:0:0:0:
320,192,177496,128,0,177672:0:0:0:0:
64,192,177672,1,0,0:0:0:0:
192,192,177672,128,0,177849:0:0:0:0:
448,192,177672,128,0,177937:0:0:0:0:
320,192,177849,128,0,178025:0:0:0:0:
448,192,178025,1,0,0:0:0:0:
64,192,178025,128,0,178202:0:0:0:0:
192,192,178025,128,0,178114:0:0:0:0:
320,192,178202,128,0,178290:0:0:0:0:
192,192,178202,128,0,178378:0:0:0:0:
448,192,178378,128,0,178467:0:0:0:0:
320,192,178378,128,0,178555:0:0:0:0:
64,192,178378,1,0,0:0:0:0:
64,192,178555,128,0,178643:0:0:0:0:
192,192,178555,128,0,178731:0:0:0:0:
448,192,178731,1,0,0:0:0:0:
320,192,178731,1,0,0:0:0:0:
448,192,178908,128,0,179084:0:0:0:0:
320,192,179084,1,0,0:0:0:0:
192,192,179084,128,0,179261:0:0:0:0:
64,192,179084,128,0,179261:0:0:0:0:
448,192,179261,128,0,179437:0:0:0:0:
320,192,179437,128,0,179702:0:0:0:0:
64,192,179437,128,0,179614:0:0:0:0:
192,192,179437,1,0,0:0:0:0:
192,192,179614,128,0,179790:0:0:0:0:
64,192,179790,1,0,0:0:0:0:
448,192,179790,128,0,179967:0:0:0:0:
320,192,179790,128,0,179878:0:0:0:0:
192,192,179967,128,0,180408:0:0:0:0:
64,192,179967,128,0,180143:0:0:0:0:
448,192,180143,1,0,0:0:0:0:
320,192,180143,128,0,180320:0:0:0:0:
448,192,180320,128,0,180496:0:0:0:0:
192,192,180496,128,0,180761:0:0:0:0:
64,192,180496,128,0,180672:0:0:0:0:
320,192,180496,1,0,0:0:0:0:
320,192,180672,128,0,180849:0:0:0:0:
448,192,180849,128,0,181025:0:0:0:0:
192,192,180849,128,0,180937:0:0:0:0:
64,192,180849,1,0,0:0:0:0:
64,192,181025,128,0,181114:0:0:0:0:
192,192,181025,128,0,181202:0:0:0:0:
448,192,181202,1,0,0:0:0:0:
320,192,181202,128,0,181290:0:0:0:0:
64,192,181202,128,0,181378:0:0:0:0:
192,192,181378,128,0,181467:0:0:0:0:
448,192,181378,128,0,181555:0:0:0:0:
320,192,181555,128,0,181820:0:0:0:0:
192,192,181555,128,0,181731:0:0:0:0:
64,192,181555,1,0,0:0:0:0:
448,192,181731,128,0,181908:0:0:0:0:
192,192,181908,1,0,0:0:0:0:
320,192,181908,128,0,181996:0:0:0:0:
64,192,181908,128,0,182172:0:0:0:0:
448,192,182084,128,0,182525:0:0:0:0:
320,192,182084,128,0,182261:0:0:0:0:
192,192,182261,128,0,182525:0:0:0:0:
64,192,182261,1,0,0:0:0:0:
64,192,182437,128,0,182614:0:0:0:0:
320,192,182614,1,0,0:0:0:0:
448,192,182614,128,0,182790:0:0:0:0:
192,192,182614,128,0,182878:0:0:0:0:
320,192,182790,128,0,182967:0:0:0:0:
448,192,182967,128,0,183143:0:0:0:0:
192,192,182967,1,0,0:0:0:0:
64,192,182967,128,0,183143:0:0:0:0:
192,192,183143,128,0,183584:0:0:0:0:
320,192,183143,128,0,183320:0:0:0:0:
64,192,183320,1,0,0:0:0:0:
448,192,183320,128,0,183496:0:0:0:0:
64,192,183496,128,0,183672:0:0:0:0:
448,192,183672,128,0,183761:0:0:0:0:
320,192,183672,128,0,183849:0:0:0:0:
192,192,183672,1,0,0:0:0:0:
192,192,183849,128,0,184025:0:0:0:0:
64,192,183849,128,0,183937:0:0:0:0:
64,192,184025,128,0,184202:0:0:0:0:
320,192,184025,1,0,0:0:0:0:
448,192,184025,128,0,184290:0:0:0:0:
192,192,184202,128,0,184378:0:0:0:0:
448,192,184378,1,0,0:0:0:0:
320,192,184378,1,0,0:0:0:0:
64,192,184555,128,0,184731:0:0:0:0:
192,192,184731,1,0,0:0:0:0:
448,192,184731,128,0,184996:0:0:0:0:
320,192,184731,128,0,184908:0:0:0:0:
192,192,184908,128,0,185084:0:0:0:0:
320,192,185084,1,0,0:0:0:0:
64,192,185084,128,0,185261:0:0:0:0:
448,192,185084,128,0,185349:0:0:0:0:
320,192,185261,128,0,185437:0:0:0:0:
192,192,185437,128,0,186055:0:0:0:0:
64,192,185437,128,0,185614:0:0:0:0:
448,192,185437,1,0,0:0:0:0:
320,192,185614,128,0,185790:0:0:0:0:
64,192,185790,1,0,0:0:0:0:
448,192,185790,128,0,185967:0:0:0:0:
320,192,185967,128,0,186143:0:0:0:0:
192,192,186143,1,0,0:0:0:0:
64,192,186143,128,0,186320:0:0:0:0:
448,192,186143,128,0,186408:0:0:0:0:
192,192,186320,128,0,186496:0:0:0:0:
320,192,186496,1,0,0:0:0:0:
64,192,186496,128,0,186672:0:0:0:0:
448,192,186496,128,0,186584:0:0:0:0:
320,192,186672,128,0,186849:0:0:0:0:
192,192,186672,128,0,186761:0:0:0:0:
64,192,186849,128,0,186937:0:0:0:0:
448,192,186849,128,0,187025:0:0:0:0:
192,192,186849,1,0,0:0:0:0:
192,192,187025,128,0,187114:0:0:0:0:
320,192,187025,128,0,187202:0:0:0:0:
64,192,187202,1,0,0:0:0:0:
448,192,187202,128,0,187290:0:0:0:0:
192,192,187202,1,0,0:0:0:0:
64,192,187378,128,0,187555:0:0:0:0:
320,192,187555,1,0,0:0:0:0:
192,192,187555,128,0,187731:0:0:0:0:
448,192,187555,128,0,187820:0:0:0:0:
320,192,187731,128,0,187908:0:0:0:0:
64,192,187908,128,0,188172:0:0:0:0:
448,192,187908,128,0,188084:0:0:0:0:
192,192,187908,1,0,0:0:0:0:
192,192,188084,128,0,188261:0:0:0:0:
64,192,188261,1,0,0:0:0:0:
320,192,188261,128,0,188878:0:0:0:0:
448,192,188261,128,0,188437:0:0:0:0:
64,192,188437,128,0,188614:0:0:0:0:
448,192,188614,1,0,0:0:0:0:
192,192,188614,128,0,188878:0:0:0:0:
448,192,188790,128,0,188967:0:0:0:0:
320,192,188967,1,0,0:0:0:0:
64,192,188967,128,0,189143:0:0:0:0:
192,192,188967,128,0,189231:0:0:0:0:
320,192,189143,128,0,189320:0:0:0:0:
448,192,189320,128,0,189408:0:0:0:0:
192,192,189320,1,0,0:0:0:0:
64,192,189320,128,0,189496:0:0:0:0:
320,192,189496,128,0,189584:0:0:0:0:
192,192,189496,128,0,189672:0:0:0:0:
448,192,189672,128,0,189849:0:0:0:0:
64,192,189672,128,0,189761:0:0:0:0:
320,192,189672,1,0,0:0:0:0:
320,192,189849,128,0,190202:0:0:0:0:
192,192,189849,128,0,190025:0:0:0:0:
448,192,190025,1,0,0:0:0:0:
64,192,190025,1,0,0:0:0:0:
192,192,190202,128,0,190555:0:0:0:0:
448,192,190202,1,0,0:0:0:0:
64,192,190378,1,0,0:0:0:0:
320,192,190378,1,0,0:0:0:0:
64,192,190555,128,0,190643:0:0:0:0:
320,192,190555,1,0,0:0:0:0:
320,192,190731,128,0,190820:0:0:0:0:
192,192,190731,1,0,0:0:0:0:
448,192,190731,1,0,0:0:0:0:
448,192,190908,128,0,190996:0:0:0:0:
64,192,190908,1,0,0:0:0:0:
192,192,191084,128,0,191172:0:0:0:0:
448,192,191084,1,0,0:0:0:0:
320,192,191084,1,0,0:0:0:0:
320,192,191261,128,0,191614:0:0:0:0:
448,192,191261,1,0,0:0:0:0:
64,192,191437,1,0,0:0:0:0:
192,192,191437,1,0,0:0:0:0:
64,192,191614,128,0,192143:0:0:0:0:
192,192,191614,1,0,0:0:0:0:
448,192,191790,1,0,0:0:0:0:
320,192,191790,1,0,0:0:0:0:
192,192,191967,1,0,0:0:0:0:
192,192,192143,128,0,192231:0:0:0:0:
320,192,192143,1,0,0:0:0:0:
448,192,192143,1,0,0:0:0:0:
320,192,192320,128,0,192408:0:0:0:0:
64,192,192320,1,0,0:0:0:0:
448,192,192496,128,0,192584:0:0:0:0:
192,192,192496,1,0,0:0:0:0:
64,192,192496,1,0,0:0:0:0:
192,192,192672,128,0,192761:0:0:0:0:
320,192,192672,1,0,0:0:0:0:
64,192,192849,128,0,193202:0:0:0:0:
192,192,192849,1,0,0:0:0:0:
320,192,192849,1,0,0:0:0:0:
448,192,192937,1,0,0:0:0:0:
320,192,193025,1,0,0:0:0:0:
448,192,193114,1,0,0:0:0:0:
192,192,193202,128,0,193555:0:0:0:0:
320,192,193202,1,0,0:0:0:0:
64,192,193290,1,0,0:0:0:0:
448,192,193378,1,0,0:0:0:0:
64,192,193467,1,0,0:0:0:0:
320,192,193555,128,0,193908:0:0:0:0:
448,192,193555,1,0,0:0:0:0:
192,192,193643,1,0,0:0:0:0:
64,192,193731,1,0,0:0:0:0:
192,192,193820,1,0,0:0:0:0:
448,192,193908,128,0,194261:0:0:0:0:
64,192,193908,1,0,0:0:0:0:
320,192,193996,1,0,0:0:0:0:
192,192,194084,1,0,0:0:0:0:
320,192,194172,1,0,0:0:0:0:
192,192,194261,1,0,0:0:0:0:
64,192,194261,128,0,195672:0:0:0:0:
448,192,194437,128,0,194614:0:0:0:0:
192,192,194525,1,0,0:0:0:0:
320,192,194614,1,0,0:0:0:0:
192,192,194702,1,0,0:0:0:0:
448,192,194790,128,0,194967:0:0:0:0:
192,192,194967,1,0,0:0:0:0:
320,192,195055,1,0,0:0:0:0:
448,192,195143,128,0,195231:0:0:0:0:
192,192,195143,1,0,0:0:0:0:
320,192,195231,1,0,0:0:0:0:
192,192,195320,1,0,0:0:0:0:
448,192,195320,128,0,195672:0:0:0:0:
320,192,195496,128,0,195584:0:0:0:0:
320,192,195672,1,0,0:0:0:0:
192,192,195672,128,0,201320:0:0:0:0:
