osu file format v14

[General]
AudioFilename: audio.mp3
AudioLeadIn: 0
PreviewTime: 97531
Countdown: 0
SampleSet: Normal
StackLeniency: 0.7
Mode: 3
LetterboxInBreaks: 0
SpecialStyle: 0
WidescreenStoryboard: 1

[Editor]
DistanceSpacing: 1
BeatDivisor: 4
GridSize: 4
TimelineZoom: 1

[Metadata]
Title:#KuruttaMinzoku2 PRAVARGYAZOOQA
TitleUnicode:#狂った民族2 PRAVARGYAZOOQA
Artist:DJ Raisei
ArtistUnicode:DJ Raisei
Creator:Abyssalized
Version:The Vishnu descended
Source:maimai でらっくす FESTiVAL
Tags:maimai
BeatmapID:4502710
BeatmapSetID:2137148

[Difficulty]
HPDrainRate:7.5
CircleSize:4
OverallDifficulty:7.5
ApproachRate:5
SliderMultiplier:1.4
SliderTickRate:1

[Events]
//Background and Video events
0,0,"Kurutta_minzoku_2_PRAVARGYAZOOQA-transformed.png",0,0
//Break Periods
//Storyboard Layer 0 (Background)
//Storyboard Layer 1 (Fail)
//Storyboard Layer 2 (Pass)
//Storyboard Layer 3 (Foreground)
//Storyboard Layer 4 (Overlay)
//Storyboard Sound Samples

[TimingPoints]
120,352.941176470588,4,1,0,100,1,0

[HitObjects]
64,192,1531,5,0,0:0:0:0:
192,192,1531,1,0,0:0:0:0:
448,192,1531,1,0,0:0:0:0:
320,192,1708,1,0,0:0:0:0:
64,192,1708,1,0,0:0:0:0:
192,192,1708,1,0,0:0:0:0:
448,192,1884,1,0,0:0:0:0:
320,192,1884,1,0,0:0:0:0:
64,192,1884,1,0,0:0:0:0:
320,192,2061,1,0,0:0:0:0:
192,192,2061,1,0,0:0:0:0:
64,192,2149,1,0,0:0:0:0:
192,192,2237,1,0,0:0:0:0:
320,192,2237,1,0,0:0:0:0:
448,192,2237,128,0,2767:0:0:0:0:
192,192,2414,1,0,0:0:0:0:
64,192,2414,1,0,0:0:0:0:
192,192,2590,1,0,0:0:0:0:
320,192,2590,1,0,0:0:0:0:
320,192,2943,1,0,0:0:0:0:
64,192,2943,1,0,0:0:0:0:
448,192,2943,1,0,0:0:0:0:
192,192,3119,1,0,0:0:0:0:
320,192,3119,1,0,0:0:0:0:
448,192,3119,1,0,0:0:0:0:
192,192,3296,1,0,0:0:0:0:
64,192,3296,1,0,0:0:0:0:
448,192,3296,1,0,0:0:0:0:
320,192,3472,1,0,0:0:0:0:
448,192,3472,1,0,0:0:0:0:
192,192,3561,1,0,0:0:0:0:
64,192,3649,1,0,0:0:0:0:
448,192,3649,1,0,0:0:0:0:
320,192,3649,128,0,4178:0:0:0:0:
192,192,3825,1,0,0:0:0:0:
64,192,3825,1,0,0:0:0:0:
192,192,4002,1,0,0:0:0:0:
448,192,4002,1,0,0:0:0:0:
192,192,4355,1,0,0:0:0:0:
320,192,4355,1,0,0:0:0:0:
448,192,4355,1,0,0:0:0:0:
64,192,4443,1,0,0:0:0:0:
192,192,4531,1,0,0:0:0:0:
448,192,4531,1,0,0:0:0:0:
320,192,4619,1,0,0:0:0:0:
448,192,4708,1,0,0:0:0:0:
64,192,4708,1,0,0:0:0:0:
192,192,4708,1,0,0:0:0:0:
320,192,4884,1,0,0:0:0:0:
192,192,4884,1,0,0:0:0:0:
64,192,4972,1,0,0:0:0:0:
320,192,5061,1,0,0:0:0:0:
448,192,5061,1,0,0:0:0:0:
192,192,5061,128,0,5590:0:0:0:0:
64,192,5237,1,0,0:0:0:0:
448,192,5237,1,0,0:0:0:0:
320,192,5414,1,0,0:0:0:0:
64,192,5414,1,0,0:0:0:0:
320,192,5767,1,0,0:0:0:0:
64,192,5767,1,0,0:0:0:0:
448,192,5767,1,0,0:0:0:0:
192,192,5855,1,0,0:0:0:0:
320,192,5943,1,0,0:0:0:0:
64,192,5943,1,0,0:0:0:0:
448,192,6031,1,0,0:0:0:0:
320,192,6119,1,0,0:0:0:0:
192,192,6119,1,0,0:0:0:0:
64,192,6119,1,0,0:0:0:0:
192,192,6296,1,0,0:0:0:0:
320,192,6296,1,0,0:0:0:0:
448,192,6384,1,0,0:0:0:0:
64,192,6472,128,0,7002:0:0:0:0:
320,192,6472,1,0,0:0:0:0:
192,192,6472,1,0,0:0:0:0:
320,192,6649,1,0,0:0:0:0:
448,192,6649,1,0,0:0:0:0:
320,192,6825,1,0,0:0:0:0:
192,192,6825,1,0,0:0:0:0:
320,192,7090,1,0,0:0:0:0:
192,192,7178,1,0,0:0:0:0:
64,192,7178,1,0,0:0:0:0:
448,192,7178,1,0,0:0:0:0:
448,192,7355,1,0,0:0:0:0:
320,192,7443,1,0,0:0:0:0:
192,192,7443,1,0,0:0:0:0:
64,192,7443,1,0,0:0:0:0:
64,192,7619,1,0,0:0:0:0:
192,192,7708,1,0,0:0:0:0:
320,192,7708,1,0,0:0:0:0:
448,192,7708,1,0,0:0:0:0:
320,192,7884,1,0,0:0:0:0:
64,192,7884,1,0,0:0:0:0:
448,192,7884,1,0,0:0:0:0:
192,192,8061,1,0,0:0:0:0:
448,192,8061,1,0,0:0:0:0:
64,192,8061,1,0,0:0:0:0:
320,192,8237,1,0,0:0:0:0:
448,192,8237,1,0,0:0:0:0:
64,192,8237,1,0,0:0:0:0:
320,192,8414,1,0,0:0:0:0:
192,192,8502,1,0,0:0:0:0:
64,192,8590,1,0,0:0:0:0:
320,192,8590,1,0,0:0:0:0:
448,192,8590,1,0,0:0:0:0:
192,192,8767,1,0,0:0:0:0:
320,192,8767,1,0,0:0:0:0:
448,192,8767,1,0,0:0:0:0:
320,192,8943,1,0,0:0:0:0:
448,192,9031,1,0,0:0:0:0:
320,192,9119,1,0,0:0:0:0:
192,192,9119,1,0,0:0:0:0:
64,192,9119,1,0,0:0:0:0:
320,192,9296,1,0,0:0:0:0:
192,192,9296,1,0,0:0:0:0:
448,192,9296,1,0,0:0:0:0:
192,192,9472,1,0,0:0:0:0:
64,192,9472,1,0,0:0:0:0:
448,192,9472,1,0,0:0:0:0:
320,192,9649,1,0,0:0:0:0:
448,192,9649,1,0,0:0:0:0:
64,192,9649,1,0,0:0:0:0:
192,192,9825,1,0,0:0:0:0:
64,192,9825,1,0,0:0:0:0:
320,192,10002,1,0,0:0:0:0:
448,192,10002,1,0,0:0:0:0:
64,192,10002,1,0,0:0:0:0:
192,192,10178,1,0,0:0:0:0:
320,192,10178,1,0,0:0:0:0:
320,192,10355,1,0,0:0:0:0:
448,192,10355,1,0,0:0:0:0:
192,192,10531,1,0,0:0:0:0:
64,192,10531,1,0,0:0:0:0:
320,192,10531,1,0,0:0:0:0:
192,192,10708,1,0,0:0:0:0:
64,192,10708,1,0,0:0:0:0:
192,192,10884,1,0,0:0:0:0:
320,192,11061,1,0,0:0:0:0:
448,192,11061,1,0,0:0:0:0:
64,192,11061,1,0,0:0:0:0:
320,192,11237,1,0,0:0:0:0:
448,192,11237,1,0,0:0:0:0:
192,192,11414,1,0,0:0:0:0:
64,192,11414,1,0,0:0:0:0:
448,192,11414,1,0,0:0:0:0:
320,192,11590,1,0,0:0:0:0:
192,192,11590,1,0,0:0:0:0:
320,192,11767,1,0,0:0:0:0:
64,192,11767,1,0,0:0:0:0:
192,192,11943,1,0,0:0:0:0:
320,192,11943,1,0,0:0:0:0:
448,192,11943,1,0,0:0:0:0:
192,192,12119,1,0,0:0:0:0:
64,192,12119,1,0,0:0:0:0:
64,192,12296,1,0,0:0:0:0:
192,192,12472,1,0,0:0:0:0:
320,192,12472,1,0,0:0:0:0:
64,192,12472,1,0,0:0:0:0:
192,192,12649,1,0,0:0:0:0:
320,192,12737,1,0,0:0:0:0:
192,192,12825,128,0,13178:0:0:0:0:
64,192,12825,1,0,0:0:0:0:
448,192,12825,1,0,0:0:0:0:
64,192,12914,1,0,0:0:0:0:
320,192,13002,1,0,0:0:0:0:
448,192,13090,1,0,0:0:0:0:
320,192,13178,1,0,0:0:0:0:
192,192,13267,1,0,0:0:0:0:
64,192,13355,128,0,13884:0:0:0:0:
320,192,13355,1,0,0:0:0:0:
448,192,13355,1,0,0:0:0:0:
192,192,13443,1,0,0:0:0:0:
320,192,13531,1,0,0:0:0:0:
192,192,13619,1,0,0:0:0:0:
320,192,13708,1,0,0:0:0:0:
448,192,13796,1,0,0:0:0:0:
320,192,13884,1,0,0:0:0:0:
192,192,13884,1,0,0:0:0:0:
448,192,13972,1,0,0:0:0:0:
320,192,14061,1,0,0:0:0:0:
192,192,14149,1,0,0:0:0:0:
320,192,14237,128,0,14590:0:0:0:0:
64,192,14237,1,0,0:0:0:0:
448,192,14237,1,0,0:0:0:0:
192,192,14325,1,0,0:0:0:0:
64,192,14414,1,0,0:0:0:0:
448,192,14502,1,0,0:0:0:0:
192,192,14590,1,0,0:0:0:0:
64,192,14678,1,0,0:0:0:0:
192,192,14767,1,0,0:0:0:0:
320,192,14767,1,0,0:0:0:0:
448,192,14767,128,0,15296:0:0:0:0:
64,192,14855,1,0,0:0:0:0:
192,192,14943,1,0,0:0:0:0:
64,192,15031,1,0,0:0:0:0:
192,192,15119,1,0,0:0:0:0:
320,192,15208,1,0,0:0:0:0:
192,192,15296,1,0,0:0:0:0:
64,192,15296,1,0,0:0:0:0:
64,192,15384,1,0,0:0:0:0:
192,192,15472,1,0,0:0:0:0:
320,192,15561,1,0,0:0:0:0:
448,192,15649,1,0,0:0:0:0:
192,192,15649,1,0,0:0:0:0:
64,192,15649,128,0,16002:0:0:0:0:
320,192,15737,1,0,0:0:0:0:
192,192,15825,1,0,0:0:0:0:
320,192,15914,1,0,0:0:0:0:
448,192,16002,1,0,0:0:0:0:
320,192,16090,1,0,0:0:0:0:
192,192,16178,1,0,0:0:0:0:
448,192,16178,128,0,16708:0:0:0:0:
64,192,16178,1,0,0:0:0:0:
320,192,16267,1,0,0:0:0:0:
192,192,16355,1,0,0:0:0:0:
64,192,16443,1,0,0:0:0:0:
192,192,16531,1,0,0:0:0:0:
320,192,16619,1,0,0:0:0:0:
192,192,16708,1,0,0:0:0:0:
320,192,16708,1,0,0:0:0:0:
64,192,16796,1,0,0:0:0:0:
192,192,16884,1,0,0:0:0:0:
64,192,16972,1,0,0:0:0:0:
192,192,17061,1,0,0:0:0:0:
320,192,17061,1,0,0:0:0:0:
448,192,17061,128,0,17414:0:0:0:0:
64,192,17149,1,0,0:0:0:0:
192,192,17237,1,0,0:0:0:0:
320,192,17325,1,0,0:0:0:0:
192,192,17414,1,0,0:0:0:0:
64,192,17502,1,0,0:0:0:0:
320,192,17590,128,0,18119:0:0:0:0:
192,192,17590,1,0,0:0:0:0:
448,192,17590,1,0,0:0:0:0:
448,192,17678,1,0,0:0:0:0:
192,192,17767,1,0,0:0:0:0:
448,192,17855,1,0,0:0:0:0:
192,192,17943,1,0,0:0:0:0:
64,192,18031,1,0,0:0:0:0:
192,192,18119,1,0,0:0:0:0:
448,192,18119,1,0,0:0:0:0:
320,192,18296,1,0,0:0:0:0:
192,192,18384,1,0,0:0:0:0:
320,192,18472,1,0,0:0:0:0:
448,192,18472,1,0,0:0:0:0:
64,192,18472,1,0,0:0:0:0:
192,192,18649,1,0,0:0:0:0:
320,192,18825,1,0,0:0:0:0:
64,192,18825,1,0,0:0:0:0:
448,192,19002,1,0,0:0:0:0:
192,192,19002,1,0,0:0:0:0:
192,192,19178,1,0,0:0:0:0:
64,192,19178,1,0,0:0:0:0:
448,192,19178,1,0,0:0:0:0:
192,192,19531,1,0,0:0:0:0:
64,192,19531,1,0,0:0:0:0:
448,192,19531,1,0,0:0:0:0:
320,192,19708,1,0,0:0:0:0:
192,192,19796,1,0,0:0:0:0:
64,192,19884,1,0,0:0:0:0:
320,192,19884,1,0,0:0:0:0:
448,192,19884,1,0,0:0:0:0:
192,192,19972,1,0,0:0:0:0:
320,192,20061,1,0,0:0:0:0:
448,192,20149,1,0,0:0:0:0:
320,192,20237,1,0,0:0:0:0:
192,192,20237,1,0,0:0:0:0:
64,192,20237,1,0,0:0:0:0:
448,192,20325,1,0,0:0:0:0:
320,192,20414,1,0,0:0:0:0:
192,192,20502,1,0,0:0:0:0:
64,192,20590,1,0,0:0:0:0:
320,192,20590,1,0,0:0:0:0:
448,192,20590,1,0,0:0:0:0:
192,192,20678,1,0,0:0:0:0:
320,192,20767,1,0,0:0:0:0:
448,192,20855,1,0,0:0:0:0:
64,192,20943,1,0,0:0:0:0:
192,192,20943,1,0,0:0:0:0:
320,192,20943,1,0,0:0:0:0:
448,192,21031,1,0,0:0:0:0:
320,192,21075,1,0,0:0:0:0:
192,192,21119,1,0,0:0:0:0:
64,192,21164,1,0,0:0:0:0:
192,192,21208,1,0,0:0:0:0:
320,192,21252,1,0,0:0:0:0:
64,192,21296,1,0,0:0:0:0:
192,192,21296,1,0,0:0:0:0:
448,192,21296,1,0,0:0:0:0:
192,192,21649,1,0,0:0:0:0:
64,192,22002,1,0,0:0:0:0:
320,192,22002,1,0,0:0:0:0:
192,192,22355,1,0,0:0:0:0:
320,192,22355,1,0,0:0:0:0:
448,192,22355,1,0,0:0:0:0:
64,192,22708,1,0,0:0:0:0:
192,192,22708,1,0,0:0:0:0:
320,192,22708,1,0,0:0:0:0:
448,192,22708,1,0,0:0:0:0:
64,192,23061,1,0,0:0:0:0:
192,192,23061,1,0,0:0:0:0:
320,192,23061,1,0,0:0:0:0:
448,192,23061,1,0,0:0:0:0:
64,192,23414,1,0,0:0:0:0:
192,192,23414,1,0,0:0:0:0:
320,192,23414,1,0,0:0:0:0:
448,192,23414,1,0,0:0:0:0:
64,192,23767,1,0,0:0:0:0:
192,192,23767,1,0,0:0:0:0:
320,192,23767,1,0,0:0:0:0:
448,192,23767,1,0,0:0:0:0:
64,192,24119,1,0,0:0:0:0:
192,192,24119,1,0,0:0:0:0:
320,192,24119,1,0,0:0:0:0:
448,192,24119,1,0,0:0:0:0:
192,192,24296,1,0,0:0:0:0:
320,192,24296,1,0,0:0:0:0:
64,192,24296,1,0,0:0:0:0:
64,192,24472,1,0,0:0:0:0:
192,192,24472,1,0,0:0:0:0:
320,192,24472,1,0,0:0:0:0:
448,192,24472,1,0,0:0:0:0:
192,192,24649,1,0,0:0:0:0:
320,192,24649,1,0,0:0:0:0:
448,192,24649,1,0,0:0:0:0:
448,192,24825,1,0,0:0:0:0:
320,192,24825,1,0,0:0:0:0:
192,192,24825,1,0,0:0:0:0:
64,192,24825,1,0,0:0:0:0:
192,192,25002,1,0,0:0:0:0:
448,192,25002,1,0,0:0:0:0:
64,192,25002,1,0,0:0:0:0:
64,192,25178,1,0,0:0:0:0:
192,192,25178,1,0,0:0:0:0:
320,192,25178,1,0,0:0:0:0:
448,192,25178,1,0,0:0:0:0:
320,192,25355,1,0,0:0:0:0:
64,192,25355,1,0,0:0:0:0:
448,192,25355,1,0,0:0:0:0:
192,192,25531,1,0,0:0:0:0:
320,192,25531,1,0,0:0:0:0:
448,192,25531,1,0,0:0:0:0:
64,192,25531,1,0,0:0:0:0:
192,192,25708,1,0,0:0:0:0:
64,192,25796,1,0,0:0:0:0:
192,192,25884,1,0,0:0:0:0:
320,192,25884,1,0,0:0:0:0:
448,192,25884,1,0,0:0:0:0:
320,192,26061,1,0,0:0:0:0:
192,192,26149,1,0,0:0:0:0:
320,192,26237,1,0,0:0:0:0:
448,192,26237,1,0,0:0:0:0:
320,192,26414,1,0,0:0:0:0:
192,192,26502,1,0,0:0:0:0:
448,192,26590,1,0,0:0:0:0:
320,192,26590,1,0,0:0:0:0:
192,192,26767,1,0,0:0:0:0:
320,192,26855,1,0,0:0:0:0:
320,192,26943,1,0,0:0:0:0:
192,192,26943,1,0,0:0:0:0:
64,192,26943,1,0,0:0:0:0:
448,192,26943,1,0,0:0:0:0:
192,192,27119,1,0,0:0:0:0:
320,192,27119,1,0,0:0:0:0:
448,192,27119,1,0,0:0:0:0:
64,192,27296,1,0,0:0:0:0:
192,192,27296,1,0,0:0:0:0:
320,192,27296,1,0,0:0:0:0:
448,192,27296,1,0,0:0:0:0:
320,192,27472,1,0,0:0:0:0:
192,192,27472,1,0,0:0:0:0:
64,192,27472,1,0,0:0:0:0:
64,192,27649,1,0,0:0:0:0:
192,192,27649,1,0,0:0:0:0:
320,192,27649,1,0,0:0:0:0:
448,192,27649,1,0,0:0:0:0:
192,192,27825,1,0,0:0:0:0:
64,192,27825,1,0,0:0:0:0:
448,192,27825,1,0,0:0:0:0:
64,192,28002,1,0,0:0:0:0:
192,192,28002,1,0,0:0:0:0:
320,192,28002,1,0,0:0:0:0:
448,192,28002,1,0,0:0:0:0:
320,192,28178,1,0,0:0:0:0:
448,192,28178,1,0,0:0:0:0:
64,192,28178,1,0,0:0:0:0:
64,192,28355,1,0,0:0:0:0:
192,192,28355,1,0,0:0:0:0:
320,192,28355,1,0,0:0:0:0:
448,192,28355,1,0,0:0:0:0:
320,192,28531,1,0,0:0:0:0:
448,192,28619,1,0,0:0:0:0:
192,192,28708,1,0,0:0:0:0:
64,192,28708,1,0,0:0:0:0:
320,192,28708,1,0,0:0:0:0:
192,192,28884,1,0,0:0:0:0:
320,192,28972,1,0,0:0:0:0:
192,192,29061,1,0,0:0:0:0:
64,192,29061,1,0,0:0:0:0:
192,192,29237,1,0,0:0:0:0:
320,192,29325,1,0,0:0:0:0:
64,192,29414,1,0,0:0:0:0:
192,192,29414,1,0,0:0:0:0:
320,192,29590,1,0,0:0:0:0:
64,192,29678,1,0,0:0:0:0:
192,192,29767,1,0,0:0:0:0:
320,192,29767,1,0,0:0:0:0:
448,192,29767,1,0,0:0:0:0:
64,192,29767,1,0,0:0:0:0:
64,192,29943,1,0,0:0:0:0:
320,192,29943,1,0,0:0:0:0:
448,192,29943,1,0,0:0:0:0:
64,192,30119,1,0,0:0:0:0:
192,192,30119,1,0,0:0:0:0:
320,192,30119,1,0,0:0:0:0:
448,192,30119,1,0,0:0:0:0:
192,192,30296,1,0,0:0:0:0:
64,192,30296,1,0,0:0:0:0:
448,192,30384,1,0,0:0:0:0:
64,192,30472,1,0,0:0:0:0:
192,192,30472,1,0,0:0:0:0:
320,192,30472,1,0,0:0:0:0:
448,192,30472,1,0,0:0:0:0:
320,192,30649,1,0,0:0:0:0:
448,192,30649,1,0,0:0:0:0:
192,192,30649,1,0,0:0:0:0:
64,192,30825,1,0,0:0:0:0:
192,192,30825,1,0,0:0:0:0:
320,192,30825,1,0,0:0:0:0:
448,192,30825,1,0,0:0:0:0:
64,192,31002,1,0,0:0:0:0:
192,192,31002,1,0,0:0:0:0:
320,192,31002,1,0,0:0:0:0:
64,192,31178,1,0,0:0:0:0:
192,192,31178,1,0,0:0:0:0:
320,192,31178,1,0,0:0:0:0:
448,192,31178,1,0,0:0:0:0:
192,192,31355,1,0,0:0:0:0:
320,192,31443,1,0,0:0:0:0:
64,192,31531,1,0,0:0:0:0:
192,192,31531,1,0,0:0:0:0:
448,192,31531,1,0,0:0:0:0:
320,192,31708,1,0,0:0:0:0:
192,192,31796,1,0,0:0:0:0:
320,192,31884,1,0,0:0:0:0:
448,192,31884,1,0,0:0:0:0:
192,192,32061,1,0,0:0:0:0:
64,192,32149,1,0,0:0:0:0:
192,192,32237,1,0,0:0:0:0:
320,192,32237,1,0,0:0:0:0:
64,192,32414,1,0,0:0:0:0:
320,192,32502,1,0,0:0:0:0:
192,192,32590,1,0,0:0:0:0:
64,192,32590,1,0,0:0:0:0:
448,192,32590,1,0,0:0:0:0:
320,192,32767,1,0,0:0:0:0:
448,192,32767,1,0,0:0:0:0:
64,192,32767,1,0,0:0:0:0:
64,192,32943,1,0,0:0:0:0:
192,192,32943,1,0,0:0:0:0:
448,192,32943,1,0,0:0:0:0:
320,192,33119,1,0,0:0:0:0:
64,192,33296,1,0,0:0:0:0:
192,192,33296,1,0,0:0:0:0:
320,192,33296,1,0,0:0:0:0:
448,192,33296,1,0,0:0:0:0:
192,192,33472,1,0,0:0:0:0:
64,192,33649,1,0,0:0:0:0:
192,192,33649,1,0,0:0:0:0:
320,192,33649,1,0,0:0:0:0:
448,192,33649,1,0,0:0:0:0:
64,192,33825,1,0,0:0:0:0:
64,192,34002,1,0,0:0:0:0:
192,192,34002,1,0,0:0:0:0:
320,192,34002,1,0,0:0:0:0:
448,192,34002,1,0,0:0:0:0:
448,192,34178,1,0,0:0:0:0:
448,192,34355,1,0,0:0:0:0:
320,192,34355,1,0,0:0:0:0:
192,192,34355,1,0,0:0:0:0:
64,192,34355,1,0,0:0:0:0:
320,192,34531,1,0,0:0:0:0:
192,192,34531,1,0,0:0:0:0:
320,192,34708,1,0,0:0:0:0:
448,192,34708,1,0,0:0:0:0:
64,192,34884,1,0,0:0:0:0:
192,192,34884,1,0,0:0:0:0:
320,192,35061,1,0,0:0:0:0:
192,192,35237,1,0,0:0:0:0:
64,192,35237,1,0,0:0:0:0:
192,192,35414,1,0,0:0:0:0:
320,192,35414,128,0,36119:0:0:0:0:
448,192,35414,1,0,0:0:0:0:
64,192,35590,1,0,0:0:0:0:
64,192,35767,1,0,0:0:0:0:
192,192,35767,1,0,0:0:0:0:
192,192,35943,1,0,0:0:0:0:
64,192,36119,128,0,36825:0:0:0:0:
192,192,36119,1,0,0:0:0:0:
448,192,36119,1,0,0:0:0:0:
320,192,36296,1,0,0:0:0:0:
320,192,36472,1,0,0:0:0:0:
448,192,36472,1,0,0:0:0:0:
448,192,36649,1,0,0:0:0:0:
320,192,36825,1,0,0:0:0:0:
192,192,36825,1,0,0:0:0:0:
448,192,36825,128,0,38237:0:0:0:0:
320,192,37002,1,0,0:0:0:0:
192,192,37178,1,0,0:0:0:0:
64,192,37178,1,0,0:0:0:0:
64,192,37355,1,0,0:0:0:0:
192,192,37531,1,0,0:0:0:0:
320,192,37531,1,0,0:0:0:0:
192,192,37796,1,0,0:0:0:0:
64,192,37796,1,0,0:0:0:0:
192,192,38061,1,0,0:0:0:0:
320,192,38061,1,0,0:0:0:0:
192,192,38237,1,0,0:0:0:0:
320,192,38237,1,0,0:0:0:0:
64,192,38237,1,0,0:0:0:0:
64,192,38414,1,0,0:0:0:0:
192,192,38414,1,0,0:0:0:0:
320,192,38414,1,0,0:0:0:0:
448,192,38414,1,0,0:0:0:0:
448,192,38590,1,0,0:0:0:0:
320,192,38590,1,0,0:0:0:0:
192,192,38590,1,0,0:0:0:0:
64,192,38590,128,0,39649:0:0:0:0:
192,192,38767,1,0,0:0:0:0:
320,192,38943,1,0,0:0:0:0:
448,192,38943,1,0,0:0:0:0:
448,192,39119,1,0,0:0:0:0:
192,192,39296,1,0,0:0:0:0:
320,192,39296,1,0,0:0:0:0:
448,192,39472,1,0,0:0:0:0:
448,192,39649,1,0,0:0:0:0:
192,192,39649,1,0,0:0:0:0:
320,192,39649,128,0,41061:0:0:0:0:
64,192,39825,1,0,0:0:0:0:
192,192,40002,1,0,0:0:0:0:
448,192,40002,1,0,0:0:0:0:
448,192,40178,1,0,0:0:0:0:
192,192,40355,1,0,0:0:0:0:
64,192,40355,1,0,0:0:0:0:
192,192,40531,1,0,0:0:0:0:
448,192,40708,1,0,0:0:0:0:
64,192,40708,1,0,0:0:0:0:
192,192,40884,1,0,0:0:0:0:
448,192,40884,1,0,0:0:0:0:
192,192,41061,1,0,0:0:0:0:
64,192,41061,1,0,0:0:0:0:
448,192,41061,1,0,0:0:0:0:
192,192,41414,128,0,41943:0:0:0:0:
64,192,41414,128,0,42472:0:0:0:0:
320,192,41590,1,0,0:0:0:0:
448,192,41634,1,0,0:0:0:0:
320,192,41678,1,0,0:0:0:0:
448,192,41722,1,0,0:0:0:0:
320,192,41767,128,0,41855:0:0:0:0:
448,192,41943,1,0,0:0:0:0:
320,192,42119,128,0,42296:0:0:0:0:
192,192,42296,128,0,42472:0:0:0:0:
320,192,42472,1,0,0:0:0:0:
192,192,42649,1,0,0:0:0:0:
320,192,42825,128,0,43884:0:0:0:0:
64,192,42825,128,0,43355:0:0:0:0:
448,192,43002,1,0,0:0:0:0:
192,192,43046,1,0,0:0:0:0:
448,192,43090,1,0,0:0:0:0:
192,192,43134,1,0,0:0:0:0:
448,192,43178,128,0,43267:0:0:0:0:
192,192,43355,1,0,0:0:0:0:
448,192,43531,128,0,43708:0:0:0:0:
192,192,43708,128,0,43884:0:0:0:0:
64,192,43884,1,0,0:0:0:0:
192,192,43972,1,0,0:0:0:0:
448,192,44061,1,0,0:0:0:0:
320,192,44149,1,0,0:0:0:0:
448,192,44237,128,0,45296:0:0:0:0:
192,192,44237,128,0,44767:0:0:0:0:
64,192,44414,1,0,0:0:0:0:
320,192,44458,1,0,0:0:0:0:
64,192,44502,1,0,0:0:0:0:
320,192,44546,1,0,0:0:0:0:
64,192,44590,128,0,44678:0:0:0:0:
320,192,44767,1,0,0:0:0:0:
64,192,44943,128,0,45119:0:0:0:0:
320,192,45119,128,0,45296:0:0:0:0:
192,192,45296,1,0,0:0:0:0:
64,192,45472,1,0,0:0:0:0:
192,192,45649,128,0,46708:0:0:0:0:
320,192,45649,1,0,0:0:0:0:
448,192,45825,1,0,0:0:0:0:
320,192,45914,1,0,0:0:0:0:
448,192,46002,1,0,0:0:0:0:
64,192,46178,1,0,0:0:0:0:
320,192,46267,1,0,0:0:0:0:
64,192,46355,128,0,46708:0:0:0:0:
320,192,46708,1,0,0:0:0:0:
448,192,46708,1,0,0:0:0:0:
64,192,49531,1,0,0:0:0:0:
192,192,49531,1,0,0:0:0:0:
448,192,49531,1,0,0:0:0:0:
320,192,49708,1,0,0:0:0:0:
192,192,49708,1,0,0:0:0:0:
64,192,49884,1,0,0:0:0:0:
320,192,49884,1,0,0:0:0:0:
448,192,49884,1,0,0:0:0:0:
192,192,50061,1,0,0:0:0:0:
64,192,50061,1,0,0:0:0:0:
192,192,50237,1,0,0:0:0:0:
320,192,50237,1,0,0:0:0:0:
448,192,50237,1,0,0:0:0:0:
448,192,50414,1,0,0:0:0:0:
192,192,50414,1,0,0:0:0:0:
64,192,50590,1,0,0:0:0:0:
192,192,50590,1,0,0:0:0:0:
320,192,50590,1,0,0:0:0:0:
320,192,50767,1,0,0:0:0:0:
192,192,50855,1,0,0:0:0:0:
320,192,50943,1,0,0:0:0:0:
448,192,50943,1,0,0:0:0:0:
64,192,50943,1,0,0:0:0:0:
192,192,51296,1,0,0:0:0:0:
320,192,51296,1,0,0:0:0:0:
448,192,51296,1,0,0:0:0:0:
320,192,51649,1,0,0:0:0:0:
64,192,51649,1,0,0:0:0:0:
192,192,51649,1,0,0:0:0:0:
192,192,52002,1,0,0:0:0:0:
64,192,52002,1,0,0:0:0:0:
448,192,52002,1,0,0:0:0:0:
320,192,52355,1,0,0:0:0:0:
448,192,52355,1,0,0:0:0:0:
64,192,52355,128,0,52884:0:0:0:0:
192,192,52355,1,0,0:0:0:0:
192,192,52531,1,0,0:0:0:0:
192,192,52708,1,0,0:0:0:0:
320,192,52708,1,0,0:0:0:0:
448,192,52708,1,0,0:0:0:0:
320,192,52884,128,0,53767:0:0:0:0:
448,192,52884,1,0,0:0:0:0:
64,192,53061,1,0,0:0:0:0:
192,192,53061,1,0,0:0:0:0:
192,192,53237,1,0,0:0:0:0:
448,192,53237,1,0,0:0:0:0:
448,192,53414,1,0,0:0:0:0:
64,192,53414,1,0,0:0:0:0:
192,192,53590,1,0,0:0:0:0:
64,192,53590,1,0,0:0:0:0:
448,192,53678,1,0,0:0:0:0:
192,192,53767,1,0,0:0:0:0:
64,192,53767,128,0,54296:0:0:0:0:
448,192,53767,1,0,0:0:0:0:
320,192,53943,1,0,0:0:0:0:
192,192,54119,1,0,0:0:0:0:
320,192,54119,1,0,0:0:0:0:
448,192,54119,1,0,0:0:0:0:
448,192,54296,128,0,55178:0:0:0:0:
192,192,54296,1,0,0:0:0:0:
320,192,54472,1,0,0:0:0:0:
192,192,54472,1,0,0:0:0:0:
64,192,54649,1,0,0:0:0:0:
192,192,54649,1,0,0:0:0:0:
320,192,54825,1,0,0:0:0:0:
64,192,54825,1,0,0:0:0:0:
192,192,54914,1,0,0:0:0:0:
192,192,55002,1,0,0:0:0:0:
320,192,55002,1,0,0:0:0:0:
64,192,55090,1,0,0:0:0:0:
192,192,55178,1,0,0:0:0:0:
64,192,55178,1,0,0:0:0:0:
320,192,55178,128,0,55708:0:0:0:0:
448,192,55355,1,0,0:0:0:0:
192,192,55531,1,0,0:0:0:0:
64,192,55531,1,0,0:0:0:0:
448,192,55531,1,0,0:0:0:0:
192,192,55708,128,0,56590:0:0:0:0:
64,192,55708,1,0,0:0:0:0:
320,192,55884,1,0,0:0:0:0:
448,192,55884,1,0,0:0:0:0:
64,192,56061,1,0,0:0:0:0:
320,192,56061,1,0,0:0:0:0:
64,192,56237,1,0,0:0:0:0:
448,192,56237,1,0,0:0:0:0:
320,192,56414,1,0,0:0:0:0:
64,192,56414,1,0,0:0:0:0:
448,192,56502,1,0,0:0:0:0:
320,192,56590,1,0,0:0:0:0:
64,192,56590,128,0,57119:0:0:0:0:
448,192,56590,1,0,0:0:0:0:
192,192,56767,1,0,0:0:0:0:
320,192,56943,1,0,0:0:0:0:
192,192,56943,1,0,0:0:0:0:
448,192,56943,1,0,0:0:0:0:
320,192,57119,1,0,0:0:0:0:
448,192,57119,128,0,58002:0:0:0:0:
192,192,57296,1,0,0:0:0:0:
64,192,57296,1,0,0:0:0:0:
192,192,57472,1,0,0:0:0:0:
320,192,57472,1,0,0:0:0:0:
192,192,57649,1,0,0:0:0:0:
64,192,57649,1,0,0:0:0:0:
64,192,57825,1,0,0:0:0:0:
320,192,57825,1,0,0:0:0:0:
192,192,57914,1,0,0:0:0:0:
64,192,58002,1,0,0:0:0:0:
320,192,58002,1,0,0:0:0:0:
192,192,58355,128,0,59414:0:0:0:0:
64,192,58355,128,0,58884:0:0:0:0:
448,192,58531,1,0,0:0:0:0:
320,192,58575,1,0,0:0:0:0:
448,192,58619,1,0,0:0:0:0:
320,192,58664,1,0,0:0:0:0:
448,192,58708,128,0,58796:0:0:0:0:
320,192,58884,1,0,0:0:0:0:
64,192,59061,128,0,59237:0:0:0:0:
448,192,59237,128,0,59414:0:0:0:0:
320,192,59414,1,0,0:0:0:0:
192,192,59590,1,0,0:0:0:0:
64,192,59767,128,0,60825:0:0:0:0:
320,192,59767,128,0,60296:0:0:0:0:
192,192,59943,1,0,0:0:0:0:
448,192,59987,1,0,0:0:0:0:
192,192,60031,1,0,0:0:0:0:
448,192,60075,1,0,0:0:0:0:
192,192,60119,128,0,60208:0:0:0:0:
448,192,60296,1,0,0:0:0:0:
192,192,60472,128,0,60649:0:0:0:0:
320,192,60649,128,0,60825:0:0:0:0:
448,192,60825,1,0,0:0:0:0:
192,192,60914,1,0,0:0:0:0:
64,192,61002,1,0,0:0:0:0:
448,192,61090,1,0,0:0:0:0:
320,192,61178,128,0,62237:0:0:0:0:
192,192,61178,128,0,61708:0:0:0:0:
64,192,61355,1,0,0:0:0:0:
448,192,61399,1,0,0:0:0:0:
64,192,61443,1,0,0:0:0:0:
448,192,61487,1,0,0:0:0:0:
64,192,61531,128,0,61619:0:0:0:0:
448,192,61708,1,0,0:0:0:0:
64,192,61884,128,0,62061:0:0:0:0:
192,192,62061,128,0,62237:0:0:0:0:
448,192,62237,1,0,0:0:0:0:
64,192,62414,1,0,0:0:0:0:
192,192,62590,128,0,63649:0:0:0:0:
448,192,62590,128,0,63119:0:0:0:0:
320,192,62767,1,0,0:0:0:0:
64,192,62811,1,0,0:0:0:0:
320,192,62855,1,0,0:0:0:0:
64,192,62899,1,0,0:0:0:0:
320,192,62943,128,0,63031:0:0:0:0:
64,192,63119,1,0,0:0:0:0:
320,192,63296,128,0,63472:0:0:0:0:
64,192,63472,128,0,63649:0:0:0:0:
320,192,63649,1,0,0:0:0:0:
448,192,63649,1,0,0:0:0:0:
64,192,63825,1,0,0:0:0:0:
192,192,63914,1,0,0:0:0:0:
320,192,64002,1,0,0:0:0:0:
448,192,64002,1,0,0:0:0:0:
64,192,64002,1,0,0:0:0:0:
192,192,64090,1,0,0:0:0:0:
64,192,64178,1,0,0:0:0:0:
320,192,64178,1,0,0:0:0:0:
448,192,64178,1,0,0:0:0:0:
192,192,64267,1,0,0:0:0:0:
320,192,64355,1,0,0:0:0:0:
448,192,64443,1,0,0:0:0:0:
320,192,64531,1,0,0:0:0:0:
192,192,64531,1,0,0:0:0:0:
64,192,64531,1,0,0:0:0:0:
448,192,64619,1,0,0:0:0:0:
320,192,64708,1,0,0:0:0:0:
192,192,64708,1,0,0:0:0:0:
64,192,64708,1,0,0:0:0:0:
448,192,64928,1,0,0:0:0:0:
320,192,64972,1,0,0:0:0:0:
192,192,65017,1,0,0:0:0:0:
64,192,65061,1,0,0:0:0:0:
320,192,65061,1,0,0:0:0:0:
448,192,65061,1,0,0:0:0:0:
192,192,65149,1,0,0:0:0:0:
320,192,65237,1,0,0:0:0:0:
448,192,65325,1,0,0:0:0:0:
192,192,65414,1,0,0:0:0:0:
320,192,65414,1,0,0:0:0:0:
64,192,65414,1,0,0:0:0:0:
448,192,65502,1,0,0:0:0:0:
320,192,65590,1,0,0:0:0:0:
192,192,65590,1,0,0:0:0:0:
64,192,65590,1,0,0:0:0:0:
320,192,65678,1,0,0:0:0:0:
192,192,65767,1,0,0:0:0:0:
64,192,65855,1,0,0:0:0:0:
192,192,65943,1,0,0:0:0:0:
320,192,65943,1,0,0:0:0:0:
448,192,65943,1,0,0:0:0:0:
64,192,66031,1,0,0:0:0:0:
192,192,66119,1,0,0:0:0:0:
320,192,66119,1,0,0:0:0:0:
448,192,66119,1,0,0:0:0:0:
320,192,66340,1,0,0:0:0:0:
192,192,66384,1,0,0:0:0:0:
64,192,66428,1,0,0:0:0:0:
192,192,66472,1,0,0:0:0:0:
320,192,66472,1,0,0:0:0:0:
448,192,66472,1,0,0:0:0:0:
64,192,66561,1,0,0:0:0:0:
192,192,66649,1,0,0:0:0:0:
320,192,66737,1,0,0:0:0:0:
448,192,66825,1,0,0:0:0:0:
192,192,66825,1,0,0:0:0:0:
64,192,66825,1,0,0:0:0:0:
320,192,66914,1,0,0:0:0:0:
448,192,67002,1,0,0:0:0:0:
192,192,67002,1,0,0:0:0:0:
64,192,67002,1,0,0:0:0:0:
320,192,67090,1,0,0:0:0:0:
192,192,67178,1,0,0:0:0:0:
64,192,67267,1,0,0:0:0:0:
192,192,67355,1,0,0:0:0:0:
320,192,67355,1,0,0:0:0:0:
448,192,67355,1,0,0:0:0:0:
64,192,67443,1,0,0:0:0:0:
192,192,67531,1,0,0:0:0:0:
320,192,67531,1,0,0:0:0:0:
448,192,67531,1,0,0:0:0:0:
192,192,67752,1,0,0:0:0:0:
320,192,67796,1,0,0:0:0:0:
448,192,67840,1,0,0:0:0:0:
320,192,67884,1,0,0:0:0:0:
192,192,67884,1,0,0:0:0:0:
64,192,67884,1,0,0:0:0:0:
448,192,67972,1,0,0:0:0:0:
320,192,68061,1,0,0:0:0:0:
192,192,68149,1,0,0:0:0:0:
64,192,68237,1,0,0:0:0:0:
320,192,68237,1,0,0:0:0:0:
448,192,68237,1,0,0:0:0:0:
192,192,68325,1,0,0:0:0:0:
64,192,68414,1,0,0:0:0:0:
320,192,68414,1,0,0:0:0:0:
448,192,68414,1,0,0:0:0:0:
192,192,68502,1,0,0:0:0:0:
64,192,68590,1,0,0:0:0:0:
448,192,68678,1,0,0:0:0:0:
320,192,68767,1,0,0:0:0:0:
192,192,68767,1,0,0:0:0:0:
64,192,68767,1,0,0:0:0:0:
448,192,68855,1,0,0:0:0:0:
320,192,68943,1,0,0:0:0:0:
192,192,68943,1,0,0:0:0:0:
64,192,68943,1,0,0:0:0:0:
320,192,69164,1,0,0:0:0:0:
192,192,69208,1,0,0:0:0:0:
64,192,69252,1,0,0:0:0:0:
192,192,69296,1,0,0:0:0:0:
320,192,69296,1,0,0:0:0:0:
448,192,69296,1,0,0:0:0:0:
192,192,69649,128,0,70708:0:0:0:0:
320,192,69649,128,0,70178:0:0:0:0:
64,192,69825,1,0,0:0:0:0:
448,192,69869,1,0,0:0:0:0:
64,192,69914,1,0,0:0:0:0:
448,192,69958,1,0,0:0:0:0:
64,192,70002,128,0,70090:0:0:0:0:
448,192,70178,1,0,0:0:0:0:
64,192,70355,128,0,70531:0:0:0:0:
320,192,70531,128,0,70708:0:0:0:0:
448,192,70708,1,0,0:0:0:0:
64,192,70884,1,0,0:0:0:0:
448,192,71061,128,0,72119:0:0:0:0:
192,192,71061,128,0,71590:0:0:0:0:
320,192,71237,1,0,0:0:0:0:
64,192,71281,1,0,0:0:0:0:
320,192,71325,1,0,0:0:0:0:
64,192,71369,1,0,0:0:0:0:
320,192,71414,128,0,71502:0:0:0:0:
64,192,71590,1,0,0:0:0:0:
320,192,71767,128,0,71943:0:0:0:0:
64,192,71943,128,0,72119:0:0:0:0:
192,192,72119,1,0,0:0:0:0:
320,192,72208,1,0,0:0:0:0:
448,192,72296,1,0,0:0:0:0:
64,192,72384,1,0,0:0:0:0:
448,192,72472,128,0,73531:0:0:0:0:
192,192,72472,128,0,73002:0:0:0:0:
64,192,72649,1,0,0:0:0:0:
320,192,72693,1,0,0:0:0:0:
64,192,72737,1,0,0:0:0:0:
320,192,72781,1,0,0:0:0:0:
64,192,72825,128,0,72914:0:0:0:0:
320,192,73002,1,0,0:0:0:0:
64,192,73178,128,0,73355:0:0:0:0:
192,192,73355,128,0,73531:0:0:0:0:
320,192,73531,1,0,0:0:0:0:
192,192,73708,1,0,0:0:0:0:
64,192,73884,128,0,74943:0:0:0:0:
192,192,73884,128,0,74414:0:0:0:0:
320,192,74061,1,0,0:0:0:0:
448,192,74105,1,0,0:0:0:0:
320,192,74149,1,0,0:0:0:0:
448,192,74193,1,0,0:0:0:0:
320,192,74237,128,0,74325:0:0:0:0:
448,192,74414,1,0,0:0:0:0:
320,192,74590,128,0,74767:0:0:0:0:
192,192,74767,128,0,74943:0:0:0:0:
320,192,74943,1,0,0:0:0:0:
448,192,74943,1,0,0:0:0:0:
64,192,77767,1,0,0:0:0:0:
320,192,77767,1,0,0:0:0:0:
320,192,77943,1,0,0:0:0:0:
192,192,78119,1,0,0:0:0:0:
448,192,78119,1,0,0:0:0:0:
192,192,78296,1,0,0:0:0:0:
64,192,78472,1,0,0:0:0:0:
448,192,78472,1,0,0:0:0:0:
320,192,78472,1,0,0:0:0:0:
448,192,78649,1,0,0:0:0:0:
320,192,78825,1,0,0:0:0:0:
192,192,78825,1,0,0:0:0:0:
64,192,78825,1,0,0:0:0:0:
64,192,79002,1,0,0:0:0:0:
192,192,79178,1,0,0:0:0:0:
320,192,79178,1,0,0:0:0:0:
448,192,79178,1,0,0:0:0:0:
64,192,80590,128,0,81472:0:0:0:0:
192,192,80590,1,0,0:0:0:0:
320,192,80590,1,0,0:0:0:0:
448,192,80590,1,0,0:0:0:0:
320,192,80943,1,0,0:0:0:0:
192,192,81031,1,0,0:0:0:0:
320,192,81119,1,0,0:0:0:0:
448,192,81208,1,0,0:0:0:0:
192,192,81296,1,0,0:0:0:0:
320,192,81296,128,0,81472:0:0:0:0:
320,192,81649,128,0,81825:0:0:0:0:
192,192,82002,128,0,82884:0:0:0:0:
64,192,82002,1,0,0:0:0:0:
320,192,82002,1,0,0:0:0:0:
448,192,82002,1,0,0:0:0:0:
64,192,82355,1,0,0:0:0:0:
320,192,82443,1,0,0:0:0:0:
448,192,82531,1,0,0:0:0:0:
320,192,82619,1,0,0:0:0:0:
64,192,82708,128,0,82884:0:0:0:0:
448,192,82708,1,0,0:0:0:0:
64,192,83061,128,0,83237:0:0:0:0:
192,192,83414,1,0,0:0:0:0:
320,192,83414,1,0,0:0:0:0:
64,192,83414,1,0,0:0:0:0:
192,192,83590,1,0,0:0:0:0:
320,192,83590,1,0,0:0:0:0:
448,192,83590,1,0,0:0:0:0:
320,192,83767,1,0,0:0:0:0:
192,192,83767,1,0,0:0:0:0:
64,192,83767,1,0,0:0:0:0:
192,192,83943,1,0,0:0:0:0:
64,192,83943,1,0,0:0:0:0:
320,192,83943,1,0,0:0:0:0:
192,192,84119,1,0,0:0:0:0:
320,192,84119,1,0,0:0:0:0:
448,192,84119,1,0,0:0:0:0:
320,192,84296,1,0,0:0:0:0:
192,192,84296,1,0,0:0:0:0:
64,192,84296,1,0,0:0:0:0:
192,192,84472,1,0,0:0:0:0:
320,192,84472,1,0,0:0:0:0:
448,192,84472,1,0,0:0:0:0:
192,192,84649,1,0,0:0:0:0:
320,192,84649,1,0,0:0:0:0:
448,192,84649,1,0,0:0:0:0:
192,192,84825,1,0,0:0:0:0:
320,192,84825,1,0,0:0:0:0:
448,192,84825,1,0,0:0:0:0:
64,192,84914,1,0,0:0:0:0:
192,192,85002,1,0,0:0:0:0:
320,192,85090,1,0,0:0:0:0:
448,192,85178,1,0,0:0:0:0:
320,192,85267,1,0,0:0:0:0:
192,192,85355,1,0,0:0:0:0:
64,192,85443,1,0,0:0:0:0:
192,192,85531,1,0,0:0:0:0:
320,192,85619,1,0,0:0:0:0:
448,192,85708,1,0,0:0:0:0:
320,192,85796,1,0,0:0:0:0:
192,192,85884,1,0,0:0:0:0:
64,192,85972,1,0,0:0:0:0:
192,192,86017,1,0,0:0:0:0:
320,192,86061,1,0,0:0:0:0:
448,192,86105,1,0,0:0:0:0:
320,192,86149,1,0,0:0:0:0:
192,192,86193,1,0,0:0:0:0:
448,192,86237,1,0,0:0:0:0:
64,192,86237,1,0,0:0:0:0:
320,192,86237,1,0,0:0:0:0:
64,192,87649,1,0,0:0:0:0:
192,192,87649,1,0,0:0:0:0:
320,192,87649,1,0,0:0:0:0:
320,192,87737,1,0,0:0:0:0:
448,192,87825,1,0,0:0:0:0:
320,192,87914,1,0,0:0:0:0:
192,192,88002,1,0,0:0:0:0:
320,192,88002,1,0,0:0:0:0:
448,192,88002,1,0,0:0:0:0:
192,192,88090,1,0,0:0:0:0:
64,192,88178,1,0,0:0:0:0:
192,192,88267,1,0,0:0:0:0:
192,192,88355,1,0,0:0:0:0:
64,192,88355,1,0,0:0:0:0:
320,192,88355,1,0,0:0:0:0:
448,192,88443,1,0,0:0:0:0:
64,192,88531,1,0,0:0:0:0:
192,192,88619,1,0,0:0:0:0:
320,192,88619,1,0,0:0:0:0:
448,192,88619,1,0,0:0:0:0:
64,192,88708,1,0,0:0:0:0:
448,192,88796,1,0,0:0:0:0:
320,192,88884,1,0,0:0:0:0:
192,192,88884,1,0,0:0:0:0:
64,192,88884,1,0,0:0:0:0:
64,192,89061,1,0,0:0:0:0:
192,192,89061,1,0,0:0:0:0:
320,192,89061,1,0,0:0:0:0:
448,192,89149,1,0,0:0:0:0:
320,192,89237,1,0,0:0:0:0:
192,192,89325,1,0,0:0:0:0:
192,192,89414,1,0,0:0:0:0:
64,192,89414,1,0,0:0:0:0:
448,192,89414,1,0,0:0:0:0:
448,192,89502,1,0,0:0:0:0:
320,192,89590,1,0,0:0:0:0:
192,192,89678,1,0,0:0:0:0:
192,192,89767,1,0,0:0:0:0:
64,192,89767,1,0,0:0:0:0:
448,192,89767,1,0,0:0:0:0:
320,192,89855,1,0,0:0:0:0:
192,192,89943,1,0,0:0:0:0:
320,192,90031,1,0,0:0:0:0:
448,192,90031,1,0,0:0:0:0:
64,192,90031,1,0,0:0:0:0:
192,192,90119,1,0,0:0:0:0:
320,192,90208,1,0,0:0:0:0:
192,192,90296,1,0,0:0:0:0:
64,192,90296,1,0,0:0:0:0:
448,192,90296,1,0,0:0:0:0:
320,192,90472,1,0,0:0:0:0:
448,192,90472,1,0,0:0:0:0:
64,192,90472,1,0,0:0:0:0:
192,192,90561,1,0,0:0:0:0:
64,192,90649,1,0,0:0:0:0:
192,192,90737,1,0,0:0:0:0:
192,192,90825,1,0,0:0:0:0:
320,192,90825,1,0,0:0:0:0:
64,192,90825,1,0,0:0:0:0:
320,192,90914,1,0,0:0:0:0:
192,192,91002,1,0,0:0:0:0:
320,192,91090,1,0,0:0:0:0:
192,192,91178,1,0,0:0:0:0:
320,192,91178,1,0,0:0:0:0:
448,192,91178,1,0,0:0:0:0:
64,192,91267,1,0,0:0:0:0:
448,192,91355,1,0,0:0:0:0:
192,192,91443,1,0,0:0:0:0:
64,192,91443,1,0,0:0:0:0:
320,192,91443,1,0,0:0:0:0:
448,192,91531,1,0,0:0:0:0:
64,192,91619,1,0,0:0:0:0:
192,192,91708,1,0,0:0:0:0:
320,192,91708,1,0,0:0:0:0:
448,192,91708,1,0,0:0:0:0:
192,192,91884,1,0,0:0:0:0:
320,192,91884,1,0,0:0:0:0:
448,192,91884,1,0,0:0:0:0:
64,192,91972,1,0,0:0:0:0:
192,192,92061,1,0,0:0:0:0:
64,192,92149,1,0,0:0:0:0:
320,192,92237,1,0,0:0:0:0:
192,192,92237,1,0,0:0:0:0:
64,192,92237,1,0,0:0:0:0:
192,192,92325,1,0,0:0:0:0:
320,192,92414,1,0,0:0:0:0:
192,192,92502,1,0,0:0:0:0:
64,192,92590,1,0,0:0:0:0:
320,192,92590,1,0,0:0:0:0:
448,192,92590,1,0,0:0:0:0:
320,192,92678,1,0,0:0:0:0:
448,192,92767,1,0,0:0:0:0:
320,192,92855,1,0,0:0:0:0:
320,192,92943,1,0,0:0:0:0:
448,192,92943,1,0,0:0:0:0:
64,192,92943,1,0,0:0:0:0:
192,192,93031,1,0,0:0:0:0:
64,192,93119,1,0,0:0:0:0:
192,192,93208,1,0,0:0:0:0:
192,192,93296,1,0,0:0:0:0:
320,192,93296,1,0,0:0:0:0:
448,192,93296,1,0,0:0:0:0:
64,192,93384,1,0,0:0:0:0:
192,192,93472,1,0,0:0:0:0:
64,192,93561,1,0,0:0:0:0:
192,192,93649,1,0,0:0:0:0:
320,192,93649,1,0,0:0:0:0:
448,192,93649,1,0,0:0:0:0:
320,192,93737,1,0,0:0:0:0:
448,192,93825,1,0,0:0:0:0:
192,192,93914,1,0,0:0:0:0:
320,192,94002,1,0,0:0:0:0:
448,192,94002,1,0,0:0:0:0:
64,192,94002,1,0,0:0:0:0:
192,192,94090,1,0,0:0:0:0:
320,192,94178,1,0,0:0:0:0:
192,192,94267,1,0,0:0:0:0:
64,192,94267,1,0,0:0:0:0:
448,192,94267,1,0,0:0:0:0:
320,192,94355,1,0,0:0:0:0:
192,192,94443,1,0,0:0:0:0:
320,192,94531,1,0,0:0:0:0:
448,192,94531,1,0,0:0:0:0:
64,192,94531,1,0,0:0:0:0:
320,192,94708,1,0,0:0:0:0:
192,192,94708,1,0,0:0:0:0:
448,192,94708,1,0,0:0:0:0:
64,192,94796,1,0,0:0:0:0:
320,192,94884,1,0,0:0:0:0:
448,192,94884,1,0,0:0:0:0:
192,192,94972,1,0,0:0:0:0:
64,192,95061,1,0,0:0:0:0:
320,192,95061,1,0,0:0:0:0:
448,192,95149,1,0,0:0:0:0:
320,192,95237,1,0,0:0:0:0:
64,192,95237,1,0,0:0:0:0:
192,192,95325,1,0,0:0:0:0:
320,192,95414,1,0,0:0:0:0:
448,192,95414,1,0,0:0:0:0:
64,192,95414,1,0,0:0:0:0:
64,192,95678,1,0,0:0:0:0:
320,192,95678,1,0,0:0:0:0:
448,192,95678,1,0,0:0:0:0:
64,192,95943,1,0,0:0:0:0:
320,192,95943,1,0,0:0:0:0:
448,192,95943,1,0,0:0:0:0:
64,192,96119,1,0,0:0:0:0:
320,192,96119,1,0,0:0:0:0:
448,192,96119,1,0,0:0:0:0:
64,192,97531,1,0,0:0:0:0:
192,192,97531,1,0,0:0:0:0:
320,192,97531,1,0,0:0:0:0:
320,192,97619,1,0,0:0:0:0:
448,192,97708,1,0,0:0:0:0:
320,192,97796,1,0,0:0:0:0:
192,192,97884,1,0,0:0:0:0:
320,192,97884,1,0,0:0:0:0:
448,192,97884,1,0,0:0:0:0:
192,192,97972,1,0,0:0:0:0:
64,192,98061,1,0,0:0:0:0:
192,192,98149,1,0,0:0:0:0:
192,192,98237,1,0,0:0:0:0:
64,192,98237,1,0,0:0:0:0:
320,192,98237,1,0,0:0:0:0:
448,192,98325,1,0,0:0:0:0:
64,192,98414,1,0,0:0:0:0:
192,192,98502,1,0,0:0:0:0:
320,192,98502,1,0,0:0:0:0:
448,192,98502,1,0,0:0:0:0:
64,192,98590,1,0,0:0:0:0:
448,192,98678,1,0,0:0:0:0:
320,192,98767,1,0,0:0:0:0:
192,192,98767,1,0,0:0:0:0:
64,192,98767,1,0,0:0:0:0:
64,192,98943,1,0,0:0:0:0:
192,192,98943,1,0,0:0:0:0:
320,192,98943,1,0,0:0:0:0:
448,192,99031,1,0,0:0:0:0:
320,192,99119,1,0,0:0:0:0:
192,192,99208,1,0,0:0:0:0:
192,192,99296,1,0,0:0:0:0:
64,192,99296,1,0,0:0:0:0:
448,192,99296,1,0,0:0:0:0:
448,192,99384,1,0,0:0:0:0:
320,192,99472,1,0,0:0:0:0:
192,192,99561,1,0,0:0:0:0:
192,192,99649,1,0,0:0:0:0:
64,192,99649,1,0,0:0:0:0:
448,192,99649,1,0,0:0:0:0:
320,192,99737,1,0,0:0:0:0:
192,192,99825,1,0,0:0:0:0:
320,192,99914,1,0,0:0:0:0:
448,192,99914,1,0,0:0:0:0:
64,192,99914,1,0,0:0:0:0:
192,192,100002,1,0,0:0:0:0:
320,192,100090,1,0,0:0:0:0:
192,192,100178,1,0,0:0:0:0:
64,192,100178,1,0,0:0:0:0:
448,192,100178,1,0,0:0:0:0:
320,192,100355,1,0,0:0:0:0:
448,192,100355,1,0,0:0:0:0:
64,192,100355,1,0,0:0:0:0:
192,192,100443,1,0,0:0:0:0:
64,192,100531,1,0,0:0:0:0:
192,192,100619,1,0,0:0:0:0:
192,192,100708,1,0,0:0:0:0:
320,192,100708,1,0,0:0:0:0:
64,192,100708,1,0,0:0:0:0:
320,192,100796,1,0,0:0:0:0:
192,192,100884,1,0,0:0:0:0:
320,192,100972,1,0,0:0:0:0:
192,192,101061,1,0,0:0:0:0:
320,192,101061,1,0,0:0:0:0:
448,192,101061,1,0,0:0:0:0:
64,192,101149,1,0,0:0:0:0:
448,192,101237,1,0,0:0:0:0:
192,192,101325,1,0,0:0:0:0:
64,192,101325,1,0,0:0:0:0:
320,192,101325,1,0,0:0:0:0:
448,192,101414,1,0,0:0:0:0:
64,192,101502,1,0,0:0:0:0:
192,192,101590,1,0,0:0:0:0:
320,192,101590,1,0,0:0:0:0:
448,192,101590,1,0,0:0:0:0:
192,192,101767,1,0,0:0:0:0:
320,192,101767,1,0,0:0:0:0:
448,192,101767,1,0,0:0:0:0:
64,192,101855,1,0,0:0:0:0:
192,192,101943,1,0,0:0:0:0:
64,192,102031,1,0,0:0:0:0:
320,192,102119,1,0,0:0:0:0:
192,192,102119,1,0,0:0:0:0:
64,192,102119,1,0,0:0:0:0:
192,192,102208,1,0,0:0:0:0:
320,192,102296,1,0,0:0:0:0:
192,192,102384,1,0,0:0:0:0:
64,192,102472,1,0,0:0:0:0:
320,192,102472,1,0,0:0:0:0:
448,192,102472,1,0,0:0:0:0:
320,192,102561,1,0,0:0:0:0:
448,192,102649,1,0,0:0:0:0:
320,192,102737,1,0,0:0:0:0:
320,192,102825,1,0,0:0:0:0:
448,192,102825,1,0,0:0:0:0:
64,192,102825,1,0,0:0:0:0:
192,192,102914,1,0,0:0:0:0:
64,192,103002,1,0,0:0:0:0:
192,192,103090,1,0,0:0:0:0:
192,192,103178,1,0,0:0:0:0:
320,192,103178,1,0,0:0:0:0:
448,192,103178,1,0,0:0:0:0:
192,192,103355,1,0,0:0:0:0:
320,192,103355,1,0,0:0:0:0:
64,192,103355,1,0,0:0:0:0:
192,192,103531,1,0,0:0:0:0:
320,192,103531,1,0,0:0:0:0:
448,192,103531,1,0,0:0:0:0:
64,192,103619,1,0,0:0:0:0:
320,192,103708,1,0,0:0:0:0:
192,192,103796,1,0,0:0:0:0:
320,192,103884,1,0,0:0:0:0:
448,192,103884,1,0,0:0:0:0:
64,192,103884,1,0,0:0:0:0:
192,192,103972,1,0,0:0:0:0:
320,192,104061,1,0,0:0:0:0:
192,192,104149,1,0,0:0:0:0:
64,192,104237,1,0,0:0:0:0:
192,192,104237,1,0,0:0:0:0:
448,192,104237,1,0,0:0:0:0:
320,192,104325,1,0,0:0:0:0:
448,192,104414,1,0,0:0:0:0:
320,192,104502,1,0,0:0:0:0:
320,192,104590,1,0,0:0:0:0:
192,192,104590,1,0,0:0:0:0:
448,192,104590,1,0,0:0:0:0:
64,192,104678,1,0,0:0:0:0:
192,192,104767,1,0,0:0:0:0:
64,192,104855,1,0,0:0:0:0:
192,192,104943,1,0,0:0:0:0:
64,192,104943,1,0,0:0:0:0:
320,192,104943,1,0,0:0:0:0:
448,192,105031,1,0,0:0:0:0:
320,192,105119,1,0,0:0:0:0:
448,192,105208,1,0,0:0:0:0:
320,192,105296,1,0,0:0:0:0:
192,192,105296,1,0,0:0:0:0:
64,192,105296,1,0,0:0:0:0:
320,192,105384,1,0,0:0:0:0:
192,192,105472,1,0,0:0:0:0:
320,192,105561,1,0,0:0:0:0:
448,192,105649,1,0,0:0:0:0:
192,192,105649,1,0,0:0:0:0:
64,192,105649,1,0,0:0:0:0:
192,192,105737,1,0,0:0:0:0:
64,192,105825,1,0,0:0:0:0:
192,192,105914,1,0,0:0:0:0:
64,192,106002,1,0,0:0:0:0:
320,192,106002,1,0,0:0:0:0:
448,192,106002,1,0,0:0:0:0:
64,192,106531,1,0,0:0:0:0:
192,192,106531,1,0,0:0:0:0:
320,192,106531,1,0,0:0:0:0:
192,192,106708,1,0,0:0:0:0:
320,192,106708,1,0,0:0:0:0:
448,192,106708,1,0,0:0:0:0:
64,192,107281,1,0,0:0:0:0:
192,192,107325,1,0,0:0:0:0:
320,192,107369,1,0,0:0:0:0:
448,192,107414,1,0,0:0:0:0:
192,192,107414,1,0,0:0:0:0:
64,192,107414,1,0,0:0:0:0:
320,192,107678,1,0,0:0:0:0:
448,192,107678,1,0,0:0:0:0:
64,192,107678,1,0,0:0:0:0:
64,192,107943,1,0,0:0:0:0:
192,192,107943,1,0,0:0:0:0:
320,192,107943,1,0,0:0:0:0:
320,192,108119,1,0,0:0:0:0:
448,192,108119,1,0,0:0:0:0:
192,192,108296,1,0,0:0:0:0:
64,192,108296,1,0,0:0:0:0:
320,192,108472,1,0,0:0:0:0:
448,192,108472,1,0,0:0:0:0:
448,192,108693,1,0,0:0:0:0:
320,192,108737,1,0,0:0:0:0:
192,192,108781,1,0,0:0:0:0:
64,192,108825,1,0,0:0:0:0:
320,192,108825,1,0,0:0:0:0:
448,192,108825,1,0,0:0:0:0:
64,192,109046,1,0,0:0:0:0:
192,192,109090,1,0,0:0:0:0:
320,192,109134,1,0,0:0:0:0:
64,192,109178,1,0,0:0:0:0:
192,192,109178,1,0,0:0:0:0:
448,192,109178,1,0,0:0:0:0:
64,192,109708,1,0,0:0:0:0:
192,192,109708,1,0,0:0:0:0:
320,192,109708,1,0,0:0:0:0:
320,192,109884,1,0,0:0:0:0:
448,192,109884,1,0,0:0:0:0:
192,192,110061,1,0,0:0:0:0:
64,192,110061,1,0,0:0:0:0:
320,192,110237,1,0,0:0:0:0:
448,192,110237,1,0,0:0:0:0:
448,192,110414,1,0,0:0:0:0:
192,192,110414,1,0,0:0:0:0:
320,192,110590,1,0,0:0:0:0:
64,192,110590,1,0,0:0:0:0:
64,192,110767,1,0,0:0:0:0:
192,192,110767,1,0,0:0:0:0:
192,192,110943,1,0,0:0:0:0:
448,192,110943,1,0,0:0:0:0:
320,192,111119,1,0,0:0:0:0:
192,192,111119,1,0,0:0:0:0:
64,192,111296,1,0,0:0:0:0:
448,192,111296,1,0,0:0:0:0:
192,192,111472,1,0,0:0:0:0:
64,192,111472,1,0,0:0:0:0:
320,192,111649,1,0,0:0:0:0:
448,192,111649,1,0,0:0:0:0:
192,192,111649,1,0,0:0:0:0:
192,192,111737,1,0,0:0:0:0:
64,192,111737,1,0,0:0:0:0:
320,192,111737,1,0,0:0:0:0:
192,192,111914,1,0,0:0:0:0:
320,192,111914,1,0,0:0:0:0:
448,192,111914,1,0,0:0:0:0:
320,192,112002,1,0,0:0:0:0:
192,192,112002,1,0,0:0:0:0:
64,192,112002,1,0,0:0:0:0:
320,192,112355,1,0,0:0:0:0:
192,192,112355,1,0,0:0:0:0:
64,192,112531,1,0,0:0:0:0:
320,192,112531,1,0,0:0:0:0:
64,192,112708,1,0,0:0:0:0:
320,192,112708,1,0,0:0:0:0:
448,192,112884,1,0,0:0:0:0:
320,192,112884,1,0,0:0:0:0:
320,192,113061,1,0,0:0:0:0:
192,192,113061,1,0,0:0:0:0:
64,192,113237,1,0,0:0:0:0:
448,192,113237,1,0,0:0:0:0:
448,192,113414,1,0,0:0:0:0:
192,192,113414,1,0,0:0:0:0:
320,192,113590,1,0,0:0:0:0:
64,192,113590,1,0,0:0:0:0:
448,192,113634,1,0,0:0:0:0:
320,192,113678,1,0,0:0:0:0:
192,192,113722,1,0,0:0:0:0:
64,192,113767,1,0,0:0:0:0:
192,192,113943,1,0,0:0:0:0:
448,192,113943,1,0,0:0:0:0:
320,192,114119,1,0,0:0:0:0:
64,192,114119,1,0,0:0:0:0:
192,192,114296,1,0,0:0:0:0:
448,192,114296,1,0,0:0:0:0:
320,192,114472,1,0,0:0:0:0:
192,192,114472,1,0,0:0:0:0:
320,192,114649,1,0,0:0:0:0:
192,192,114693,1,0,0:0:0:0:
64,192,114737,1,0,0:0:0:0:
192,192,114781,1,0,0:0:0:0:
320,192,114825,1,0,0:0:0:0:
448,192,114825,1,0,0:0:0:0:
320,192,115002,1,0,0:0:0:0:
448,192,115002,1,0,0:0:0:0:
192,192,115178,1,0,0:0:0:0:
64,192,115178,1,0,0:0:0:0:
64,192,115884,1,0,0:0:0:0:
192,192,115884,1,0,0:0:0:0:
320,192,115884,1,0,0:0:0:0:
320,192,116061,1,0,0:0:0:0:
448,192,116061,1,0,0:0:0:0:
320,192,116237,1,0,0:0:0:0:
448,192,116237,1,0,0:0:0:0:
64,192,116502,1,0,0:0:0:0:
192,192,116546,1,0,0:0:0:0:
320,192,116590,1,0,0:0:0:0:
448,192,116590,1,0,0:0:0:0:
320,192,116767,1,0,0:0:0:0:
448,192,116767,1,0,0:0:0:0:
192,192,116943,1,0,0:0:0:0:
64,192,116943,1,0,0:0:0:0:
192,192,117296,1,0,0:0:0:0:
320,192,117296,1,0,0:0:0:0:
64,192,117472,1,0,0:0:0:0:
320,192,117472,1,0,0:0:0:0:
192,192,117649,1,0,0:0:0:0:
448,192,117649,1,0,0:0:0:0:
320,192,117825,1,0,0:0:0:0:
448,192,117825,1,0,0:0:0:0:
192,192,118002,1,0,0:0:0:0:
64,192,118002,1,0,0:0:0:0:
64,192,118178,1,0,0:0:0:0:
448,192,118178,1,0,0:0:0:0:
192,192,118355,1,0,0:0:0:0:
320,192,118355,1,0,0:0:0:0:
192,192,118531,1,0,0:0:0:0:
320,192,118531,1,0,0:0:0:0:
192,192,118708,128,0,119061:0:0:0:0:
64,192,118708,1,0,0:0:0:0:
320,192,118708,1,0,0:0:0:0:
320,192,119105,1,0,0:0:0:0:
448,192,119149,1,0,0:0:0:0:
320,192,119193,1,0,0:0:0:0:
192,192,119237,1,0,0:0:0:0:
64,192,119281,1,0,0:0:0:0:
192,192,119325,1,0,0:0:0:0:
320,192,119369,1,0,0:0:0:0:
448,192,119414,1,0,0:0:0:0:
64,192,119414,128,0,120119:0:0:0:0:
192,192,120031,1,0,0:0:0:0:
320,192,120075,1,0,0:0:0:0:
448,192,120119,1,0,0:0:0:0:
64,192,120517,1,0,0:0:0:0:
192,192,120561,1,0,0:0:0:0:
320,192,120605,1,0,0:0:0:0:
448,192,120649,128,0,121531:0:0:0:0:
