osu file format v14

[General]
AudioFilename: audio.mp3
AudioLeadIn: 0
PreviewTime: 97531
Countdown: 0
SampleSet: None
StackLeniency: 0.7
Mode: 3
LetterboxInBreaks: 0
SpecialStyle: 0
WidescreenStoryboard: 1

[Editor]
DistanceSpacing: 1
BeatDivisor: 4
GridSize: 4
TimelineZoom: 1

[Metadata]
Title:#KuruttaMinzoku2 PRAVARGYAZOOQA
TitleUnicode:#狂った民族2 PRAVARGYAZOOQA
Artist:DJ Raisei
ArtistUnicode:DJ Raisei
Creator:Abyssalized
Version:ADVANCED Lv.7+
Source:maimai でらっくす FESTiVAL
Tags:maimai
BeatmapID:4502709
BeatmapSetID:2137148

[Difficulty]
HPDrainRate:5
CircleSize:4
OverallDifficulty:5
ApproachRate:5
SliderMultiplier:1.4
SliderTickRate:1

[Events]
//Background and Video events
0,0,"Kurutta_minzoku_2_PRAVARGYAZOOQA-transformed.png",0,0
//Break Periods
//Storyboard Layer 0 (Background)
//Storyboard Layer 1 (Fail)
//Storyboard Layer 2 (Pass)
//Storyboard Layer 3 (Foreground)
//Storyboard Layer 4 (Overlay)
//Storyboard Sound Samples

[TimingPoints]
120,352.941176470588,4,1,0,100,1,0

[HitObjects]
64,192,1531,128,0,2943:0:0:0:0:
320,192,2061,128,0,3472:0:0:0:0:
192,192,2943,1,0,0:0:0:0:
448,192,3472,1,0,0:0:0:0:
448,192,4355,128,0,5767:0:0:0:0:
192,192,4884,128,0,6296:0:0:0:0:
320,192,5767,1,0,0:0:0:0:
64,192,6296,1,0,0:0:0:0:
192,192,7178,1,0,0:0:0:0:
64,192,7178,1,0,0:0:0:0:
320,192,7443,1,0,0:0:0:0:
448,192,7443,1,0,0:0:0:0:
192,192,7708,1,0,0:0:0:0:
64,192,7708,1,0,0:0:0:0:
64,192,8414,1,0,0:0:0:0:
192,192,8502,1,0,0:0:0:0:
320,192,8590,1,0,0:0:0:0:
448,192,8590,1,0,0:0:0:0:
192,192,9119,1,0,0:0:0:0:
64,192,9119,1,0,0:0:0:0:
320,192,9472,1,0,0:0:0:0:
448,192,9649,1,0,0:0:0:0:
192,192,10002,1,0,0:0:0:0:
64,192,10002,1,0,0:0:0:0:
320,192,10531,1,0,0:0:0:0:
448,192,10531,1,0,0:0:0:0:
320,192,11414,1,0,0:0:0:0:
448,192,11414,1,0,0:0:0:0:
192,192,11943,1,0,0:0:0:0:
64,192,11943,1,0,0:0:0:0:
64,192,12825,128,0,14237:0:0:0:0:
448,192,13178,1,0,0:0:0:0:
448,192,13355,1,0,0:0:0:0:
320,192,13884,1,0,0:0:0:0:
448,192,13884,1,0,0:0:0:0:
192,192,14237,128,0,15649:0:0:0:0:
320,192,14590,1,0,0:0:0:0:
320,192,14767,1,0,0:0:0:0:
320,192,15296,1,0,0:0:0:0:
448,192,15296,1,0,0:0:0:0:
320,192,15649,128,0,17061:0:0:0:0:
192,192,16002,1,0,0:0:0:0:
192,192,16178,1,0,0:0:0:0:
192,192,16708,1,0,0:0:0:0:
64,192,16708,1,0,0:0:0:0:
448,192,17061,128,0,18472:0:0:0:0:
64,192,17414,1,0,0:0:0:0:
64,192,17590,1,0,0:0:0:0:
64,192,18119,1,0,0:0:0:0:
192,192,18119,1,0,0:0:0:0:
320,192,18472,1,0,0:0:0:0:
192,192,18472,1,0,0:0:0:0:
64,192,18825,1,0,0:0:0:0:
320,192,19002,1,0,0:0:0:0:
192,192,19178,1,0,0:0:0:0:
448,192,19178,1,0,0:0:0:0:
64,192,19531,1,0,0:0:0:0:
320,192,19531,1,0,0:0:0:0:
320,192,19884,1,0,0:0:0:0:
448,192,20061,1,0,0:0:0:0:
192,192,20237,1,0,0:0:0:0:
64,192,20414,1,0,0:0:0:0:
320,192,20590,1,0,0:0:0:0:
448,192,20767,1,0,0:0:0:0:
192,192,20943,1,0,0:0:0:0:
64,192,21119,1,0,0:0:0:0:
320,192,21296,1,0,0:0:0:0:
448,192,21296,1,0,0:0:0:0:
64,192,22708,128,0,24119:0:0:0:0:
448,192,23061,1,0,0:0:0:0:
448,192,23414,1,0,0:0:0:0:
448,192,23767,1,0,0:0:0:0:
448,192,24119,1,0,0:0:0:0:
320,192,24119,1,0,0:0:0:0:
192,192,24472,1,0,0:0:0:0:
64,192,24472,1,0,0:0:0:0:
320,192,24825,1,0,0:0:0:0:
448,192,24825,1,0,0:0:0:0:
192,192,25178,1,0,0:0:0:0:
64,192,25178,1,0,0:0:0:0:
192,192,25531,1,0,0:0:0:0:
448,192,25531,1,0,0:0:0:0:
320,192,25884,1,0,0:0:0:0:
64,192,25884,1,0,0:0:0:0:
192,192,26237,1,0,0:0:0:0:
448,192,26237,1,0,0:0:0:0:
320,192,26590,1,0,0:0:0:0:
64,192,26590,1,0,0:0:0:0:
192,192,26767,1,0,0:0:0:0:
320,192,26943,1,0,0:0:0:0:
448,192,26943,1,0,0:0:0:0:
192,192,27296,1,0,0:0:0:0:
64,192,27296,1,0,0:0:0:0:
320,192,27649,1,0,0:0:0:0:
448,192,27649,1,0,0:0:0:0:
320,192,28002,1,0,0:0:0:0:
64,192,28002,1,0,0:0:0:0:
192,192,28355,1,0,0:0:0:0:
448,192,28355,1,0,0:0:0:0:
320,192,28708,1,0,0:0:0:0:
64,192,28708,1,0,0:0:0:0:
192,192,29061,1,0,0:0:0:0:
448,192,29061,1,0,0:0:0:0:
192,192,29414,1,0,0:0:0:0:
64,192,29414,1,0,0:0:0:0:
448,192,29590,1,0,0:0:0:0:
320,192,29767,1,0,0:0:0:0:
192,192,29767,1,0,0:0:0:0:
192,192,30119,1,0,0:0:0:0:
448,192,30119,1,0,0:0:0:0:
320,192,30472,1,0,0:0:0:0:
64,192,30472,1,0,0:0:0:0:
192,192,30825,1,0,0:0:0:0:
448,192,30825,1,0,0:0:0:0:
320,192,31178,1,0,0:0:0:0:
64,192,31178,1,0,0:0:0:0:
192,192,31531,1,0,0:0:0:0:
64,192,31531,1,0,0:0:0:0:
320,192,31884,1,0,0:0:0:0:
448,192,31884,1,0,0:0:0:0:
320,192,32237,1,0,0:0:0:0:
448,192,32237,1,0,0:0:0:0:
64,192,32414,1,0,0:0:0:0:
192,192,32502,1,0,0:0:0:0:
320,192,32590,1,0,0:0:0:0:
448,192,32590,1,0,0:0:0:0:
192,192,32767,1,0,0:0:0:0:
64,192,32767,1,0,0:0:0:0:
320,192,32943,1,0,0:0:0:0:
448,192,32943,1,0,0:0:0:0:
448,192,33296,1,0,0:0:0:0:
192,192,33296,1,0,0:0:0:0:
448,192,33649,1,0,0:0:0:0:
192,192,33649,1,0,0:0:0:0:
320,192,34002,1,0,0:0:0:0:
64,192,34002,1,0,0:0:0:0:
64,192,34355,1,0,0:0:0:0:
320,192,34355,1,0,0:0:0:0:
192,192,34708,1,0,0:0:0:0:
320,192,34708,1,0,0:0:0:0:
64,192,34884,1,0,0:0:0:0:
448,192,35061,1,0,0:0:0:0:
320,192,35414,1,0,0:0:0:0:
448,192,35414,1,0,0:0:0:0:
192,192,35767,1,0,0:0:0:0:
64,192,35767,1,0,0:0:0:0:
320,192,36119,1,0,0:0:0:0:
448,192,36119,1,0,0:0:0:0:
192,192,36472,1,0,0:0:0:0:
64,192,36472,1,0,0:0:0:0:
192,192,36825,1,0,0:0:0:0:
448,192,36825,1,0,0:0:0:0:
320,192,37178,1,0,0:0:0:0:
64,192,37178,1,0,0:0:0:0:
192,192,37531,1,0,0:0:0:0:
448,192,37531,1,0,0:0:0:0:
320,192,37884,1,0,0:0:0:0:
64,192,37884,1,0,0:0:0:0:
192,192,38061,1,0,0:0:0:0:
320,192,38237,1,0,0:0:0:0:
448,192,38237,1,0,0:0:0:0:
320,192,38414,1,0,0:0:0:0:
192,192,38414,1,0,0:0:0:0:
192,192,38590,1,0,0:0:0:0:
64,192,38590,1,0,0:0:0:0:
320,192,38943,1,0,0:0:0:0:
448,192,38943,1,0,0:0:0:0:
320,192,39296,1,0,0:0:0:0:
64,192,39296,1,0,0:0:0:0:
192,192,39649,1,0,0:0:0:0:
448,192,39649,1,0,0:0:0:0:
320,192,40002,1,0,0:0:0:0:
64,192,40002,1,0,0:0:0:0:
192,192,40355,1,0,0:0:0:0:
448,192,40355,1,0,0:0:0:0:
192,192,40708,1,0,0:0:0:0:
64,192,40708,1,0,0:0:0:0:
448,192,40884,1,0,0:0:0:0:
320,192,40884,1,0,0:0:0:0:
320,192,41061,1,0,0:0:0:0:
192,192,41061,1,0,0:0:0:0:
64,192,41414,128,0,42472:0:0:0:0:
192,192,41414,1,0,0:0:0:0:
320,192,41767,1,0,0:0:0:0:
448,192,41943,1,0,0:0:0:0:
192,192,42119,1,0,0:0:0:0:
320,192,42119,1,0,0:0:0:0:
192,192,42472,1,0,0:0:0:0:
320,192,42649,1,0,0:0:0:0:
448,192,42825,128,0,43884:0:0:0:0:
192,192,42825,1,0,0:0:0:0:
64,192,43178,1,0,0:0:0:0:
320,192,43355,1,0,0:0:0:0:
192,192,43531,1,0,0:0:0:0:
64,192,43531,1,0,0:0:0:0:
320,192,43884,1,0,0:0:0:0:
64,192,44061,1,0,0:0:0:0:
192,192,44149,1,0,0:0:0:0:
320,192,44237,128,0,45296:0:0:0:0:
448,192,44590,1,0,0:0:0:0:
64,192,44767,1,0,0:0:0:0:
192,192,44943,1,0,0:0:0:0:
448,192,44943,1,0,0:0:0:0:
64,192,45296,1,0,0:0:0:0:
448,192,45472,1,0,0:0:0:0:
192,192,45649,128,0,46708:0:0:0:0:
320,192,46002,1,0,0:0:0:0:
64,192,46178,1,0,0:0:0:0:
448,192,46355,128,0,46708:0:0:0:0:
64,192,46708,1,0,0:0:0:0:
320,192,46708,1,0,0:0:0:0:
64,192,49531,128,0,49884:0:0:0:0:
448,192,49531,1,0,0:0:0:0:
192,192,49884,128,0,50237:0:0:0:0:
320,192,49884,1,0,0:0:0:0:
320,192,50237,128,0,50590:0:0:0:0:
64,192,50237,1,0,0:0:0:0:
448,192,50590,128,0,50943:0:0:0:0:
192,192,50590,1,0,0:0:0:0:
320,192,50943,1,0,0:0:0:0:
64,192,50943,1,0,0:0:0:0:
64,192,52355,128,0,52884:0:0:0:0:
320,192,52355,1,0,0:0:0:0:
448,192,52355,1,0,0:0:0:0:
192,192,52884,128,0,53767:0:0:0:0:
320,192,52884,1,0,0:0:0:0:
448,192,52884,1,0,0:0:0:0:
320,192,53767,1,0,0:0:0:0:
448,192,53767,1,0,0:0:0:0:
64,192,53767,128,0,54296:0:0:0:0:
320,192,54296,1,0,0:0:0:0:
448,192,54296,1,0,0:0:0:0:
192,192,54296,128,0,55178:0:0:0:0:
448,192,54649,1,0,0:0:0:0:
64,192,54825,1,0,0:0:0:0:
320,192,55178,128,0,55708:0:0:0:0:
64,192,55178,1,0,0:0:0:0:
448,192,55708,128,0,56590:0:0:0:0:
64,192,55708,1,0,0:0:0:0:
192,192,55708,1,0,0:0:0:0:
192,192,56590,1,0,0:0:0:0:
64,192,56590,1,0,0:0:0:0:
320,192,56590,128,0,57119:0:0:0:0:
64,192,57119,1,0,0:0:0:0:
192,192,57119,1,0,0:0:0:0:
448,192,57119,128,0,58002:0:0:0:0:
64,192,57472,1,0,0:0:0:0:
320,192,57649,1,0,0:0:0:0:
320,192,58002,1,0,0:0:0:0:
64,192,58002,128,0,59414:0:0:0:0:
192,192,58708,1,0,0:0:0:0:
448,192,58884,1,0,0:0:0:0:
320,192,59061,1,0,0:0:0:0:
192,192,59061,1,0,0:0:0:0:
448,192,59414,1,0,0:0:0:0:
320,192,59590,1,0,0:0:0:0:
192,192,59767,1,0,0:0:0:0:
448,192,59767,128,0,60825:0:0:0:0:
64,192,60119,1,0,0:0:0:0:
320,192,60296,1,0,0:0:0:0:
192,192,60472,1,0,0:0:0:0:
64,192,60472,1,0,0:0:0:0:
64,192,60825,1,0,0:0:0:0:
64,192,61002,1,0,0:0:0:0:
192,192,61090,1,0,0:0:0:0:
320,192,61178,1,0,0:0:0:0:
448,192,61178,128,0,62237:0:0:0:0:
