osu file format v14

[General]
AudioFilename: audio.mp3
AudioLeadIn: 0
PreviewTime: 32999
Countdown: 0
SampleSet: None
StackLeniency: 0.7
Mode: 3
LetterboxInBreaks: 0
SpecialStyle: 0
WidescreenStoryboard: 0

[Editor]
Bookmarks: 33882,56470,79058,101647,124235,135529,158117,169058
DistanceSpacing: 2
BeatDivisor: 4
GridSize: 4
TimelineZoom: 2.699999

[Metadata]
Title:I MISS YOU LIKE DEATH (ft. ARJEN XANNEN)
TitleUnicode:I MISS YOU LIKE DEATH (ft. ARJEN XANNEN)
Artist:DJ RAY-XANS
ArtistUnicode:DJ RAY-XANS
Creator:rock time
Version:PRETEEN ANGST
Source:
Tags:
BeatmapID:1715074
BeatmapSetID:817908

[Difficulty]
HPDrainRate:7
CircleSize:4
OverallDifficulty:9
ApproachRate:5
SliderMultiplier:1.4
SliderTickRate:1

[Events]
//Background and Video events
0,0,"bg.jpg",0,0
//Break Periods
//Storyboard Layer 0 (Background)
//Storyboard Layer 1 (Fail)
//Storyboard Layer 2 (Pass)
//Storyboard Layer 3 (Foreground)
//Storyboard Sound Samples

[TimingPoints]
0,352.941176470588,4,2,0,25,1,0
33882,-100,4,2,0,25,0,1
56470,-100,4,2,0,25,0,0
79058,-100,4,2,0,25,0,1
101647,-100,4,2,0,25,0,0
135529,-100,4,2,0,25,0,1
158117,-100,4,2,0,25,0,0

[HitObjects]
64,192,0,128,0,1411:0:0:0:0:
192,192,705,128,0,2117:0:0:0:0:
320,192,1411,128,0,2117:0:0:0:0:
448,192,2117,1,0,0:0:0:0:
64,192,2117,1,0,0:0:0:0:
448,192,2823,128,0,4235:0:0:0:0:
320,192,3529,128,0,4941:0:0:0:0:
192,192,4235,128,0,4941:0:0:0:0:
64,192,4941,1,0,0:0:0:0:
448,192,4941,1,0,0:0:0:0:
192,192,5117,128,0,5647:0:0:0:0:
320,192,5647,128,0,7058:0:0:0:0:
448,192,6352,128,0,7764:0:0:0:0:
64,192,7058,128,0,7764:0:0:0:0:
320,192,7764,1,0,0:0:0:0:
192,192,7764,1,0,0:0:0:0:
192,192,8470,128,0,9705:0:0:0:0:
64,192,9176,128,0,10588:0:0:0:0:
448,192,9705,128,0,10411:0:0:0:0:
320,192,10411,1,0,0:0:0:0:
192,192,10588,1,0,0:0:0:0:
448,192,10588,1,0,0:0:0:0:
64,192,10764,128,0,11294:0:0:0:0:
448,192,11294,128,0,12705:0:0:0:0:
320,192,11999,128,0,13411:0:0:0:0:
192,192,12705,128,0,13411:0:0:0:0:
64,192,13411,1,0,0:0:0:0:
448,192,13411,1,0,0:0:0:0:
64,192,14117,128,0,15529:0:0:0:0:
192,192,14823,128,0,16235:0:0:0:0:
320,192,15529,128,0,16235:0:0:0:0:
448,192,16235,1,0,0:0:0:0:
64,192,16235,1,0,0:0:0:0:
320,192,16411,128,0,16941:0:0:0:0:
192,192,16941,128,0,18352:0:0:0:0:
64,192,17647,128,0,19058:0:0:0:0:
448,192,18352,128,0,19058:0:0:0:0:
192,192,19058,1,0,0:0:0:0:
320,192,19058,1,0,0:0:0:0:
320,192,19764,128,0,21176:0:0:0:0:
448,192,20470,128,0,21882:0:0:0:0:
64,192,21176,128,0,21705:0:0:0:0:
192,192,21705,1,0,0:0:0:0:
320,192,21882,1,0,0:0:0:0:
64,192,21882,1,0,0:0:0:0:
448,192,22058,128,0,22588:0:0:0:0:
64,192,22588,128,0,23999:0:0:0:0:
192,192,23294,128,0,24705:0:0:0:0:
320,192,23999,128,0,24705:0:0:0:0:
64,192,24705,1,0,0:0:0:0:
448,192,24705,1,0,0:0:0:0:
448,192,25411,128,0,26823:0:0:0:0:
320,192,26117,128,0,27529:0:0:0:0:
192,192,26823,128,0,27529:0:0:0:0:
448,192,27529,1,0,0:0:0:0:
64,192,27529,1,0,0:0:0:0:
192,192,27705,128,0,28235:0:0:0:0:
320,192,28235,128,0,29647:0:0:0:0:
448,192,28941,128,0,30352:0:0:0:0:
64,192,29647,128,0,30352:0:0:0:0:
192,192,30352,1,0,0:0:0:0:
320,192,30352,1,0,0:0:0:0:
192,192,31058,128,0,32470:0:0:0:0:
64,192,31764,128,0,33176:0:0:0:0:
448,192,32470,128,0,33176:0:0:0:0:
320,192,32999,1,0,0:0:0:0:
192,192,33176,1,0,0:0:0:0:
320,192,33176,1,0,0:0:0:0:
448,192,33352,1,0,0:0:0:0:
64,192,33352,1,0,0:0:0:0:
192,192,33529,1,0,0:0:0:0:
320,192,33529,1,0,0:0:0:0:
64,192,33705,1,0,0:0:0:0:
448,192,33705,1,0,0:0:0:0:
320,192,33794,1,0,0:0:0:0:
64,192,33882,1,0,0:0:0:0:
192,192,33882,1,0,0:0:0:0:
448,192,33970,1,0,0:0:0:0:
192,192,34058,1,0,0:0:0:0:
448,192,34147,1,0,0:0:0:0:
192,192,34235,1,0,0:0:0:0:
320,192,34235,1,0,0:0:0:0:
64,192,34323,1,0,0:0:0:0:
192,192,34411,1,0,0:0:0:0:
320,192,34499,1,0,0:0:0:0:
64,192,34588,1,0,0:0:0:0:
192,192,34676,1,0,0:0:0:0:
320,192,34764,1,0,0:0:0:0:
448,192,34764,1,0,0:0:0:0:
192,192,34852,1,0,0:0:0:0:
320,192,34941,1,0,0:0:0:0:
448,192,34941,1,0,0:0:0:0:
64,192,35029,1,0,0:0:0:0:
320,192,35117,1,0,0:0:0:0:
64,192,35205,1,0,0:0:0:0:
320,192,35294,1,0,0:0:0:0:
64,192,35382,1,0,0:0:0:0:
320,192,35470,1,0,0:0:0:0:
448,192,35470,1,0,0:0:0:0:
192,192,35558,1,0,0:0:0:0:
64,192,35647,1,0,0:0:0:0:
448,192,35647,1,0,0:0:0:0:
192,192,35735,1,0,0:0:0:0:
320,192,35823,1,0,0:0:0:0:
448,192,35823,1,0,0:0:0:0:
192,192,35911,1,0,0:0:0:0:
64,192,35911,1,0,0:0:0:0:
320,192,35999,1,0,0:0:0:0:
448,192,35999,1,0,0:0:0:0:
192,192,36088,1,0,0:0:0:0:
64,192,36176,1,0,0:0:0:0:
448,192,36176,1,0,0:0:0:0:
320,192,36264,1,0,0:0:0:0:
192,192,36352,1,0,0:0:0:0:
64,192,36352,1,0,0:0:0:0:
448,192,36441,1,0,0:0:0:0:
64,192,36529,1,0,0:0:0:0:
320,192,36529,1,0,0:0:0:0:
192,192,36617,1,0,0:0:0:0:
320,192,36705,1,0,0:0:0:0:
448,192,36705,1,0,0:0:0:0:
64,192,36794,1,0,0:0:0:0:
192,192,36794,1,0,0:0:0:0:
320,192,36882,1,0,0:0:0:0:
448,192,36882,1,0,0:0:0:0:
64,192,36970,1,0,0:0:0:0:
192,192,36970,1,0,0:0:0:0:
448,192,37058,1,0,0:0:0:0:
320,192,37058,1,0,0:0:0:0:
192,192,37147,1,0,0:0:0:0:
320,192,37235,1,0,0:0:0:0:
448,192,37323,1,0,0:0:0:0:
64,192,37411,1,0,0:0:0:0:
192,192,37411,1,0,0:0:0:0:
448,192,37499,1,0,0:0:0:0:
320,192,37499,1,0,0:0:0:0:
192,192,37588,1,0,0:0:0:0:
64,192,37588,1,0,0:0:0:0:
320,192,37676,1,0,0:0:0:0:
448,192,37676,1,0,0:0:0:0:
192,192,37764,1,0,0:0:0:0:
64,192,37764,1,0,0:0:0:0:
320,192,37852,1,0,0:0:0:0:
192,192,37941,1,0,0:0:0:0:
64,192,38029,1,0,0:0:0:0:
448,192,38117,1,0,0:0:0:0:
320,192,38117,1,0,0:0:0:0:
192,192,38205,1,0,0:0:0:0:
64,192,38205,1,0,0:0:0:0:
448,192,38294,1,0,0:0:0:0:
320,192,38294,1,0,0:0:0:0:
192,192,38382,1,0,0:0:0:0:
64,192,38382,1,0,0:0:0:0:
320,192,38470,1,0,0:0:0:0:
448,192,38470,1,0,0:0:0:0:
192,192,38558,1,0,0:0:0:0:
64,192,38647,1,0,0:0:0:0:
192,192,38735,1,0,0:0:0:0:
320,192,38823,1,0,0:0:0:0:
448,192,38823,1,0,0:0:0:0:
192,192,38911,1,0,0:0:0:0:
64,192,38999,1,0,0:0:0:0:
448,192,39088,1,0,0:0:0:0:
320,192,39088,1,0,0:0:0:0:
192,192,39176,1,0,0:0:0:0:
64,192,39264,1,0,0:0:0:0:
448,192,39352,1,0,0:0:0:0:
320,192,39352,1,0,0:0:0:0:
192,192,39441,1,0,0:0:0:0:
64,192,39529,1,0,0:0:0:0:
448,192,39529,1,0,0:0:0:0:
320,192,39617,1,0,0:0:0:0:
192,192,39705,1,0,0:0:0:0:
64,192,39794,1,0,0:0:0:0:
320,192,39882,1,0,0:0:0:0:
448,192,39882,1,0,0:0:0:0:
192,192,39970,1,0,0:0:0:0:
320,192,40058,1,0,0:0:0:0:
192,192,40147,1,0,0:0:0:0:
320,192,40235,1,0,0:0:0:0:
192,192,40323,1,0,0:0:0:0:
64,192,40411,1,0,0:0:0:0:
448,192,40411,1,0,0:0:0:0:
320,192,40499,1,0,0:0:0:0:
192,192,40588,1,0,0:0:0:0:
64,192,40588,1,0,0:0:0:0:
320,192,40676,1,0,0:0:0:0:
64,192,40764,1,0,0:0:0:0:
320,192,40852,1,0,0:0:0:0:
64,192,40941,1,0,0:0:0:0:
192,192,40941,1,0,0:0:0:0:
320,192,41029,1,0,0:0:0:0:
448,192,41117,1,0,0:0:0:0:
64,192,41117,1,0,0:0:0:0:
192,192,41205,1,0,0:0:0:0:
320,192,41294,1,0,0:0:0:0:
448,192,41294,1,0,0:0:0:0:
192,192,41382,1,0,0:0:0:0:
64,192,41470,1,0,0:0:0:0:
448,192,41470,1,0,0:0:0:0:
320,192,41558,1,0,0:0:0:0:
192,192,41558,1,0,0:0:0:0:
64,192,41647,1,0,0:0:0:0:
448,192,41647,128,0,41999:0:0:0:0:
64,192,41823,1,0,0:0:0:0:
320,192,41999,128,0,42352:0:0:0:0:
192,192,41999,1,0,0:0:0:0:
64,192,42352,1,0,0:0:0:0:
192,192,42352,1,0,0:0:0:0:
320,192,42441,1,0,0:0:0:0:
448,192,42441,1,0,0:0:0:0:
192,192,42529,1,0,0:0:0:0:
64,192,42529,1,0,0:0:0:0:
320,192,42617,1,0,0:0:0:0:
448,192,42617,1,0,0:0:0:0:
192,192,42705,1,0,0:0:0:0:
64,192,42705,1,0,0:0:0:0:
320,192,42794,1,0,0:0:0:0:
192,192,42882,1,0,0:0:0:0:
64,192,42970,1,0,0:0:0:0:
320,192,43058,1,0,0:0:0:0:
448,192,43058,1,0,0:0:0:0:
192,192,43147,1,0,0:0:0:0:
64,192,43147,1,0,0:0:0:0:
320,192,43235,1,0,0:0:0:0:
448,192,43235,1,0,0:0:0:0:
192,192,43323,1,0,0:0:0:0:
64,192,43323,1,0,0:0:0:0:
320,192,43411,1,0,0:0:0:0:
448,192,43411,1,0,0:0:0:0:
192,192,43499,1,0,0:0:0:0:
320,192,43588,1,0,0:0:0:0:
448,192,43676,1,0,0:0:0:0:
192,192,43764,1,0,0:0:0:0:
64,192,43764,1,0,0:0:0:0:
320,192,43852,1,0,0:0:0:0:
448,192,43852,1,0,0:0:0:0:
192,192,43941,1,0,0:0:0:0:
64,192,43941,1,0,0:0:0:0:
320,192,44029,1,0,0:0:0:0:
448,192,44029,1,0,0:0:0:0:
192,192,44117,1,0,0:0:0:0:
64,192,44117,1,0,0:0:0:0:
320,192,44205,1,0,0:0:0:0:
192,192,44294,1,0,0:0:0:0:
64,192,44294,1,0,0:0:0:0:
320,192,44382,1,0,0:0:0:0:
448,192,44382,1,0,0:0:0:0:
192,192,44470,1,0,0:0:0:0:
64,192,44470,1,0,0:0:0:0:
320,192,44558,1,0,0:0:0:0:
64,192,44647,128,0,45176:0:0:0:0:
448,192,44647,1,0,0:0:0:0:
192,192,44735,1,0,0:0:0:0:
448,192,44823,1,0,0:0:0:0:
192,192,44911,1,0,0:0:0:0:
448,192,44999,1,0,0:0:0:0:
192,192,45088,1,0,0:0:0:0:
320,192,45176,1,0,0:0:0:0:
448,192,45176,1,0,0:0:0:0:
192,192,45264,1,0,0:0:0:0:
320,192,45352,1,0,0:0:0:0:
192,192,45441,1,0,0:0:0:0:
64,192,45529,1,0,0:0:0:0:
448,192,45529,1,0,0:0:0:0:
192,192,45617,1,0,0:0:0:0:
320,192,45705,1,0,0:0:0:0:
448,192,45794,1,0,0:0:0:0:
64,192,45882,1,0,0:0:0:0:
192,192,45970,1,0,0:0:0:0:
320,192,46058,1,0,0:0:0:0:
448,192,46058,1,0,0:0:0:0:
192,192,46147,1,0,0:0:0:0:
64,192,46235,1,0,0:0:0:0:
448,192,46235,1,0,0:0:0:0:
320,192,46323,1,0,0:0:0:0:
192,192,46411,1,0,0:0:0:0:
320,192,46499,1,0,0:0:0:0:
64,192,46588,1,0,0:0:0:0:
448,192,46588,1,0,0:0:0:0:
320,192,46676,1,0,0:0:0:0:
192,192,46764,1,0,0:0:0:0:
64,192,46764,1,0,0:0:0:0:
320,192,46852,1,0,0:0:0:0:
448,192,46941,1,0,0:0:0:0:
64,192,46941,1,0,0:0:0:0:
192,192,47029,1,0,0:0:0:0:
320,192,47117,1,0,0:0:0:0:
448,192,47117,1,0,0:0:0:0:
192,192,47205,1,0,0:0:0:0:
64,192,47205,1,0,0:0:0:0:
320,192,47294,1,0,0:0:0:0:
448,192,47294,1,0,0:0:0:0:
64,192,47382,1,0,0:0:0:0:
192,192,47470,1,0,0:0:0:0:
320,192,47470,1,0,0:0:0:0:
448,192,47558,1,0,0:0:0:0:
320,192,47647,1,0,0:0:0:0:
192,192,47647,1,0,0:0:0:0:
64,192,47735,1,0,0:0:0:0:
192,192,47823,1,0,0:0:0:0:
320,192,47911,1,0,0:0:0:0:
192,192,47999,1,0,0:0:0:0:
64,192,47999,1,0,0:0:0:0:
320,192,48088,1,0,0:0:0:0:
448,192,48088,1,0,0:0:0:0:
192,192,48176,1,0,0:0:0:0:
64,192,48176,1,0,0:0:0:0:
320,192,48264,1,0,0:0:0:0:
448,192,48264,1,0,0:0:0:0:
192,192,48352,1,0,0:0:0:0:
64,192,48352,1,0,0:0:0:0:
448,192,48441,1,0,0:0:0:0:
320,192,48529,1,0,0:0:0:0:
192,192,48617,1,0,0:0:0:0:
320,192,48705,1,0,0:0:0:0:
448,192,48705,1,0,0:0:0:0:
192,192,48794,1,0,0:0:0:0:
64,192,48794,1,0,0:0:0:0:
320,192,48882,1,0,0:0:0:0:
448,192,48882,1,0,0:0:0:0:
192,192,48970,1,0,0:0:0:0:
64,192,48970,1,0,0:0:0:0:
320,192,49058,1,0,0:0:0:0:
448,192,49058,1,0,0:0:0:0:
64,192,49147,1,0,0:0:0:0:
192,192,49235,1,0,0:0:0:0:
320,192,49323,1,0,0:0:0:0:
192,192,49411,1,0,0:0:0:0:
64,192,49411,1,0,0:0:0:0:
320,192,49499,1,0,0:0:0:0:
448,192,49499,1,0,0:0:0:0:
192,192,49588,1,0,0:0:0:0:
64,192,49588,1,0,0:0:0:0:
320,192,49676,1,0,0:0:0:0:
448,192,49676,1,0,0:0:0:0:
192,192,49764,1,0,0:0:0:0:
64,192,49764,1,0,0:0:0:0:
320,192,49852,1,0,0:0:0:0:
448,192,49941,1,0,0:0:0:0:
320,192,50029,1,0,0:0:0:0:
192,192,50117,1,0,0:0:0:0:
64,192,50117,1,0,0:0:0:0:
320,192,50205,1,0,0:0:0:0:
448,192,50294,1,0,0:0:0:0:
64,192,50382,1,0,0:0:0:0:
192,192,50382,1,0,0:0:0:0:
320,192,50470,1,0,0:0:0:0:
448,192,50558,1,0,0:0:0:0:
64,192,50647,1,0,0:0:0:0:
192,192,50647,1,0,0:0:0:0:
448,192,50735,1,0,0:0:0:0:
192,192,50823,1,0,0:0:0:0:
320,192,50823,1,0,0:0:0:0:
64,192,50911,1,0,0:0:0:0:
192,192,50999,1,0,0:0:0:0:
320,192,51088,1,0,0:0:0:0:
448,192,51176,1,0,0:0:0:0:
64,192,51176,1,0,0:0:0:0:
320,192,51264,1,0,0:0:0:0:
64,192,51352,1,0,0:0:0:0:
320,192,51441,1,0,0:0:0:0:
64,192,51529,1,0,0:0:0:0:
448,192,51529,1,0,0:0:0:0:
320,192,51617,1,0,0:0:0:0:
192,192,51705,1,0,0:0:0:0:
64,192,51705,1,0,0:0:0:0:
320,192,51794,1,0,0:0:0:0:
448,192,51882,1,0,0:0:0:0:
64,192,51882,1,0,0:0:0:0:
320,192,51970,1,0,0:0:0:0:
192,192,52058,1,0,0:0:0:0:
64,192,52147,1,0,0:0:0:0:
192,192,52235,1,0,0:0:0:0:
320,192,52323,1,0,0:0:0:0:
448,192,52411,1,0,0:0:0:0:
64,192,52411,1,0,0:0:0:0:
320,192,52499,1,0,0:0:0:0:
64,192,52588,1,0,0:0:0:0:
192,192,52588,1,0,0:0:0:0:
448,192,52676,1,0,0:0:0:0:
64,192,52764,1,0,0:0:0:0:
192,192,52764,1,0,0:0:0:0:
320,192,52852,1,0,0:0:0:0:
448,192,52852,1,0,0:0:0:0:
64,192,52941,1,0,0:0:0:0:
192,192,52941,128,0,53294:0:0:0:0:
320,192,53117,1,0,0:0:0:0:
448,192,53294,128,0,53647:0:0:0:0:
64,192,53294,1,0,0:0:0:0:
64,192,53647,1,0,0:0:0:0:
192,192,53823,1,0,0:0:0:0:
320,192,53911,1,0,0:0:0:0:
192,192,53999,1,0,0:0:0:0:
320,192,54176,1,0,0:0:0:0:
448,192,54529,1,0,0:0:0:0:
320,192,54705,1,0,0:0:0:0:
192,192,54882,1,0,0:0:0:0:
448,192,55058,1,0,0:0:0:0:
320,192,55147,1,0,0:0:0:0:
64,192,55235,1,0,0:0:0:0:
192,192,55323,1,0,0:0:0:0:
320,192,55411,1,0,0:0:0:0:
320,192,55588,1,0,0:0:0:0:
448,192,55676,1,0,0:0:0:0:
320,192,55764,1,0,0:0:0:0:
192,192,55852,1,0,0:0:0:0:
64,192,55941,128,0,56117:0:0:0:0:
448,192,56117,128,0,56470:0:0:0:0:
64,192,56470,1,0,0:0:0:0:
192,192,56470,1,0,0:0:0:0:
448,192,56647,1,0,0:0:0:0:
320,192,56735,1,0,0:0:0:0:
192,192,56823,1,0,0:0:0:0:
64,192,56823,1,0,0:0:0:0:
320,192,56999,1,0,0:0:0:0:
448,192,57176,1,0,0:0:0:0:
64,192,57352,1,0,0:0:0:0:
320,192,57352,1,0,0:0:0:0:
192,192,57529,1,0,0:0:0:0:
448,192,57529,1,0,0:0:0:0:
320,192,57705,1,0,0:0:0:0:
192,192,57882,1,0,0:0:0:0:
320,192,58058,1,0,0:0:0:0:
448,192,58058,1,0,0:0:0:0:
192,192,58235,1,0,0:0:0:0:
64,192,58235,1,0,0:0:0:0:
448,192,58411,1,0,0:0:0:0:
320,192,58499,1,0,0:0:0:0:
64,192,58588,1,0,0:0:0:0:
448,192,58588,1,0,0:0:0:0:
192,192,58764,1,0,0:0:0:0:
320,192,58764,1,0,0:0:0:0:
320,192,58941,1,0,0:0:0:0:
448,192,58941,1,0,0:0:0:0:
320,192,59117,1,0,0:0:0:0:
192,192,59205,1,0,0:0:0:0:
64,192,59294,1,0,0:0:0:0:
448,192,59294,1,0,0:0:0:0:
320,192,59470,1,0,0:0:0:0:
192,192,59558,1,0,0:0:0:0:
320,192,59647,1,0,0:0:0:0:
448,192,59647,1,0,0:0:0:0:
320,192,59823,1,0,0:0:0:0:
192,192,59823,1,0,0:0:0:0:
448,192,59999,1,0,0:0:0:0:
64,192,60176,1,0,0:0:0:0:
320,192,60176,1,0,0:0:0:0:
192,192,60352,1,0,0:0:0:0:
320,192,60352,1,0,0:0:0:0:
64,192,60529,1,0,0:0:0:0:
448,192,60705,1,0,0:0:0:0:
320,192,60705,1,0,0:0:0:0:
192,192,60794,1,0,0:0:0:0:
64,192,60882,1,0,0:0:0:0:
448,192,60970,1,0,0:0:0:0:
320,192,61058,1,0,0:0:0:0:
192,192,61058,1,0,0:0:0:0:
448,192,61235,1,0,0:0:0:0:
320,192,61323,1,0,0:0:0:0:
192,192,61411,1,0,0:0:0:0:
320,192,61499,1,0,0:0:0:0:
448,192,61588,1,0,0:0:0:0:
64,192,61588,1,0,0:0:0:0:
320,192,61676,1,0,0:0:0:0:
192,192,61764,1,0,0:0:0:0:
64,192,61764,1,0,0:0:0:0:
448,192,61852,1,0,0:0:0:0:
320,192,61941,1,0,0:0:0:0:
192,192,62029,1,0,0:0:0:0:
64,192,62117,1,0,0:0:0:0:
448,192,62117,1,0,0:0:0:0:
320,192,62294,1,0,0:0:0:0:
192,192,62382,1,0,0:0:0:0:
64,192,62470,1,0,0:0:0:0:
320,192,62470,1,0,0:0:0:0:
448,192,62647,1,0,0:0:0:0:
320,192,62823,1,0,0:0:0:0:
192,192,62999,1,0,0:0:0:0:
448,192,62999,1,0,0:0:0:0:
64,192,63176,1,0,0:0:0:0:
320,192,63176,1,0,0:0:0:0:
192,192,63352,1,0,0:0:0:0:
320,192,63441,1,0,0:0:0:0:
64,192,63529,1,0,0:0:0:0:
192,192,63529,1,0,0:0:0:0:
448,192,63705,1,0,0:0:0:0:
320,192,63705,1,0,0:0:0:0:
64,192,63882,1,0,0:0:0:0:
448,192,63882,1,0,0:0:0:0:
64,192,64058,1,0,0:0:0:0:
192,192,64147,1,0,0:0:0:0:
448,192,64235,1,0,0:0:0:0:
320,192,64235,128,0,64588:0:0:0:0:
64,192,64411,1,0,0:0:0:0:
448,192,64588,128,0,64941:0:0:0:0:
192,192,64588,1,0,0:0:0:0:
64,192,64941,1,0,0:0:0:0:
192,192,64941,1,0,0:0:0:0:
320,192,65117,1,0,0:0:0:0:
448,192,65205,1,0,0:0:0:0:
192,192,65294,1,0,0:0:0:0:
64,192,65294,1,0,0:0:0:0:
320,192,65470,1,0,0:0:0:0:
448,192,65647,1,0,0:0:0:0:
192,192,65823,1,0,0:0:0:0:
320,192,65823,1,0,0:0:0:0:
64,192,65999,1,0,0:0:0:0:
320,192,65999,1,0,0:0:0:0:
192,192,66176,1,0,0:0:0:0:
448,192,66352,1,0,0:0:0:0:
320,192,66441,1,0,0:0:0:0:
192,192,66529,1,0,0:0:0:0:
448,192,66529,1,0,0:0:0:0:
64,192,66617,1,0,0:0:0:0:
192,192,66705,1,0,0:0:0:0:
448,192,66705,1,0,0:0:0:0:
320,192,66882,1,0,0:0:0:0:
448,192,66970,1,0,0:0:0:0:
320,192,67058,1,0,0:0:0:0:
64,192,67058,1,0,0:0:0:0:
192,192,67147,1,0,0:0:0:0:
64,192,67235,1,0,0:0:0:0:
448,192,67235,128,0,67764:0:0:0:0:
192,192,67323,1,0,0:0:0:0:
320,192,67411,1,0,0:0:0:0:
192,192,67499,1,0,0:0:0:0:
64,192,67588,1,0,0:0:0:0:
192,192,67676,1,0,0:0:0:0:
320,192,67764,1,0,0:0:0:0:
64,192,67764,1,0,0:0:0:0:
448,192,67941,1,0,0:0:0:0:
320,192,68029,1,0,0:0:0:0:
192,192,68117,1,0,0:0:0:0:
64,192,68117,1,0,0:0:0:0:
448,192,68294,1,0,0:0:0:0:
192,192,68470,1,0,0:0:0:0:
320,192,68647,1,0,0:0:0:0:
448,192,68647,1,0,0:0:0:0:
64,192,68823,1,0,0:0:0:0:
192,192,68823,1,0,0:0:0:0:
320,192,68999,1,0,0:0:0:0:
64,192,69176,1,0,0:0:0:0:
192,192,69352,1,0,0:0:0:0:
320,192,69352,1,0,0:0:0:0:
448,192,69529,1,0,0:0:0:0:
192,192,69529,1,0,0:0:0:0:
320,192,69705,1,0,0:0:0:0:
192,192,69794,1,0,0:0:0:0:
64,192,69882,1,0,0:0:0:0:
448,192,69882,1,0,0:0:0:0:
192,192,70058,1,0,0:0:0:0:
320,192,70058,1,0,0:0:0:0:
64,192,70235,1,0,0:0:0:0:
448,192,70235,1,0,0:0:0:0:
192,192,70411,1,0,0:0:0:0:
320,192,70499,1,0,0:0:0:0:
192,192,70588,1,0,0:0:0:0:
64,192,70588,1,0,0:0:0:0:
448,192,70764,1,0,0:0:0:0:
320,192,70852,1,0,0:0:0:0:
192,192,70941,1,0,0:0:0:0:
448,192,70941,1,0,0:0:0:0:
320,192,71117,1,0,0:0:0:0:
448,192,71117,1,0,0:0:0:0:
192,192,71294,1,0,0:0:0:0:
64,192,71470,1,0,0:0:0:0:
320,192,71470,1,0,0:0:0:0:
192,192,71647,1,0,0:0:0:0:
448,192,71647,1,0,0:0:0:0:
320,192,71823,1,0,0:0:0:0:
64,192,71999,1,0,0:0:0:0:
448,192,71999,1,0,0:0:0:0:
192,192,72088,1,0,0:0:0:0:
320,192,72176,1,0,0:0:0:0:
448,192,72176,1,0,0:0:0:0:
192,192,72264,1,0,0:0:0:0:
64,192,72352,1,0,0:0:0:0:
448,192,72352,1,0,0:0:0:0:
320,192,72529,1,0,0:0:0:0:
192,192,72617,1,0,0:0:0:0:
64,192,72705,1,0,0:0:0:0:
320,192,72705,1,0,0:0:0:0:
192,192,72882,1,0,0:0:0:0:
320,192,72882,1,0,0:0:0:0:
448,192,73058,1,0,0:0:0:0:
320,192,73058,1,0,0:0:0:0:
192,192,73147,1,0,0:0:0:0:
320,192,73235,1,0,0:0:0:0:
192,192,73323,1,0,0:0:0:0:
320,192,73411,1,0,0:0:0:0:
64,192,73411,1,0,0:0:0:0:
448,192,73588,1,0,0:0:0:0:
320,192,73676,1,0,0:0:0:0:
448,192,73764,1,0,0:0:0:0:
64,192,73764,1,0,0:0:0:0:
192,192,73941,1,0,0:0:0:0:
320,192,74117,1,0,0:0:0:0:
448,192,74294,1,0,0:0:0:0:
320,192,74294,1,0,0:0:0:0:
320,192,74470,1,0,0:0:0:0:
192,192,74470,1,0,0:0:0:0:
192,192,74647,1,0,0:0:0:0:
64,192,74823,1,0,0:0:0:0:
320,192,74823,1,0,0:0:0:0:
192,192,74999,1,0,0:0:0:0:
320,192,74999,1,0,0:0:0:0:
448,192,75176,1,0,0:0:0:0:
192,192,75176,1,0,0:0:0:0:
320,192,75352,1,0,0:0:0:0:
192,192,75441,1,0,0:0:0:0:
320,192,75529,1,0,0:0:0:0:
64,192,75529,128,0,75882:0:0:0:0:
448,192,75705,1,0,0:0:0:0:
320,192,75882,128,0,76235:0:0:0:0:
192,192,75882,1,0,0:0:0:0:
64,192,76235,1,0,0:0:0:0:
448,192,76235,1,0,0:0:0:0:
192,192,76411,1,0,0:0:0:0:
448,192,76499,1,0,0:0:0:0:
192,192,76588,1,0,0:0:0:0:
320,192,76588,1,0,0:0:0:0:
64,192,76764,1,0,0:0:0:0:
448,192,76941,1,0,0:0:0:0:
320,192,77117,1,0,0:0:0:0:
192,192,77117,1,0,0:0:0:0:
64,192,77294,1,0,0:0:0:0:
448,192,77294,1,0,0:0:0:0:
192,192,77470,1,0,0:0:0:0:
448,192,77647,1,0,0:0:0:0:
320,192,77647,1,0,0:0:0:0:
192,192,77735,1,0,0:0:0:0:
448,192,77823,1,0,0:0:0:0:
192,192,77911,1,0,0:0:0:0:
320,192,77999,1,0,0:0:0:0:
448,192,77999,1,0,0:0:0:0:
192,192,78088,1,0,0:0:0:0:
64,192,78176,1,0,0:0:0:0:
448,192,78264,1,0,0:0:0:0:
192,192,78352,1,0,0:0:0:0:
64,192,78352,1,0,0:0:0:0:
320,192,78441,1,0,0:0:0:0:
448,192,78441,1,0,0:0:0:0:
64,192,78529,1,0,0:0:0:0:
192,192,78529,128,0,79058:0:0:0:0:
320,192,78617,1,0,0:0:0:0:
448,192,78705,1,0,0:0:0:0:
64,192,78794,1,0,0:0:0:0:
320,192,78882,1,0,0:0:0:0:
448,192,78970,1,0,0:0:0:0:
64,192,79058,1,0,0:0:0:0:
320,192,79058,1,0,0:0:0:0:
192,192,79147,1,0,0:0:0:0:
320,192,79235,1,0,0:0:0:0:
448,192,79323,1,0,0:0:0:0:
320,192,79411,1,0,0:0:0:0:
192,192,79411,1,0,0:0:0:0:
448,192,79499,1,0,0:0:0:0:
320,192,79588,1,0,0:0:0:0:
192,192,79676,1,0,0:0:0:0:
448,192,79764,1,0,0:0:0:0:
320,192,79852,1,0,0:0:0:0:
192,192,79941,1,0,0:0:0:0:
64,192,79941,1,0,0:0:0:0:
320,192,80029,1,0,0:0:0:0:
192,192,80117,1,0,0:0:0:0:
64,192,80117,1,0,0:0:0:0:
448,192,80205,1,0,0:0:0:0:
192,192,80294,1,0,0:0:0:0:
448,192,80382,1,0,0:0:0:0:
192,192,80470,1,0,0:0:0:0:
448,192,80558,1,0,0:0:0:0:
192,192,80647,1,0,0:0:0:0:
64,192,80647,1,0,0:0:0:0:
320,192,80735,1,0,0:0:0:0:
448,192,80823,1,0,0:0:0:0:
64,192,80823,1,0,0:0:0:0:
320,192,80911,1,0,0:0:0:0:
192,192,80999,1,0,0:0:0:0:
64,192,80999,1,0,0:0:0:0:
320,192,81088,1,0,0:0:0:0:
448,192,81088,1,0,0:0:0:0:
192,192,81176,1,0,0:0:0:0:
64,192,81176,1,0,0:0:0:0:
320,192,81264,1,0,0:0:0:0:
448,192,81352,1,0,0:0:0:0:
64,192,81352,1,0,0:0:0:0:
192,192,81441,1,0,0:0:0:0:
320,192,81529,1,0,0:0:0:0:
448,192,81529,1,0,0:0:0:0:
64,192,81617,1,0,0:0:0:0:
448,192,81705,1,0,0:0:0:0:
192,192,81705,1,0,0:0:0:0:
320,192,81794,1,0,0:0:0:0:
192,192,81882,1,0,0:0:0:0:
64,192,81882,1,0,0:0:0:0:
448,192,81970,1,0,0:0:0:0:
320,192,81970,1,0,0:0:0:0:
192,192,82058,1,0,0:0:0:0:
64,192,82058,1,0,0:0:0:0:
448,192,82147,1,0,0:0:0:0:
320,192,82147,1,0,0:0:0:0:
64,192,82235,1,0,0:0:0:0:
192,192,82235,1,0,0:0:0:0:
320,192,82323,1,0,0:0:0:0:
192,192,82411,1,0,0:0:0:0:
64,192,82499,1,0,0:0:0:0:
448,192,82588,1,0,0:0:0:0:
320,192,82588,1,0,0:0:0:0:
64,192,82676,1,0,0:0:0:0:
192,192,82676,1,0,0:0:0:0:
320,192,82764,1,0,0:0:0:0:
448,192,82764,1,0,0:0:0:0:
192,192,82852,1,0,0:0:0:0:
64,192,82852,1,0,0:0:0:0:
320,192,82941,1,0,0:0:0:0:
448,192,82941,1,0,0:0:0:0:
192,192,83029,1,0,0:0:0:0:
320,192,83117,1,0,0:0:0:0:
448,192,83205,1,0,0:0:0:0:
64,192,83294,1,0,0:0:0:0:
192,192,83294,1,0,0:0:0:0:
320,192,83382,1,0,0:0:0:0:
448,192,83382,1,0,0:0:0:0:
64,192,83470,1,0,0:0:0:0:
192,192,83470,1,0,0:0:0:0:
320,192,83558,1,0,0:0:0:0:
448,192,83558,1,0,0:0:0:0:
192,192,83647,1,0,0:0:0:0:
64,192,83647,1,0,0:0:0:0:
320,192,83735,1,0,0:0:0:0:
448,192,83823,1,0,0:0:0:0:
320,192,83911,1,0,0:0:0:0:
192,192,83999,1,0,0:0:0:0:
64,192,83999,1,0,0:0:0:0:
320,192,84088,1,0,0:0:0:0:
448,192,84176,1,0,0:0:0:0:
64,192,84264,1,0,0:0:0:0:
192,192,84264,1,0,0:0:0:0:
320,192,84352,1,0,0:0:0:0:
448,192,84441,1,0,0:0:0:0:
64,192,84529,1,0,0:0:0:0:
192,192,84529,1,0,0:0:0:0:
320,192,84617,1,0,0:0:0:0:
448,192,84705,1,0,0:0:0:0:
64,192,84705,1,0,0:0:0:0:
192,192,84794,1,0,0:0:0:0:
320,192,84882,1,0,0:0:0:0:
448,192,84970,1,0,0:0:0:0:
192,192,85058,1,0,0:0:0:0:
64,192,85058,1,0,0:0:0:0:
320,192,85147,1,0,0:0:0:0:
192,192,85235,1,0,0:0:0:0:
320,192,85323,1,0,0:0:0:0:
192,192,85411,1,0,0:0:0:0:
320,192,85499,1,0,0:0:0:0:
448,192,85588,1,0,0:0:0:0:
64,192,85588,1,0,0:0:0:0:
192,192,85676,1,0,0:0:0:0:
320,192,85764,1,0,0:0:0:0:
448,192,85764,1,0,0:0:0:0:
192,192,85852,1,0,0:0:0:0:
448,192,85941,1,0,0:0:0:0:
192,192,86029,1,0,0:0:0:0:
448,192,86117,1,0,0:0:0:0:
320,192,86117,1,0,0:0:0:0:
192,192,86205,1,0,0:0:0:0:
64,192,86294,1,0,0:0:0:0:
448,192,86294,1,0,0:0:0:0:
320,192,86382,1,0,0:0:0:0:
192,192,86470,1,0,0:0:0:0:
64,192,86470,1,0,0:0:0:0:
320,192,86558,1,0,0:0:0:0:
448,192,86647,1,0,0:0:0:0:
64,192,86647,1,0,0:0:0:0:
192,192,86735,1,0,0:0:0:0:
320,192,86735,1,0,0:0:0:0:
448,192,86823,1,0,0:0:0:0:
64,192,86823,128,0,87176:0:0:0:0:
448,192,86999,1,0,0:0:0:0:
192,192,87176,128,0,87529:0:0:0:0:
320,192,87176,1,0,0:0:0:0:
448,192,87529,1,0,0:0:0:0:
320,192,87529,1,0,0:0:0:0:
192,192,87617,1,0,0:0:0:0:
64,192,87617,1,0,0:0:0:0:
320,192,87705,1,0,0:0:0:0:
448,192,87705,1,0,0:0:0:0:
192,192,87794,1,0,0:0:0:0:
64,192,87794,1,0,0:0:0:0:
320,192,87882,1,0,0:0:0:0:
448,192,87882,1,0,0:0:0:0:
192,192,87970,1,0,0:0:0:0:
320,192,88058,1,0,0:0:0:0:
448,192,88147,1,0,0:0:0:0:
192,192,88235,1,0,0:0:0:0:
64,192,88235,1,0,0:0:0:0:
320,192,88323,1,0,0:0:0:0:
448,192,88323,1,0,0:0:0:0:
192,192,88411,1,0,0:0:0:0:
64,192,88411,1,0,0:0:0:0:
320,192,88499,1,0,0:0:0:0:
448,192,88499,1,0,0:0:0:0:
192,192,88588,1,0,0:0:0:0:
64,192,88588,1,0,0:0:0:0:
320,192,88676,1,0,0:0:0:0:
192,192,88764,1,0,0:0:0:0:
64,192,88852,1,0,0:0:0:0:
320,192,88941,1,0,0:0:0:0:
448,192,88941,1,0,0:0:0:0:
192,192,89029,1,0,0:0:0:0:
64,192,89029,1,0,0:0:0:0:
320,192,89117,1,0,0:0:0:0:
448,192,89117,1,0,0:0:0:0:
192,192,89205,1,0,0:0:0:0:
64,192,89205,1,0,0:0:0:0:
320,192,89294,1,0,0:0:0:0:
448,192,89294,1,0,0:0:0:0:
192,192,89382,1,0,0:0:0:0:
320,192,89470,1,0,0:0:0:0:
448,192,89470,1,0,0:0:0:0:
192,192,89558,1,0,0:0:0:0:
64,192,89558,1,0,0:0:0:0:
320,192,89647,1,0,0:0:0:0:
448,192,89647,1,0,0:0:0:0:
192,192,89735,1,0,0:0:0:0:
448,192,89823,128,0,90352:0:0:0:0:
64,192,89823,1,0,0:0:0:0:
320,192,89911,1,0,0:0:0:0:
64,192,89999,1,0,0:0:0:0:
320,192,90088,1,0,0:0:0:0:
64,192,90176,1,0,0:0:0:0:
320,192,90264,1,0,0:0:0:0:
192,192,90352,1,0,0:0:0:0:
64,192,90352,1,0,0:0:0:0:
320,192,90441,1,0,0:0:0:0:
192,192,90529,1,0,0:0:0:0:
320,192,90617,1,0,0:0:0:0:
448,192,90705,1,0,0:0:0:0:
64,192,90705,1,0,0:0:0:0:
320,192,90794,1,0,0:0:0:0:
192,192,90882,1,0,0:0:0:0:
64,192,90970,1,0,0:0:0:0:
448,192,91058,1,0,0:0:0:0:
320,192,91147,1,0,0:0:0:0:
192,192,91235,1,0,0:0:0:0:
64,192,91235,1,0,0:0:0:0:
320,192,91323,1,0,0:0:0:0:
448,192,91411,1,0,0:0:0:0:
64,192,91411,1,0,0:0:0:0:
192,192,91499,1,0,0:0:0:0:
320,192,91588,1,0,0:0:0:0:
192,192,91676,1,0,0:0:0:0:
448,192,91764,1,0,0:0:0:0:
64,192,91764,1,0,0:0:0:0:
192,192,91852,1,0,0:0:0:0:
320,192,91941,1,0,0:0:0:0:
448,192,91941,1,0,0:0:0:0:
192,192,92029,1,0,0:0:0:0:
64,192,92117,1,0,0:0:0:0:
448,192,92117,1,0,0:0:0:0:
320,192,92205,1,0,0:0:0:0:
192,192,92294,1,0,0:0:0:0:
64,192,92294,1,0,0:0:0:0:
320,192,92382,1,0,0:0:0:0:
448,192,92382,1,0,0:0:0:0:
192,192,92470,1,0,0:0:0:0:
64,192,92470,1,0,0:0:0:0:
448,192,92558,1,0,0:0:0:0:
320,192,92647,1,0,0:0:0:0:
192,192,92647,1,0,0:0:0:0:
64,192,92735,1,0,0:0:0:0:
192,192,92823,1,0,0:0:0:0:
320,192,92823,1,0,0:0:0:0:
448,192,92911,1,0,0:0:0:0:
320,192,92999,1,0,0:0:0:0:
192,192,93088,1,0,0:0:0:0:
320,192,93176,1,0,0:0:0:0:
448,192,93176,1,0,0:0:0:0:
192,192,93264,1,0,0:0:0:0:
64,192,93264,1,0,0:0:0:0:
320,192,93352,1,0,0:0:0:0:
448,192,93352,1,0,0:0:0:0:
192,192,93441,1,0,0:0:0:0:
64,192,93441,1,0,0:0:0:0:
320,192,93529,1,0,0:0:0:0:
448,192,93529,1,0,0:0:0:0:
64,192,93617,1,0,0:0:0:0:
192,192,93705,1,0,0:0:0:0:
320,192,93794,1,0,0:0:0:0:
192,192,93882,1,0,0:0:0:0:
64,192,93882,1,0,0:0:0:0:
320,192,93970,1,0,0:0:0:0:
448,192,93970,1,0,0:0:0:0:
192,192,94058,1,0,0:0:0:0:
64,192,94058,1,0,0:0:0:0:
320,192,94147,1,0,0:0:0:0:
448,192,94147,1,0,0:0:0:0:
192,192,94235,1,0,0:0:0:0:
64,192,94235,1,0,0:0:0:0:
448,192,94323,1,0,0:0:0:0:
320,192,94411,1,0,0:0:0:0:
192,192,94499,1,0,0:0:0:0:
320,192,94588,1,0,0:0:0:0:
448,192,94588,1,0,0:0:0:0:
192,192,94676,1,0,0:0:0:0:
64,192,94676,1,0,0:0:0:0:
320,192,94764,1,0,0:0:0:0:
448,192,94764,1,0,0:0:0:0:
192,192,94852,1,0,0:0:0:0:
64,192,94852,1,0,0:0:0:0:
320,192,94941,1,0,0:0:0:0:
448,192,94941,1,0,0:0:0:0:
192,192,95029,1,0,0:0:0:0:
64,192,95117,1,0,0:0:0:0:
192,192,95205,1,0,0:0:0:0:
320,192,95294,1,0,0:0:0:0:
448,192,95294,1,0,0:0:0:0:
192,192,95382,1,0,0:0:0:0:
64,192,95470,1,0,0:0:0:0:
448,192,95558,1,0,0:0:0:0:
320,192,95558,1,0,0:0:0:0:
192,192,95647,1,0,0:0:0:0:
64,192,95735,1,0,0:0:0:0:
448,192,95823,1,0,0:0:0:0:
320,192,95823,1,0,0:0:0:0:
64,192,95911,1,0,0:0:0:0:
320,192,95999,1,0,0:0:0:0:
192,192,95999,1,0,0:0:0:0:
448,192,96088,1,0,0:0:0:0:
320,192,96176,1,0,0:0:0:0:
192,192,96264,1,0,0:0:0:0:
64,192,96352,1,0,0:0:0:0:
448,192,96352,1,0,0:0:0:0:
192,192,96441,1,0,0:0:0:0:
448,192,96529,1,0,0:0:0:0:
192,192,96617,1,0,0:0:0:0:
448,192,96705,1,0,0:0:0:0:
64,192,96705,1,0,0:0:0:0:
192,192,96794,1,0,0:0:0:0:
320,192,96882,1,0,0:0:0:0:
448,192,96882,1,0,0:0:0:0:
192,192,96970,1,0,0:0:0:0:
64,192,97058,1,0,0:0:0:0:
448,192,97058,1,0,0:0:0:0:
192,192,97147,1,0,0:0:0:0:
320,192,97235,1,0,0:0:0:0:
448,192,97323,1,0,0:0:0:0:
320,192,97411,1,0,0:0:0:0:
192,192,97499,1,0,0:0:0:0:
64,192,97588,1,0,0:0:0:0:
448,192,97588,1,0,0:0:0:0:
192,192,97676,1,0,0:0:0:0:
448,192,97764,1,0,0:0:0:0:
320,192,97764,1,0,0:0:0:0:
64,192,97852,1,0,0:0:0:0:
448,192,97941,1,0,0:0:0:0:
320,192,97941,1,0,0:0:0:0:
192,192,98029,1,0,0:0:0:0:
64,192,98029,1,0,0:0:0:0:
448,192,98117,1,0,0:0:0:0:
320,192,98117,128,0,98470:0:0:0:0:
192,192,98294,1,0,0:0:0:0:
64,192,98470,128,0,98823:0:0:0:0:
448,192,98470,1,0,0:0:0:0:
448,192,98823,1,0,0:0:0:0:
64,192,98999,1,0,0:0:0:0:
192,192,99088,1,0,0:0:0:0:
64,192,99176,1,0,0:0:0:0:
448,192,99352,1,0,0:0:0:0:
192,192,99705,1,0,0:0:0:0:
320,192,99882,1,0,0:0:0:0:
192,192,100058,1,0,0:0:0:0:
64,192,100235,1,0,0:0:0:0:
192,192,100323,1,0,0:0:0:0:
320,192,100411,1,0,0:0:0:0:
448,192,100499,1,0,0:0:0:0:
64,192,100588,1,0,0:0:0:0:
64,192,100764,1,0,0:0:0:0:
448,192,100852,1,0,0:0:0:0:
64,192,100941,1,0,0:0:0:0:
448,192,101029,1,0,0:0:0:0:
192,192,101117,128,0,101294:0:0:0:0:
320,192,101294,128,0,101647:0:0:0:0:
64,192,101647,1,0,0:0:0:0:
192,192,101647,1,0,0:0:0:0:
448,192,101823,1,0,0:0:0:0:
320,192,101911,1,0,0:0:0:0:
448,192,101999,1,0,0:0:0:0:
64,192,101999,1,0,0:0:0:0:
192,192,102176,1,0,0:0:0:0:
320,192,102352,1,0,0:0:0:0:
64,192,102529,1,0,0:0:0:0:
448,192,102529,1,0,0:0:0:0:
192,192,102705,1,0,0:0:0:0:
320,192,102705,1,0,0:0:0:0:
192,192,102882,1,0,0:0:0:0:
320,192,103058,1,0,0:0:0:0:
320,192,103235,1,0,0:0:0:0:
448,192,103235,1,0,0:0:0:0:
192,192,103411,1,0,0:0:0:0:
64,192,103411,1,0,0:0:0:0:
320,192,103588,1,0,0:0:0:0:
192,192,103676,1,0,0:0:0:0:
64,192,103764,1,0,0:0:0:0:
448,192,103764,1,0,0:0:0:0:
192,192,103941,1,0,0:0:0:0:
448,192,103941,1,0,0:0:0:0:
320,192,104117,1,0,0:0:0:0:
448,192,104117,1,0,0:0:0:0:
320,192,104294,1,0,0:0:0:0:
192,192,104382,1,0,0:0:0:0:
64,192,104470,1,0,0:0:0:0:
448,192,104470,1,0,0:0:0:0:
192,192,104647,1,0,0:0:0:0:
320,192,104735,1,0,0:0:0:0:
192,192,104823,1,0,0:0:0:0:
64,192,104823,1,0,0:0:0:0:
320,192,104999,1,0,0:0:0:0:
192,192,104999,1,0,0:0:0:0:
448,192,105176,1,0,0:0:0:0:
64,192,105352,1,0,0:0:0:0:
320,192,105352,1,0,0:0:0:0:
192,192,105529,1,0,0:0:0:0:
448,192,105529,1,0,0:0:0:0:
320,192,105705,1,0,0:0:0:0:
64,192,105882,1,0,0:0:0:0:
320,192,105882,1,0,0:0:0:0:
192,192,105970,1,0,0:0:0:0:
320,192,106058,1,0,0:0:0:0:
448,192,106147,1,0,0:0:0:0:
320,192,106235,1,0,0:0:0:0:
64,192,106235,1,0,0:0:0:0:
64,192,106411,1,0,0:0:0:0:
192,192,106499,1,0,0:0:0:0:
320,192,106588,1,0,0:0:0:0:
192,192,106676,1,0,0:0:0:0:
64,192,106764,1,0,0:0:0:0:
448,192,106764,1,0,0:0:0:0:
192,192,106852,1,0,0:0:0:0:
320,192,106941,1,0,0:0:0:0:
448,192,106941,1,0,0:0:0:0:
192,192,107029,1,0,0:0:0:0:
64,192,107117,1,0,0:0:0:0:
320,192,107205,1,0,0:0:0:0:
64,192,107294,1,0,0:0:0:0:
192,192,107294,1,0,0:0:0:0:
448,192,107470,1,0,0:0:0:0:
320,192,107558,1,0,0:0:0:0:
64,192,107647,1,0,0:0:0:0:
192,192,107647,1,0,0:0:0:0:
320,192,107823,1,0,0:0:0:0:
64,192,107999,1,0,0:0:0:0:
192,192,108176,1,0,0:0:0:0:
448,192,108176,1,0,0:0:0:0:
64,192,108352,1,0,0:0:0:0:
320,192,108352,1,0,0:0:0:0:
192,192,108529,1,0,0:0:0:0:
320,192,108617,1,0,0:0:0:0:
64,192,108705,1,0,0:0:0:0:
192,192,108705,1,0,0:0:0:0:
448,192,108882,1,0,0:0:0:0:
320,192,108882,1,0,0:0:0:0:
64,192,109058,1,0,0:0:0:0:
448,192,109058,1,0,0:0:0:0:
448,192,109235,1,0,0:0:0:0:
320,192,109323,1,0,0:0:0:0:
64,192,109411,1,0,0:0:0:0:
192,192,109411,128,0,109764:0:0:0:0:
448,192,109588,1,0,0:0:0:0:
64,192,109764,128,0,110117:0:0:0:0:
320,192,109764,1,0,0:0:0:0:
448,192,110117,1,0,0:0:0:0:
192,192,110117,1,0,0:0:0:0:
192,192,110294,1,0,0:0:0:0:
320,192,110382,1,0,0:0:0:0:
448,192,110470,1,0,0:0:0:0:
64,192,110470,1,0,0:0:0:0:
320,192,110647,1,0,0:0:0:0:
192,192,110823,1,0,0:0:0:0:
64,192,110999,1,0,0:0:0:0:
320,192,110999,1,0,0:0:0:0:
448,192,111176,1,0,0:0:0:0:
320,192,111176,1,0,0:0:0:0:
192,192,111352,1,0,0:0:0:0:
64,192,111529,1,0,0:0:0:0:
192,192,111617,1,0,0:0:0:0:
320,192,111705,1,0,0:0:0:0:
448,192,111705,1,0,0:0:0:0:
192,192,111794,1,0,0:0:0:0:
320,192,111882,1,0,0:0:0:0:
448,192,111882,1,0,0:0:0:0:
448,192,112058,1,0,0:0:0:0:
320,192,112147,1,0,0:0:0:0:
192,192,112235,1,0,0:0:0:0:
64,192,112235,1,0,0:0:0:0:
320,192,112323,1,0,0:0:0:0:
448,192,112411,1,0,0:0:0:0:
64,192,112411,128,0,112941:0:0:0:0:
320,192,112499,1,0,0:0:0:0:
192,192,112588,1,0,0:0:0:0:
448,192,112676,1,0,0:0:0:0:
320,192,112764,1,0,0:0:0:0:
192,192,112852,1,0,0:0:0:0:
320,192,112941,1,0,0:0:0:0:
448,192,112941,1,0,0:0:0:0:
448,192,113117,1,0,0:0:0:0:
320,192,113205,1,0,0:0:0:0:
192,192,113294,1,0,0:0:0:0:
64,192,113294,1,0,0:0:0:0:
448,192,113470,1,0,0:0:0:0:
192,192,113647,1,0,0:0:0:0:
320,192,113823,1,0,0:0:0:0:
448,192,113823,1,0,0:0:0:0:
64,192,113999,1,0,0:0:0:0:
192,192,113999,1,0,0:0:0:0:
448,192,114176,1,0,0:0:0:0:
320,192,114352,1,0,0:0:0:0:
192,192,114529,1,0,0:0:0:0:
64,192,114529,1,0,0:0:0:0:
448,192,114705,1,0,0:0:0:0:
192,192,114705,1,0,0:0:0:0:
320,192,114882,1,0,0:0:0:0:
192,192,114970,1,0,0:0:0:0:
320,192,115058,1,0,0:0:0:0:
448,192,115058,1,0,0:0:0:0:
192,192,115235,1,0,0:0:0:0:
64,192,115235,1,0,0:0:0:0:
64,192,115411,1,0,0:0:0:0:
448,192,115411,1,0,0:0:0:0:
192,192,115588,1,0,0:0:0:0:
320,192,115676,1,0,0:0:0:0:
192,192,115764,1,0,0:0:0:0:
64,192,115764,1,0,0:0:0:0:
192,192,115941,1,0,0:0:0:0:
320,192,116029,1,0,0:0:0:0:
192,192,116117,1,0,0:0:0:0:
448,192,116117,1,0,0:0:0:0:
320,192,116294,1,0,0:0:0:0:
448,192,116294,1,0,0:0:0:0:
192,192,116470,1,0,0:0:0:0:
64,192,116647,1,0,0:0:0:0:
192,192,116647,1,0,0:0:0:0:
64,192,116823,1,0,0:0:0:0:
448,192,116823,1,0,0:0:0:0:
192,192,116999,1,0,0:0:0:0:
320,192,117176,1,0,0:0:0:0:
448,192,117176,1,0,0:0:0:0:
192,192,117264,1,0,0:0:0:0:
320,192,117352,1,0,0:0:0:0:
448,192,117352,1,0,0:0:0:0:
192,192,117441,1,0,0:0:0:0:
64,192,117529,1,0,0:0:0:0:
448,192,117529,1,0,0:0:0:0:
320,192,117705,1,0,0:0:0:0:
192,192,117794,1,0,0:0:0:0:
64,192,117882,1,0,0:0:0:0:
320,192,117882,1,0,0:0:0:0:
192,192,118058,1,0,0:0:0:0:
320,192,118058,1,0,0:0:0:0:
448,192,118235,1,0,0:0:0:0:
320,192,118235,1,0,0:0:0:0:
64,192,118323,1,0,0:0:0:0:
448,192,118411,1,0,0:0:0:0:
64,192,118499,1,0,0:0:0:0:
320,192,118588,1,0,0:0:0:0:
448,192,118588,1,0,0:0:0:0:
192,192,118764,1,0,0:0:0:0:
320,192,118852,1,0,0:0:0:0:
448,192,118941,1,0,0:0:0:0:
64,192,118941,1,0,0:0:0:0:
192,192,119117,1,0,0:0:0:0:
320,192,119294,1,0,0:0:0:0:
448,192,119470,1,0,0:0:0:0:
320,192,119470,1,0,0:0:0:0:
64,192,119647,1,0,0:0:0:0:
192,192,119647,1,0,0:0:0:0:
448,192,119823,1,0,0:0:0:0:
64,192,119999,1,0,0:0:0:0:
320,192,119999,1,0,0:0:0:0:
192,192,120176,1,0,0:0:0:0:
320,192,120176,1,0,0:0:0:0:
448,192,120352,1,0,0:0:0:0:
192,192,120352,1,0,0:0:0:0:
320,192,120529,1,0,0:0:0:0:
192,192,120617,1,0,0:0:0:0:
320,192,120705,1,0,0:0:0:0:
64,192,120705,128,0,121058:0:0:0:0:
448,192,120882,1,0,0:0:0:0:
448,192,121058,128,0,121411:0:0:0:0:
192,192,121058,1,0,0:0:0:0:
192,192,121411,1,0,0:0:0:0:
320,192,121411,1,0,0:0:0:0:
64,192,121588,1,0,0:0:0:0:
448,192,121676,1,0,0:0:0:0:
192,192,121764,1,0,0:0:0:0:
64,192,121764,1,0,0:0:0:0:
320,192,121941,1,0,0:0:0:0:
448,192,122117,1,0,0:0:0:0:
320,192,122294,1,0,0:0:0:0:
192,192,122294,1,0,0:0:0:0:
64,192,122470,1,0,0:0:0:0:
448,192,122470,1,0,0:0:0:0:
192,192,122647,1,0,0:0:0:0:
448,192,122823,1,0,0:0:0:0:
320,192,122823,1,0,0:0:0:0:
192,192,122911,1,0,0:0:0:0:
64,192,122999,1,0,0:0:0:0:
192,192,123088,1,0,0:0:0:0:
320,192,123176,1,0,0:0:0:0:
448,192,123176,1,0,0:0:0:0:
192,192,123264,1,0,0:0:0:0:
64,192,123352,1,0,0:0:0:0:
448,192,123441,1,0,0:0:0:0:
192,192,123529,1,0,0:0:0:0:
64,192,123529,1,0,0:0:0:0:
320,192,123617,1,0,0:0:0:0:
448,192,123617,1,0,0:0:0:0:
192,192,123705,1,0,0:0:0:0:
64,192,123705,128,0,124235:0:0:0:0:
320,192,123794,1,0,0:0:0:0:
448,192,123882,1,0,0:0:0:0:
192,192,123970,1,0,0:0:0:0:
320,192,124058,1,0,0:0:0:0:
448,192,124147,1,0,0:0:0:0:
192,192,124235,1,0,0:0:0:0:
320,192,124235,1,0,0:0:0:0:
64,192,124411,1,0,0:0:0:0:
192,192,124499,1,0,0:0:0:0:
320,192,124588,1,0,0:0:0:0:
448,192,124764,1,0,0:0:0:0:
448,192,125117,1,0,0:0:0:0:
64,192,125294,1,0,0:0:0:0:
448,192,125647,1,0,0:0:0:0:
192,192,125823,1,0,0:0:0:0:
320,192,125999,1,0,0:0:0:0:
64,192,126176,1,0,0:0:0:0:
448,192,126264,1,0,0:0:0:0:
192,192,126352,1,0,0:0:0:0:
192,192,126529,1,0,0:0:0:0:
192,192,126705,1,0,0:0:0:0:
320,192,126882,1,0,0:0:0:0:
448,192,126970,1,0,0:0:0:0:
64,192,127058,1,0,0:0:0:0:
320,192,127235,1,0,0:0:0:0:
192,192,127323,1,0,0:0:0:0:
64,192,127411,1,0,0:0:0:0:
320,192,127588,1,0,0:0:0:0:
192,192,127764,1,0,0:0:0:0:
64,192,127941,1,0,0:0:0:0:
448,192,128117,1,0,0:0:0:0:
448,192,128470,1,0,0:0:0:0:
192,192,128558,1,0,0:0:0:0:
320,192,128647,1,0,0:0:0:0:
64,192,128735,1,0,0:0:0:0:
448,192,128823,1,0,0:0:0:0:
448,192,129176,1,0,0:0:0:0:
320,192,129352,1,0,0:0:0:0:
64,192,129529,1,0,0:0:0:0:
192,192,129617,1,0,0:0:0:0:
320,192,129705,1,0,0:0:0:0:
192,192,129794,1,0,0:0:0:0:
64,192,129882,1,0,0:0:0:0:
448,192,130058,1,0,0:0:0:0:
320,192,130147,1,0,0:0:0:0:
192,192,130235,1,0,0:0:0:0:
192,192,130411,1,0,0:0:0:0:
192,192,130764,1,0,0:0:0:0:
320,192,130941,1,0,0:0:0:0:
448,192,131294,1,0,0:0:0:0:
192,192,131470,1,0,0:0:0:0:
64,192,131647,1,0,0:0:0:0:
320,192,131823,1,0,0:0:0:0:
192,192,131911,1,0,0:0:0:0:
320,192,131999,128,0,132176:0:0:0:0:
448,192,132176,1,0,0:0:0:0:
192,192,132352,128,0,132705:0:0:0:0:
64,192,132352,1,0,0:0:0:0:
320,192,132705,1,0,0:0:0:0:
448,192,132882,1,0,0:0:0:0:
64,192,132970,1,0,0:0:0:0:
448,192,133058,1,0,0:0:0:0:
320,192,133235,1,0,0:0:0:0:
192,192,133411,1,0,0:0:0:0:
64,192,133588,1,0,0:0:0:0:
448,192,133764,1,0,0:0:0:0:
320,192,133941,1,0,0:0:0:0:
64,192,134117,1,0,0:0:0:0:
192,192,134205,1,0,0:0:0:0:
448,192,134294,1,0,0:0:0:0:
320,192,134382,1,0,0:0:0:0:
64,192,134470,1,0,0:0:0:0:
192,192,134558,1,0,0:0:0:0:
448,192,134647,1,0,0:0:0:0:
320,192,134735,1,0,0:0:0:0:
64,192,134823,1,0,0:0:0:0:
192,192,134867,1,0,0:0:0:0:
448,192,134911,1,0,0:0:0:0:
320,192,134955,1,0,0:0:0:0:
64,192,134999,1,0,0:0:0:0:
192,192,135044,1,0,0:0:0:0:
448,192,135088,1,0,0:0:0:0:
320,192,135132,1,0,0:0:0:0:
64,192,135176,1,0,0:0:0:0:
192,192,135220,1,0,0:0:0:0:
448,192,135264,1,0,0:0:0:0:
320,192,135308,1,0,0:0:0:0:
64,192,135352,1,0,0:0:0:0:
192,192,135397,1,0,0:0:0:0:
448,192,135441,1,0,0:0:0:0:
320,192,135485,1,0,0:0:0:0:
192,192,135529,1,0,0:0:0:0:
64,192,135529,1,0,0:0:0:0:
320,192,135617,1,0,0:0:0:0:
192,192,135705,1,0,0:0:0:0:
64,192,135705,1,0,0:0:0:0:
320,192,135794,1,0,0:0:0:0:
64,192,135882,1,0,0:0:0:0:
192,192,135882,1,0,0:0:0:0:
320,192,135970,1,0,0:0:0:0:
192,192,136058,1,0,0:0:0:0:
64,192,136058,1,0,0:0:0:0:
320,192,136147,1,0,0:0:0:0:
448,192,136235,1,0,0:0:0:0:
64,192,136235,1,0,0:0:0:0:
192,192,136323,1,0,0:0:0:0:
320,192,136411,1,0,0:0:0:0:
448,192,136411,1,0,0:0:0:0:
192,192,136499,1,0,0:0:0:0:
64,192,136588,1,0,0:0:0:0:
320,192,136588,1,0,0:0:0:0:
192,192,136676,1,0,0:0:0:0:
64,192,136764,1,0,0:0:0:0:
448,192,136764,1,0,0:0:0:0:
320,192,136852,1,0,0:0:0:0:
64,192,136941,1,0,0:0:0:0:
448,192,136941,1,0,0:0:0:0:
320,192,137029,1,0,0:0:0:0:
64,192,137117,1,0,0:0:0:0:
448,192,137117,1,0,0:0:0:0:
320,192,137205,1,0,0:0:0:0:
64,192,137294,1,0,0:0:0:0:
448,192,137294,1,0,0:0:0:0:
320,192,137382,1,0,0:0:0:0:
64,192,137470,1,0,0:0:0:0:
448,192,137470,1,0,0:0:0:0:
320,192,137558,1,0,0:0:0:0:
192,192,137647,1,0,0:0:0:0:
64,192,137647,1,0,0:0:0:0:
320,192,137735,1,0,0:0:0:0:
448,192,137823,1,0,0:0:0:0:
64,192,137823,1,0,0:0:0:0:
192,192,137911,1,0,0:0:0:0:
320,192,137999,1,0,0:0:0:0:
448,192,137999,1,0,0:0:0:0:
64,192,138088,1,0,0:0:0:0:
192,192,138176,1,0,0:0:0:0:
320,192,138176,1,0,0:0:0:0:
448,192,138264,1,0,0:0:0:0:
64,192,138352,1,0,0:0:0:0:
192,192,138352,1,0,0:0:0:0:
320,192,138441,1,0,0:0:0:0:
448,192,138441,1,0,0:0:0:0:
192,192,138529,1,0,0:0:0:0:
64,192,138529,1,0,0:0:0:0:
320,192,138617,1,0,0:0:0:0:
448,192,138617,1,0,0:0:0:0:
192,192,138705,1,0,0:0:0:0:
64,192,138705,1,0,0:0:0:0:
320,192,138794,1,0,0:0:0:0:
448,192,138794,1,0,0:0:0:0:
192,192,138882,1,0,0:0:0:0:
64,192,138882,1,0,0:0:0:0:
320,192,138970,1,0,0:0:0:0:
448,192,139058,1,0,0:0:0:0:
64,192,139058,1,0,0:0:0:0:
192,192,139147,1,0,0:0:0:0:
320,192,139147,1,0,0:0:0:0:
448,192,139235,1,0,0:0:0:0:
64,192,139235,1,0,0:0:0:0:
192,192,139323,1,0,0:0:0:0:
320,192,139323,1,0,0:0:0:0:
448,192,139411,1,0,0:0:0:0:
64,192,139411,1,0,0:0:0:0:
192,192,139499,1,0,0:0:0:0:
320,192,139499,1,0,0:0:0:0:
448,192,139588,1,0,0:0:0:0:
64,192,139588,1,0,0:0:0:0:
192,192,139676,1,0,0:0:0:0:
320,192,139764,1,0,0:0:0:0:
448,192,139764,1,0,0:0:0:0:
192,192,139852,1,0,0:0:0:0:
64,192,139852,1,0,0:0:0:0:
320,192,139941,1,0,0:0:0:0:
448,192,139941,1,0,0:0:0:0:
192,192,140029,1,0,0:0:0:0:
64,192,140029,1,0,0:0:0:0:
320,192,140117,1,0,0:0:0:0:
448,192,140117,1,0,0:0:0:0:
192,192,140205,1,0,0:0:0:0:
64,192,140205,1,0,0:0:0:0:
320,192,140294,1,0,0:0:0:0:
448,192,140294,1,0,0:0:0:0:
192,192,140382,1,0,0:0:0:0:
64,192,140382,1,0,0:0:0:0:
320,192,140470,1,0,0:0:0:0:
448,192,140470,1,0,0:0:0:0:
192,192,140558,1,0,0:0:0:0:
64,192,140647,1,0,0:0:0:0:
448,192,140735,1,0,0:0:0:0:
320,192,140735,1,0,0:0:0:0:
192,192,140823,1,0,0:0:0:0:
64,192,140911,1,0,0:0:0:0:
448,192,140999,1,0,0:0:0:0:
320,192,140999,1,0,0:0:0:0:
192,192,141088,1,0,0:0:0:0:
64,192,141176,1,0,0:0:0:0:
448,192,141176,1,0,0:0:0:0:
192,192,141264,1,0,0:0:0:0:
64,192,141352,1,0,0:0:0:0:
448,192,141352,1,0,0:0:0:0:
192,192,141441,1,0,0:0:0:0:
64,192,141529,1,0,0:0:0:0:
448,192,141529,1,0,0:0:0:0:
192,192,141617,1,0,0:0:0:0:
64,192,141705,1,0,0:0:0:0:
448,192,141705,1,0,0:0:0:0:
192,192,141794,1,0,0:0:0:0:
320,192,141882,1,0,0:0:0:0:
448,192,141882,1,0,0:0:0:0:
192,192,141970,1,0,0:0:0:0:
64,192,142058,1,0,0:0:0:0:
320,192,142058,1,0,0:0:0:0:
192,192,142147,1,0,0:0:0:0:
320,192,142235,1,0,0:0:0:0:
448,192,142235,1,0,0:0:0:0:
192,192,142323,1,0,0:0:0:0:
64,192,142411,1,0,0:0:0:0:
448,192,142411,1,0,0:0:0:0:
192,192,142499,1,0,0:0:0:0:
448,192,142588,1,0,0:0:0:0:
320,192,142588,1,0,0:0:0:0:
192,192,142676,1,0,0:0:0:0:
320,192,142764,1,0,0:0:0:0:
448,192,142764,1,0,0:0:0:0:
192,192,142852,1,0,0:0:0:0:
320,192,142941,1,0,0:0:0:0:
448,192,142941,1,0,0:0:0:0:
192,192,143029,1,0,0:0:0:0:
448,192,143117,1,0,0:0:0:0:
320,192,143117,1,0,0:0:0:0:
192,192,143205,1,0,0:0:0:0:
448,192,143294,1,0,0:0:0:0:
64,192,143294,128,0,143647:0:0:0:0:
320,192,143294,1,0,0:0:0:0:
192,192,143470,1,0,0:0:0:0:
448,192,143470,1,0,0:0:0:0:
448,192,143647,128,0,143999:0:0:0:0:
320,192,143647,1,0,0:0:0:0:
192,192,143647,1,0,0:0:0:0:
64,192,143823,1,0,0:0:0:0:
192,192,143823,1,0,0:0:0:0:
64,192,143999,1,0,0:0:0:0:
192,192,143999,1,0,0:0:0:0:
320,192,144088,1,0,0:0:0:0:
448,192,144088,1,0,0:0:0:0:
64,192,144176,1,0,0:0:0:0:
192,192,144176,1,0,0:0:0:0:
320,192,144264,1,0,0:0:0:0:
448,192,144264,1,0,0:0:0:0:
64,192,144352,1,0,0:0:0:0:
192,192,144352,1,0,0:0:0:0:
448,192,144441,1,0,0:0:0:0:
320,192,144441,1,0,0:0:0:0:
64,192,144529,1,0,0:0:0:0:
192,192,144529,1,0,0:0:0:0:
320,192,144617,1,0,0:0:0:0:
448,192,144705,1,0,0:0:0:0:
64,192,144705,1,0,0:0:0:0:
192,192,144794,1,0,0:0:0:0:
320,192,144794,1,0,0:0:0:0:
448,192,144882,1,0,0:0:0:0:
64,192,144882,1,0,0:0:0:0:
192,192,144970,1,0,0:0:0:0:
320,192,144970,1,0,0:0:0:0:
448,192,145058,1,0,0:0:0:0:
64,192,145058,1,0,0:0:0:0:
192,192,145147,1,0,0:0:0:0:
320,192,145147,1,0,0:0:0:0:
448,192,145235,1,0,0:0:0:0:
64,192,145235,1,0,0:0:0:0:
192,192,145323,1,0,0:0:0:0:
320,192,145411,1,0,0:0:0:0:
448,192,145411,1,0,0:0:0:0:
192,192,145499,1,0,0:0:0:0:
64,192,145499,1,0,0:0:0:0:
320,192,145588,1,0,0:0:0:0:
448,192,145588,1,0,0:0:0:0:
192,192,145676,1,0,0:0:0:0:
64,192,145676,1,0,0:0:0:0:
320,192,145764,1,0,0:0:0:0:
448,192,145764,1,0,0:0:0:0:
192,192,145852,1,0,0:0:0:0:
64,192,145852,1,0,0:0:0:0:
320,192,145941,1,0,0:0:0:0:
448,192,145941,1,0,0:0:0:0:
192,192,146029,1,0,0:0:0:0:
64,192,146117,1,0,0:0:0:0:
448,192,146117,1,0,0:0:0:0:
320,192,146205,1,0,0:0:0:0:
192,192,146294,1,0,0:0:0:0:
64,192,146294,1,0,0:0:0:0:
320,192,146382,1,0,0:0:0:0:
448,192,146470,1,0,0:0:0:0:
320,192,146514,1,0,0:0:0:0:
64,192,146558,1,0,0:0:0:0:
192,192,146602,1,0,0:0:0:0:
448,192,146647,1,0,0:0:0:0:
320,192,146691,1,0,0:0:0:0:
64,192,146735,1,0,0:0:0:0:
192,192,146779,1,0,0:0:0:0:
448,192,146823,1,0,0:0:0:0:
320,192,146823,1,0,0:0:0:0:
192,192,146911,1,0,0:0:0:0:
320,192,146999,1,0,0:0:0:0:
448,192,146999,1,0,0:0:0:0:
192,192,147088,1,0,0:0:0:0:
448,192,147176,1,0,0:0:0:0:
320,192,147176,1,0,0:0:0:0:
192,192,147264,1,0,0:0:0:0:
320,192,147352,1,0,0:0:0:0:
448,192,147352,1,0,0:0:0:0:
192,192,147441,1,0,0:0:0:0:
64,192,147529,1,0,0:0:0:0:
448,192,147529,1,0,0:0:0:0:
320,192,147617,1,0,0:0:0:0:
64,192,147705,1,0,0:0:0:0:
192,192,147705,1,0,0:0:0:0:
320,192,147794,1,0,0:0:0:0:
448,192,147882,1,0,0:0:0:0:
192,192,147882,1,0,0:0:0:0:
320,192,147970,1,0,0:0:0:0:
64,192,148058,1,0,0:0:0:0:
448,192,148058,1,0,0:0:0:0:
192,192,148147,1,0,0:0:0:0:
64,192,148235,1,0,0:0:0:0:
448,192,148235,1,0,0:0:0:0:
192,192,148323,1,0,0:0:0:0:
64,192,148411,1,0,0:0:0:0:
448,192,148411,1,0,0:0:0:0:
192,192,148499,1,0,0:0:0:0:
448,192,148588,1,0,0:0:0:0:
64,192,148588,1,0,0:0:0:0:
192,192,148676,1,0,0:0:0:0:
64,192,148764,1,0,0:0:0:0:
448,192,148764,1,0,0:0:0:0:
192,192,148852,1,0,0:0:0:0:
448,192,148941,1,0,0:0:0:0:
320,192,148941,1,0,0:0:0:0:
192,192,149029,1,0,0:0:0:0:
448,192,149117,1,0,0:0:0:0:
64,192,149117,1,0,0:0:0:0:
320,192,149205,1,0,0:0:0:0:
192,192,149294,1,0,0:0:0:0:
64,192,149294,1,0,0:0:0:0:
448,192,149382,1,0,0:0:0:0:
320,192,149470,1,0,0:0:0:0:
192,192,149470,1,0,0:0:0:0:
64,192,149558,1,0,0:0:0:0:
320,192,149647,1,0,0:0:0:0:
448,192,149647,1,0,0:0:0:0:
192,192,149735,1,0,0:0:0:0:
64,192,149735,1,0,0:0:0:0:
448,192,149823,1,0,0:0:0:0:
320,192,149823,1,0,0:0:0:0:
64,192,149911,1,0,0:0:0:0:
192,192,149911,1,0,0:0:0:0:
320,192,149999,1,0,0:0:0:0:
448,192,149999,1,0,0:0:0:0:
192,192,150088,1,0,0:0:0:0:
64,192,150088,1,0,0:0:0:0:
320,192,150176,1,0,0:0:0:0:
448,192,150176,1,0,0:0:0:0:
192,192,150264,1,0,0:0:0:0:
448,192,150352,1,0,0:0:0:0:
64,192,150352,1,0,0:0:0:0:
192,192,150441,1,0,0:0:0:0:
320,192,150441,1,0,0:0:0:0:
448,192,150529,1,0,0:0:0:0:
64,192,150529,1,0,0:0:0:0:
320,192,150617,1,0,0:0:0:0:
192,192,150617,1,0,0:0:0:0:
64,192,150705,1,0,0:0:0:0:
448,192,150705,1,0,0:0:0:0:
320,192,150794,1,0,0:0:0:0:
192,192,150794,1,0,0:0:0:0:
64,192,150882,1,0,0:0:0:0:
448,192,150882,1,0,0:0:0:0:
320,192,150970,1,0,0:0:0:0:
64,192,151058,1,0,0:0:0:0:
192,192,151058,1,0,0:0:0:0:
448,192,151147,1,0,0:0:0:0:
320,192,151147,1,0,0:0:0:0:
192,192,151235,1,0,0:0:0:0:
64,192,151235,1,0,0:0:0:0:
320,192,151323,1,0,0:0:0:0:
448,192,151323,1,0,0:0:0:0:
192,192,151411,1,0,0:0:0:0:
64,192,151411,1,0,0:0:0:0:
320,192,151499,1,0,0:0:0:0:
448,192,151499,1,0,0:0:0:0:
64,192,151588,1,0,0:0:0:0:
192,192,151588,1,0,0:0:0:0:
320,192,151676,1,0,0:0:0:0:
448,192,151676,1,0,0:0:0:0:
64,192,151764,1,0,0:0:0:0:
192,192,151764,1,0,0:0:0:0:
320,192,151852,1,0,0:0:0:0:
448,192,151941,1,0,0:0:0:0:
192,192,152029,1,0,0:0:0:0:
64,192,152029,1,0,0:0:0:0:
320,192,152117,1,0,0:0:0:0:
448,192,152205,1,0,0:0:0:0:
64,192,152294,1,0,0:0:0:0:
192,192,152294,1,0,0:0:0:0:
320,192,152382,1,0,0:0:0:0:
448,192,152470,1,0,0:0:0:0:
64,192,152470,1,0,0:0:0:0:
320,192,152558,1,0,0:0:0:0:
448,192,152647,1,0,0:0:0:0:
64,192,152647,1,0,0:0:0:0:
320,192,152735,1,0,0:0:0:0:
448,192,152823,1,0,0:0:0:0:
64,192,152823,1,0,0:0:0:0:
320,192,152911,1,0,0:0:0:0:
448,192,152999,1,0,0:0:0:0:
64,192,152999,1,0,0:0:0:0:
320,192,153088,1,0,0:0:0:0:
192,192,153176,1,0,0:0:0:0:
64,192,153176,1,0,0:0:0:0:
320,192,153264,1,0,0:0:0:0:
448,192,153352,1,0,0:0:0:0:
192,192,153352,1,0,0:0:0:0:
320,192,153441,1,0,0:0:0:0:
192,192,153529,1,0,0:0:0:0:
64,192,153529,1,0,0:0:0:0:
320,192,153617,1,0,0:0:0:0:
448,192,153705,1,0,0:0:0:0:
64,192,153705,1,0,0:0:0:0:
320,192,153794,1,0,0:0:0:0:
64,192,153882,1,0,0:0:0:0:
192,192,153882,1,0,0:0:0:0:
320,192,153970,1,0,0:0:0:0:
192,192,154058,1,0,0:0:0:0:
64,192,154058,1,0,0:0:0:0:
320,192,154147,1,0,0:0:0:0:
192,192,154235,1,0,0:0:0:0:
64,192,154235,1,0,0:0:0:0:
320,192,154323,1,0,0:0:0:0:
64,192,154411,1,0,0:0:0:0:
192,192,154411,1,0,0:0:0:0:
320,192,154499,1,0,0:0:0:0:
64,192,154588,1,0,0:0:0:0:
448,192,154588,128,0,154941:0:0:0:0:
192,192,154588,1,0,0:0:0:0:
320,192,154764,1,0,0:0:0:0:
64,192,154764,1,0,0:0:0:0:
192,192,154941,1,0,0:0:0:0:
320,192,154941,1,0,0:0:0:0:
64,192,154941,128,0,155294:0:0:0:0:
448,192,155117,1,0,0:0:0:0:
320,192,155117,1,0,0:0:0:0:
448,192,155294,1,0,0:0:0:0:
320,192,155294,1,0,0:0:0:0:
192,192,155382,1,0,0:0:0:0:
64,192,155382,1,0,0:0:0:0:
448,192,155470,1,0,0:0:0:0:
320,192,155470,1,0,0:0:0:0:
192,192,155558,1,0,0:0:0:0:
64,192,155558,1,0,0:0:0:0:
448,192,155647,1,0,0:0:0:0:
320,192,155647,1,0,0:0:0:0:
64,192,155735,1,0,0:0:0:0:
192,192,155735,1,0,0:0:0:0:
448,192,155823,1,0,0:0:0:0:
320,192,155823,1,0,0:0:0:0:
192,192,155911,1,0,0:0:0:0:
64,192,155999,1,0,0:0:0:0:
448,192,155999,1,0,0:0:0:0:
320,192,156088,1,0,0:0:0:0:
192,192,156088,1,0,0:0:0:0:
64,192,156176,1,0,0:0:0:0:
448,192,156176,1,0,0:0:0:0:
320,192,156264,1,0,0:0:0:0:
192,192,156264,1,0,0:0:0:0:
64,192,156352,1,0,0:0:0:0:
448,192,156352,1,0,0:0:0:0:
320,192,156441,1,0,0:0:0:0:
192,192,156441,1,0,0:0:0:0:
64,192,156529,1,0,0:0:0:0:
448,192,156529,1,0,0:0:0:0:
320,192,156617,1,0,0:0:0:0:
192,192,156705,1,0,0:0:0:0:
64,192,156705,1,0,0:0:0:0:
320,192,156794,1,0,0:0:0:0:
448,192,156794,1,0,0:0:0:0:
192,192,156882,1,0,0:0:0:0:
64,192,156882,1,0,0:0:0:0:
320,192,156970,1,0,0:0:0:0:
448,192,156970,1,0,0:0:0:0:
192,192,157058,1,0,0:0:0:0:
64,192,157058,1,0,0:0:0:0:
320,192,157147,1,0,0:0:0:0:
448,192,157147,1,0,0:0:0:0:
192,192,157235,1,0,0:0:0:0:
64,192,157235,1,0,0:0:0:0:
320,192,157323,1,0,0:0:0:0:
448,192,157411,1,0,0:0:0:0:
64,192,157411,1,0,0:0:0:0:
192,192,157499,1,0,0:0:0:0:
320,192,157588,1,0,0:0:0:0:
448,192,157588,1,0,0:0:0:0:
192,192,157676,1,0,0:0:0:0:
64,192,157764,1,0,0:0:0:0:
192,192,157808,1,0,0:0:0:0:
448,192,157852,1,0,0:0:0:0:
320,192,157897,1,0,0:0:0:0:
64,192,157941,1,0,0:0:0:0:
192,192,157985,1,0,0:0:0:0:
448,192,158029,1,0,0:0:0:0:
320,192,158073,1,0,0:0:0:0:
192,192,158117,128,0,169058:0:0:0:0:
