osu file format v14

[General]
AudioFilename: audio.mp3
AudioLeadIn: 0
PreviewTime: 43430
Countdown: 0
SampleSet: Soft
StackLeniency: 0.2
Mode: 0
LetterboxInBreaks: 0
WidescreenStoryboard: 0

[Editor]
Bookmarks: 17373,22858,33830,44801,55773,57658,66744,77716,88687,99658,105144,107887,121601,143544,154687
DistanceSpacing: 2
BeatDivisor: 4
GridSize: 32
TimelineZoom: 2.699999

[Metadata]
Title:Tokyo (Innovaderz Remix)
TitleUnicode:Tokyo (Innovaderz Remix)
Artist:DJ Ozawa
ArtistUnicode:DJ Ozawa
Creator:ksg
Version:dfsdfasdfas
Source:
Tags:
BeatmapID:1679506
BeatmapSetID:799987

[Difficulty]
HPDrainRate:5
CircleSize:4
OverallDifficulty:8
ApproachRate:9.2
SliderMultiplier:1.7
SliderTickRate:1

[Events]
//Background and Video events
0,0,"884131.jpg",0,0
//Break Periods
2,23058,33080
2,110830,120680
//Storyboard Layer 0 (Background)
//Storyboard Layer 1 (Fail)
//Storyboard Layer 2 (Pass)
//Storyboard Layer 3 (Foreground)
//Storyboard Sound Samples

[TimingPoints]
916,342.857142857143,4,2,1,60,1,0
1258,-133.333333333333,4,2,1,60,0,0
2116,-200,4,2,1,60,0,0
3316,-133.333333333333,4,2,1,60,0,0
7601,-200,4,2,1,60,0,0
8801,-133.333333333333,4,2,1,60,0,0
13087,-200,4,2,1,60,0,0
14287,-133.333333333333,4,2,1,60,0,0
18573,-200,4,2,1,60,0,0
19773,-133.333333333333,4,2,1,60,0,0
33830,-100,4,2,1,60,0,0
43087,-100,4,2,1,40,0,0
43430,-100,4,2,0,60,0,0
44687,-100,4,2,1,5,0,0
44801,-75.187969924812,4,2,1,60,0,0
77716,-75.187969924812,4,2,2,60,0,1
88001,-75.187969924812,4,2,1,60,0,0
88687,-75.187969924812,4,2,1,60,0,1
88773,-75.187969924812,4,2,1,60,0,0
99658,-75.187969924812,4,2,2,60,0,1
103773,-75.187969924812,4,2,2,40,0,0
105144,-75.187969924812,4,2,2,60,0,1
108573,-75.187969924812,4,2,1,60,0,1
109258,-75.187969924812,4,2,2,60,0,1
110544,-75.187969924812,4,2,2,60,0,0
110630,-75.187969924812,4,2,1,60,0,1
110716,-75.187969924812,4,2,1,60,0,0
121944,-133.333333333333,4,2,1,60,0,0
122801,-200,4,2,1,60,0,0
124001,-133.333333333333,4,2,1,60,0,0
128287,-200,4,2,1,60,0,0
129487,-133.333333333333,4,2,1,60,0,0
133773,-200,4,2,1,60,0,0
134973,-133.333333333333,4,2,1,60,0,0
139258,-200,4,2,1,60,0,0
140458,-133.333333333333,4,2,1,60,0,0
143544,-75.187969924812,4,2,1,60,0,0
154344,-75.187969924812,4,2,0,60,0,0
154401,-75.187969924812,4,2,1,5,0,0
154516,-75.187969924812,4,2,1,60,0,0

[HitObjects]
135,109,744,5,2,0:0:0:0:
143,118,915,6,0,L|145:218,1,85,6|0,0:0|0:0,0:0:0:0:
148,348,1258,2,0,P|190:328|221:330,1,63.7500024318696
281,262,1601,2,0,P|323:282|354:280,1,63.7500024318696
448,268,1944,1,0,0:0:0:0:
334,202,2116,6,0,P|376:134|379:213,1,212.5
212,191,3316,2,0,P|175:184|140:195,1,63.7500024318696
63,307,3658,6,0,P|84:260|73:186,1,127.500004863739
127,3,4173,2,0,P|106:50|117:124,1,127.500004863739
212,191,4687,2,0,P|242:198|273:192,1,63.7500024318696
340,139,5030,2,0,L|344:91,1,31.8750012159348
400,198,5201,2,0,P|433:204|492:280,1,127.500004863739
440,344,5716,6,0,L|347:332,1,63.7500024318696
348,349,5973,2,0,L|253:336,1,95.6250036478044
102,317,6401,5,0,0:0:0:0:
186,252,6744,2,0,P|199:215|199:178,1,63.7500024318696
121,136,7087,2,0,P|108:99|108:62,1,63.7500024318696
163,4,7430,1,0,0:0:0:0:
200,87,7601,6,0,P|250:116|232:23,1,212.5
337,164,8801,2,0,P|374:161|409:148,1,63.7500024318696
498,29,9144,6,0,P|479:71|482:150,1,127.500004863739
455,344,9658,2,0,P|462:282|440:223,1,127.500004863739
337,164,10173,2,0,P|305:165|274:175,1,63.7500024318696
203,225,10516,6,0,L|194:308,2,63.7500024318696
119,169,11030,2,0,L|112:105,1,63.7500024318696
112,105,11287,1,0,0:0:0:0:
112,105,11373,1,0,0:0:0:0:
203,68,11544,2,0,L|209:4,1,63.7500024318696
26,144,11887,5,0,0:0:0:0:
59,249,12230,6,0,P|102:257|142:255,1,63.7500024318696
203,151,12573,2,0,P|246:143|286:145,1,63.7500024318696
347,212,12916,1,0,0:0:0:0:
280,249,13087,6,0,P|261:326|341:283,1,212.5
173,222,14287,2,0,P|138:238|114:269,1,63.7500024318696
34,363,14630,6,0,P|44:322|31:239,1,127.500004863739
91,174,15144,2,0,P|81:133|94:50,1,127.500004863739
201,116,15658,2,0,P|247:125|282:113,1,63.7500024318696
338,73,16001,2,0,L|332:27,1,31.8750012159348
355,156,16173,2,0,P|401:147|436:159,1,63.7500024318696
491,202,16516,1,0,0:0:0:0:
442,267,16687,6,0,L|349:255,1,63.7500024318696
344,276,16944,2,0,L|249:263,1,95.6250036478044
64,240,17373,1,0,0:0:0:0:
135,341,17716,6,0,P|174:337|205:316,1,63.7500024318696
237,188,18058,2,0,P|276:192|307:213,1,63.7500024318696
401,333,18401,1,0,0:0:0:0:
271,358,18573,6,0,P|244:296|313:346,1,212.5
168,231,19773,2,0,P|155:193|160:153,1,63.7500024318696
236,2,20116,6,0,P|255:52|232:190,1,191.250007295609
58,101,20801,2,0,P|97:86|190:101,1,127.500004863739
454,101,21487,2,0,P|415:86|322:101,1,127.500004863739
370,246,22001,2,0,P|384:214|389:166,1,63.7500024318696
388,185,22258,1,0,0:0:0:0:
388,185,22344,1,0,0:0:0:0:
256,108,22516,1,0,0:0:0:0:
256,344,22858,5,4,0:1:0:0:
146,75,33830,5,2,0:0:0:0:
189,269,34173,1,2,0:0:0:0:
224,149,34344,1,0,0:0:0:0:
253,353,34516,6,0,P|317:359|363:343,1,85,2|0,0:0|0:0,0:0:0:0:
389,239,34858,1,2,0:0:0:0:
347,233,34943,1,0,0:0:0:0:
305,240,35029,1,0,0:0:0:0:
453,328,35201,5,2,0:0:0:0:
352,89,35544,1,2,0:0:0:0:
305,240,35716,1,0,0:0:0:0:
512,96,35887,6,0,P|462:90|416:96,1,85,2|0,0:0|0:0,0:0:0:0:
327,160,36230,1,2,0:0:0:0:
284,165,36315,1,0,0:0:0:0:
242,162,36401,1,0,0:0:0:0:
139,96,36573,5,2,0:0:0:0:
35,325,36916,1,2,0:0:0:0:
16,159,37087,1,0,0:0:0:0:
177,222,37258,6,0,P|182:280|165:328,1,85,2|0,0:0|0:0,0:0:0:0:
32,143,37601,1,2,0:0:0:0:
24,101,37686,1,0,0:0:0:0:
30,59,37772,1,0,0:0:0:0:
67,256,37944,5,2,0:0:0:0:
399,294,38287,1,2,0:0:0:0:
259,193,38458,1,0,0:0:0:0:
236,364,38630,2,0,P|283:327|321:263,1,127.5,2|0,0:0|0:0,0:0:0:0:
361,191,38973,2,0,P|383:152|435:118,1,85,2|0,0:0|0:0,0:0:0:0:
493,103,39316,5,2,0:0:0:0:
463,226,39487,1,2,0:0:0:0:
366,29,39658,5,2,0:0:0:0:
361,191,39830,1,2,0:0:0:0:
256,0,40001,5,2,0:0:0:0:
256,180,40173,1,2,0:0:0:0:
146,29,40344,5,2,0:0:0:0:
151,191,40516,1,2,0:0:0:0:
19,103,40687,5,2,0:0:0:0:
49,226,40858,1,2,0:0:0:0:
194,101,41030,5,2,0:0:0:0:
109,282,41201,1,2,0:0:0:0:
361,191,41373,5,2,0:0:0:0:
151,191,41544,1,2,0:0:0:0:
403,282,41716,5,2,0:0:0:0:
318,101,41887,1,2,0:0:0:0:
484,140,42058,5,2,0:0:0:0:
491,167,42143,1,2,0:0:0:0:
491,195,42229,1,2,0:0:0:0:
483,222,42315,1,2,0:0:0:0:
403,282,42401,5,2,0:0:0:0:
395,255,42487,1,2,0:0:0:0:
395,227,42573,1,2,0:0:0:0:
403,200,42658,1,2,0:0:0:0:
489,306,42744,5,2,0:0:0:0:
451,356,42829,1,2,0:0:0:0:
391,369,42915,1,2,0:0:0:0:
336,339,43001,1,2,0:0:0:0:
315,280,43087,2,2,L|320:245,6,21.25
332,166,43430,5,2,0:3:0:0:
360,37,44630,2,0,L|365:3,1,28.3333333333333,2|0,0:3|0:3,0:3:0:0:
332,166,44801,6,0,P|263:176|202:151,1,113.049995342484,6|0,0:0|0:0,0:0:0:0:
141,78,45144,1,8,0:0:0:0:
424,166,45316,1,2,0:3:0:0:
427,193,45401,1,2,0:3:0:0:
422,221,45487,1,2,0:3:0:0:
336,302,45658,1,2,0:0:0:0:
377,72,45830,2,0,P|446:62|507:87,1,113.049995342484,8|0,0:0|0:0,0:0:0:0:
222,163,46173,6,0,L|212:32,1,113.049995342484,2|0,0:0|0:0,0:0:0:0:
231,279,46516,1,8,0:0:0:0:
32,100,46687,1,2,3:0:0:0:
57,88,46772,1,2,3:0:0:0:
84,80,46858,1,2,3:0:0:0:
112,77,46944,1,2,3:0:0:0:
141,78,47029,1,2,0:0:0:0:
344,189,47201,2,0,L|335:301,1,113.049995342484,8|0,0:0|0:0,0:0:0:0:
265,102,47544,6,0,P|319:90|374:103,1,113.049995342484,2|0,0:0|0:0,0:0:0:0:
153,164,47887,1,8,0:0:0:0:
335,301,48058,1,2,0:3:0:0:
362,304,48143,1,2,0:3:0:0:
390,301,48229,1,2,0:3:0:0:
250,188,48401,1,2,0:0:0:0:
164,339,48573,2,0,P|109:351|54:338,1,113.049995342484,8|0,0:0|0:0,0:0:0:0:
261,269,48916,6,0,L|250:389,1,113.049995342484,2|0,0:0|0:0,0:0:0:0:
166,197,49258,1,8,0:0:0:0:
329,153,49430,1,0,0:0:0:0:
141,72,49601,2,0,L|155:139,1,56.5249976712419,2|2,0:3|0:3,0:0:0:0:
186,266,49773,1,2,0:0:0:0:
263,72,49944,1,8,0:0:0:0:
408,240,50115,5,2,0:3:0:0:
408,240,50201,1,2,0:3:0:0:
408,240,50287,2,0,B|460:259|460:259|515:246,1,113.049995342484,2|0,0:0|0:0,0:0:0:0:
263,72,50630,1,8,0:0:0:0:
293,318,50801,1,0,0:0:0:0:
471,138,50973,2,0,B|419:119|419:119|364:132,1,113.049995342484,0|2,0:0|0:0,0:0:0:0:
153,187,51316,1,8,0:0:0:0:
293,318,51487,5,2,0:3:0:0:
293,318,51573,1,2,0:3:0:0:
293,318,51658,2,0,B|309:263|309:263|294:205,1,113.049995342484,2|0,0:0|0:0,0:0:0:0:
226,5,52001,1,8,0:0:0:0:
186,266,52173,1,0,0:0:0:0:
121,108,52344,2,0,B|105:53|105:53|118:0,1,113.049995342484,0|2,0:0|0:0,0:0:0:0:
362,132,52687,1,8,0:0:0:0:
95,356,52858,5,2,0:3:0:0:
91,327,52943,1,2,0:3:0:0:
88,299,53030,2,0,L|70:155,1,113.049995342484,2|0,0:0|0:0,0:0:0:0:
438,186,53373,2,0,L|424:299,1,113.049995342484,8|0,0:0|0:0,0:0:0:0:
158,213,53716,5,0,0:0:0:0:
200,31,53887,1,2,0:0:0:0:
354,213,54058,1,8,0:0:0:0:
312,31,54229,1,0,0:0:0:0:
172,302,54401,6,0,L|284:289,1,113.049995342484,8|0,0:0|0:0,0:0:0:0:
299,302,54658,1,2,0:3:0:0:
313,314,54744,2,0,L|369:307,1,56.5249976712419,2|0,0:3|0:0,0:0:0:0:
493,159,54916,6,0,L|380:146,1,113.049995342484,8|2,0:0|0:0,0:0:0:0:
366,159,55173,1,2,0:3:0:0:
352,171,55259,2,0,L|295:164,1,56.5249976712419,2|0,0:3|0:0,0:0:0:0:
76,146,55430,1,8,0:0:0:0:
221,0,55601,2,2,L|216:32,3,28.2624988356209
196,144,55773,6,0,L|178:269,1,113.049995342484,6|0,0:0|0:0,0:0:0:0:
411,225,56116,1,8,0:0:0:0:
312,31,56287,1,2,3:0:0:0:
307,58,56372,1,2,3:0:0:0:
303,86,56458,1,2,3:0:0:0:
269,301,56630,1,2,0:0:0:0:
493,159,56801,2,0,L|476:47,1,113.049995342484,8|0,0:0|0:0,0:0:0:0:
378,325,57144,6,0,P|432:336|484:317,1,113.049995342484,2|0,0:0|0:0,0:0:0:0:
371,147,57487,1,8,0:0:0:0:
243,321,57658,5,0,0:0:0:0:
204,338,57743,1,0,0:0:0:0:
162,340,57829,1,0,0:0:0:0:
121,328,57915,1,0,0:0:0:0:
88,303,58000,1,0,0:0:0:0:
220,145,58173,1,8,0:0:0:0:
310,369,58344,1,0,0:0:0:0:
69,264,58516,6,0,L|65:126,1,113.049995342484,2|0,0:0|0:0,0:0:0:0:
263,240,58858,1,8,0:0:0:0:
177,33,59030,1,2,0:3:0:0:
175,61,59115,1,2,0:3:0:0:
174,89,59201,1,2,0:3:0:0:
154,271,59373,1,2,0:0:0:0:
316,67,59544,1,8,0:0:0:0:
405,302,59716,2,0,L|334:293,1,56.5249976712419,2|2,0:3|0:3,0:0:0:0:
203,171,59887,6,0,P|259:155|327:171,1,113.049995342484,2|0,0:0|0:0,0:0:0:0:
100,332,60230,1,8,0:0:0:0:
46,159,60401,2,0,P|74:159|101:165,1,56.5249976712419,2|2,0:3|0:3,0:3:0:0:
174,89,60573,2,0,P|202:88|229:82,1,56.5249976712419,2|2,0:3|0:3,0:3:0:0:
312,163,60744,1,2,0:0:0:0:
446,64,60916,1,8,0:0:0:0:
405,302,61087,1,0,0:0:0:0:
446,64,61258,6,0,B|392:46|392:46|328:55,1,113.049995342484,2|0,0:0|0:0,0:0:0:0:
127,98,61601,1,8,0:0:0:0:
413,205,61773,1,0,0:0:0:0:
117,246,61944,2,0,B|171:264|171:264|235:255,1,113.049995342484,0|2,0:0|0:0,0:0:0:0:
449,195,62287,1,8,0:0:0:0:
263,29,62458,5,2,0:3:0:0:
259,56,62543,1,2,0:3:0:0:
255,84,62630,2,0,B|249:140|249:140|272:201,1,113.049995342484,2|0,0:0|0:0,0:0:0:0:
356,338,62973,1,8,0:0:0:0:
385,121,63144,1,0,0:0:0:0:
486,368,63316,2,0,B|506:315|506:315|500:258,1,113.049995342484,0|2,0:0|0:0,0:0:0:0:
479,45,63658,1,8,0:0:0:0:
393,304,63830,5,2,0:3:0:0:
364,300,63915,1,2,0:3:0:0:
336,296,64001,2,0,L|201:312,1,113.049995342484,2|0,0:0|0:0,0:0:0:0:
96,134,64344,2,0,L|208:147,1,113.049995342484,8|0,0:0|0:0,0:0:0:0:
443,172,64687,1,0,0:0:0:0:
302,358,64858,1,2,0:0:0:0:
256,88,65030,1,8,0:0:0:0:
112,274,65201,2,0,L|102:199,1,56.5249976712419,2|2,0:3|0:3,0:0:0:0:
80,28,65373,5,8,0:3:0:0:
114,12,65458,1,8,0:3:0:0:
151,8,65544,1,8,0:3:0:0:
188,13,65630,1,8,0:3:0:0:
256,88,65716,5,4,0:3:0:0:
222,103,65801,1,4,0:3:0:0:
185,108,65887,1,4,0:3:0:0:
147,103,65973,1,4,0:3:0:0:
272,7,66058,5,4,0:3:0:0:
319,34,66143,1,4,0:3:0:0:
339,86,66229,1,4,0:3:0:0:
321,139,66315,1,4,0:3:0:0:
275,169,66400,1,4,0:3:0:0:
227,196,66487,1,4,0:3:0:0:
207,248,66573,1,4,0:3:0:0:
225,301,66659,1,4,0:3:0:0:
271,331,66744,6,0,B|351:314|351:314|389:331|389:331|485:317,1,169.574993013726,6|0,0:0|0:0,0:0:0:0:
468,319,67087,5,8,0:0:0:0:
491,204,67258,1,0,0:0:0:0:
380,92,67430,5,0,0:0:0:0:
403,207,67601,1,2,0:0:0:0:
298,280,67773,5,8,0:0:0:0:
321,165,67944,1,0,0:0:0:0:
147,103,68116,6,0,B|98:123|91:178|91:178|103:144|143:130,1,169.574993013726,2|0,0:0|0:0,0:0:0:0:
161,203,68458,5,8,0:0:0:0:
21,178,68630,1,0,0:0:0:0:
100,279,68801,5,0,0:0:0:0:
240,254,68973,1,2,0:0:0:0:
222,125,69144,5,8,0:0:0:0:
82,100,69316,1,0,0:0:0:0:
186,324,69487,5,2,0:0:0:0:
273,335,69658,1,0,0:0:0:0:
326,265,69830,1,8,0:0:0:0:
291,184,70001,1,0,0:0:0:0:
240,254,70173,5,0,0:0:0:0:
372,193,70344,1,2,0:0:0:0:
458,326,70516,5,8,0:0:0:0:
326,265,70687,1,0,0:0:0:0:
358,53,70858,6,0,B|357:26|376:11|376:11|397:72|335:122,1,169.574993013726,2|0,0:0|0:0,0:0:0:0:
213,145,71201,5,8,0:0:0:0:
256,1,71373,1,0,0:0:0:0:
145,82,71544,5,0,0:0:0:0:
188,226,71716,1,2,0:0:0:0:
77,145,71887,5,8,0:0:0:0:
120,1,72059,1,0,0:0:0:0:
334,146,72230,6,0,B|321:212|321:212|337:249|337:249|322:332,1,169.574993013726,2|0,0:0|0:0,0:0:0:0:
312,384,72573,5,8,0:0:0:0:
256,259,72744,1,0,0:0:0:0:
456,197,72916,5,0,0:0:0:0:
434,332,73087,1,2,0:0:0:0:
224,358,73258,5,8,0:0:0:0:
168,233,73429,1,0,0:0:0:0:
346,116,73601,6,0,P|338:179|309:122,1,169.574993013726,2|0,0:0|0:0,0:0:0:0:
416,72,73944,5,8,0:0:0:0:
379,197,74116,1,0,0:0:0:0:
211,151,74287,5,0,0:0:0:0:
174,26,74459,1,2,0:0:0:0:
309,122,74630,5,8,0:0:0:0:
272,247,74802,1,0,0:0:0:0:
144,187,74973,6,0,P|140:123|236:79,1,169.574993013726,2|0,0:0|0:0,0:0:0:0:
135,264,75316,2,0,P|105:253|81:232,1,56.5249976712419,8|0,0:0|0:0,0:0:0:0:
223,75,75487,5,2,0:3:0:0:
249,84,75572,1,2,0:3:0:0:
271,101,75658,1,2,0:3:0:0:
45,165,75830,1,2,0:0:0:0:
113,40,76001,5,8,0:0:0:0:
211,277,76173,2,0,P|209:236|212:199,1,56.5249976712419,2|2,0:3|0:3,0:3:0:0:
284,82,76344,5,8,0:0:0:0:
38,242,76516,1,2,0:0:0:0:
149,119,76687,6,0,P|191:113|220:113,1,56.5249976712419,8|0,0:0|0:0,0:0:0:0:
359,127,76858,2,0,P|385:135|411:147,1,56.5249976712419,2|0,0:0|0:0,0:0:0:0:
501,259,77030,6,0,P|459:253|430:253,1,56.5249976712419,2|0,0:3|0:3,0:3:0:0:
291,267,77201,2,0,P|264:275|238:287,1,56.5249976712419,2|0,0:3|0:3,0:3:0:0:
119,376,77373,6,0,L|106:296,1,56.5249976712419,8|0,0:0|0:0,0:0:0:0:
92,184,77544,2,2,L|87:147,3,28.2624988356209
152,245,77716,5,2,0:3:0:0:
290,155,77887,1,2,0:3:0:0:
211,185,78058,5,2,0:3:0:0:
374,162,78230,1,2,0:3:0:0:
290,155,78401,5,2,0:3:0:0:
447,202,78573,1,2,0:3:0:0:
374,162,78744,5,2,0:3:0:0:
497,270,78916,2,0,P|503:321|500:349,1,56.5249976712419,2|0,0:3|0:0,0:0:0:0:
441,119,79087,5,2,0:3:0:0:
401,271,79258,1,2,0:3:0:0:
447,202,79430,5,2,0:3:0:0:
322,297,79602,1,2,0:3:0:0:
401,271,79773,5,2,0:3:0:0:
244,269,79944,1,2,0:3:0:0:
322,297,80116,5,2,0:3:0:0:
199,198,80287,2,0,P|197:158|201:125,1,56.5249976712419,2|0,0:3|0:0,0:0:0:0:
439,19,80458,5,2,0:3:0:0:
343,129,80630,1,2,0:3:0:0:
401,82,80801,5,2,0:3:0:0:
272,149,80973,1,2,0:3:0:0:
343,129,81144,5,2,0:3:0:0:
198,141,81316,1,2,0:3:0:0:
272,149,81487,5,2,0:3:0:0:
133,106,81658,2,0,P|104:81|85:55,1,56.5249976712419,2|0,0:3|0:0,0:0:0:0:
343,129,81830,5,2,0:3:0:0:
337,274,82001,1,2,0:3:0:0:
357,202,82173,5,2,0:3:0:0:
288,330,82344,2,0,P|262:348|220:355,1,56.5249976712419,2|0,0:3|0:0,0:0:0:0:
83,279,82516,5,2,0:3:0:0:
255,228,82687,1,2,0:3:0:0:
162,230,82858,5,2,0:3:0:0:
336,273,83030,1,2,0:3:0:0:
83,279,83201,5,2,0:3:0:0:
211,161,83373,1,2,0:3:0:0:
45,110,83544,1,2,0:3:0:0:
83,279,83716,5,2,0:3:0:0:
211,161,83887,1,2,0:3:0:0:
45,110,84058,1,2,0:3:0:0:
181,256,84230,5,2,0:3:0:0:
143,87,84401,1,2,0:3:0:0:
83,279,84573,5,2,0:3:0:0:
279,236,84744,1,2,0:3:0:0:
181,256,84916,5,2,0:3:0:0:
377,213,85087,1,2,0:3:0:0:
279,236,85258,5,2,0:3:0:0:
275,264,85343,1,2,0:3:0:0:
274,292,85429,1,2,0:3:0:0:
275,320,85515,1,2,0:3:0:0:
280,348,85600,1,2,0:3:0:0:
395,292,85773,1,2,0:3:0:0:
459,106,85944,5,2,0:3:0:0:
263,149,86115,1,2,0:3:0:0:
361,129,86287,5,2,0:3:0:0:
165,172,86458,1,2,0:3:0:0:
263,149,86630,5,2,0:3:0:0:
266,120,86715,1,2,0:3:0:0:
267,92,86801,1,2,0:3:0:0:
266,64,86887,1,2,0:3:0:0:
261,36,86972,1,2,0:3:0:0:
67,195,87144,1,2,0:3:0:0:
229,318,87316,6,0,P|243:283|249:246,1,75.3666635616558,2|2,0:3|0:3,0:0:0:0:
158,70,87544,1,2,0:3:0:0:
87,123,87658,6,0,P|72:157|66:194,1,75.3666635616558,2|2,0:3|0:3,0:0:0:0:
239,148,87886,1,2,0:3:0:0:
158,163,88001,6,0,L|161:286,1,113.049995342484,8|0,0:0|0:0,0:0:0:0:
244,334,88258,6,0,L|241:220,1,113.049995342484,8|0,0:0|0:0,0:0:0:0:
324,277,88516,6,0,L|326:370,1,56.5249976712419,8|0,0:0|0:0,0:0:0:0:
406,333,88687,6,0,B|440:331|463:344|463:344|485:331|516:330|516:330|476:322|448:294,1,169.574993013726,2|0,0:0|0:0,0:0:0:0:
408,250,89030,5,8,0:0:0:0:
448,151,89201,1,0,0:0:0:0:
329,76,89373,5,0,0:0:0:0:
369,175,89544,1,2,0:0:0:0:
250,250,89716,5,8,0:0:0:0:
290,151,89887,1,0,0:0:0:0:
180,60,90058,6,0,B|117:50|82:86|82:86|115:70|150:84,1,169.574993013726,2|0,0:0|0:0,0:0:0:0:
116,158,90401,5,8,0:0:0:0:
5,115,90573,1,0,0:0:0:0:
196,144,90744,5,0,0:0:0:0:
214,261,90916,1,2,0:0:0:0:
144,81,91087,5,8,0:0:0:0:
236,7,91259,1,0,0:0:0:0:
116,158,91430,6,0,P|106:215|114:332,1,169.574993013726,2|0,0:0|0:0,0:0:0:0:
206,365,91773,5,8,0:0:0:0:
323,310,91944,1,0,0:0:0:0:
331,206,92116,5,0,0:0:0:0:
214,261,92287,1,2,0:0:0:0:
391,342,92458,5,8,0:0:0:0:
508,287,92629,1,0,0:0:0:0:
441,121,92801,6,0,B|413:168|434:225|434:225|455:196|441:157,1,169.574993013726,2|0,0:0|0:0,0:0:0:0:
374,20,93144,5,8,0:0:0:0:
349,118,93316,1,0,0:0:0:0:
261,120,93487,5,0,0:0:0:0:
236,22,93659,1,2,0:0:0:0:
148,20,93830,5,8,0:0:0:0:
123,118,94002,1,0,0:0:0:0:
31,123,94173,6,0,B|43:177|43:177|18:231|18:231|31:284,1,169.574993013726,2|0,0:0|0:0,0:0:0:0:
54,355,94516,5,8,0:0:0:0:
126,268,94687,1,0,0:0:0:0:
231,317,94858,5,0,0:0:0:0:
220,204,95029,1,2,0:0:0:0:
328,164,95201,5,8,0:0:0:0:
241,92,95372,1,0,0:0:0:0:
333,278,95544,6,0,B|379:285|410:251|410:251|449:276|509:261,1,169.574993013726,2|0,0:0|0:0,0:0:0:0:
463,180,95887,5,8,0:0:0:0:
482,79,96058,1,0,0:0:0:0:
361,14,96230,5,0,0:0:0:0:
380,115,96401,1,2,0:0:0:0:
259,180,96573,5,8,0:0:0:0:
278,79,96744,1,0,0:0:0:0:
175,116,96916,6,0,B|89:149|104:79|11:108,1,169.574993013726,2|0,0:0|0:0,0:0:0:0:
53,207,97258,1,8,0:0:0:0:
146,37,97430,2,0,P|183:35|215:43,1,56.5249976712419,2|2,0:3|0:3,0:0:0:0:
278,79,97601,5,2,0:3:0:0:
53,207,97773,1,2,0:0:0:0:
172,238,97944,5,8,0:0:0:0:
40,30,98116,2,0,P|51:62|51:113,1,56.5249976712419,2|2,0:3|0:3,0:3:0:0:
20,297,98287,6,0,P|58:290|101:290,1,56.5249976712419,8|0,0:0|0:0,0:0:0:0:
205,326,98458,1,0,0:0:0:0:
232,332,98543,1,2,0:0:0:0:
260,333,98630,6,0,P|298:326|341:326,1,56.5249976712419,2|0,0:0|0:0,0:0:0:0:
512,364,98801,2,0,P|483:361|456:355,1,56.5249976712419,8|0,0:0|0:0,0:0:0:0:
412,215,98973,5,0,0:0:0:0:
406,207,99058,2,0,P|344:199|260:205,1,113.049995342484,8|0,0:0|0:0,0:0:0:0:
131,97,99316,5,2,0:0:0:0:
127,69,99401,1,0,0:0:0:0:
123,41,99487,2,2,L|119:12,3,28.2624988356209
131,97,99658,6,0,P|180:102|209:95,1,56.5249976712419,2|0,0:3|0:3,0:3:0:0:
305,48,99830,1,2,0:3:0:0:
332,42,99915,1,2,0:3:0:0:
360,44,100001,2,0,P|387:49|412:62,1,56.5249976712419,2|0,0:3|0:3,0:3:0:0:
412,215,100173,6,0,P|386:227|359:233,1,56.5249976712419,2|0,0:3|0:3,0:3:0:0:
228,177,100344,1,2,0:3:0:0:
201,171,100429,1,2,0:3:0:0:
173,173,100515,2,0,P|145:178|120:191,1,56.5249976712419,2|0,0:3|0:3,0:3:0:0:
263,360,100687,1,2,0:3:0:0:
281,338,100772,1,2,0:3:0:0:
292,312,100858,1,2,0:3:0:0:
296,284,100944,1,2,0:3:0:0:
291,257,101030,6,0,P|291:210|302:181,1,56.5249976712419,2|0,0:3|0:3,0:3:0:0:
490,156,101201,1,2,0:3:0:0:
494,183,101286,1,2,0:3:0:0:
492,211,101373,2,0,P|487:238|475:264,1,56.5249976712419,2|0,0:3|0:3,0:3:0:0:
199,302,101544,2,0,P|187:276|182:248,1,56.5249976712419,2|0,0:3|0:3,0:3:0:0:
361,137,101716,1,2,0:3:0:0:
372,162,101801,1,2,0:3:0:0:
377,190,101887,1,2,0:3:0:0:
120,191,102058,1,2,0:3:0:0:
123,163,102143,1,2,0:3:0:0:
134,137,102229,1,2,0:3:0:0:
152,116,102315,1,2,0:3:0:0:
175,98,102401,6,0,P|202:93|230:97,1,56.5249976712419,2|2,0:3|0:3,0:3:0:0:
145,263,102573,2,0,P|117:266|89:261,1,56.5249976712419,2|2,0:3|0:3,0:3:0:0:
209,181,102744,6,0,P|236:175|264:179,1,56.5249976712419,2|2,0:3|0:3,0:3:0:0:
178,345,102916,2,0,P|150:348|122:343,1,56.5249976712419,2|2,0:3|0:3,0:3:0:0:
320,109,103087,6,0,P|347:103|375:107,1,56.5249976712419,2|2,0:3|0:3,0:3:0:0:
289,273,103259,2,0,P|261:276|233:271,1,56.5249976712419,2|2,0:3|0:3,0:3:0:0:
353,191,103430,6,0,P|380:185|408:189,1,56.5249976712419,2|2,0:3|0:3,0:3:0:0:
322,355,103602,2,0,P|294:358|266:353,1,56.5249976712419,2|2,0:3|0:3,0:3:0:0:
154,181,103773,5,10,0:3:0:0:
190,171,103858,1,10,0:3:0:0:
227,170,103944,1,10,0:3:0:0:
264,179,104030,1,10,0:3:0:0:
343,269,104116,5,10,0:3:0:0:
307,279,104201,1,10,0:3:0:0:
270,280,104287,1,10,0:3:0:0:
233,271,104373,1,10,0:3:0:0:
353,191,104458,5,6,0:3:0:0:
401,217,104543,1,6,0:3:0:0:
421,268,104629,1,6,0:3:0:0:
402,320,104715,1,6,0:3:0:0:
353,347,104801,6,4,P|318:352|281:344,1,56.5249976712419,6|4,0:3|0:3,0:3:0:0:
93,259,104973,2,4,P|128:263|165:255,1,56.5249976712419,6|4,0:3|0:3,0:3:0:0:
320,63,105144,6,0,P|321:108|314:146,1,56.5249976712419,2|0,0:3|0:3,0:3:0:0:
233,271,105316,2,0,P|233:294|234:317,2,37.6833317808279,2|2|2,0:3|0:3|0:3,0:3:0:0:
196,198,105487,6,0,P|193:169|195:141,1,56.5249976712419,2|0,0:3|0:3,0:3:0:0:
412,110,105658,2,0,P|413:138|411:166,1,56.5249976712419,2|0,0:3|0:3,0:3:0:0:
321,371,105830,5,2,0:3:0:0:
339,333,105915,1,2,0:3:0:0:
342,291,106001,1,2,0:3:0:0:
330,250,106087,1,2,0:3:0:0:
304,217,106172,1,2,0:3:0:0:
285,179,106258,1,2,0:3:0:0:
282,137,106344,1,2,0:3:0:0:
294,96,106430,1,2,0:3:0:0:
320,63,106516,6,0,P|346:49|397:45,1,56.5249976712419,2|0,0:3|0:3,0:3:0:0:
474,139,106687,2,0,L|512:146,2,37.6833317808279,2|2|2,0:3|0:3|0:3,0:3:0:0:
449,65,106858,6,0,P|450:36|447:8,1,56.5249976712419,2|0,0:3|0:3,0:3:0:0:
358,169,107030,2,0,P|355:197|356:225,1,56.5249976712419,2|0,0:3|0:3,0:3:0:0:
243,77,107201,5,2,0:3:0:0:
207,54,107286,1,2,0:3:0:0:
166,60,107372,1,2,0:3:0:0:
139,91,107458,1,2,0:3:0:0:
137,132,107544,1,2,0:3:0:0:
125,172,107629,1,2,0:3:0:0:
90,194,107715,1,2,0:3:0:0:
48,189,107801,1,2,0:3:0:0:
20,158,107887,6,0,P|14:108|26:81,1,56.5249976712419,2|0,0:3|0:3,0:3:0:0:
112,264,108058,2,0,P|105:314|117:341,1,56.5249976712419,2|0,0:3|0:3,0:3:0:0:
243,77,108230,6,0,P|236:26|248:0,1,56.5249976712419,2|0,0:3|0:3,0:3:0:0:
306,297,108401,2,0,P|299:347|311:374,1,56.5249976712419,2|0,0:3|0:3,0:3:0:0:
413,17,108573,6,0,P|404:89|412:171,1,113.049995342484,2|0,0:0|0:0,0:0:0:0:
456,357,108830,2,0,P|447:301|448:244,1,113.049995342484,2|0,0:0|0:0,0:0:0:0:
512,82,109087,2,0,P|469:76|425:82,1,56.5249976712419,2|0,0:0|0:0,0:0:0:0:
244,140,109258,5,2,0:3:0:0:
211,162,109343,1,2,0:3:0:0:
202,201,109429,1,2,0:3:0:0:
222,235,109515,1,2,0:3:0:0:
260,247,109600,1,2,0:3:0:0:
295,230,109686,1,2,0:3:0:0:
311,194,109772,1,2,0:3:0:0:
297,156,109858,1,2,0:3:0:0:
239,120,109944,5,2,0:3:0:0:
195,149,110029,1,2,0:3:0:0:
182,202,110115,1,2,0:3:0:0:
210,249,110201,1,2,0:3:0:0:
261,265,110286,1,2,0:3:0:0:
309,242,110372,1,2,0:3:0:0:
331,193,110458,1,2,0:3:0:0:
311,141,110544,1,2,0:3:0:0:
257,192,110630,5,4,0:1:0:0:
97,54,121430,5,2,0:0:0:0:
138,296,121601,1,6,0:0:0:0:
203,165,121944,6,0,P|258:177|289:172,1,63.7500024318696
299,276,122287,2,0,P|354:264|385:269,1,63.7500024318696
450,206,122630,1,0,0:0:0:0:
367,149,122801,6,0,P|342:76|383:144,1,212.5
247,98,124001,2,0,P|207:72|174:41,1,63.7500024318696
112,2,124344,6,0,P|120:62|112:148,1,127.500004863739
97,237,124858,2,0,P|144:200|223:163,1,127.500004863739
302,166,125373,2,0,P|340:175|383:201,1,63.7500024318696
434,247,125716,5,0,0:0:0:0:
434,247,125801,1,0,0:0:0:0:
434,247,125887,2,0,P|454:282|465:316,1,63.7500024318696
350,264,126230,1,0,0:0:0:0:
437,158,126401,2,0,P|442:111|439:64,1,63.7500024318696
355,88,126658,2,0,P|350:56|350:24,1,63.7500024318696
433,13,126916,1,0,0:0:0:0:
302,166,127087,5,0,0:0:0:0:
80,41,127430,6,0,P|91:98|85:131,1,63.7500024318696
199,151,127773,2,0,P|188:208|194:241,1,63.7500024318696
130,319,128116,1,0,0:0:0:0:
36,237,128287,6,0,P|89:181|66:255,1,212.5
0,132,129487,2,0,P|26:114|57:107,1,63.7500024318696
103,29,129830,6,0,P|135:59|228:88,1,127.500004863739
308,142,130344,2,0,P|247:160|199:201,1,127.500004863739
195,303,130858,2,0,P|213:342|253:368,1,63.7500024318696
325,370,131201,6,0,P|385:351|434:311,1,127.500004863739
434,204,131716,2,0,P|373:222|334:259,1,95.6250036478044
335,259,132058,1,0,0:0:0:0:
510,239,132230,2,0,P|514:194|508:149,1,63.7500024318696
491,24,132573,5,0,0:0:0:0:
213,48,132916,6,0,P|220:90|210:127,1,63.7500024318696
281,208,133258,2,0,P|263:246|263:285,1,63.7500024318696
225,362,133601,1,0,0:0:0:0:
173,251,133773,6,0,P|93:253|162:293,1,212.5
136,153,134973,2,0,P|93:159|64:177,1,63.7500024318696
212,177,135316,6,0,P|223:132|218:40,1,127.500004863739
84,43,135830,2,0,P|73:88|78:180,1,127.500004863739
212,177,136344,2,0,P|240:190|272:192,1,63.7500024318696
361,153,136687,6,0,P|362:126|361:105,1,31.8750012159348
417,230,136858,2,0,P|448:232|477:245,1,63.7500024318696
420,318,137201,1,0,0:0:0:0:
339,278,137373,2,0,P|285:289|255:287,1,63.7500024318696
244,318,137630,2,0,P|190:307|133:312,1,95.6250036478044
58,351,138058,5,0,0:0:0:0:
23,128,138401,2,0,P|62:141|102:138,1,63.7500024318696
126,226,138744,2,0,P|165:213|205:216,1,63.7500024318696
278,227,139087,1,0,0:0:0:0:
223,54,139258,6,0,P|196:136|251:88,1,212.5
57,211,140458,2,0,P|46:241|43:272,1,63.75
209,334,140801,6,0,P|209:274|191:186,1,127.500004863739
68,84,141316,2,0,P|56:146|56:210,1,127.500004863739
70,351,141830,2,0,P|112:354|149:346,1,63.7500024318696
248,271,142173,6,0,P|291:263|381:274,1,127.500004863739
467,346,142687,2,0,P|416:353|347:349,1,95.6250036478044
352,349,143030,1,0,0:0:0:0:
302,231,143201,2,0,P|299:182|306:140,1,63.7500024318696
325,55,143544,6,0,B|382:43|382:43|440:62,1,113.049995342484,6|0,0:0|0:0,0:0:0:0:
377,146,143887,1,2,0:0:0:0:
214,60,144058,1,0,0:0:0:0:
218,248,144230,6,0,B|161:260|161:260|103:241,1,113.049995342484,2|0,0:0|0:0,0:0:0:0:
166,157,144573,1,2,0:0:0:0:
495,268,144916,6,0,B|514:321|514:321|496:385,1,113.049995342484,2|0,0:0|0:0,0:0:0:0:
331,225,145258,1,2,0:0:0:0:
465,155,145430,1,0,0:0:0:0:
293,112,145601,6,0,B|274:59|274:59|292:-5,1,113.049995342484,2|0,0:0|0:0,0:0:0:0:
388,59,145944,1,2,0:0:0:0:
219,301,146287,6,0,B|165:320|165:320|100:300,1,113.049995342484,2|0,0:0|0:0,0:0:0:0:
163,214,146630,1,2,0:0:0:0:
235,382,146801,1,0,0:0:0:0:
331,225,146973,6,0,B|385:206|385:206|450:226,1,113.049995342484,2|0,0:0|0:0,0:0:0:0:
387,312,147316,1,2,0:0:0:0:
219,127,147658,6,0,B|165:108|165:108|100:128,1,113.049995342484,2|0,0:0|0:0,0:0:0:0:
163,214,148001,1,2,0:0:0:0:
343,147,148173,1,0,0:0:0:0:
111,303,148344,6,0,B|165:320|165:320|219:301,1,113.049995342484,2|0,0:0|0:0,0:0:0:0:
13,209,148687,1,2,0:0:0:0:
421,342,149030,5,2,0:0:0:0:
465,230,149201,1,2,0:0:0:0:
332,272,149373,5,2,0:0:0:0:
356,136,149544,1,2,0:0:0:0:
256,320,149716,5,2,0:0:0:0:
256,96,149887,1,2,0:0:0:0:
180,272,150058,5,2,0:0:0:0:
156,136,150229,1,2,0:0:0:0:
91,342,150401,5,2,0:0:0:0:
47,230,150572,1,2,0:0:0:0:
256,320,150744,5,2,0:0:0:0:
126,212,150916,1,2,0:0:0:0:
386,212,151087,5,2,0:0:0:0:
256,320,151259,1,2,0:0:0:0:
378,129,151430,5,2,0:0:0:0:
421,342,151601,1,2,0:0:0:0:
227,281,151773,5,2,0:0:0:0:
209,242,151858,1,2,0:0:0:0:
207,200,151944,1,2,0:0:0:0:
221,160,152030,1,2,0:0:0:0:
286,101,152116,5,2,0:0:0:0:
303,139,152201,1,2,0:0:0:0:
305,181,152287,1,2,0:0:0:0:
291,221,152373,1,2,0:0:0:0:
221,160,152458,5,2,0:0:0:0:
198,91,152543,1,2,0:0:0:0:
234,28,152629,1,2,0:0:0:0:
304,13,152715,1,2,0:0:0:0:
363,56,152801,6,2,L|405:32,7,28.2624988356209
286,101,153144,5,2,0:0:0:0:
227,281,154344,2,0,L|213:325,1,37.6833317808279,2|0,0:3|0:0,0:0:0:0:
286,101,154516,5,2,0:0:0:0:
