osu file format v14

[General]
AudioFilename: audio.mp3
AudioLeadIn: 0
PreviewTime: 43430
Countdown: 0
SampleSet: Soft
StackLeniency: 0.7
Mode: 2
LetterboxInBreaks: 0
WidescreenStoryboard: 1

[Editor]
Bookmarks: 154601
DistanceSpacing: 1.6
BeatDivisor: 4
GridSize: 4
TimelineZoom: 2.499999

[Metadata]
Title:Tokyo (Innovaderz Remix)
TitleUnicode:Tokyo (Innovaderz Remix)
Artist:DJ Ozawa
ArtistUnicode:DJ Ozawa
Creator:Ascendance
Version:toybot's Salad
Source:
Tags:dnb lanturn mbomb -_magic_bomb_- magic bomb californian darknessofblue fii -wwwww kaitlin zirox sorcerer tomthewizard toybot Yumeno Himiko exam examination gero tenshichan [superstar] hi_hello CLSW crystal crystalseed tasuke912 boberofdarkness bodom koliron deif spectator qoot8123 julie prophecy nofool skylish onosakihito ozzyozrock nardo nardoxyribonucleic raiden nwolf backfire chromoxx saika -saika- lop fawx
BeatmapID:1033548
BeatmapSetID:427801

[Difficulty]
HPDrainRate:5
CircleSize:3
OverallDifficulty:7.5
ApproachRate:7.5
SliderMultiplier:1.2
SliderTickRate:2

[Events]
//Background and Video events
0,0,"Cities_Color_of_the_night_city_058372_.jpg",0,0
//Break Periods
2,110830,120605
//Storyboard Layer 0 (Background)
//Storyboard Layer 1 (Fail)
//Storyboard Layer 2 (Pass)
//Storyboard Layer 3 (Foreground)
//Storyboard Sound Samples

[TimingPoints]
916,342.857142857143,4,2,11,50,1,0
2116,-80,4,2,11,50,0,0
22858,-100,4,1,13,50,0,0
33830,-100,4,1,11,50,0,0
44801,-83.3333333333333,4,1,11,70,0,1
65373,-100,4,1,11,70,0,1
66058,-100,4,1,11,70,0,1
66744,-100,4,1,14,60,0,0
67601,-100,4,1,14,50,0,0
67773,-100,4,1,14,40,0,0
68116,-100,4,1,14,60,0,0
68373,-100,4,1,14,60,0,0
68973,-100,4,1,14,50,0,0
69144,-100,4,1,14,40,0,0
69487,-100,4,1,14,60,0,0
70344,-100,4,1,14,50,0,0
70516,-100,4,1,14,40,0,0
70858,-100,4,1,14,60,0,0
71116,-100,4,1,14,60,0,0
71716,-100,4,1,14,50,0,0
71887,-100,4,1,14,40,0,0
72230,-100,4,1,14,60,0,0
73087,-100,4,1,14,50,0,0
73259,-100,4,1,14,40,0,0
73601,-100,4,1,14,60,0,0
73858,-100,4,1,14,60,0,0
74459,-100,4,1,14,50,0,0
74630,-100,4,1,14,40,0,0
74973,-100,4,1,14,60,0,0
75830,-100,4,1,14,50,0,0
76002,-100,4,1,14,40,0,0
76344,-100,4,1,14,60,0,0
76858,-100,4,1,14,60,0,0
77202,-100,4,1,14,50,0,0
77373,-100,4,1,14,40,0,0
77544,-100,4,1,14,40,0,0
77716,-100,4,1,13,60,0,0
88001,-100,4,1,11,60,0,0
88173,-100,4,1,11,30,0,0
88258,-100,4,1,11,60,0,0
88430,-100,4,1,11,30,0,0
88516,-100,4,1,11,60,0,0
88687,-100,4,1,14,60,0,0
89544,-100,4,1,14,50,0,0
89716,-100,4,1,14,40,0,0
90058,-100,4,1,14,60,0,0
90316,-100,4,1,14,60,0,0
90916,-100,4,1,14,50,0,0
91087,-100,4,1,14,40,0,0
91430,-100,4,1,14,60,0,0
92287,-100,4,1,14,50,0,0
92459,-100,4,1,14,40,0,0
92801,-100,4,1,14,60,0,0
93058,-100,4,1,14,60,0,0
93659,-100,4,1,14,50,0,0
93830,-100,4,1,14,40,0,0
94173,-100,4,1,14,60,0,0
95030,-100,4,1,14,50,0,0
95202,-100,4,1,14,40,0,0
95544,-100,4,1,14,60,0,0
95801,-100,4,1,14,60,0,0
96402,-100,4,1,14,50,0,0
96573,-100,4,1,14,40,0,0
96916,-100,4,1,14,60,0,0
97773,-100,4,1,14,50,0,0
97945,-100,4,1,14,40,0,0
98287,-100,4,1,14,60,0,0
98801,-100,4,1,14,60,0,0
99145,-100,4,1,14,50,0,0
99316,-100,4,1,14,40,0,0
99487,-100,4,1,14,40,0,0
99658,-100,4,1,13,60,0,0
103773,-100,4,1,13,60,0,0
104630,-100,4,1,13,60,0,0
108744,-100,4,1,13,30,0,0
108830,-100,4,1,13,60,0,0
109001,-100,4,1,13,30,0,0
109087,-100,4,1,13,60,0,0
109944,-100,4,1,13,50,0,0
110630,-100,4,2,12,40,0,0
120573,-100,4,2,12,50,0,0
121601,-100,4,2,11,50,0,0
143544,-100,4,1,11,60,0,0
153144,-66.6666666666667,4,1,11,60,0,0
153744,-66.6666666666667,4,2,11,10,0,0
154344,-100,4,1,11,60,0,0

[HitObjects]
296,144,744,5,0,1:0:0:0:
144,232,915,2,0,P|88:192|152:64,1,240,2|2,0:0|0:0,0:0:0:0:
296,144,1944,1,0,0:0:0:0:
388,64,2116,2,0,P|276:128|396:364,1,450,2|0,0:0|0:0,0:0:0:0:
296,144,3316,1,2,0:0:0:0:
72,144,3658,5,2,0:0:0:0:
256,240,4173,1,0,0:0:0:0:
440,144,4687,1,0,0:0:0:0:
352,64,5030,6,0,P|408:152|344:248,1,225,2|0,0:0|0:0,0:0:0:0:
224,280,5716,2,0,L|96:272,2,112.5,0|2|0,0:0|0:0|0:0,0:0:0:0:
350,245,6401,6,0,L|336:96,1,150,0|2,1:0|0:0,0:0:0:0:
162,245,7087,2,0,L|176:96,1,150,2|0,0:0|0:0,0:0:0:0:
340,24,7601,2,0,P|424:48|336:304,1,450,2|0,0:0|0:0,0:0:0:0:
256,192,8801,1,2,0:0:0:0:
456,96,9144,5,2,0:0:0:0:
256,24,9658,1,0,0:0:0:0:
56,96,10173,1,0,0:0:0:0:
177,77,10516,5,2,0:0:0:0:
328,152,10858,2,0,L|336:64,1,75,0|0,0:0|0:0,0:0:0:0:
184,152,11373,2,0,L|176:64,1,75,0|2,0:0|0:0,0:0:0:0:
334,77,11887,6,0,P|416:192|328:312,1,300,0|2,1:0|0:0,0:0:0:0:
128,288,12916,2,0,L|112:200,1,75,0|2,0:0|0:0,0:0:0:0:
224,176,13258,2,0,P|384:200|424:248,2,225,0|0|2,0:0|0:0|0:0,0:0:0:0:
56,224,14630,5,2,0:0:0:0:
256,288,15144,1,0,0:0:0:0:
56,336,15658,1,0,0:0:0:0:
160,240,16001,6,0,P|104:152|192:56,1,225,2|0,0:0|0:0,0:0:0:0:
288,48,16687,2,0,L|416:64,2,112.5,0|2|0,0:0|0:0|0:0,0:0:0:0:
164,62,17373,6,0,L|148:214,1,150,0|2,1:0|0:0,0:0:0:0:
348,62,18058,2,0,L|364:214,1,150,2|0,0:0|0:0,0:0:0:0:
164,62,18573,2,0,P|112:120|198:59,1,450,2|0,0:0|0:0,0:0:0:0:
264,148,19773,1,2,0:0:0:0:
452,96,20116,6,0,P|492:128|436:280,2,225,2|2|0,0:0|0:0|0:0,0:0:0:0:
348,62,21487,2,0,L|188:78,1,150,2|0,0:0|0:0,0:0:0:0:
80,160,22001,2,0,L|240:176,1,150,2|0,0:0|0:0,0:0:0:0:
336,264,22516,1,2,0:0:0:0:
176,264,22858,5,0,0:0:0:0:
336,264,23373,2,0,L|344:188,1,60,0|2,0:0|0:0,0:0:0:0:
169,90,23887,1,0,0:0:0:0:
256,280,24230,5,0,0:0:0:0:
320,208,24401,2,0,L|344:80,1,120,2|0,0:0|0:0,0:0:0:0:
192,208,24916,2,0,L|168:80,1,120,0|0,0:0|0:0,0:0:0:0:
360,296,25601,5,0,0:0:0:0:
440,240,25773,2,0,P|464:184|424:120,1,120,2|0,0:0|0:0,0:0:0:0:
320,136,26287,2,0,P|296:80|336:16,1,120,0|0,0:0|0:0,0:0:0:0:
192,80,26973,5,0,0:0:0:0:
112,144,27144,2,0,P|89:197|113:251,1,120,2|0,0:0|0:0,0:0:0:0:
232,232,27658,2,0,P|254:285|230:339,1,120,0|0,0:0|0:0,0:0:0:0:
53,155,28344,6,0,L|133:139,2,60,0|2|0,0:0|0:0|0:0,0:0:0:0:
176,64,29030,2,0,L|64:48,2,90,2|0|0,0:0|0:0|0:0,0:0:0:0:
296,152,29716,6,0,L|216:136,2,60,0|2|0,0:0|0:0|0:0,0:0:0:0:
416,152,30401,2,0,L|528:136,2,90,2|0|2,0:0|0:0|0:0,0:0:0:0:
320,248,31087,6,0,L|332:312,1,60,0|2,0:0|0:0,0:0:0:0:
192,248,31601,2,0,L|180:312,1,60,0|2,0:0|0:0,0:0:0:0:
331,306,32116,1,0,0:0:0:0:
176,152,32458,6,0,L|152:80,1,60,0|2,0:0|0:0,0:0:0:0:
336,152,32973,2,0,L|360:80,1,60,0|0,0:0|0:0,0:0:0:0:
176,152,33487,1,2,0:0:0:0:
336,152,33830,5,2,0:2:0:0:
65,153,34173,1,0,0:0:0:0:
120,232,34344,1,2,1:2:0:0:
65,153,34516,2,0,P|109:133|185:161,1,120,0|0,0:0|0:0,0:0:0:0:
356,240,35201,5,2,0:2:0:0:
230,230,35544,1,0,0:0:0:0:
175,151,35715,1,2,0:2:0:0:
120,230,35887,2,0,P|174:250|230:231,1,120,0|0,0:0|0:0,0:0:0:0:
175,151,36573,5,2,0:2:0:0:
410,160,36916,1,0,0:0:0:0:
356,240,37086,1,2,0:2:0:0:
410,160,37258,2,0,P|356:140|300:159,1,120,0|0,0:0|0:0,0:0:0:0:
108,316,37944,5,2,0:2:0:0:
243,238,38287,1,0,0:0:0:0:
300,159,38458,1,2,0:2:0:0:
354,238,38630,2,0,P|300:258|244:239,1,120,0|0,0:0|0:0,0:0:0:0:
72,136,39316,6,0,L|40:56,2,60,2|0|0,0:2|0:0|0:0,0:0:0:0:
208,168,39830,2,0,L|280:160,1,60,2|0,0:2|0:0,0:0:0:0:
120,248,40344,1,2,0:2:0:0:
260,316,40687,6,0,L|200:309,2,60,2|0|0,0:2|0:0|0:0,0:0:0:0:
396,280,41201,2,0,L|408:208,1,60,2|0,0:2|0:0,0:0:0:0:
260,176,41716,1,2,0:2:0:0:
400,348,42058,5,2,0:2:0:0:
418,324,42143,1,0,0:0:0:0:
434,299,42229,1,0,0:0:0:0:
446,271,42315,1,0,0:0:0:0:
455,243,42400,1,0,0:0:0:0:
460,213,42486,1,0,0:0:0:0:
461,183,42572,1,0,0:0:0:0:
458,153,42657,1,0,0:0:0:0:
452,124,42743,1,2,0:0:0:0:
441,96,42829,1,2,0:0:0:0:
428,69,42915,1,0,0:0:0:0:
410,45,43000,1,0,0:0:0:0:
388,24,43087,2,0,L|344:24,4,30
388,24,44630,5,0,0:0:0:0:
236,80,44801,2,0,P|208:120|252:212,1,143.999995605469,0|8,0:0|0:0,0:0:0:0:
336,240,45316,2,0,L|412:236,2,71.9999978027344,0|0|0,0:0|0:0|0:0,0:0:0:0:
216,328,45830,2,0,L|296:324,1,71.9999978027344,8|0,0:0|0:0,0:0:0:0:
168,244,46173,6,0,L|24:236,1,143.999995605469,0|8,0:0|0:0,0:0:0:0:
104,140,46687,1,0,0:0:0:0:
292,164,47030,2,0,L|216:172,2,71.9999978027344,0|8|0,0:0|0:0|0:0,0:0:0:0:
384,208,47544,6,0,P|440:240|452:324,2,143.999995605469,0|8|0,0:0|0:0|0:0,0:0:0:0:
292,164,48401,1,0,0:0:0:0:
384,116,48573,2,0,L|464:108,2,71.9999978027344,8|0|0,0:0|0:0|0:0,0:0:0:0:
200,212,49258,6,0,L|40:196,1,143.999995605469,8|0,0:0|0:0,0:0:0:0:
200,312,49773,2,0,L|284:304,1,71.9999978027344,0|8,0:0|0:0,0:0:0:0:
464,168,50287,5,2,0:0:0:0:
292,164,50630,2,0,L|272:88,1,71.9999978027344,8|2,0:0|0:3,0:0:0:0:
464,168,50973,2,0,L|436:312,1,143.999995605469,0|8,0:3|0:0,0:0:0:0:
184,204,51658,5,0,0:0:0:0:
27,129,52001,2,0,L|12:200,1,71.9999978027344,8|0,0:0|0:3,0:0:0:0:
157,62,52344,2,0,L|185:210,1,143.999995605469,0|8,0:3|0:0,0:0:0:0:
104,288,52858,1,0,0:0:0:0:
232,328,53030,6,0,L|308:320,2,71.9999978027344,0|0|8,0:0|0:0|0:0,0:0:0:0:
392,216,53716,2,0,L|364:64,1,143.999995605469,0|8,0:0|0:0,0:0:0:0:
276,128,54230,1,0,0:0:0:0:
120,216,54401,6,0,L|148:64,1,143.999995605469,0|0,0:0|0:0,0:0:0:0:
256,232,54916,2,0,L|336:220,2,71.9999978027344,0|0|0,0:0|0:0|0:0,0:0:0:0:
160,348,55430,2,0,L|140:264,1,71.9999978027344,0|0,0:0|0:0,0:0:0:0:
20,204,55773,5,4,0:3:0:0:
188,132,56116,2,0,L|112:132,2,71.9999978027344,8|0|0,0:0|0:0|0:0,0:0:0:0:
396,164,56801,2,0,L|384:240,1,71.9999978027344,8|0,0:0|0:0,0:0:0:0:
272,240,57144,6,0,P|192:248|168:304,2,143.999995605469,0|8|0,0:0|0:0|0:0,0:0:0:0:
352,296,58001,1,0,0:0:0:0:
496,236,58173,2,0,L|508:160,2,71.9999978027344,8|0|0,0:0|0:0|0:0,0:0:0:0:
320,160,58858,6,0,L|400:152,1,71.9999978027344,8|0,0:0|0:0,0:0:0:0:
304,64,59201,2,0,L|220:56,1,71.9999978027344,0|0,0:0|0:0,0:0:0:0:
148,116,59544,2,0,L|160:196,1,71.9999978027344,8|0,0:0|0:0,0:0:0:0:
28,312,59887,6,0,P|-4:284|52:196,1,143.999995605469,0|8,1:0|0:0,0:0:0:0:
148,116,60401,2,0,L|68:124,2,71.9999978027344,0|0|0,0:0|0:0|0:0,0:0:0:0:
276,72,60916,1,8,0:0:0:0:
444,188,61258,6,0,L|284:176,1,143.999995605469,0|8,0:0|0:0,0:0:0:0:
172,228,61773,1,0,0:0:0:0:
100,288,61944,2,0,L|243:277,1,143.999995605469,0|8,0:0|0:0,0:0:0:0:
80,160,62630,6,0,L|52:12,1,143.999995605469,0|8,0:0|0:0,0:0:0:0:
176,312,63144,1,0,0:0:0:0:
104,376,63316,2,0,L|132:228,1,143.999995605469,0|8,0:0|0:0,0:0:0:0:
356,112,64001,6,0,P|408:212|352:292,1,215.999993408203,0|0,0:0|0:0,0:0:0:0:
216,224,64687,2,0,L|132:216,1,71.9999978027344,0|0,0:0|0:0,0:0:0:0:
72,320,65030,2,0,L|156:312,1,71.9999978027344,8|0,0:0|0:0,0:0:0:0:
216,224,65373,6,0,L|200:148,1,60,0|0,0:0|0:0,0:0:0:0:
324,176,65716,2,0,L|340:100,1,60,0|0,0:0|0:0,0:0:0:0:
203,165,66058,2,0,L|179:33,1,120,0|0,0:0|0:0,0:0:0:0:
88,48,66573,1,0,0:0:0:0:
296,88,66744,6,0,L|432:80,2,120,0|0|0,0:0|0:0|0:0,0:0:0:0:
216,144,67601,1,0,0:0:0:0:
196,240,67773,1,0,0:0:0:0:
244,324,67944,1,0,0:0:0:0:
376,248,68116,6,0,L|376:112,1,120,0|0,0:0|0:0,0:0:0:0:
268,56,68630,1,0,0:0:0:0:
340,120,68801,1,0,0:0:0:0:
368,212,68973,1,0,0:0:0:0:
340,304,69144,1,0,0:0:0:0:
272,372,69316,1,0,0:0:0:0:
144,332,69487,6,0,L|8:308,2,120,0|0|0,0:0|0:0|0:0,0:0:0:0:
232,128,70344,1,0,0:0:0:0:
176,208,70516,1,0,0:0:0:0:
220,292,70687,1,0,0:0:0:0:
340,304,70858,6,0,L|352:176,1,120,0|0,0:0|0:0,0:0:0:0:
136,132,71544,2,0,L|64:136,2,60,0|0|0,0:0|0:0|0:0,0:0:0:0:
236,96,72058,1,0,0:0:0:0:
136,132,72230,6,0,L|124:256,1,120,0|0,0:0|0:0,0:0:0:0:
212,336,72744,1,0,0:0:0:0:
288,276,72916,1,0,0:0:0:0:
320,184,73087,1,0,0:0:0:0:
292,92,73258,1,0,0:0:0:0:
220,28,73430,1,0,0:0:0:0:
320,184,73601,6,0,L|336:312,1,120,0|0,0:0|0:0,0:0:0:0:
132,268,74287,2,0,L|124:192,1,60,0|0,0:0|0:0,0:0:0:0:
232,212,74630,2,0,L|240:136,1,60,0|0,0:0|0:0,0:0:0:0:
120,96,74973,6,0,L|-8:104,2,120,0|0|0,0:0|0:0|0:0,0:0:0:0:
264,84,75830,2,0,L|288:156,1,60,0|0,0:0|0:0,0:0:0:0:
464,176,76344,5,0,0:0:0:0:
388,236,76516,2,0,P|368:188|388:116,1,120,0|0,0:0|0:0,0:0:0:0:
464,176,77030,1,0,0:0:0:0:
256,272,77373,1,0,0:0:0:0:
48,176,77716,5,0,0:0:0:0:
180,112,77887,2,0,L|240:112,2,60,0|0|0,0:0|0:0|0:0,0:0:0:0:
260,212,78401,2,0,L|200:212,2,60,0|0|0,0:0|0:0|0:0,0:0:0:0:
368,128,78916,6,0,L|392:60,1,60,0|0,0:0|0:0,0:0:0:0:
348,184,79258,2,0,L|372:116,1,60,0|0,0:0|0:0,0:0:0:0:
204,228,79601,2,0,L|180:160,1,60,0|0,0:0|0:0,0:0:0:0:
224,284,79943,2,0,L|200:216,1,60,0|0,0:0|0:0,0:0:0:0:
72,160,80287,6,0,L|0:160,3,60,0|0|0|0,0:0|0:0|0:0|0:0,0:0:0:0:
120,72,80973,2,0,L|192:72,3,60,0|0|0|0,0:0|0:0|0:0|0:0,0:0:0:0:
304,196,81658,1,0,0:0:0:0:
208,196,81830,6,0,L|188:268,1,60,0|0,0:0|0:0,0:0:0:0:
304,196,82173,2,0,L|324:268,1,60,0|0,0:0|0:0,0:0:0:0:
191,253,82516,2,0,L|171:325,1,60,0|0,0:0|0:0,0:0:0:0:
321,253,82858,2,0,L|341:325,1,60,0|0,0:0|0:0,0:0:0:0:
448,312,83201,5,0,0:0:0:0:
496,228,83373,1,0,0:0:0:0:
505,132,83544,1,0,0:0:0:0:
463,45,83716,1,0,0:0:0:0:
344,20,83887,2,0,L|284:20,3,60,0|0|0|0,0:0|0:0|0:0|0:0,0:0:0:0:
140,64,84573,5,0,0:0:0:0:
88,144,84744,1,0,0:0:0:0:
140,224,84916,1,0,0:0:0:0:
256,192,85087,1,0,0:0:0:0:
308,272,85258,1,0,0:0:0:0:
256,352,85430,1,0,0:0:0:0:
140,224,85601,2,0,L|128:148,1,60,0|0,0:0|0:0,0:0:0:0:
256,192,85944,6,0,L|320:192,3,60,0|0|0|0,0:0|0:0|0:0|0:0,0:0:0:0:
403,73,86630,2,0,L|423:191,1,120,0|0,0:0|0:0,0:0:0:0:
316,192,87144,1,0,0:0:0:0:
207,191,87316,6,0,L|192:104,1,60,0|0,0:0|0:0,0:0:0:0:
84,192,87658,2,0,L|99:105,1,60,0|0,0:0|0:0,0:0:0:0:
208,300,88001,1,0,0:0:0:0:
0,300,88258,1,0,0:0:0:0:
208,300,88516,1,0,0:0:0:0:
300,232,88687,6,0,P|328:188|288:124,1,120,0|0,0:0|0:0,0:0:0:0:
168,52,89201,1,0,0:0:0:0:
92,112,89373,1,0,0:0:0:0:
72,204,89544,1,0,0:0:0:0:
100,296,89716,1,0,0:0:0:0:
180,352,89887,1,0,0:0:0:0:
328,300,90058,6,0,L|308:176,1,120,0|0,0:0|0:0,0:0:0:0:
232,72,90573,1,0,0:0:0:0:
312,120,90744,1,0,0:0:0:0:
356,208,90916,1,0,0:0:0:0:
328,300,91087,1,0,0:0:0:0:
252,360,91258,1,0,0:0:0:0:
132,312,91430,6,0,L|-4:300,2,120,0|0|0,0:0|0:0|0:0,0:0:0:0:
228,232,92287,1,0,0:0:0:0:
176,152,92458,1,0,0:0:0:0:
228,72,92630,1,0,0:0:0:0:
368,48,92801,6,0,L|388:176,1,120,0|0,0:0|0:0,0:0:0:0:
324,240,93316,1,0,0:0:0:0:
200,296,93487,2,0,L|192:224,1,60,0|0,0:0|0:0,0:0:0:0:
324,240,93830,2,0,L|332:168,1,60,0|0,0:0|0:0,0:0:0:0:
176,152,94173,6,0,L|44:164,2,120,0|0|0,0:0|0:0|0:0,0:0:0:0:
288,152,95030,1,0,0:0:0:0:
324,240,95201,1,0,0:0:0:0:
288,328,95373,1,0,0:0:0:0:
412,304,95544,6,0,L|424:176,1,120,0|0,0:0|0:0,0:0:0:0:
344,80,96058,2,0,L|272:84,1,60,0|0,0:0|0:0,0:0:0:0:
176,176,96401,2,0,L|248:180,2,60,0|0|0,0:0|0:0|0:0,0:0:0:0:
92,264,96916,6,0,L|232:276,1,120,0|0,0:0|0:0,0:0:0:0:
328,336,97430,1,0,0:0:0:0:
396,272,97601,1,0,0:0:0:0:
416,176,97773,1,0,0:0:0:0:
392,84,97944,1,0,0:0:0:0:
316,24,98116,1,0,0:0:0:0:
180,84,98287,6,0,L|64:84,1,90,0|0,0:0|0:0,0:0:0:0:
224,184,98801,2,0,L|340:184,1,90,0|0,0:0|0:0,0:0:0:0:
180,84,99316,1,0,0:0:0:0:
180,84,99487,1,0,0:0:0:0:
73,141,99658,6,0,L|93:69,2,60,0|0|0,0:0|0:0|0:0,0:0:0:0:
112,284,100173,2,0,L|92:212,2,60,0|0|0,0:0|0:0|0:0,0:0:0:0:
240,284,100687,2,0,L|256:212,1,60,0|0,0:0|0:0,0:0:0:0:
376,164,101030,6,0,L|440:152,2,60,0|0|0,0:0|0:0|0:0,0:0:0:0:
260,116,101544,2,0,L|196:104,2,60,0|0|0,0:0|0:0|0:0,0:0:0:0:
368,104,102058,2,0,L|376:168,1,60,0|0,0:0|0:0,0:0:0:0:
244,284,102401,6,0,L|180:284,1,60,0|0,0:0|0:0,0:0:0:0:
120,200,102744,2,0,L|184:200,1,60,0|0,0:0|0:0,0:0:0:0:
260,116,103087,2,0,L|196:116,1,60,0|0,0:0|0:0,0:0:0:0:
136,32,103430,2,0,L|200:32,1,60,0|0,0:0|0:0,0:0:0:0:
352,32,103773,6,0,L|368:96,3,60,0|0|0|0,0:0|0:0|0:0|0:0,0:0:0:0:
472,128,104458,2,0,L|456:192,3,60,0|0|0|0,0:0|0:0|0:0|0:0,0:0:0:0:
356,268,105144,5,0,0:0:0:0:
156,268,105487,1,0,0:0:0:0:
128,156,105830,1,0,0:0:0:0:
384,156,106173,1,0,0:0:0:0:
412,44,106516,5,0,0:0:0:0:
256,192,106858,1,0,0:0:0:0:
100,44,107201,1,0,0:0:0:0:
256,192,107543,1,0,0:0:0:0:
68,264,107887,6,0,L|52:188,1,60,0|0,0:0|0:0,0:0:0:0:
160,184,108230,2,0,L|176:108,1,60,0|0,0:0|0:0,0:0:0:0:
100,44,108573,1,0,0:0:0:0:
256,192,108830,1,0,0:0:0:0:
412,44,109087,1,0,0:0:0:0:
339,125,109258,6,0,L|324:272,1,120,0|0,0:0|0:0,0:0:0:0:
172,125,109944,2,0,L|188:272,1,120,0|0,0:0|0:0,0:0:0:0:
412,44,110630,5,0,0:0:0:0:
156,192,121430,5,0,1:0:0:0:
292,84,121601,2,0,P|336:148|288:296,1,240,0|2,1:0|0:0,0:0:0:0:
156,192,122630,1,0,0:0:0:0:
209,116,122801,2,0,P|165:100|185:280,1,360,2|0,0:0|0:0,0:0:0:0:
308,284,124001,1,2,0:0:0:0:
412,204,124344,6,0,P|352:136|268:156,2,180,2|0|0,0:0|0:0|0:0,0:0:0:0:
308,284,125716,2,0,L|236:292,1,60,2|0,0:0|0:0,0:0:0:0:
152,204,126058,2,0,L|224:212,1,60,0|0,0:0|0:0,0:0:0:0:
312,164,126401,2,0,L|424:152,2,90,0|2|0,0:0|0:0|0:0,0:0:0:0:
192,108,127087,5,0,1:0:0:0:
176,20,127430,1,2,0:0:0:0:
320,108,127773,1,2,0:0:0:0:
336,20,128116,1,0,0:0:0:0:
192,108,128287,2,0,P|100:152|208:332,1,360,2|0,0:0|0:0,0:0:0:0:
320,322,129487,2,0,L|332:264,1,60,2|0,0:0|0:0,0:0:0:0:
416,108,129830,6,0,L|228:120,2,180,0|0|0,0:0|0:0|0:0,0:0:0:0:
332,264,131201,2,0,L|520:252,2,180,2|0|2,0:0|0:0|0:0,0:0:0:0:
180,264,132573,6,0,L|164:136,1,120,0|2,1:0|0:0,0:0:0:0:
332,264,133258,2,0,L|348:136,1,120,2|0,0:0|0:0,0:0:0:0:
180,264,133773,2,0,P|180:116|208:260,1,420,2|2,0:0|0:0,0:0:0:0:
356,280,135316,6,0,P|408:248|432:120,2,180,0|0|0,0:0|0:0|0:0,0:0:0:0:
184,252,136687,2,0,L|104:244,2,60,2|0|0,0:0|0:0|0:0,0:0:0:0:
92,144,137373,2,0,L|200:136,2,90,0|2|0,0:0|0:0|0:0,0:0:0:0:
180,40,138058,6,0,L|316:52,1,120,0|2,1:0|0:0,0:0:0:0:
375,205,138744,2,0,L|239:217,1,120,2|0,0:0|0:0,0:0:0:0:
152,124,139258,2,0,P|56:168|176:320,1,360,2|0,0:0|0:0,0:0:0:0:
256,216,140458,1,0,0:0:0:0:
352,76,140801,5,2,0:0:0:0:
160,76,141316,1,2,0:0:0:0:
256,112,141830,1,0,0:0:0:0:
160,76,142173,5,2,0:0:0:0:
344,135,142516,2,0,L|351:75,1,60,0|2,0:0|0:0,0:0:0:0:
168,135,143030,2,0,L|160:75,1,60,0|2,0:0|0:0,0:0:0:0:
372,228,143544,5,2,0:2:0:0:
165,248,143887,1,0,0:0:0:0:
253,248,144058,1,2,0:2:0:0:
165,248,144230,2,0,P|149:200|169:132,1,120,0|0,0:0|0:0,0:0:0:0:
384,152,144916,5,2,0:2:0:0:
253,248,145258,1,0,0:0:0:0:
165,248,145430,1,2,0:2:0:0:
253,248,145601,2,0,P|269:200|249:132,1,120,0|0,0:0|0:0,0:0:0:0:
160,56,146287,5,2,0:2:0:0:
336,132,146630,1,0,0:0:0:0:
250,134,146801,1,2,0:2:0:0:
338,133,146973,2,0,P|356:189|339:246,1,120,0|0,0:0|0:0,0:0:0:0:
167,281,147658,5,2,0:2:0:0:
339,245,148001,1,0,0:0:0:0:
435,245,148173,1,2,0:2:0:0:
339,245,148344,2,0,P|320:188|347:125,1,120,0|0,0:0|0:0,0:0:0:0:
440,72,149030,6,0,L|508:64,2,60,2|0|0,0:2|0:0|0:0,0:0:0:0:
320,36,149544,2,0,L|312:104,1,60,2|0,0:2|0:0,0:0:0:0:
136,176,150058,1,2,0:2:0:0:
272,256,150401,6,0,L|248:316,2,60,2|0|0,0:2|0:0|0:0,0:0:0:0:
396,224,150916,2,0,L|472:216,1,60,2|0,0:2|0:0,0:0:0:0:
312,95,151430,1,2,0:2:0:0:
455,217,151773,6,0,L|396:224,1,60,2|0,0:2|0:0,0:0:0:0:
460,316,152116,2,0,L|400:322,1,60,0|0,0:0|0:0,0:0:0:0:
260,292,152458,6,0,L|320:286,1,60
252,192,152801,2,0,L|312:186,1,60
168,332,153144,6,0,P|116:316|176:132,1,315.000012016297,2|0,2:0|0:0,0:0:0:0:
376,88,154344,2,0,L|392:168,1,60,0|4,0:0|0:3,0:0:0:0:
