osu file format v14

[General]
AudioFilename: audio.mp3
AudioLeadIn: 0
PreviewTime: 43430
Countdown: 0
SampleSet: Normal
StackLeniency: 0.7
Mode: 1
LetterboxInBreaks: 0
WidescreenStoryboard: 0

[Editor]
Bookmarks: 915,6401,11887,17373,22858,33830,55773,154601
DistanceSpacing: 0.5
BeatDivisor: 2
GridSize: 32
TimelineZoom: 1.4

[Metadata]
Title:Tokyo (Innovaderz Remix)
TitleUnicode:Tokyo (Innovaderz Remix)
Artist:DJ Ozawa
ArtistUnicode:DJ Ozawa
Creator:Ascendance
Version:qoot8123's Kantan
Source:
Tags:dnb lanturn mbomb -_magic_bomb_- magic bomb californian darknessofblue fii -wwwww kaitlin zirox sorcerer tomthewizard toybot Yumeno Himiko exam examination gero tenshichan [superstar] hi_hello CLSW crystal crystalseed tasuke912 boberofdarkness bodom koliron deif spectator qoot8123 julie prophecy nofool skylish onosakihito ozzyozrock nardo nardoxyribonucleic raiden nwolf backfire chromoxx saika -saika- lop fawx
BeatmapID:940018
BeatmapSetID:427801

[Difficulty]
HPDrainRate:7
CircleSize:2.5
OverallDifficulty:2
ApproachRate:4
SliderMultiplier:1.4
SliderTickRate:1

[Events]
//Background and Video events
0,0,"Cities_Color_of_the_night_city_058372_.jpg",0,0
//Break Periods
//Storyboard Layer 0 (Background)
//Storyboard Layer 1 (Fail)
//Storyboard Layer 2 (Pass)
//Storyboard Layer 3 (Foreground)
//Storyboard Sound Samples

[TimingPoints]
916,342.857142857143,4,1,0,80,1,0
44801,-100,4,1,0,80,0,1
66744,-100,4,1,0,80,0,0
99658,-100,4,1,0,80,0,1
110630,-100,4,1,0,80,0,0

[HitObjects]
256,192,915,5,4,0:0:0:0:
288,192,3658,1,8,0:0:0:0:
256,192,5030,1,0,0:0:0:0:
256,192,5716,1,8,0:0:0:0:
256,224,6401,1,0,0:0:0:0:
256,192,9144,1,0,0:0:0:0:
256,192,10516,1,8,0:0:0:0:
256,192,11201,1,8,0:0:0:0:
256,192,11887,1,0,0:0:0:0:
256,192,14630,1,8,0:0:0:0:
256,192,16001,1,0,0:0:0:0:
256,192,16687,1,8,0:0:0:0:
256,192,17373,1,0,0:0:0:0:
256,192,20116,1,0,0:0:0:0:
256,192,21487,1,8,0:0:0:0:
288,192,22173,1,8,0:0:0:0:
256,192,22858,12,0,33487,0:0:0:0:
224,192,33830,5,4,0:0:0:0:
256,192,35201,1,0,0:0:0:0:
256,192,35887,1,8,0:0:0:0:
256,192,36573,1,0,0:0:0:0:
256,192,37944,1,0,0:0:0:0:
256,192,38630,1,8,0:0:0:0:
256,192,39316,1,0,0:0:0:0:
256,192,40001,1,0,0:0:0:0:
256,192,40344,1,0,0:0:0:0:
256,192,40687,1,0,0:0:0:0:
256,192,41373,1,0,0:0:0:0:
256,192,41716,1,0,0:0:0:0:
256,256,42058,6,0,L|512:64,2,280
256,192,44801,5,4,0:0:0:0:
256,192,45144,1,8,0:0:0:0:
256,192,45830,1,8,0:0:0:0:
256,192,46173,1,0,0:0:0:0:
256,192,46516,1,8,0:0:0:0:
256,192,47201,1,8,0:0:0:0:
256,192,47544,1,0,0:0:0:0:
256,192,47887,1,8,0:0:0:0:
256,192,48573,1,8,0:0:0:0:
256,192,49258,1,8,0:0:0:0:
256,192,49944,1,8,0:0:0:0:
256,192,50287,1,4,0:0:0:0:
256,192,51658,1,8,0:0:0:0:
256,192,53030,1,0,0:0:0:0:
256,192,53373,1,8,0:0:0:0:
256,192,54058,1,8,0:0:0:0:
256,192,54401,1,8,0:0:0:0:
256,192,55087,1,8,0:0:0:0:
256,192,55430,1,0,0:0:0:0:
256,192,55773,1,4,0:0:0:0:
256,192,56116,1,8,0:0:0:0:
256,192,56801,1,8,0:0:0:0:
256,192,57144,1,0,0:0:0:0:
256,192,57487,1,8,0:0:0:0:
256,192,58172,1,8,0:0:0:0:
256,192,58515,1,0,0:0:0:0:
256,192,58858,1,8,0:0:0:0:
256,192,59544,1,8,0:0:0:0:
256,192,60229,1,8,0:0:0:0:
256,192,60915,1,8,0:0:0:0:
256,192,61258,1,4,0:0:0:0:
256,192,62629,1,8,0:0:0:0:
256,192,64001,1,0,0:0:0:0:
256,192,64344,1,8,0:0:0:0:
256,192,65029,1,8,0:0:0:0:
256,192,65372,1,8,0:0:0:0:
256,192,66058,1,8,0:0:0:0:
256,192,66401,1,0,0:0:0:0:
256,192,66744,1,4,0:0:0:0:
256,192,67773,1,8,0:0:0:0:
256,192,68116,1,0,0:0:0:0:
256,192,68801,1,8,0:0:0:0:
256,192,69487,1,0,0:0:0:0:
256,192,70516,1,8,0:0:0:0:
256,192,70858,1,0,0:0:0:0:
256,192,71544,1,8,0:0:0:0:
256,192,72230,1,4,0:0:0:0:
256,192,73258,1,8,0:0:0:0:
256,192,73601,1,0,0:0:0:0:
256,192,74287,1,8,0:0:0:0:
256,192,74973,1,0,0:0:0:0:
256,192,76001,1,8,0:0:0:0:
256,192,76344,1,8,0:0:0:0:
256,192,77030,1,8,0:0:0:0:
256,192,77373,1,8,0:0:0:0:
256,192,77716,1,0,0:0:0:0:
256,192,78401,1,0,0:0:0:0:
256,192,79087,1,8,0:0:0:0:
256,192,79773,1,8,0:0:0:0:
256,192,80116,1,8,0:0:0:0:
256,192,80458,1,0,0:0:0:0:
256,192,81144,1,0,0:0:0:0:
256,192,81487,1,8,0:0:0:0:
256,192,81830,1,0,0:0:0:0:
256,192,82516,1,8,0:0:0:0:
256,192,82858,1,8,0:0:0:0:
256,192,83201,1,0,0:0:0:0:
256,192,83887,1,0,0:0:0:0:
256,192,84573,1,8,0:0:0:0:
256,192,85258,1,0,0:0:0:0:
256,192,85601,1,8,0:0:0:0:
256,192,85944,1,0,0:0:0:0:
256,192,86630,1,8,0:0:0:0:
256,192,87316,1,0,0:0:0:0:
256,192,88001,1,8,0:0:0:0:
256,192,88687,1,4,0:0:0:0:
256,192,89716,1,8,0:0:0:0:
256,192,90058,1,0,0:0:0:0:
256,192,90744,1,8,0:0:0:0:
256,192,91430,1,0,0:0:0:0:
256,192,92458,1,8,0:0:0:0:
256,192,92801,1,0,0:0:0:0:
256,192,93487,1,8,0:0:0:0:
256,192,94173,1,4,0:0:0:0:
256,192,95201,1,8,0:0:0:0:
256,192,95544,1,0,0:0:0:0:
256,192,96230,1,8,0:0:0:0:
256,192,96916,1,0,0:0:0:0:
256,192,97944,1,8,0:0:0:0:
256,192,98287,1,8,0:0:0:0:
256,192,98973,1,8,0:0:0:0:
256,192,99316,1,8,0:0:0:0:
256,192,99658,1,0,0:0:0:0:
256,192,100344,1,0,0:0:0:0:
256,192,100687,1,8,0:0:0:0:
256,192,101030,1,0,0:0:0:0:
256,192,101716,1,0,0:0:0:0:
256,192,102058,1,8,0:0:0:0:
256,192,102401,1,0,0:0:0:0:
256,192,103087,1,0,0:0:0:0:
256,192,103773,1,8,0:0:0:0:
256,192,105144,1,4,0:0:0:0:
256,192,105830,1,0,0:0:0:0:
256,192,106173,1,0,0:0:0:0:
256,192,106516,1,0,0:0:0:0:
256,192,107201,1,0,0:0:0:0:
256,192,107544,1,0,0:0:0:0:
256,192,107887,1,0,0:0:0:0:
256,192,108573,1,8,0:0:0:0:
256,192,109258,1,12,0:0:0:0:
256,192,110630,1,4,0:0:0:0:
256,192,113373,1,0,0:0:0:0:
256,192,116116,1,0,0:0:0:0:
256,192,118858,1,0,0:0:0:0:
256,192,121601,1,4,0:0:0:0:
256,224,124344,1,8,0:0:0:0:
256,224,125716,1,0,0:0:0:0:
256,224,126401,1,8,0:0:0:0:
256,224,127087,1,0,0:0:0:0:
256,224,129830,1,0,0:0:0:0:
256,224,131201,1,8,0:0:0:0:
256,224,131887,1,8,0:0:0:0:
256,224,132573,1,0,0:0:0:0:
256,224,135316,1,8,0:0:0:0:
256,224,136687,1,0,0:0:0:0:
256,224,137373,1,8,0:0:0:0:
256,224,138058,1,0,0:0:0:0:
288,192,140801,5,0,0:0:0:0:
288,192,142173,1,8,0:0:0:0:
256,192,142858,1,8,0:0:0:0:
256,192,143544,5,4,0:0:0:0:
256,224,144916,1,0,0:0:0:0:
256,192,145601,1,8,0:0:0:0:
256,192,146287,1,0,0:0:0:0:
256,192,147658,1,0,0:0:0:0:
256,192,148344,1,8,0:0:0:0:
256,192,149030,1,0,0:0:0:0:
256,192,149716,1,0,0:0:0:0:
256,192,150058,1,0,0:0:0:0:
256,192,150401,1,0,0:0:0:0:
256,192,151087,1,0,0:0:0:0:
256,192,151430,1,0,0:0:0:0:
96,288,151773,6,0,L|608:0,1,560
256,192,154516,5,4,0:0:0:0:
