osu file format v14

[General]
AudioFilename: audio.mp3
AudioLeadIn: 0
PreviewTime: 43430
Countdown: 0
SampleSet: Soft
StackLeniency: 0.7
Mode: 2
LetterboxInBreaks: 0
WidescreenStoryboard: 0

[Editor]
Bookmarks: 98716,154601
DistanceSpacing: 1.6
BeatDivisor: 4
GridSize: 16
TimelineZoom: 2.899999

[Metadata]
Title:Tokyo (Innovaderz Remix)
TitleUnicode:Tokyo (Innovaderz Remix)
Artist:DJ Ozawa
ArtistUnicode:DJ Ozawa
Creator:Ascendance
Version:exam's Rain
Source:
Tags:dnb lanturn mbomb -_magic_bomb_- magic bomb californian darknessofblue fii -wwwww kaitlin zirox sorcerer tomthewizard toybot Yumeno Himiko exam examination gero tenshichan [superstar] hi_hello CLSW crystal crystalseed tasuke912 boberofdarkness bodom koliron deif spectator qoot8123 julie prophecy nofool skylish onosakihito ozzyozrock nardo nardoxyribonucleic raiden nwolf backfire chromoxx saika -saika- lop fawx
BeatmapID:949699
BeatmapSetID:427801

[Difficulty]
HPDrainRate:6
CircleSize:4
OverallDifficulty:9
ApproachRate:9
SliderMultiplier:1.76
SliderTickRate:2

[Events]
//Background and Video events
0,0,"Cities_Color_of_the_night_city_058372_.jpg",0,0
//Break Periods
//Storyboard Layer 0 (Background)
//Storyboard Layer 1 (Fail)
//Storyboard Layer 2 (Pass)
//Storyboard Layer 3 (Foreground)
//Storyboard Sound Samples

[TimingPoints]
916,342.857142857143,4,2,0,60,1,0
3230,-100,4,2,0,5,0,0
3316,-100,4,2,0,60,0,0
3573,-100,4,2,0,5,0,0
3658,-100,4,2,0,60,0,0
4087,-100,4,2,0,5,0,0
4173,-100,4,2,0,60,0,0
4601,-100,4,2,0,5,0,0
4687,-100,4,2,0,60,0,0
4944,-100,4,2,0,5,0,0
5030,-100,4,2,0,60,0,0
5458,-100,4,2,0,5,0,0
5544,-100,4,2,0,60,0,0
8716,-100,4,2,0,5,0,0
8801,-100,4,2,0,60,0,0
9058,-100,4,2,0,5,0,0
9144,-100,4,2,0,60,0,0
9573,-100,4,2,0,5,0,0
9658,-100,4,2,0,60,0,0
10087,-100,4,2,0,5,0,0
10173,-100,4,2,0,60,0,0
14201,-100,4,2,0,5,0,0
14287,-100,4,2,0,60,0,0
14544,-100,4,2,0,5,0,0
14630,-100,4,2,0,60,0,0
15058,-100,4,2,0,5,0,0
15144,-100,4,2,0,60,0,0
15573,-100,4,2,0,5,0,0
15658,-100,4,2,0,60,0,0
15916,-100,4,2,0,5,0,0
16001,-100,4,2,0,60,0,0
19687,-100,4,2,0,5,0,0
19773,-100,4,2,0,60,0,0
20030,-100,4,2,0,5,0,0
20116,-100,4,2,0,60,0,0
20544,-100,4,2,0,5,0,0
20630,-100,4,2,0,60,0,0
21058,-100,4,2,0,5,0,0
21144,-100,4,2,0,60,0,0
22173,-100,4,2,0,5,0,0
22258,-100,4,2,0,60,0,0
22858,-100,4,1,22,60,0,0
42058,-100,4,1,12,60,0,0
44801,-80,4,2,22,60,0,1
66744,-100,4,2,22,80,0,0
77716,-100,4,1,22,80,0,0
88687,-100,4,2,22,80,0,0
99658,-80,4,1,22,80,0,1
110630,-100,4,2,0,60,0,0
112001,-100,4,2,0,55,0,0
113373,-100,4,2,0,50,0,0
114744,-100,4,2,0,45,0,0
116116,-100,4,2,0,40,0,0
117487,-100,4,2,0,35,0,0
118858,-100,4,2,0,30,0,0
120230,-100,4,2,0,25,0,0
121430,-100,4,2,0,60,0,0
123916,-100,4,2,0,5,0,0
124001,-100,4,2,0,60,0,0
124258,-100,4,2,0,5,0,0
124344,-100,4,2,0,60,0,0
124773,-100,4,2,0,5,0,0
124858,-100,4,2,0,60,0,0
125287,-100,4,2,0,5,0,0
125373,-100,4,2,0,60,0,0
125630,-100,4,2,0,5,0,0
125716,-100,4,2,0,60,0,0
129401,-100,4,2,0,5,0,0
129487,-100,4,2,0,60,0,0
129744,-100,4,2,0,5,0,0
129830,-100,4,2,0,60,0,0
130258,-100,4,2,0,5,0,0
130344,-100,4,2,0,60,0,0
130773,-100,4,2,0,5,0,0
130858,-100,4,2,0,60,0,0
131116,-100,4,2,0,5,0,0
131201,-100,4,2,0,60,0,0
131458,-100,4,2,0,5,0,0
131544,-100,4,2,0,60,0,0
131630,-100,4,2,0,5,0,0
131716,-100,4,2,0,60,0,0
134887,-100,4,2,0,5,0,0
134973,-100,4,2,0,60,0,0
135230,-100,4,2,0,5,0,0
135316,-100,4,2,0,60,0,0
135744,-100,4,2,0,5,0,0
135830,-100,4,2,0,60,0,0
136258,-100,4,2,0,5,0,0
136344,-100,4,2,0,60,0,0
136601,-100,4,2,0,5,0,0
136687,-100,4,2,0,60,0,0
137116,-100,4,2,0,5,0,0
137201,-100,4,2,0,60,0,0
140373,-100,4,2,0,5,0,0
140458,-100,4,2,0,60,0,0
140716,-100,4,2,0,5,0,0
140801,-100,4,2,0,60,0,0
141230,-100,4,2,0,5,0,0
141316,-100,4,2,0,60,0,0
141744,-100,4,2,0,5,0,0
141830,-100,4,2,0,60,0,0
142430,-100,4,2,0,5,0,0
142516,-100,4,2,0,60,0,0
143544,-100,4,2,22,80,0,0
151773,-100,4,1,12,80,0,0
154516,-100,4,2,0,60,0,1
154601,-100,4,2,0,60,0,0

[HitObjects]
256,160,744,5,4,3:0:0:0:
64,160,915,2,0,L|240:160,2,176,4|0|0,0:0|0:0|0:0,0:0:0:0:
288,256,1944,1,0,0:0:0:0:
464,96,2116,6,0,B|256:96|256:96|256:160|256:160|432:160|432:160|432:224|432:224|368:224|368:224,1,572
272,224,3316,2,0,B|208:224|208:224|208:176|208:176|256:176,1,132
336,176,3658,6,0,B|448:176|448:176|448:256|448:256|400:256,1,220
320,256,4173,2,0,L|80:256,1,220
160,160,4687,2,0,L|304:160,1,132
352,160,5030,6,0,L|400:160,1,44
144,160,5201,2,0,B|64:160|64:160|64:192|64:192|96:192,1,132
144,192,5544,1,0,0:0:0:0:
272,192,5716,2,0,L|384:192,1,88
192,288,5973,2,0,L|32:288,1,132
400,96,6401,6,0,P|448:144|400:336,1,264,2|2,0:0|0:0,0:0:0:0:
64,96,7430,1,0,0:0:0:0:
192,96,7601,2,0,B|336:96|336:96|336:208|336:208|192:208|192:208|192:320|192:320|288:320,1,572
336,320,8801,2,0,B|400:320|400:320|400:288|400:288|352:288,1,132
256,272,9144,6,0,B|144:272|144:272|144:224|144:224|208:224,1,220
288,224,9658,2,0,B|416:224|416:224|416:192|416:192|336:192,1,220
272,192,10173,2,0,L|176:192,1,88
352,96,10516,6,0,P|448:144|416:224,1,176
320,192,11030,2,0,L|128:192,1,176
384,320,11544,2,0,L|272:320,1,88
112,320,11887,6,0,P|64:272|128:96,1,264,2|2,0:0|0:0,0:0:0:0:
432,96,12916,1,0,0:0:0:0:
304,96,13087,6,0,B|224:96|224:96|224:176|224:176|304:176|304:176|304:272|304:272|64:272,1,572
144,192,14287,2,0,L|304:192,1,132
384,192,14630,6,0,B|448:192|448:192|448:272|448:272|368:272,1,220
272,272,15144,2,0,B|176:272|176:272|176:192|176:192|240:192,1,220
336,192,15658,2,0,B|400:192|400:192|400:160|400:160|352:160|352:160,1,132
304,160,16001,6,0,L|256:160,1,44
448,64,16173,2,0,P|464:128|448:256,1,176
144,240,16687,2,0,L|48:240,1,88
224,144,16944,2,0,L|384:144,1,132
224,240,17373,6,0,L|496:240,1,264,2|2,0:0|0:0,0:0:0:0:
64,96,18401,1,0,0:0:0:0:
192,96,18573,6,0,B|288:96|288:96|288:176|288:176|192:176|192:176|192:256|192:256|432:256,1,572
336,176,19773,2,0,L|176:176,1,132
112,176,20116,6,0,B|64:176|64:176|64:224|64:224|192:224,1,220
272,224,20630,2,0,B|368:224|368:224|368:288|368:288|304:288,1,220
208,288,21144,2,0,L|96:288,1,88
368,96,21487,6,0,P|448:128|416:224,1,176
320,208,22001,2,0,L|192:208,1,88
176,208,22258,1,0,0:0:0:0:
128,208,22344,1,0,0:0:0:0:
384,96,22516,2,0,L|496:96,1,88
336,192,22858,5,0,0:0:0:0:
64,192,23030,1,0,0:0:0:0:
224,96,23373,1,0,0:0:0:0:
352,96,23544,2,0,L|448:96,1,88
288,192,23887,2,0,L|160:192,1,88
112,192,24230,5,0,0:0:0:0:
384,192,24401,1,0,0:0:0:0:
160,288,24744,1,0,0:0:0:0:
288,288,24916,2,0,L|400:288,1,88
416,288,25173,1,0,0:0:0:0:
464,288,25258,1,0,0:0:0:0:
384,192,25430,1,0,0:0:0:0:
256,192,25601,5,0,0:0:0:0:
16,192,25773,1,0,0:0:0:0:
208,192,26116,1,0,0:0:0:0:
336,192,26287,2,0,L|224:192,1,88
208,192,26544,1,0,0:0:0:0:
160,192,26630,1,0,0:0:0:0:
80,288,26801,1,0,0:0:0:0:
208,288,26973,5,0,0:0:0:0:
448,288,27144,1,0,0:0:0:0:
256,128,27487,1,0,0:0:0:0:
384,128,27658,2,0,L|480:192,1,88
432,208,27916,1,0,0:0:0:0:
400,240,28001,1,0,0:0:0:0:
272,240,28173,1,0,0:0:0:0:
368,304,28344,5,0,0:0:0:0:
112,304,28516,2,0,L|16:304,2,88
240,304,29030,2,0,L|304:240,1,88
176,240,29373,2,0,L|112:176,1,88
32,80,29716,5,0,0:0:0:0:
352,80,29887,1,0,0:0:0:0:
144,80,30230,1,0,0:0:0:0:
272,80,30401,2,0,P|352:144|304:208,1,176
192,192,30916,1,0,0:0:0:0:
448,128,31087,6,0,L|336:128,3,88
240,128,31773,2,0,L|128:128,1,88
112,160,32030,1,0,0:0:0:0:
80,192,32116,1,0,0:0:0:0:
208,192,32287,1,0,0:0:0:0:
336,192,32458,5,0,0:0:0:0:
80,288,32630,1,0,0:0:0:0:
320,320,32973,1,0,0:0:0:0:
48,192,33144,2,0,P|32:128|64:64,1,132
112,48,33487,1,0,0:0:0:0:
240,48,33658,1,0,0:0:0:0:
496,112,33830,6,2,P|496:176|432:272,1,176,2|0,0:0|0:0,0:0:0:0:
144,112,34344,2,2,P|96:192|192:320,1,264,2|0,0:0|0:0,0:0:0:0:
304,288,35030,1,0,0:0:0:0:
48,80,35201,6,2,P|32:144|64:272,1,176,2|0,0:0|0:0,0:0:0:0:
352,80,35716,2,2,P|384:144|336:336,1,264,2|0,0:0|0:0,0:0:0:0:
224,320,36401,1,0,0:0:0:0:
480,128,36573,6,2,L|304:128,1,176,2|0,0:0|0:0,0:0:0:0:
32,256,37087,2,2,L|320:256,1,264,2|0,0:0|0:0,0:0:0:0:
192,192,37773,1,0,0:0:0:0:
320,192,37944,6,2,L|496:192,1,176,2|0,0:0|0:0,0:0:0:0:
320,320,38458,2,2,B|32:320,1,264,2|0,0:0|0:0,0:0:0:0:
160,240,39144,1,0,0:0:0:0:
400,80,39316,6,0,L|496:80,3,88,2|0|0|2,0:0|0:0|0:0|0:0,0:0:0:0:
352,128,40001,2,0,L|448:128,3,88,0|0|2|0,0:0|0:0|0:0|0:0,0:0:0:0:
208,176,40687,6,0,L|120:176,3,88,2|0|0|2,0:0|0:0|0:0|0:0,0:0:0:0:
256,224,41372,2,0,L|168:224,3,88,0|0|2|0,0:0|0:0|0:0|0:0,0:0:0:0:
48,304,42058,6,0,L|32:240,3,44
208,272,42401,2,0,L|224:208,3,44
96,176,42744,2,0,L|80:112,3,44
288,176,43087,2,0,L|294:145,6,22
48,192,43430,5,2,0:0:0:0:
448,192,44630,6,0,L|464:240,1,44,0|0,3:0|3:0,3:0:0:0:
272,192,44801,6,0,L|128:192,2,110,4|0|8,0:0|0:0|0:0,0:0:0:0:
448,192,45316,1,0,0:0:0:0:
272,192,45487,2,0,L|160:192,1,110,0|0,0:0|3:0,0:0:0:0:
336,192,45830,1,8,0:0:0:0:
192,288,46001,2,0,L|128:288,1,55
336,128,46173,6,0,L|464:128,2,110,0|0|8,3:0|0:0|0:0,0:0:0:0:
160,128,46687,1,0,0:0:0:0:
336,128,46858,2,0,L|448:128,1,110,0|0,0:0|3:0,0:0:0:0:
288,208,47201,1,8,0:0:0:0:
464,208,47373,2,0,L|512:272,1,55
256,48,47544,5,0,3:0:0:0:
202,56,47629,1,0,0:0:0:0:
155,84,47715,1,0,0:0:0:0:
122,128,47801,1,0,0:0:0:0:
108,181,47886,1,8,0:0:0:0:
115,235,47972,1,0,0:0:0:0:
142,283,48058,1,0,0:0:0:0:
185,316,48143,1,0,0:0:0:0:
368,64,48230,1,0,0:0:0:0:
401,107,48315,1,0,0:0:0:0:
419,159,48401,1,0,3:0:0:0:
419,213,48487,1,0,0:0:0:0:
401,265,48572,1,8,0:0:0:0:
367,308,48658,1,0,0:0:0:0:
321,338,48744,1,0,0:0:0:0:
268,352,48829,1,0,0:0:0:0:
80,304,48916,6,0,L|48:256,3,55,0|0|0|0,3:0|0:0|0:0|0:0,0:0:0:0:
144,224,49258,2,0,L|176:176,3,55,8|0|0|0,0:0|0:0|0:0|0:0,0:0:0:0:
80,304,49601,2,0,L|48:256,3,55,0|0|0|0,0:0|0:0|3:0|0:0,0:0:0:0:
384,80,49944,1,8,0:0:0:0:
160,80,50287,6,0,L|48:80,2,110,2|0|8,0:1|0:0|0:0,0:0:0:0:
336,80,50801,2,0,B|432:80|432:80|432:112|432:112|336:112,1,220,2|0,0:1|3:0,0:0:0:0:
96,112,51316,1,8,0:0:0:0:
352,80,51658,6,0,L|464:80,2,110,2|0|8,0:1|0:0|0:0,0:0:0:0:
176,80,52173,2,0,B|80:80|80:80|80:112|80:112|176:112,1,220,2|0,0:1|3:0,0:0:0:0:
416,128,52687,1,8,0:0:0:0:
96,80,53030,6,0,L|0:160,1,110,2|0,0:1|0:0,0:0:0:0:
192,160,53373,2,0,L|144:272,1,110,8|0,0:0|0:0,0:0:0:0:
416,80,53716,2,0,L|500:150,1,110,2|0,0:1|3:0,0:0:0:0:
320,160,54059,2,0,L|363:261,1,110,8|0,0:0|0:0,0:0:0:0:
32,256,54401,5,10,0:1:0:0:
192,256,54573,1,0,0:0:0:0:
224,224,54658,1,0,0:0:0:0:
192,192,54744,1,0,0:0:0:0:
32,192,54916,1,8,0:0:0:0:
352,192,55087,2,0,L|416:192,2,55,2|0|0,0:1|0:0|0:0,0:0:0:0:
176,192,55430,1,8,0:0:0:0:
352,144,55601,2,0,L|416:144,1,55,0|0,3:0|3:0,3:0:0:0:
176,144,55773,6,0,L|48:144,2,110,4|0|8,0:0|0:0|0:0,0:0:0:0:
352,144,56287,1,0,0:0:0:0:
176,144,56458,2,0,L|64:144,1,110,0|0,0:0|3:0,0:0:0:0:
224,224,56801,1,8,0:0:0:0:
48,224,56973,2,0,L|16:272,1,55
304,224,57144,6,0,L|432:224,2,110,0|0|8,3:0|0:0|0:0,0:0:0:0:
128,224,57658,1,0,0:0:0:0:
304,224,57830,2,0,L|432:224,1,110,0|0,0:0|3:0,0:0:0:0:
240,224,58173,1,8,0:0:0:0:
64,224,58344,2,0,L|32:160,1,55
304,64,58516,5,0,3:0:0:0:
356,77,58601,1,0,0:0:0:0:
399,112,58687,1,0,0:0:0:0:
423,160,58773,1,0,0:0:0:0:
425,215,58858,1,8,0:0:0:0:
404,265,58944,1,0,0:0:0:0:
364,302,59030,1,0,0:0:0:0:
312,319,59115,1,0,0:0:0:0:
112,64,59201,1,0,0:0:0:0:
75,105,59286,1,0,0:0:0:0:
55,155,59372,1,0,3:0:0:0:
52,210,59458,1,0,0:0:0:0:
68,262,59543,1,8,0:0:0:0:
101,306,59629,1,0,0:0:0:0:
146,337,59715,1,0,0:0:0:0:
199,351,59800,1,0,0:0:0:0:
432,304,59887,6,0,L|464:256,3,55,0|0|0|0,3:0|0:0|0:0|0:0,0:0:0:0:
368,224,60229,2,0,L|336:176,3,55,8|0|0|0,0:0|0:0|0:0|0:0,0:0:0:0:
432,304,60572,2,0,L|464:256,3,55,0|0|0|0,0:0|0:0|3:0|0:0,0:0:0:0:
128,80,60915,1,8,0:0:0:0:
352,80,61258,6,0,L|480:80,2,110,2|0|8,0:1|0:0|0:0,0:0:0:0:
176,80,61773,2,0,P|112:160|144:272,1,220,2|0,0:1|3:0,0:0:0:0:
416,272,62287,1,8,0:0:0:0:
160,80,62630,6,0,L|32:80,2,110,2|0|8,0:1|0:0|0:0,0:0:0:0:
336,80,63145,2,0,P|400:160|368:272,1,220,2|0,0:1|3:0,0:0:0:0:
96,272,63659,1,8,0:0:0:0:
320,192,64001,6,0,L|432:176,1,110,2|0,0:1|0:0,0:0:0:0:
192,192,64344,2,0,L|80:176,1,110,8|0,0:0|0:0,0:0:0:0:
448,144,64687,2,0,L|336:112,1,110,2|0,0:1|3:0,0:0:0:0:
64,144,65030,2,0,L|176:112,1,110,8|0,0:0|0:0,0:0:0:0:
416,304,65373,5,2,0:1:0:0:
444,257,65458,1,0,0:0:0:0:
444,203,65544,1,0,0:0:0:0:
416,156,65630,1,0,0:0:0:0:
240,272,65716,1,8,0:0:0:0:
211,225,65801,1,0,0:0:0:0:
211,171,65887,1,0,0:0:0:0:
239,124,65973,1,0,0:0:0:0:
336,272,66058,1,2,0:1:0:0:
365,225,66143,1,0,0:0:0:0:
365,171,66229,1,0,0:0:0:0:
337,124,66315,1,0,0:0:0:0:
144,208,66401,1,8,0:0:0:0:
256,208,66573,2,0,L|304:144,1,55
96,112,66744,6,0,L|0:112,3,88,4|0|8|0,0:0|0:0|0:0|0:0,0:0:0:0:
336,112,67430,2,0,L|400:192,3,88,0|0|8|0,0:0|3:0|0:0|0:0,0:0:0:0:
80,240,68116,6,0,L|208:240,3,88,0|0|8|0,3:0|0:0|0:0|0:0,0:0:0:0:
432,240,68801,2,0,L|496:144,3,88,0|0|8|0,0:0|3:0|0:0|0:0,0:0:0:0:
240,128,69487,6,0,L|352:128,3,88,0|0|8|0,3:0|0:0|0:0|0:0,0:0:0:0:
96,240,70173,2,0,L|32:144,3,88,0|0|8|0,0:0|3:0|0:0|0:0,0:0:0:0:
384,224,70858,6,0,L|256:224,3,88,0|0|8|0,3:0|0:0|0:0|0:0,0:0:0:0:
64,144,71544,2,0,L|128:48,3,88,0|0|8|0,0:0|3:0|0:0|0:0,0:0:0:0:
448,112,72230,6,0,L|336:112,3,88,2|0|8|0,0:1|0:0|0:0|0:0,0:0:0:0:
128,112,72916,2,0,L|16:112,3,88,0|0|8|0,0:0|3:0|0:0|0:0,0:0:0:0:
224,240,73601,6,0,L|336:240,3,88,0|0|8|0,3:0|0:0|0:0|0:0,0:0:0:0:
64,144,74287,2,0,L|160:144,3,88,0|0|8|0,0:0|3:0|0:0|0:0,0:0:0:0:
432,144,74973,6,0,L|320:144,3,88,0|0|8|0,3:0|0:0|0:0|0:0,0:0:0:0:
96,272,75658,2,0,L|208:272,3,88,0|0|8|0,0:0|3:0|0:0|0:0,0:0:0:0:
368,272,76344,6,0,L|480:272,1,88,0|0,3:0|0:0,0:0:0:0:
160,192,76687,2,0,L|48:192,1,88
336,192,77030,2,0,L|432:192,2,88
192,192,77544,2,0,L|112:192,1,44,0|0,3:0|3:0,3:0:0:0:
336,80,77716,6,0,L|448:80,6,88,4|0|8|0|0|0|8,0:0|0:0|0:0|0:0|0:0|3:0|0:0,0:0:0:0:
192,80,78916,2,0,L|128:80,1,44
256,176,79087,6,0,L|352:176,2,88,0|0|8,3:0|0:0|0:0,0:0:0:0:
384,256,79601,1,0,0:0:0:0:
240,256,79773,2,0,L|128:256,2,88,0|0|8,0:0|3:0|0:0,0:0:0:0:
384,256,80287,2,0,L|432:208,1,44
240,160,80458,6,0,L|112:160,2,88,0|0|8,3:0|0:0|0:0,0:0:0:0:
112,96,80973,1,0,0:0:0:0:
256,96,81144,2,0,L|368:96,2,88,0|0|8,0:0|3:0|0:0,0:0:0:0:
128,160,81658,2,0,L|80:160,1,44
256,192,81830,6,0,L|352:192,2,88,0|0|8,3:0|0:0|0:0,0:0:0:0:
400,192,82344,2,0,L|480:192,1,44
176,112,82516,2,0,L|64:112,2,88,0|0|8,0:0|3:0|0:0,0:0:0:0:
320,112,83030,1,0,0:0:0:0:
80,224,83201,6,0,L|208:224,2,88,0|0|8,3:0|0:0|0:0,0:0:0:0:
256,128,83716,2,0,L|384:128,2,88,0|0|0,0:0|0:0|3:0,0:0:0:0:
112,128,84230,2,0,L|48:128,2,44,8|0|0,0:0|0:0|0:0,0:0:0:0:
256,128,84573,6,0,L|344:128,2,88,0|0|8,3:0|0:0|0:0,0:0:0:0:
416,224,85087,1,0,0:0:0:0:
272,224,85258,2,0,L|208:224,2,44,0|0|0,0:0|0:0|3:0,0:0:0:0:
160,128,85601,2,0,L|32:128,1,88,8|0,0:0|0:0,0:0:0:0:
336,128,85944,6,0,L|448:128,2,88,0|0|8,3:0|0:0|0:0,0:0:0:0:
192,128,86458,1,0,0:0:0:0:
336,128,86630,2,0,L|384:128,2,44,0|0|0,0:0|0:0|3:0,0:0:0:0:
192,128,86973,2,0,L|64:128,1,88,8|0,0:0|0:0,0:0:0:0:
384,224,87316,6,0,L|464:224,2,58.6666666666667,4|0|0,2:0|0:0|0:0,0:0:0:0:
128,224,87658,2,0,L|48:224,2,58.6666666666667,2|0|0,2:0|0:0|0:0,0:0:0:0:
336,144,88001,2,0,L|432:144,1,88,2|0,1:0|0:0,0:0:0:0:
176,144,88258,2,0,L|80:144,1,88,2|0,1:0|0:0,0:0:0:0:
336,64,88516,1,2,1:0:0:0:
464,64,88687,6,0,L|512:160,1,88,4|0,0:0|0:0,0:0:0:0:
288,64,89030,2,0,L|256:176,1,88,8|0,0:0|0:0,0:0:0:0:
80,304,89373,2,0,L|32:208,2,88,0|0|8,0:0|3:0|0:0,0:0:0:0:
416,304,89887,1,0,0:0:0:0:
272,304,90058,6,0,L|224:208,1,88,0|0,3:0|0:0,0:0:0:0:
416,304,90401,2,0,L|455:225,1,88,8|0,0:0|0:0,0:0:0:0:
272,64,90744,2,0,L|224:160,2,88,0|0|8,0:0|3:0|0:0,0:0:0:0:
416,64,91258,1,0,0:0:0:0:
64,80,91430,6,0,L|0:160,1,88,0|0,3:0|0:0,0:0:0:0:
144,160,91773,2,0,L|80:240,1,88,8|0,0:0|0:0,0:0:0:0:
368,160,92116,2,0,L|432:240,3,88,0|0|8|0,0:0|3:0|0:0|0:0,0:0:0:0:
288,224,92801,6,0,L|224:144,1,88,0|0,3:0|0:0,0:0:0:0:
368,160,93144,2,0,L|432:80,1,88,8|0,0:0|0:0,0:0:0:0:
144,160,93487,2,0,L|80:80,3,88,0|0|8|0,0:0|3:0|0:0|0:0,0:0:0:0:
448,96,94173,6,0,L|352:96,3,88,2|0|8|0,0:1|0:0|0:0|0:0,0:0:0:0:
224,96,94858,2,0,L|176:192,1,88,0|0,0:0|3:0,0:0:0:0:
320,176,95201,2,0,L|368:288,1,88,8|0,0:0|0:0,0:0:0:0:
80,256,95544,6,0,L|192:256,3,88,0|0|8|0,3:0|0:0|0:0|0:0,0:0:0:0:
48,192,96230,2,0,L|32:96,1,88,0|0,0:0|3:0,0:0:0:0:
192,128,96573,2,0,L|208:16,1,88,8|0,0:0|0:0,0:0:0:0:
448,48,96916,6,0,L|320:48,3,88,0|0|8|0,3:0|0:0|0:0|0:0,0:0:0:0:
64,272,97601,2,0,L|160:272,3,88,0|0|8|0,0:0|3:0|0:0|0:0,0:0:0:0:
384,160,98287,6,0,L|480:160,1,88,8|0,0:0|0:0,0:0:0:0:
432,208,98544,1,0,0:0:0:0:
368,240,98630,1,0,0:0:0:0:
192,240,98801,1,8,0:0:0:0:
128,208,98887,1,0,0:0:0:0:
80,160,98973,1,0,0:0:0:0:
368,128,99144,1,0,0:0:0:0:
224,128,99316,1,8,0:0:0:0:
160,160,99401,1,0,3:0:0:0:
112,208,99487,1,0,3:0:0:0:
352,272,99658,6,0,L|464:272,5,110,4|0|8|0|0|0,2:0|0:0|0:0|0:0|0:0|3:0,0:0:0:0:
160,272,100687,2,0,L|96:272,2,55,8|0|0,0:0|0:0|0:0,0:0:0:0:
400,112,101030,6,0,L|272:112,5,110,0|0|8|0|0|0,3:0|0:0|0:0|0:0|0:0|3:0,0:0:0:0:
96,288,102058,2,0,L|32:288,2,55,8|0|0,0:0|0:0|0:0,0:0:0:0:
352,224,102401,6,0,L|432:224,2,55,0|0|0,3:0|0:0|0:0,0:0:0:0:
192,224,102744,2,0,L|112:224,2,55,8|0|0,0:0|0:0|0:0,0:0:0:0:
368,112,103087,1,0,0:0:0:0:
400,144,103173,1,0,0:0:0:0:
432,176,103258,1,0,3:0:0:0:
176,208,103430,1,8,0:0:0:0:
128,240,103516,1,0,0:0:0:0:
80,272,103601,1,0,0:0:0:0:
320,272,103773,5,0,3:0:0:0:
384,256,103858,1,0,0:0:0:0:
448,240,103944,1,0,0:0:0:0:
192,176,104116,1,8,0:0:0:0:
128,160,104201,1,0,0:0:0:0:
64,144,104287,1,0,0:0:0:0:
384,112,104458,2,0,L|448:112,2,55,0|0|0,0:0|0:0|3:0,0:0:0:0:
128,112,104801,2,0,L|64:112,2,55,8|0|0,0:0|0:0|0:0,0:0:0:0:
400,112,105144,6,0,L|448:224,1,110,4|0,2:0|0:0,0:0:0:0:
400,240,105401,1,0,0:0:0:0:
352,256,105487,1,0,3:0:0:0:
176,256,105658,1,0,0:0:0:0:
352,256,105830,2,0,L|480:256,3,110,0|0|0|0,3:0|0:0|3:0|0:0,0:0:0:0:
112,112,106516,6,0,L|64:224,1,110,4|0,2:0|0:0,0:0:0:0:
112,240,106773,1,0,0:0:0:0:
160,256,106859,1,0,3:0:0:0:
336,256,107030,1,0,0:0:0:0:
160,256,107202,2,0,L|32:256,3,110,0|0|0|0,3:0|0:0|3:0|0:0,0:0:0:0:
352,208,107887,6,0,L|464:208,1,110,4|0,2:0|3:0,0:0:0:0:
160,208,108230,2,0,L|48:208,1,110,0|0,3:0|3:0,3:0:0:0:
320,96,108573,2,0,L|448:96,1,110,4|0,2:0|3:0,3:0:0:0:
192,96,108830,2,0,L|64:96,1,110,4|0,2:0|0:0,0:0:0:0:
320,192,109087,1,4,2:0:0:0:
192,192,109258,6,0,L|80:192,3,110
320,192,109944,2,0,L|432:192,3,110
192,304,110630,5,2,0:0:0:0:
128,288,110801,1,0,0:0:0:0:
80,240,110973,1,0,0:0:0:0:
48,176,111144,1,0,0:0:0:0:
224,176,111316,1,0,0:0:0:0:
288,160,111487,1,0,0:0:0:0:
336,112,111658,1,0,0:0:0:0:
368,48,111830,1,0,0:0:0:0:
96,112,112001,5,0,0:0:0:0:
48,160,112173,1,0,0:0:0:0:
64,224,112344,1,0,0:0:0:0:
128,256,112516,1,0,0:0:0:0:
320,160,112687,1,0,0:0:0:0:
384,192,112858,1,0,0:0:0:0:
416,256,113030,1,0,0:0:0:0:
400,320,113201,1,0,0:0:0:0:
144,304,113373,5,0,0:0:0:0:
128,240,113544,1,0,0:0:0:0:
176,192,113716,1,0,0:0:0:0:
240,192,113887,1,0,0:0:0:0:
416,240,114058,1,0,0:0:0:0:
352,272,114230,1,0,0:0:0:0:
288,288,114401,1,0,0:0:0:0:
224,288,114573,1,0,0:0:0:0:
464,96,114744,5,0,0:0:0:0:
496,160,114916,1,0,0:0:0:0:
464,224,115087,1,0,0:0:0:0:
400,240,115258,1,0,0:0:0:0:
224,160,115430,1,0,0:0:0:0:
160,208,115601,1,0,0:0:0:0:
144,272,115773,1,0,0:0:0:0:
176,336,115944,1,0,0:0:0:0:
304,336,116116,5,0,0:0:0:0:
368,288,116287,1,0,0:0:0:0:
400,224,116458,1,0,0:0:0:0:
400,160,116630,1,0,0:0:0:0:
288,160,116801,1,0,0:0:0:0:
256,224,116973,1,0,0:0:0:0:
288,288,117144,1,0,0:0:0:0:
352,320,117316,1,0,0:0:0:0:
208,320,117487,5,0,0:0:0:0:
144,288,117658,1,0,0:0:0:0:
112,224,117830,1,0,0:0:0:0:
112,160,118001,1,0,0:0:0:0:
144,96,118173,1,0,0:0:0:0:
192,48,118344,1,0,0:0:0:0:
256,16,118516,1,0,0:0:0:0:
320,0,118687,1,0,0:0:0:0:
192,128,118858,5,0,0:0:0:0:
256,96,119030,1,0,0:0:0:0:
320,112,119201,1,0,0:0:0:0:
352,176,119373,1,0,0:0:0:0:
336,240,119544,1,0,0:0:0:0:
288,288,119716,1,0,0:0:0:0:
224,304,119887,1,0,0:0:0:0:
160,272,120058,1,0,0:0:0:0:
272,176,120230,5,0,0:0:0:0:
336,240,120401,1,0,0:0:0:0:
272,304,120573,1,0,0:0:0:0:
208,240,120744,1,0,0:0:0:0:
272,176,120916,1,0,0:0:0:0:
336,240,121087,1,0,0:0:0:0:
272,304,121259,1,0,0:0:0:0:
208,240,121430,1,0,3:0:0:0:
448,240,121601,6,0,L|304:128,2,176,4|0|0,0:0|0:0|0:0,0:0:0:0:
160,240,122630,1,0,0:0:0:0:
304,240,122801,6,0,B|400:240|400:240|400:160|400:160|256:160|256:160|256:80|256:80|432:80,1,572
336,80,124001,2,0,L|192:80,1,132
112,80,124344,6,0,B|64:80|64:80|64:176|64:176|160:176,1,220
240,176,124858,2,0,B|320:176|320:176|320:240|320:240|240:240,1,220
144,240,125373,2,0,B|80:240|80:240|80:288|80:288|128:288,1,132
160,288,125716,6,0,L|224:288,1,44
368,288,125887,2,0,B|480:144,1,176
336,144,126401,2,0,L|224:144,1,88
464,224,126658,2,0,L|320:224,1,132
64,320,127087,6,0,P|48:224|80:48,1,264,2|2,0:0|0:0,0:0:0:0:
464,48,128116,1,0,0:0:0:0:
320,48,128287,6,0,B|192:48|192:48|192:112|192:112|320:112|320:112|320:192|320:192|128:192,1,572
48,112,129487,2,0,L|192:112,1,132
288,112,129830,6,0,B|352:112|352:112|352:192|352:192|272:192,1,220
176,192,130344,2,0,B|96:192|96:192|96:272|96:272|176:272,1,220
256,272,130858,2,0,L|400:272,1,132
320,176,131201,6,0,L|160:176,1,132
144,176,131544,2,0,L|96:176,1,44
192,272,131716,6,0,L|336:272,1,132
384,272,132058,1,0,0:0:0:0:
128,160,132230,2,0,L|32:160,1,88
384,64,132573,6,0,L|96:64,1,264,2|2,0:0|0:0,0:0:0:0:
448,176,133601,1,0,0:0:0:0:
304,176,133773,6,0,B|208:176|208:176|208:256|208:256|384:256|384:256|384:352|384:352|256:352,1,572
160,352,134973,2,0,L|16:352,1,132
112,272,135316,6,0,B|208:272|208:272|208:192|208:192|144:192,1,220
80,192,135830,2,0,B|16:192|16:192|16:112|16:112|96:112,1,220
192,112,136344,2,0,L|336:112,1,132
384,112,136687,6,0,L|432:112,1,44
224,288,136858,2,0,B|160:288|160:288|160:256|160:256|208:256,1,132
272,256,137201,2,0,L|368:256,1,88
144,144,137544,2,0,L|80:144,1,44
336,144,137887,1,0,0:0:0:0:
48,48,138058,6,0,L|320:48,1,264,2|2,0:0|0:0,0:0:0:0:
96,160,139087,1,0,0:0:0:0:
240,160,139258,6,0,B|352:160|352:160|352:240|352:240|224:240|224:240|224:320|224:320|400:320,1,572
320,240,140458,6,0,L|176:240,1,132
288,160,140801,2,0,B|368:160|368:160|368:96|368:96|288:96,1,220
192,96,141316,2,0,B|80:96|80:96|80:160|80:160|144:160,1,220
224,160,141830,2,0,L|320:160,1,88
80,336,142173,6,0,P|16:288|48:224,1,132
64,224,142516,2,0,L|128:224,1,44
163,225,142687,2,0,B|227:161|227:161|176:112,1,132
160,96,143030,1,0,0:0:0:0:
432,288,143201,2,0,L|448:192,1,88
80,288,143544,6,0,L|64:96,1,176,2|0,0:1|0:0,0:0:0:0:
416,336,144058,2,0,L|432:224,1,88,2|0,0:1|0:0,0:0:0:0:
448,112,144401,1,0,0:0:0:0:
272,192,144573,2,0,L|256:96,1,88
432,288,144916,6,0,L|448:96,1,176,2|0,0:1|0:0,0:0:0:0:
96,336,145430,2,0,L|80:224,1,88,2|0,0:1|0:0,0:0:0:0:
64,112,145773,1,0,0:0:0:0:
240,192,145945,2,0,L|256:96,1,88
48,48,146287,6,0,L|176:48,2,88,2|0|0,0:1|0:0|0:0,0:0:0:0:
464,48,146801,2,0,L|336:48,1,88,2|0,0:1|0:0,0:0:0:0:
480,144,147144,1,0,0:0:0:0:
336,144,147316,2,0,L|224:144,1,88
464,48,147658,6,0,L|336:48,2,88,2|0|0,0:1|0:0|0:0,0:0:0:0:
48,48,148172,2,0,L|176:48,1,88,2|0,0:1|0:0,0:0:0:0:
32,144,148515,1,0,0:0:0:0:
176,144,148687,2,0,L|288:144,1,88
112,80,149030,6,0,L|16:80,3,88,2|0|0|2,0:1|0:0|0:1|0:1,3:0:0:0:
160,128,149715,2,0,L|64:128,3,88,0|0|2|0,3:0|3:0|3:1|3:0,3:0:0:0:
304,176,150401,6,0,L|400:176,3,88,2|0|0|2,3:1|3:0|3:0|3:1,3:0:0:0:
256,224,151086,2,0,L|352:224,3,88,0|0|2|0,3:0|3:0|3:1|3:0,3:0:0:0:
464,304,151772,6,0,L|480:240,3,44
304,272,152115,2,0,L|288:208,3,44
416,176,152458,2,0,L|432:112,3,44
224,176,152801,2,0,L|218:145,6,22
464,192,153144,5,4,0:0:0:0:
256,192,154344,6,0,L|256:144,2,44,0|0|2,3:0|3:0|0:1,0:0:0:0:
