osu file format v14

[General]
AudioFilename: audio.mp3
AudioLeadIn: 0
PreviewTime: 43430
Countdown: 0
SampleSet: Normal
StackLeniency: 0.7
Mode: 2
LetterboxInBreaks: 0
WidescreenStoryboard: 0

[Editor]
Bookmarks: 22858,154601
DistanceSpacing: 1.3
BeatDivisor: 4
GridSize: 8
TimelineZoom: 2.359999

[Metadata]
Title:Tokyo (Innovaderz Remix)
TitleUnicode:Tokyo (Innovaderz Remix)
Artist:DJ Ozawa
ArtistUnicode:DJ Ozawa
Creator:Ascendance
Version:ZiRoX's Platter
Source:
Tags:dnb lanturn mbomb -_magic_bomb_- magic bomb californian darknessofblue fii -wwwww kaitlin zirox sorcerer tomthewizard toybot Yumeno Himiko exam examination gero tenshichan [superstar] hi_hello CLSW crystal crystalseed tasuke912 boberofdarkness bodom koliron deif spectator qoot8123 julie prophecy nofool skylish onosakihito ozzyozrock nardo nardoxyribonucleic raiden nwolf backfire chromoxx saika -saika- lop fawx
BeatmapID:958310
BeatmapSetID:427801

[Difficulty]
HPDrainRate:5
CircleSize:3.7
OverallDifficulty:8.2
ApproachRate:8.2
SliderMultiplier:1.7
SliderTickRate:1

[Events]
//Background and Video events
0,0,"Cities_Color_of_the_night_city_058372_.jpg",0,0
//Break Periods
2,110830,119510
//Storyboard Layer 0 (Background)
//Storyboard Layer 1 (Fail)
//Storyboard Layer 2 (Pass)
//Storyboard Layer 3 (Foreground)
//Storyboard Sound Samples

[TimingPoints]
916,342.857142857143,4,2,11,50,1,0
916,-133.333333333333,4,2,11,50,0,0
22858,-100,4,1,13,50,0,0
33830,-100,4,1,11,50,0,0
39316,-100,4,1,11,50,0,0
43430,-100,4,1,11,50,0,0
44630,-100,4,1,11,50,0,0
44801,-100,4,1,11,70,0,1
44973,-100,4,1,11,70,0,1
55601,-100,4,1,11,70,0,1
55773,-100,4,1,11,70,0,1
60229,-100,4,1,11,70,0,1
60401,-100,4,1,11,70,0,1
60573,-100,4,1,11,70,0,1
60916,-100,4,1,11,70,0,1
61258,-100,4,1,11,70,0,1
66744,-100,4,1,14,60,0,0
67601,-100,4,1,14,50,0,0
67773,-100,4,1,14,40,0,0
68116,-100,4,1,14,60,0,0
68973,-100,4,1,14,50,0,0
69144,-100,4,1,14,40,0,0
69487,-100,4,1,14,60,0,0
70344,-100,4,1,14,50,0,0
70516,-100,4,1,14,40,0,0
70858,-100,4,1,14,60,0,0
71716,-100,4,1,14,50,0,0
71887,-100,4,1,14,40,0,0
72230,-100,4,1,14,60,0,0
72573,-100,4,1,14,60,0,0
73087,-100,4,1,14,50,0,0
73259,-100,4,1,14,40,0,0
73601,-100,4,1,14,60,0,0
74459,-100,4,1,14,50,0,0
74630,-100,4,1,14,40,0,0
74973,-100,4,1,14,60,0,0
75144,-100,4,1,14,60,0,0
75830,-100,4,1,14,50,0,0
76002,-100,4,1,14,40,0,0
76344,-100,4,1,14,60,0,0
77202,-100,4,1,14,50,0,0
77373,-100,4,1,14,40,0,0
77716,-100,4,1,13,60,0,0
78058,-100,4,1,13,60,0,0
88001,-100,4,1,11,60,0,0
88173,-100,4,1,11,30,0,0
88258,-100,4,1,11,60,0,0
88430,-100,4,1,11,30,0,0
88516,-100,4,1,11,60,0,0
88687,-100,4,1,14,60,0,0
88858,-100,4,1,14,60,0,0
89544,-100,4,1,14,50,0,0
89716,-100,4,1,14,40,0,0
90058,-100,4,1,14,60,0,0
90916,-100,4,1,14,50,0,0
91087,-100,4,1,14,40,0,0
91430,-100,4,1,14,60,0,0
92287,-100,4,1,14,50,0,0
92459,-100,4,1,14,40,0,0
92801,-100,4,1,14,60,0,0
93659,-100,4,1,14,50,0,0
93830,-100,4,1,14,40,0,0
94173,-100,4,1,14,60,0,0
94344,-100,4,1,14,60,0,0
95030,-100,4,1,14,50,0,0
95202,-100,4,1,14,40,0,0
95544,-100,4,1,14,60,0,0
96402,-100,4,1,14,50,0,0
96573,-100,4,1,14,40,0,0
96916,-100,4,1,14,60,0,0
97773,-100,4,1,14,50,0,0
97945,-100,4,1,14,40,0,0
98287,-100,4,1,14,60,0,0
99145,-100,4,1,14,50,0,0
99316,-100,4,1,14,40,0,0
99658,-100,4,1,13,60,0,1
99830,-100,4,1,13,60,0,1
108744,-100,4,1,13,30,0,1
108830,-100,4,1,13,60,0,1
109001,-100,4,1,13,30,0,1
109087,-100,4,1,13,60,0,1
109258,-100,4,1,13,60,0,1
109944,-100,4,1,13,50,0,1
110630,-100,4,2,12,40,0,0
110973,-100,4,2,12,50,0,0
111658,-100,4,2,12,40,0,0
111830,-100,4,2,12,30,0,0
112001,-100,4,2,12,40,0,0
112344,-100,4,2,12,50,0,0
113030,-100,4,2,12,40,0,0
113201,-100,4,2,12,30,0,0
113373,-100,4,2,12,40,0,0
113716,-100,4,2,12,50,0,0
114401,-100,4,2,12,40,0,0
114573,-100,4,2,12,30,0,0
114744,-100,4,2,12,40,0,0
115087,-100,4,2,12,50,0,0
115773,-100,4,2,12,40,0,0
115944,-100,4,2,12,30,0,0
116116,-100,4,2,12,40,0,0
116458,-100,4,2,12,50,0,0
117144,-100,4,2,12,40,0,0
117316,-100,4,2,12,30,0,0
117487,-100,4,2,12,40,0,0
117830,-100,4,2,12,50,0,0
118516,-100,4,2,12,40,0,0
118687,-100,4,2,12,30,0,0
118858,-100,4,2,12,40,0,0
119201,-100,4,2,12,50,0,0
119887,-100,4,2,12,40,0,0
120058,-100,4,2,12,30,0,0
120230,-100,4,2,12,40,0,0
120573,-100,4,2,12,50,0,0
121430,-100,4,2,12,50,0,0
121592,-133.333333333333,4,2,12,50,0,0
121601,-133.333333333333,4,2,11,50,0,0
121944,-133.333333333333,4,2,11,50,0,0
143544,-100,4,1,11,60,0,0
143716,-100,4,1,11,60,0,0
149030,-100,4,1,11,60,0,0
153230,-100,4,1,11,60,0,0
154344,-100,4,1,11,60,0,0
154516,-100,4,1,11,60,0,1
154601,-100,4,1,11,60,0,0

[HitObjects]
280,312,915,6,0,L|160:184,2,170,2|2|2,0:0|0:0|0:0,0:0:0:0:
384,320,1944,1,0,0:0:0:0:
280,312,2116,2,0,B|184:240|280:152|280:152|520:288,1,446.250017023087,0|0,0:0|0:0,0:0:0:0:
352,312,3658,6,0,L|168:208,2,191.250007295609,2|0|0,0:0|0:0|0:0,0:0:0:0:
472,312,5030,2,0,B|536:232|472:136,1,191.250007295609,2|0,0:0|0:0,0:0:0:0:
384,136,5716,1,0,0:0:0:0:
296,136,5887,2,0,L|240:136,2,31.8750012159348,0|2|0,0:0|0:0|0:0,0:0:0:0:
384,136,6230,1,0,0:0:0:0:
200,136,6401,6,0,L|48:264,2,191.250007295609,0|0|0,1:0|0:0|0:0,0:0:0:0:
320,136,7601,2,0,B|416:200|312:288|312:288|64:160,1,446.250017023087,0|0,0:0|0:0,0:0:0:0:
280,248,9144,6,0,L|88:144,2,191.250007295609,0|0|0,0:0|0:0|0:0,0:0:0:0:
152,264,10516,2,0,L|24:200,1,127.500004863739,2|0,0:0|0:0,0:0:0:0:
136,160,11030,2,0,L|193:188,2,63.7500024318696,0|0|0,0:0|0:0|0:0,0:0:0:0:
32,120,11544,1,2,0:0:0:0:
288,312,11887,6,0,L|440:296,2,127.500004863739,0|2|2,1:0|0:0|0:0,0:0:0:0:
160,320,12916,1,0,0:0:0:0:
280,312,13088,2,0,B|376:240|280:152|280:152|40:288,1,446.250017023087,0|0,0:0|0:0,0:0:0:0:
280,312,14630,6,0,L|480:280,2,191.250007295609,0|0|0,0:0|0:0|0:0,0:0:0:0:
96,312,16002,2,0,B|32:232|96:136,1,191.250007295609,2|0,0:0|0:0,0:0:0:0:
208,136,16688,1,0,0:0:0:0:
312,136,16859,2,0,L|368:136,2,31.8750012159348,0|2|0,0:0|0:0|0:0,0:0:0:0:
208,136,17202,1,0,0:0:0:0:
384,136,17373,6,0,L|208:224,2,191.250007295609,0|0|0,1:0|0:0|0:0,0:0:0:0:
240,136,18573,2,0,B|144:200|248:288|248:288|496:160,1,446.250017023087,0|0,0:0|0:0,0:0:0:0:
256,200,20116,6,0,L|448:96,2,191.250007295609,2|2|0,0:0|0:0|0:0,0:0:0:0:
440,208,21488,2,0,L|326:266,1,127.500004863739,2|0,0:0|0:0,0:0:0:0:
432,136,22002,2,0,L|489:108,2,63.7500024318696,2|0|0,0:0|0:0|0:0,0:0:0:0:
328,184,22516,1,2,0:0:0:0:
144,176,22858,6,0,L|104:288,1,85,0|2,0:0|0:0,0:0:0:0:
288,248,23373,1,0,0:0:0:0:
384,248,23544,2,0,L|424:360,1,85,2|0,0:0|0:0,0:0:0:0:
296,328,23887,2,0,L|256:216,1,85,0|2,0:0|0:0,0:0:0:0:
424,248,24230,6,0,L|453:327,1,85,0|2,0:0|0:0,0:0:0:0:
272,208,24744,1,0,0:0:0:0:
176,208,24915,2,0,L|136:320,1,85,0|0,0:0|0:0,0:0:0:0:
272,288,25258,2,0,L|312:176,1,85,0|2,0:0|0:0,0:0:0:0:
128,208,25601,6,0,L|99:287,1,85,0|2,0:0|0:0,0:0:0:0:
248,304,26116,2,2,L|288:216,1,85,0|0,0:0|0:0,0:0:0:0:
152,224,26459,1,0,0:0:0:0:
144,184,26544,1,0,0:0:0:0:
136,136,26630,1,0,0:0:0:0:
264,128,26801,1,2,0:0:0:0:
104,144,26973,6,0,L|34:192,1,85,0|2,0:0|0:0,0:0:0:0:
240,304,27487,2,2,L|200:216,1,85,0|0,0:0|0:0,0:0:0:0:
336,224,27830,1,0,0:0:0:0:
344,184,27915,1,0,0:0:0:0:
352,136,28001,1,0,0:0:0:0:
224,128,28172,1,2,0:0:0:0:
384,184,28344,6,0,L|455:251,1,85,0|0,0:0|0:0,0:0:0:0:
208,272,28858,2,2,L|168:184,1,85,0|0,0:0|0:0,0:0:0:0:
304,192,29201,1,0,0:0:0:0:
312,152,29286,1,0,0:0:0:0:
320,104,29372,1,0,0:0:0:0:
192,96,29543,1,2,0:0:0:0:
352,96,29715,6,0,L|448:152,1,85,0|2,0:0|0:0,0:0:0:0:
120,96,30230,2,2,L|106:180,1,85,0|0,0:0|0:0,0:0:0:0:
323,229,30744,2,2,L|336:144,1,85,0|2,0:0|0:0,0:0:0:0:
192,160,31087,6,0,L|176:256,1,85,0|2,0:0|0:0,0:0:0:0:
336,248,31601,2,2,L|376:160,1,85,0|0,0:0|0:0,0:0:0:0:
240,168,31944,1,0,0:0:0:0:
232,128,32029,1,0,0:0:0:0:
224,80,32115,1,0,0:0:0:0:
352,72,32286,1,2,0:0:0:0:
192,80,32458,6,0,L|160:160,1,85,0|2,0:0|0:0,0:0:0:0:
376,152,32973,2,2,L|391:235,1,85,0|0,0:0|0:0,0:0:0:0:
288,224,33316,1,0,0:0:0:0:
240,208,33402,1,0,0:0:0:0:
192,192,33488,1,2,0:0:0:0:
104,168,33659,1,0,0:0:0:0:
440,144,33830,6,0,L|464:225,1,85,0|0,0:0|1:0,0:0:0:0:
256,96,34344,1,0,1:0:0:0:
128,160,34516,2,0,L|160:56,1,85,0|0,0:0|0:0,0:0:0:0:
352,288,35030,1,0,0:0:0:0:
480,224,35202,6,0,L|448:328,1,85,0|0,0:0|0:0,0:0:0:0:
232,96,35716,1,0,0:0:0:0:
104,160,35888,2,0,L|136:56,1,85,0|0,0:0|0:0,0:0:0:0:
312,96,36401,1,0,0:0:0:0:
16,160,36573,6,0,L|48:56,1,85,0|0,0:0|0:0,0:0:0:0:
272,80,37087,1,0,0:0:0:0:
400,144,37259,2,0,L|368:40,1,85,0|0,0:0|0:0,0:0:0:0:
176,80,37773,1,0,0:0:0:0:
472,144,37945,6,0,L|440:40,1,85,0|0,0:0|0:0,0:0:0:0:
272,64,38458,2,0,L|224:160,1,85,0|0,0:0|0:0,0:0:0:0:
144,176,38801,2,0,L|144:232,2,42.5
56,272,39144,1,0,0:0:0:0:
400,256,39316,5,0,0:0:0:0:
248,240,39658,1,0,0:0:0:0:
392,144,40001,1,0,0:0:0:0:
208,128,40344,1,0,0:0:0:0:
464,136,40687,5,0,0:0:0:0:
32,32,41030,1,0,0:0:0:0:
320,192,41373,1,0,0:0:0:0:
104,232,41716,1,0,0:0:0:0:
352,280,42058,6,0,L|320:192,1,85,0|0,0:0|0:0,0:0:0:0:
464,200,42401,2,0,L|488:88,1,85,0|0,0:0|0:0,0:0:0:0:
304,112,42744,5,0,0:0:0:0:
284,149,42829,1,0,0:0:0:0:
275,191,42915,1,0,0:0:0:0:
278,233,43001,1,0,0:0:0:0:
292,273,43086,1,0,0:0:0:0:
316,308,43172,1,0,0:0:0:0:
348,335,43258,1,0,0:0:0:0:
387,353,43343,1,0,0:0:0:0:
429,359,43429,1,0,0:0:0:0:
80,184,44630,5,0,0:0:0:0:
352,192,44801,6,0,L|429:227,1,85,0|0,0:0|0:0,0:0:0:0:
280,240,45144,2,0,L|202:204,1,85,8|0,0:0|0:0,0:0:0:0:
312,176,45487,1,0,0:0:0:0:
360,200,45573,1,0,0:0:0:0:
408,224,45658,1,0,0:0:0:0:
504,264,45830,1,8,0:0:0:0:
392,304,46001,1,0,0:0:0:0:
152,192,46173,6,0,L|75:227,1,85,0|0,0:0|0:0,0:0:0:0:
224,240,46516,2,0,L|302:204,1,85,8|0,0:0|0:0,0:0:0:0:
200,176,46859,1,0,0:0:0:0:
152,200,46945,1,0,0:0:0:0:
104,224,47030,1,0,0:0:0:0:
8,264,47202,1,8,0:0:0:0:
120,304,47373,1,0,0:0:0:0:
416,312,47544,6,0,L|456:224,1,85,0|0,0:0|0:0,0:0:0:0:
304,256,47887,2,0,L|344:168,1,85,8|0,0:0|0:0,0:0:0:0:
192,216,48230,2,0,L|232:128,1,85,0|0,0:0|0:0,0:0:0:0:
80,144,48573,2,0,L|120:56,1,85,8|0,0:0|0:0,0:0:0:0:
288,24,48916,5,0,0:0:0:0:
324,45,49001,1,0,0:0:0:0:
358,71,49087,1,0,0:0:0:0:
377,108,49173,1,0,0:0:0:0:
359,145,49258,1,0,0:0:0:0:
325,170,49344,1,0,0:0:0:0:
289,192,49430,1,0,0:0:0:0:
253,215,49515,1,0,0:0:0:0:
219,241,49601,5,0,0:0:0:0:
202,278,49687,1,0,0:0:0:0:
219,316,49773,1,0,0:0:0:0:
251,344,49858,1,0,0:0:0:0:
287,367,49944,1,0,0:0:0:0:
328,360,50030,2,0,L|337:319,1,42.5,0|0,0:0|0:0,0:0:0:0:
96,336,50287,6,0,P|56:272|112:208,1,170,2|8,0:0|0:0,0:0:0:0:
408,208,50801,2,0,P|448:144|392:80,1,170,2|0,0:3|1:3,0:0:0:0:
264,48,51316,1,8,0:0:0:0:
216,64,51401,1,0,0:0:0:0:
168,80,51487,1,0,0:0:0:0:
416,48,51658,6,0,P|456:112|400:176,1,170,0|8,0:0|0:0,0:0:0:0:
104,176,52172,2,0,P|64:240|120:304,1,170,0|0,0:3|0:3,0:0:0:0:
248,336,52687,1,8,0:0:0:0:
296,320,52772,1,0,0:0:0:0:
344,304,52858,1,0,0:0:0:0:
72,320,53030,6,4,L|24:144,1,170,0|8,0:0|0:0,0:0:0:0:
168,160,53544,1,0,0:0:0:0:
312,160,53716,2,4,L|267:324,1,170,0|8,0:0|0:0,0:0:0:0:
144,320,54230,1,0,0:0:0:0:
408,320,54401,6,8,L|493:320,2,85,0|0|0,0:0|0:0|0:0,0:0:0:0:
104,320,54916,2,8,L|19:320,2,85,0|0|0,0:0|0:0|0:0,0:0:0:0:
240,320,55430,1,0,0:0:0:0:
360,256,55601,6,0,L|376:232,4,24,0|0|0|0|0,0:0|0:0|0:0|0:0|0:0,0:0:0:0:
232,256,55944,1,0,0:0:0:0:
104,256,56116,2,0,L|88:152,1,85,8|0,0:0|0:0,0:0:0:0:
248,256,56458,2,0,L|232:152,1,85,0|0,0:0|0:0,0:0:0:0:
392,256,56801,2,0,L|376:152,1,85,8|0,0:0|0:0,0:0:0:0:
104,224,57144,6,0,L|40:160,1,85,0|0,0:0|0:0,0:0:0:0:
216,160,57487,2,0,L|276:220,1,85,8|0,0:0|0:0,0:0:0:0:
449,224,57830,2,0,L|388:284,1,85,0|0,0:0|0:0,0:0:0:0:
248,280,58173,2,0,L|187:219,1,85,8|0,0:0|0:0,0:0:0:0:
440,256,58516,6,0,L|456:152,1,85,0|0,0:0|0:0,0:0:0:0:
280,248,58858,2,0,L|296:144,1,85,8|0,0:0|0:0,0:0:0:0:
120,248,59201,2,0,L|136:144,1,85,0|0,0:0|0:0,0:0:0:0:
305,256,59544,2,0,L|289:152,1,85,8|0,0:0|0:0,0:0:0:0:
120,360,59887,5,0,0:0:0:0:
84,339,59972,1,0,0:0:0:0:
50,313,60058,1,0,0:0:0:0:
31,276,60144,1,0,0:0:0:0:
49,239,60229,1,0,0:0:0:0:
83,214,60315,1,0,0:0:0:0:
119,192,60401,1,0,0:0:0:0:
155,169,60486,1,0,0:0:0:0:
189,143,60572,5,0,0:0:0:0:
206,106,60658,1,0,0:0:0:0:
189,68,60744,1,0,0:0:0:0:
157,40,60829,1,0,0:0:0:0:
121,17,60915,1,0,0:0:0:0:
80,24,61001,2,0,L|71:65,1,42.5,0|0,0:0|0:0,0:0:0:0:
416,336,61258,6,0,P|456:272|400:208,1,170,0|8,0:0|0:0,0:0:0:0:
104,208,61772,2,0,P|64:144|120:80,1,170,0|0,0:0|0:0,0:0:0:0:
248,48,62287,1,8,0:0:0:0:
296,64,62372,1,0,0:0:0:0:
344,80,62458,1,0,0:0:0:0:
96,48,62629,6,0,P|56:112|112:176,1,170,0|0,0:0|0:0,0:0:0:0:
408,176,63143,2,0,P|448:240|392:304,1,170,0|0,0:0|0:0,0:0:0:0:
264,336,63658,1,8,0:0:0:0:
216,320,63743,1,0,0:0:0:0:
168,304,63829,1,0,0:0:0:0:
440,320,64001,6,4,L|488:144,1,170,0|8,0:0|0:0,0:0:0:0:
344,160,64515,1,0,0:0:0:0:
192,160,64687,2,4,L|237:324,1,170,0|8,0:0|0:0,0:0:0:0:
368,320,65201,1,0,0:0:0:0:
208,320,65373,6,0,P|248:184|424:128,2,340,0|0|0,0:0|0:0|0:0,0:0:0:0:
304,320,66916,1,0,0:0:0:0:
400,320,67087,1,0,0:0:0:0:
496,320,67258,1,0,0:0:0:0:
400,240,67430,1,0,0:0:0:0:
496,240,67601,1,0,0:0:0:0:
400,160,67773,1,0,0:0:0:0:
496,160,67944,1,0,0:0:0:0:
336,160,68116,5,0,0:0:0:0:
240,160,68287,1,0,0:0:0:0:
144,160,68458,1,0,0:0:0:0:
48,160,68629,1,0,0:0:0:0:
144,240,68801,1,0,0:0:0:0:
48,240,68972,1,0,0:0:0:0:
144,320,69144,1,0,0:0:0:0:
48,320,69315,1,0,0:0:0:0:
200,320,69487,6,0,L|296:240,1,85
392,216,69830,2,0,L|320:152,1,85
216,152,70173,1,0,0:0:0:0:
120,152,70344,1,0,0:0:0:0:
216,224,70516,1,0,0:0:0:0:
120,224,70687,1,0,0:0:0:0:
408,320,70858,6,0,L|408:200,1,85,0|0,0:0|0:0,0:0:0:0:
288,232,71201,2,0,L|288:144,1,85,0|0,0:0|0:0,0:0:0:0:
384,152,71544,1,0,0:0:0:0:
480,152,71715,1,0,0:0:0:0:
384,224,71887,1,0,0:0:0:0:
480,224,72058,1,0,0:0:0:0:
160,256,72230,6,0,L|80:296,3,85
160,256,72916,1,0,0:0:0:0:
256,232,73087,1,0,0:0:0:0:
160,256,73258,1,0,0:0:0:0:
83,294,73430,1,0,0:0:0:0:
376,248,73601,6,0,L|456:288,3,85,0|0|0|0,0:0|0:0|0:0|0:0,0:0:0:0:
352,256,74287,1,0,0:0:0:0:
256,232,74458,1,0,0:0:0:0:
352,256,74629,1,0,0:0:0:0:
448,288,74801,1,0,0:0:0:0:
152,288,74973,6,0,L|80:232,1,85
232,224,75316,2,0,L|299:276,1,85
440,280,75658,2,0,L|372:332,1,85
216,328,76001,2,0,L|288:272,1,85
392,208,76344,5,0,0:0:0:0:
256,208,76516,1,0,0:0:0:0:
216,240,76602,1,0,0:0:0:0:
176,272,76687,1,0,0:0:0:0:
344,272,76858,1,0,0:0:0:0:
384,240,76943,1,0,0:0:0:0:
424,208,77029,1,0,0:0:0:0:
320,144,77201,1,0,0:0:0:0:
424,112,77373,1,0,0:0:0:0:
320,64,77544,1,0,0:0:0:0:
80,64,77716,6,0,L|-8:120,2,85,0|0|0,0:0|0:0|0:0,0:0:0:0:
176,32,78230,1,0,0:0:0:0:
32,80,78401,2,0,L|40:168,1,85,0|0,0:0|0:0,0:0:0:0:
160,168,78744,2,0,L|168:272,1,85,0|0,0:0|0:0,0:0:0:0:
208,272,79001,1,0,0:0:0:0:
248,280,79087,6,0,L|256:376,1,85,0|0,0:0|0:0,0:0:0:0:
120,368,79430,2,0,L|112:264,1,85,0|0,0:0|0:0,0:0:0:0:
248,280,79773,2,0,L|240:176,1,85,0|0,0:0|0:0,0:0:0:0:
384,200,80116,2,0,L|376:96,1,85,0|0,0:0|0:0,0:0:0:0:
336,96,80373,1,0,0:0:0:0:
296,88,80459,6,0,L|288:-8,1,85,0|0,0:0|0:0,0:0:0:0:
109,56,80801,2,0,L|184:16,1,85,0|0,0:0|0:0,0:0:0:0:
292,158,81144,2,0,L|216:120,1,85,0|0,0:0|0:0,0:0:0:0:
87,259,81487,2,0,L|160:216,1,85,0|0,0:0|0:0,0:0:0:0:
200,192,81744,1,0,0:0:0:0:
160,160,81830,6,0,L|85:119,1,85,0|0,0:0|0:0,0:0:0:0:
214,293,82173,2,0,L|288:336,1,85,0|0,0:0|0:0,0:0:0:0:
328,336,82430,1,0,0:0:0:0:
368,336,82516,2,0,L|296:290,1,85,0|0,0:0|0:0,0:0:0:0:
424,264,82858,2,0,L|498:304,1,85,0|0,0:0|0:0,0:0:0:0:
200,200,83201,6,0,L|104:152,2,85
296,200,83716,2,0,L|392:152,2,85,0|0|0,0:0|0:0|0:0,0:0:0:0:
184,200,84230,2,0,L|88:152,1,85,0|0,0:0|0:0,0:0:0:0:
376,200,84573,6,0,L|472:152,2,85,0|0|0,0:0|0:0|0:0,0:0:0:0:
136,200,85088,2,0,L|40:152,2,85,0|0|0,0:0|0:0|0:0,0:0:0:0:
376,200,85602,2,0,L|472:152,1,85,0|0,0:0|0:0,0:0:0:0:
136,200,85944,6,0,L|64:264,1,85,0|0,0:0|0:0,0:0:0:0:
208,256,86287,2,0,L|271:199,1,85,0|0,0:0|0:0,0:0:0:0:
176,176,86630,1,0,0:0:0:0:
136,152,86716,1,0,0:0:0:0:
96,128,86801,1,0,0:0:0:0:
200,80,86973,2,0,L|263:23,1,85,0|0,0:0|0:0,0:0:0:0:
352,16,87316,5,0,0:0:0:0:
424,48,87430,1,0,0:0:0:0:
480,112,87544,1,0,0:0:0:0:
464,192,87658,1,0,0:0:0:0:
424,264,87773,1,0,0:0:0:0:
352,304,87887,1,0,0:0:0:0:
272,336,88001,5,0,0:0:0:0:
120,336,88258,1,0,0:0:0:0:
352,336,88516,1,0,0:0:0:0:
112,320,88687,5,0,0:0:0:0:
16,320,88858,1,0,0:0:0:0:
112,320,89029,1,0,0:0:0:0:
208,320,89200,1,0,0:0:0:0:
112,240,89372,1,0,0:0:0:0:
16,240,89543,1,0,0:0:0:0:
112,160,89715,1,0,0:0:0:0:
16,160,89886,1,0,0:0:0:0:
176,160,90058,5,0,0:0:0:0:
272,160,90229,1,0,0:0:0:0:
368,160,90400,1,0,0:0:0:0:
464,160,90571,1,0,0:0:0:0:
368,240,90743,1,0,0:0:0:0:
464,240,90914,1,0,0:0:0:0:
368,320,91086,1,0,0:0:0:0:
464,320,91257,1,0,0:0:0:0:
312,320,91430,6,0,L|216:240,1,85
120,216,91773,2,0,L|192:152,1,85
296,152,92116,1,0,0:0:0:0:
392,152,92287,1,0,0:0:0:0:
296,224,92459,1,0,0:0:0:0:
392,224,92630,1,0,0:0:0:0:
104,320,92800,6,0,L|104:235,1,85,0|0,0:0|0:0,0:0:0:0:
224,232,93143,2,0,L|224:147,1,85,0|0,0:0|0:0,0:0:0:0:
128,152,93486,1,0,0:0:0:0:
32,152,93657,1,0,0:0:0:0:
128,224,93829,1,0,0:0:0:0:
32,224,94000,1,0,0:0:0:0:
352,256,94172,6,0,L|428:294,3,85
352,256,94858,1,0,0:0:0:0:
256,232,95029,1,0,0:0:0:0:
352,256,95200,1,0,0:0:0:0:
428,294,95372,1,0,0:0:0:0:
136,248,95543,6,0,L|59:286,3,85,0|0|0|0,0:0|0:0|0:0|0:0,0:0:0:0:
160,256,96229,1,0,0:0:0:0:
256,232,96400,1,0,0:0:0:0:
160,256,96571,1,0,0:0:0:0:
64,288,96743,1,0,0:0:0:0:
360,288,96916,6,0,L|432:232,1,85
280,224,97259,2,0,L|213:276,1,85
72,280,97600,2,0,L|140:332,1,85
296,328,97943,2,0,L|228:275,1,85,0|0,0:0|0:0,0:0:0:0:
120,208,98286,5,0,0:0:0:0:
256,208,98458,1,0,0:0:0:0:
296,240,98544,1,0,0:0:0:0:
336,272,98629,1,0,0:0:0:0:
168,272,98800,1,0,0:0:0:0:
128,240,98885,1,0,0:0:0:0:
88,208,98971,1,0,0:0:0:0:
192,144,99143,5,0,0:0:0:0:
88,112,99315,1,0,0:0:0:0:
192,64,99486,1,0,0:0:0:0:
432,80,99658,5,0,0:0:0:0:
472,96,99744,1,0,0:0:0:0:
512,112,99830,1,0,0:0:0:0:
416,176,100001,1,0,0:0:0:0:
328,200,100173,1,0,0:0:0:0:
288,216,100259,1,0,0:0:0:0:
248,232,100345,1,0,0:0:0:0:
336,288,100516,1,0,0:0:0:0:
432,320,100687,1,0,0:0:0:0:
472,336,100773,1,0,0:0:0:0:
512,352,100859,1,0,0:0:0:0:
184,352,101030,5,0,0:0:0:0:
136,344,101116,1,0,0:0:0:0:
96,312,101201,1,0,0:0:0:0:
72,272,101287,1,0,0:0:0:0:
64,232,101373,1,0,0:0:0:0:
184,232,101544,1,0,0:0:0:0:
224,216,101630,1,0,0:0:0:0:
248,192,101716,1,0,0:0:0:0:
256,152,101801,1,0,0:0:0:0:
248,112,101887,1,0,0:0:0:0:
120,112,102058,1,0,0:0:0:0:
80,144,102144,1,0,0:0:0:0:
40,176,102230,1,0,0:0:0:0:
160,216,102401,6,0,L|240:288,1,85,0|0,0:0|0:0,0:0:0:0:
376,280,102744,1,0,0:0:0:0:
336,248,102830,1,0,0:0:0:0:
296,216,102916,1,0,0:0:0:0:
448,224,103087,2,0,L|368:296,1,85,0|0,0:0|0:0,0:0:0:0:
232,280,103430,1,0,0:0:0:0:
272,248,103516,1,0,0:0:0:0:
312,216,103602,1,0,0:0:0:0:
448,216,103773,6,0,L|424:176,3,42.5,0|0|0|0,0:0|0:0|0:0|0:0,0:0:0:0:
392,176,104116,2,0,L|368:136,3,42.5,0|0|0|0,0:0|0:0|0:0|0:0,0:0:0:0:
336,128,104458,6,0,L|312:88,3,42.5,0|0|0|0,0:0|0:0|0:0|0:0,0:0:0:0:
280,88,104801,2,0,L|256:48,3,42.5,0|0|0|0,0:0|0:0|0:0|0:0,0:0:0:0:
224,48,105144,6,0,L|224:160,1,85,0|0,0:0|0:0,0:0:0:0:
80,136,105487,2,0,L|80:248,1,85,0|0,0:0|0:0,0:0:0:0:
224,304,105830,2,0,L|224:219,1,85,0|0,0:0|0:0,0:0:0:0:
368,144,106173,2,0,L|368:229,1,85,0|0,0:0|0:0,0:0:0:0:
80,221,106516,6,0,L|80:136,1,85,0|0,0:0|0:0,0:0:0:0:
224,136,106858,2,0,L|136:136,1,85,0|0,0:0|0:0,0:0:0:0:
288,136,107201,2,0,L|288:221,1,85,0|0,0:0|0:0,0:0:0:0:
144,224,107544,2,0,L|229:224,1,85,0|0,0:0|0:0,0:0:0:0:
144,176,107887,6,0,L|240:104,1,85,0|0,0:0|0:0,0:0:0:0:
376,128,108230,2,0,L|312:72,1,85,0|0,0:0|0:0,0:0:0:0:
152,72,108573,2,0,L|288:72,2,127.5,0|0|0,0:0|0:0|0:0,0:0:0:0:
256,192,109258,12,0,110630,0:0:0:0:
256,192,120230,12,0,121258,0:0:0:0:
256,312,121601,6,0,L|376:240,2,127.500004863739,0|2|2,1:0|0:0|0:0,0:0:0:0:
152,320,122630,1,0,0:0:0:0:
256,312,122802,2,0,B|352:240|256:152|256:152|16:288,1,446.250017023087,0|0,0:0|0:0,0:0:0:0:
184,312,124344,6,0,L|368:208,2,191.250007295609,2|0|0,0:0|0:0|0:0,0:0:0:0:
64,312,125716,2,0,B|0:232|64:136,1,191.250007295609,2|0,0:0|0:0,0:0:0:0:
152,136,126402,1,0,0:0:0:0:
240,136,126573,2,0,L|296:136,2,31.8750012159348,0|2|0,0:0|0:0|0:0,0:0:0:0:
152,136,126916,1,0,0:0:0:0:
336,136,127087,6,0,L|488:264,2,191.250007295609,0|0|0,1:0|0:0|0:0,0:0:0:0:
208,136,128287,2,0,B|112:200|216:288|216:288|464:160,1,446.250017023087,0|0,0:0|0:0,0:0:0:0:
248,248,129830,6,0,L|440:144,2,191.250007295609,0|0|0,0:0|0:0|0:0,0:0:0:0:
384,264,131202,6,0,L|512:200,1,127.500004863739,2|0,0:0|0:0,0:0:0:0:
400,160,131716,2,0,L|343:188,2,63.7500024318696,0|0|0,0:0|0:0|0:0,0:0:0:0:
504,120,132230,1,2,0:0:0:0:
248,312,132573,6,0,L|96:296,2,127.500004863739,0|2|2,1:0|0:0|0:0,0:0:0:0:
376,320,133602,1,0,0:0:0:0:
248,312,133774,2,0,B|152:240|248:152|248:152|488:288,1,446.250017023087,0|0,0:0|0:0,0:0:0:0:
248,312,135316,6,0,L|48:280,2,191.250007295609,0|0|0,0:0|0:0|0:0,0:0:0:0:
440,312,136688,2,0,B|504:232|440:136,1,191.250007295609,2|0,0:0|0:0,0:0:0:0:
328,136,137374,1,0,0:0:0:0:
224,136,137545,2,0,L|168:136,2,31.8750012159348,0|2|0,0:0|0:0|0:0,0:0:0:0:
328,136,137888,1,0,0:0:0:0:
160,136,138059,6,0,L|336:224,2,191.250007295609,0|0|0,1:0|0:0|0:0,0:0:0:0:
328,136,139259,2,0,B|424:200|320:288|320:288|72:160,1,446.250017023087,0|0,0:0|0:0,0:0:0:0:
296,200,140802,6,0,L|104:96,2,191.250007295609,2|2|0,0:0|0:0|0:0,0:0:0:0:
96,208,142174,6,0,L|210:266,1,127.500004863739,2|0,0:0|0:0,0:0:0:0:
104,136,142688,2,0,L|47:108,2,63.7500024318696,2|0|0,0:0|0:0|0:0,0:0:0:0:
184,192,143201,1,2,0:0:0:0:
336,192,143544,5,0,0:0:0:0:
176,192,144058,1,0,0:0:0:0:
336,192,144230,1,0,0:0:0:0:
176,192,144916,5,0,0:0:0:0:
336,192,145430,1,0,0:0:0:0:
176,192,145602,1,0,0:0:0:0:
384,192,146287,5,0,0:0:0:0:
384,192,146801,1,0,0:0:0:0:
120,192,146973,1,0,0:0:0:0:
120,192,147659,5,0,0:0:0:0:
120,192,148173,1,0,0:0:0:0:
392,192,148344,1,0,0:0:0:0:
120,192,148687,1,0,0:0:0:0:
360,64,149030,6,0,L|360:324,1,255,0|0,0:0|0:0,0:0:0:0:
240,320,149716,1,0,0:0:0:0:
424,320,150058,1,0,0:0:0:0:
152,320,150401,6,0,L|152:59,1,255,0|0,0:0|0:0,0:0:0:0:
272,64,151087,1,0,0:0:0:0:
88,64,151429,1,0,0:0:0:0:
400,72,151773,6,0,L|400:176,1,85,0|0,0:0|0:0,0:0:0:0:
256,245,152116,2,0,L|256:160,1,85,0|0,0:0|0:0,0:0:0:0:
112,232,152458,2,0,L|112:336,1,85,0|0,0:0|0:0,0:0:0:0:
256,245,152801,2,0,L|256:160,1,85,0|0,0:0|0:0,0:0:0:0:
256,192,153144,12,0,154173,0:0:0:0:
256,192,154516,5,0,0:0:0:0:
